  0
SECTION
  2
HEADER
  9
$ACADVER
  1
AC1015
  9
$ACADMAINTVER
 70
     6
  9
$DWGCODEPAGE
  3
ANSI_1252
  9
$INSBASE
 10
0.0
 20
0.0
 30
0.0
  9
$EXTMIN
 10
0.0
 20
0.0
 30
0.0
  9
$EXTMAX
 10
297.0
 20
210.0
 30
0.0
  9
$LIMMIN
 10
0.0
 20
0.0
  9
$LIMMAX
 10
297.0
 20
210.0
  9
$ORTHOMODE
 70
     0
  9
$REGENMODE
 70
     1
  9
$FILLMODE
 70
     1
  9
$QTEXTMODE
 70
     0
  9
$MIRRTEXT
 70
     1
  9
$LTSCALE
 40
1.0
  9
$ATTMODE
 70
     1
  9
$TEXTSIZE
 40
2.5
  9
$TRACEWID
 40
1.0
  9
$TEXTSTYLE
  7
Standard
  9
$CLAYER
  8
0
  9
$CELTYPE
  6
ByLayer
  9
$CECOLOR
 62
   256
  9
$CELTSCALE
 40
1.0
  9
$DISPSILH
 70
     0
  9
$DIMSCALE
 40
1.0
  9
$DIMASZ
 40
2.5
  9
$DIMEXO
 40
0.625
  9
$DIMDLI
 40
3.75
  9
$DIMRND
 40
0.0
  9
$DIMDLE
 40
0.0
  9
$DIMEXE
 40
1.25
  9
$DIMTP
 40
0.0
  9
$DIMTM
 40
0.0
  9
$DIMTXT
 40
2.5
  9
$DIMCEN
 40
2.5
  9
$DIMTSZ
 40
0.0
  9
$DIMTOL
 70
     0
  9
$DIMLIM
 70
     0
  9
$DIMTIH
 70
     0
  9
$DIMTOH
 70
     0
  9
$DIMSE1
 70
     0
  9
$DIMSE2
 70
     0
  9
$DIMTAD
 70
     1
  9
$DIMZIN
 70
     8
  9
$DIMBLK
  1

  9
$DIMASO
 70
     1
  9
$DIMSHO
 70
     1
  9
$DIMPOST
  1

  9
$DIMAPOST
  1

  9
$DIMALT
 70
     0
  9
$DIMALTD
 70
     3
  9
$DIMALTF
 40
0.0393700787
  9
$DIMLFAC
 40
1.0
  9
$DIMTOFL
 70
     1
  9
$DIMTVP
 40
0.0
  9
$DIMTIX
 70
     0
  9
$DIMSOXD
 70
     0
  9
$DIMSAH
 70
     0
  9
$DIMBLK1
  1

  9
$DIMBLK2
  1

  9
$DIMSTYLE
  2
ISO-25
  9
$DIMCLRD
 70
     0
  9
$DIMCLRE
 70
     0
  9
$DIMCLRT
 70
     0
  9
$DIMTFAC
 40
1.0
  9
$DIMGAP
 40
0.625
  9
$DIMJUST
 70
     0
  9
$DIMSD1
 70
     0
  9
$DIMSD2
 70
     0
  9
$DIMTOLJ
 70
     0
  9
$DIMTZIN
 70
     8
  9
$DIMALTZ
 70
     0
  9
$DIMALTTZ
 70
     0
  9
$DIMUPT
 70
     0
  9
$DIMDEC
 70
     2
  9
$DIMTDEC
 70
     2
  9
$DIMALTU
 70
     2
  9
$DIMALTTD
 70
     3
  9
$DIMTXSTY
  7
Standard
  9
$DIMAUNIT
 70
     0
  9
$DIMADEC
 70
     0
  9
$DIMALTRND
 40
0.0
  9
$DIMAZIN
 70
     0
  9
$DIMDSEP
 70
    44
  9
$DIMATFIT
 70
     3
  9
$DIMFRAC
 70
     0
  9
$DIMLDRBLK
  1

  9
$DIMLUNIT
 70
     2
  9
$DIMLWD
 70
    -2
  9
$DIMLWE
 70
    -2
  9
$DIMTMOVE
 70
     0
  9
$LUNITS
 70
     2
  9
$LUPREC
 70
     4
  9
$SKETCHINC
 40
1.0
  9
$FILLETRAD
 40
10.0
  9
$AUNITS
 70
     0
  9
$AUPREC
 70
     0
  9
$MENU
  1
.
  9
$ELEVATION
 40
0.0
  9
$PELEVATION
 40
0.0
  9
$THICKNESS
 40
0.0
  9
$LIMCHECK
 70
     0
  9
$CHAMFERA
 40
10.0
  9
$CHAMFERB
 40
10.0
  9
$CHAMFERC
 40
20.0
  9
$CHAMFERD
 40
0.0
  9
$SKPOLY
 70
     0
  9
$TDCREATE
 40
2457291.477357975
  9
$TDUCREATE
 40
2457291.394024641
  9
$TDUPDATE
 40
2457291.477425949
  9
$TDUUPDATE
 40
2457291.394092616
  9
$TDINDWG
 40
0.0000000116
  9
$TDUSRTIMER
 40
0.0000000116
  9
$USRTIMER
 70
     1
  9
$ANGBASE
 50
0.0
  9
$ANGDIR
 70
     0
  9
$PDMODE
 70
     0
  9
$PDSIZE
 40
0.0
  9
$PLINEWID
 40
0.0
  9
$SPLFRAME
 70
     0
  9
$SPLINETYPE
 70
     6
  9
$SPLINESEGS
 70
     8
  9
$HANDSEED
  5
28C
  9
$SURFTAB1
 70
     6
  9
$SURFTAB2
 70
     6
  9
$SURFTYPE
 70
     6
  9
$SURFU
 70
     6
  9
$SURFV
 70
     6
  9
$UCSBASE
  2

  9
$UCSNAME
  2

  9
$UCSORG
 10
0.0
 20
0.0
 30
0.0
  9
$UCSXDIR
 10
1.0
 20
0.0
 30
0.0
  9
$UCSYDIR
 10
0.0
 20
1.0
 30
0.0
  9
$UCSORTHOREF
  2

  9
$UCSORTHOVIEW
 70
     0
  9
$UCSORGTOP
 10
0.0
 20
0.0
 30
0.0
  9
$UCSORGBOTTOM
 10
0.0
 20
0.0
 30
0.0
  9
$UCSORGLEFT
 10
0.0
 20
0.0
 30
0.0
  9
$UCSORGRIGHT
 10
0.0
 20
0.0
 30
0.0
  9
$UCSORGFRONT
 10
0.0
 20
0.0
 30
0.0
  9
$UCSORGBACK
 10
0.0
 20
0.0
 30
0.0
  9
$PUCSBASE
  2

  9
$PUCSNAME
  2

  9
$PUCSORG
 10
0.0
 20
0.0
 30
0.0
  9
$PUCSXDIR
 10
1.0
 20
0.0
 30
0.0
  9
$PUCSYDIR
 10
0.0
 20
1.0
 30
0.0
  9
$PUCSORTHOREF
  2

  9
$PUCSORTHOVIEW
 70
     0
  9
$PUCSORGTOP
 10
0.0
 20
0.0
 30
0.0
  9
$PUCSORGBOTTOM
 10
0.0
 20
0.0
 30
0.0
  9
$PUCSORGLEFT
 10
0.0
 20
0.0
 30
0.0
  9
$PUCSORGRIGHT
 10
0.0
 20
0.0
 30
0.0
  9
$PUCSORGFRONT
 10
0.0
 20
0.0
 30
0.0
  9
$PUCSORGBACK
 10
0.0
 20
0.0
 30
0.0
  9
$USERI1
 70
     0
  9
$USERI2
 70
     0
  9
$USERI3
 70
     0
  9
$USERI4
 70
     0
  9
$USERI5
 70
     0
  9
$USERR1
 40
0.0
  9
$USERR2
 40
0.0
  9
$USERR3
 40
0.0
  9
$USERR4
 40
0.0
  9
$USERR5
 40
0.0
  9
$WORLDVIEW
 70
     1
  9
$SHADEDGE
 70
     3
  9
$SHADEDIF
 70
    70
  9
$TILEMODE
 70
     1
  9
$MAXACTVP
 70
    64
  9
$PINSBASE
 10
0.0
 20
0.0
 30
0.0
  9
$PLIMCHECK
 70
     0
  9
$PEXTMIN
 10
0.0
 20
0.0
 30
0.0
  9
$PEXTMAX
 10
297.0
 20
210.0
 30
0.0
  9
$PLIMMIN
 10
0.0
 20
0.0
  9
$PLIMMAX
 10
297.0
 20
210.0
  9
$UNITMODE
 70
     0
  9
$VISRETAIN
 70
     1
  9
$PLINEGEN
 70
     0
  9
$PSLTSCALE
 70
     1
  9
$TREEDEPTH
 70
  3020
  9
$CMLSTYLE
  2
Standard
  9
$CMLJUST
 70
     0
  9
$CMLSCALE
 40
20.0
  9
$PROXYGRAPHICS
 70
     1
  9
$MEASUREMENT
 70
     1
  9
$CELWEIGHT
370
    -1
  9
$ENDCAPS
280
     0
  9
$JOINSTYLE
280
     0
  9
$LWDISPLAY
290
     0
  9
$INSUNITS
 70
     4
  9
$HYPERLINKBASE
  1

  9
$STYLESHEET
  1

  9
$XEDIT
290
     1
  9
$CEPSNTYPE
380
     0
  9
$PSTYLEMODE
290
     1
  9
$FINGERPRINTGUID
  2
{1C636FF0-ECF1-4FCB-AADB-DB7C5B9F16AF}
  9
$VERSIONGUID
  2
{FAEB1C32-E019-11D5-929B-00C0DF256EC4}
  9
$EXTNAMES
290
     1
  9
$PSVPSCALE
 40
0.0
  9
$OLESTARTUP
290
     0
  0
ENDSEC
  0
SECTION
  2
CLASSES
  0
CLASS
  1
ACDBDICTIONARYWDFLT
  2
AcDbDictionaryWithDefault
  3
ObjectDBX Classes
 90
        0
280
     0
281
     0
  0
CLASS
  1
VISUALSTYLE
  2
AcDbVisualStyle
  3
ObjectDBX Classes
 90
     4095
280
     0
281
     0
  0
CLASS
  1
MATERIAL
  2
AcDbMaterial
  3
ObjectDBX Classes
 90
     1153
280
     0
281
     0
  0
CLASS
  1
DICTIONARYVAR
  2
AcDbDictionaryVar
  3
ObjectDBX Classes
 90
        0
280
     0
281
     0
  0
CLASS
  1
ACDBPLACEHOLDER
  2
AcDbPlaceHolder
  3
ObjectDBX Classes
 90
        0
280
     0
281
     0
  0
CLASS
  1
LAYOUT
  2
AcDbLayout
  3
ObjectDBX Classes
 90
        0
280
     0
281
     0
  0
ENDSEC
  0
SECTION
  2
TABLES
  0
TABLE
  2
VPORT
  5
8
330
0
100
AcDbSymbolTable
 70
     1
  0
VPORT
  5
29
330
8
100
AcDbSymbolTableRecord
100
AcDbViewportTableRecord
  2
*Active
 70
     0
 10
0.0
 20
0.0
 11
1.0
 21
1.0
 12
344.1869158879
 22
148.5
 13
0.0
 23
0.0
 14
10.0
 24
10.0
 15
10.0
 25
10.0
 16
0.0
 26
0.0
 36
1.0
 17
0.0
 27
0.0
 37
0.0
 40
297.0
 41
1.9729729729
 42
50.0
 43
0.0
 44
0.0
 50
0.0
 51
0.0
 71
     0
 72
   100
 73
     1
 74
     3
 75
     0
 76
     0
 77
     0
 78
     0
281
     0
 65
     1
110
0.0
120
0.0
130
0.0
111
1.0
121
0.0
131
0.0
112
0.0
122
1.0
132
0.0
 79
     0
146
0.0
  0
ENDTAB
  0
TABLE
  2
LTYPE
  5
5
330
0
100
AcDbSymbolTable
 70
     2
  0
LTYPE
  5
14
330
5
100
AcDbSymbolTableRecord
100
AcDbLinetypeTableRecord
  2
ByBlock
 70
     0
  3

 72
    65
 73
     0
 40
0.0
  0
LTYPE
  5
15
330
5
100
AcDbSymbolTableRecord
100
AcDbLinetypeTableRecord
  2
ByLayer
 70
     0
  3

 72
    65
 73
     0
 40
0.0
  0
LTYPE
  5
16
330
5
100
AcDbSymbolTableRecord
100
AcDbLinetypeTableRecord
  2
Continuous
 70
     0
  3
Solid line
 72
    65
 73
     0
 40
0.0
  0
LTYPE
  5
91
330
5
100
AcDbSymbolTableRecord
100
AcDbLinetypeTableRecord
  2
CENTER2
 70
     0
  3
Center (.5x) ___ _ ___ _ ___ _ ___ _ ___ _ ___
 72
    65
 73
     4
 40
28.575
 49
19.05
 74
     4
 75
     0
340
0
 46
0.0
 50
0.0
 44
0.0
 45
0.0
 49
-3.175
 74
     4
 75
     0
340
0
 46
0.0
 50
0.0
 44
0.0
 45
0.0
 49
3.175
 74
     4
 75
     0
340
0
 46
0.0
 50
0.0
 44
0.0
 45
0.0
 49
-3.175
 74
     4
 75
     0
340
0
 46
0.0
 50
0.0
 44
0.0
 45
0.0
  0
ENDTAB
  0
TABLE
  2
LAYER
  5
2
330
0
100
AcDbSymbolTable
 70
     6
  0
LAYER
  5
10
330
2
100
AcDbSymbolTableRecord
100
AcDbLayerTableRecord
  2
0
 70
     0
 62
     7
  6
Continuous
370
    -3
390
F
  0
LAYER
  5
3F
330
2
100
AcDbSymbolTableRecord
100
AcDbLayerTableRecord
  2
Default
 70
     0
 62
     7
  6
Continuous
370
    -3
390
F
  0
LAYER
  5
42
330
2
100
AcDbSymbolTableRecord
100
AcDbLayerTableRecord
  2
0012659
 70
     0
 62
     7
  6
Continuous
370
    -3
390
F
  0
LAYER
  5
48
330
2
100
AcDbSymbolTableRecord
100
AcDbLayerTableRecord
  2
0012666
 70
     0
 62
     7
  6
Continuous
370
    -3
390
F
  0
LAYER
  5
90
330
2
100
AcDbSymbolTableRecord
100
AcDbLayerTableRecord
  2
DV1_Default
 70
     0
 62
     7
  6
Continuous
370
    -3
390
F
  0
LAYER
  5
12A
330
2
100
AcDbSymbolTableRecord
100
AcDbLayerTableRecord
  2
DV2_Default
 70
     0
 62
     7
  6
Continuous
370
    -3
390
F
  0
ENDTAB
  0
TABLE
  2
STYLE
  5
3
330
0
100
AcDbSymbolTable
 70
     4
  0
STYLE
  5
11
330
3
100
AcDbSymbolTableRecord
100
AcDbTextStyleTableRecord
  2
Standard
 70
     0
 40
0.0
 41
1.0
 50
0.0
 71
     0
 42
2.5
  3
txt
  4

  0
STYLE
  5
140
330
3
100
AcDbSymbolTableRecord
100
AcDbTextStyleTableRecord
  2
SEACAD_Solid_Edge_ISO
 70
     0
 40
0.0
 41
1.0
 50
0.0
 71
     0
 42
0.2
  3
seiso.ttf
  4

1001
ACAD
1000
Solid Edge ISO
1071
        0
  0
STYLE
  5
175
330
3
100
AcDbSymbolTableRecord
100
AcDbTextStyleTableRecord
  2
SEACAD_Solid_Edge_ISO1_Symbols
 70
     0
 40
0.0
 41
1.0
 50
0.0
 71
     0
 42
0.2
  3
semeci1.ttf
  4

1001
ACAD
1000
Solid Edge ISO1 Symbols
1071
        0
  0
STYLE
  5
18B
330
3
100
AcDbSymbolTableRecord
100
AcDbTextStyleTableRecord
  2
SEACAD_Solid_Edge_ISOB
 70
     0
 40
0.0
 41
1.0
 50
0.0
 71
     0
 42
0.2
  3
seisobd.ttf
  4

1001
ACAD
1000
Solid Edge ISO
1071
 33554432
  0
ENDTAB
  0
TABLE
  2
VIEW
  5
6
330
0
100
AcDbSymbolTable
 70
     0
  0
ENDTAB
  0
TABLE
  2
UCS
  5
7
330
0
100
AcDbSymbolTable
 70
     0
  0
ENDTAB
  0
TABLE
  2
APPID
  5
9
330
0
100
AcDbSymbolTable
 70
     1
  0
APPID
  5
12
330
9
100
AcDbSymbolTableRecord
100
AcDbRegAppTableRecord
  2
ACAD
 70
     0
  0
ENDTAB
  0
TABLE
  2
DIMSTYLE
  5
A
330
0
100
AcDbSymbolTable
 70
     3
100
AcDbDimStyleTable
  0
DIMSTYLE
105
27
330
A
100
AcDbSymbolTableRecord
100
AcDbDimStyleTableRecord
  2
ISO-25
 70
     0
 41
2.5
 42
0.625
 43
3.75
 44
1.25
 73
     0
 74
     0
 77
     1
 78
     8
140
2.5
141
2.5
143
0.0393700787
147
0.625
171
     3
172
     1
178
     0
271
     2
272
     2
274
     3
278
    44
283
     0
284
     8
340
11
  0
DIMSTYLE
105
12E
330
A
100
AcDbSymbolTableRecord
100
AcDbDimStyleTableRecord
  2
Standard
 70
     0
178
     0
340
11
  0
DIMSTYLE
105
141
102
{ACAD_REACTORS
330
142
330
14C
330
156
330
174
330
180
102
}
330
A
100
AcDbSymbolTableRecord
100
AcDbDimStyleTableRecord
  2
DIN
 70
     0
 41
3.5
 42
0.0
 44
1.75
 73
     0
 74
     0
 77
     1
 78
     8
140
3.5
141
1.75
147
1.75
172
     1
173
     1
178
     0
179
     3
271
     3
272
     3
278
    44
284
     8
340
140
343
13B
344
13B
  0
ENDTAB
  0
TABLE
  2
BLOCK_RECORD
  5
1
330
0
100
AcDbSymbolTable
 70
    18
  0
BLOCK_RECORD
  5
1F
330
1
100
AcDbSymbolTableRecord
100
AcDbBlockTableRecord
  2
*Model_Space
340
22
  0
BLOCK_RECORD
  5
1B
330
1
100
AcDbSymbolTableRecord
100
AcDbBlockTableRecord
  2
*Paper_Space
340
1E
  0
BLOCK_RECORD
  5
40
330
1
100
AcDbSymbolTableRecord
100
AcDbBlockTableRecord
  2
SE
340
0
102
{BLKREFS
331
41
102
}
  0
BLOCK_RECORD
  5
9A
330
1
100
AcDbSymbolTableRecord
100
AcDbBlockTableRecord
  2
SE1
340
0
102
{BLKREFS
331
9B
102
}
  0
BLOCK_RECORD
  5
12F
330
1
100
AcDbSymbolTableRecord
100
AcDbBlockTableRecord
  2
_OBLIQUE
340
0
  0
BLOCK_RECORD
  5
133
330
1
100
AcDbSymbolTableRecord
100
AcDbBlockTableRecord
  2
_DOT
340
0
  0
BLOCK_RECORD
  5
13B
330
1
100
AcDbSymbolTableRecord
100
AcDbBlockTableRecord
  2
_SE_FILLED
340
0
  0
BLOCK_RECORD
  5
143
330
1
100
AcDbSymbolTableRecord
100
AcDbBlockTableRecord
  2
DMBLK27
340
0
  0
BLOCK_RECORD
  5
14D
330
1
100
AcDbSymbolTableRecord
100
AcDbBlockTableRecord
  2
DMBLK28
340
0
  0
BLOCK_RECORD
  5
157
330
1
100
AcDbSymbolTableRecord
100
AcDbBlockTableRecord
  2
DMBLK29
340
0
  0
BLOCK_RECORD
  5
160
330
1
100
AcDbSymbolTableRecord
100
AcDbBlockTableRecord
  2
GDimGGroup
340
0
102
{BLKREFS
331
161
102
}
  0
BLOCK_RECORD
  5
16A
330
1
100
AcDbSymbolTableRecord
100
AcDbBlockTableRecord
  2
GDimGGroup1
340
0
102
{BLKREFS
331
16B
102
}
  0
BLOCK_RECORD
  5
176
330
1
100
AcDbSymbolTableRecord
100
AcDbBlockTableRecord
  2
DMBLK30
340
0
  0
BLOCK_RECORD
  5
181
330
1
100
AcDbSymbolTableRecord
100
AcDbBlockTableRecord
  2
DMBLK31
340
0
  0
BLOCK_RECORD
  5
18A
330
1
100
AcDbSymbolTableRecord
100
AcDbBlockTableRecord
  2
SEANNOT_GROUP
340
0
102
{BLKREFS
331
1A0
102
}
  0
BLOCK_RECORD
  5
190
330
1
100
AcDbSymbolTableRecord
100
AcDbBlockTableRecord
  2
SEANNOT_GROUP1
340
0
102
{BLKREFS
331
1A1
102
}
  0
BLOCK_RECORD
  5
194
330
1
100
AcDbSymbolTableRecord
100
AcDbBlockTableRecord
  2
SEANNOT_GROUP2
340
0
102
{BLKREFS
331
24B
102
}
  0
BLOCK_RECORD
  5
199
330
1
100
AcDbSymbolTableRecord
100
AcDbBlockTableRecord
  2
SEANNOT_GROUP3
340
0
102
{BLKREFS
331
24C
102
}
  0
BLOCK_RECORD
  5
19D
330
1
100
AcDbSymbolTableRecord
100
AcDbBlockTableRecord
  2
RF-Massblatt_ZR
340
0
102
{BLKREFS
331
250
102
}
  0
ENDTAB
  0
ENDSEC
  0
SECTION
  2
BLOCKS
  0
BLOCK
  5
20
330
1F
100
AcDbEntity
  8
0
100
AcDbBlockBegin
  2
*Model_Space
 70
     0
 10
0.0
 20
0.0
 30
0.0
  3
*Model_Space
  1

  0
ENDBLK
  5
21
330
1F
100
AcDbEntity
  8
0
100
AcDbBlockEnd
  0
BLOCK
  5
1C
330
1B
100
AcDbEntity
 67
     1
  8
0
100
AcDbBlockBegin
  2
*Paper_Space
 70
     0
 10
0.0
 20
0.0
 30
0.0
  3
*Paper_Space
  1

  0
ENDBLK
  5
1D
330
1B
100
AcDbEntity
 67
     1
  8
0
100
AcDbBlockEnd
  0
BLOCK
  5
98
330
40
100
AcDbEntity
  8
0
100
AcDbBlockBegin
  2
SE
 70
     0
 10
0.0
 20
0.0
 30
0.0
  3
SE
  1

  0
CIRCLE
  5
43
330
40
100
AcDbEntity
  8
0012659
  6
Continuous
 62
     7
100
AcDbCircle
 10
91.9753273149
 20
106.6524828421
 30
0.0
 40
15.25
  0
CIRCLE
  5
44
330
40
100
AcDbEntity
  8
0012659
  6
Continuous
 62
     7
100
AcDbCircle
 10
91.9753273149
 20
106.6524828421
 30
0.0
 40
19.91726901872996
  0
CIRCLE
  5
45
330
40
100
AcDbEntity
  8
0012659
  6
Continuous
 62
     7
100
AcDbCircle
 10
91.9753273149
 20
106.6524828421
 30
0.0
 40
20.32218513910248
  0
CIRCLE
  5
46
330
40
100
AcDbEntity
  8
0012659
  6
Continuous
 62
     7
100
AcDbCircle
 10
91.9753273149
 20
106.6524828421
 30
0.0
 40
11.0
  0
CIRCLE
  5
47
330
40
100
AcDbEntity
  8
0012659
  6
Continuous
 62
     7
100
AcDbCircle
 10
91.9753273149
 20
106.6524828421
 30
0.0
 40
22.0
  0
ARC
  5
49
330
40
100
AcDbEntity
  8
0012666
  6
Continuous
 62
     7
100
AcDbCircle
 10
91.9753273149
 20
106.6524828421
 30
0.0
 40
31.35
100
AcDbArc
 50
126.2860387457
 51
173.7139612543
  0
ARC
  5
4A
330
40
100
AcDbEntity
  8
0012666
  6
Continuous
 62
     7
100
AcDbCircle
 10
91.9753273149
 20
106.6524828421
 30
0.0
 40
30.85
100
AcDbArc
 50
185.3813563087
 51
234.6186436913
  0
LINE
  5
4B
330
40
100
AcDbEntity
  8
0012666
  6
Continuous
 62
     7
100
AcDbLine
 10
61.2612976361
 20
109.5457303065
 30
0.0
 11
61.1753273149
 21
109.5687659847
 31
0.0
  0
LINE
  5
4C
330
40
100
AcDbEntity
  8
0012666
  6
Continuous
 62
     7
100
AcDbLine
 10
61.1753273149
 20
103.7361996995
 30
0.0
 11
61.2612976361
 21
103.7592353776
 31
0.0
  0
LINE
  5
4D
330
40
100
AcDbEntity
  8
0012666
  6
Continuous
 62
     7
100
AcDbLine
 10
61.2612976361
 20
103.7592353776
 30
0.0
 11
63.0889569844
 21
104.248955224
 31
0.0
  0
LINE
  5
4E
330
40
100
AcDbEntity
  8
0012666
  6
Continuous
 62
     7
100
AcDbLine
 10
60.8138140206
 20
103.2199052088
 30
0.0
 11
61.1753273149
 21
103.7361996995
 31
0.0
  0
LINE
  5
4F
330
40
100
AcDbEntity
  8
0012666
  6
Continuous
 62
     7
100
AcDbLine
 10
61.1753273149
 20
109.5687659847
 30
0.0
 11
60.8138140206
 21
110.0850604753
 31
0.0
  0
LINE
  5
50
330
40
100
AcDbEntity
  8
0012666
  6
Continuous
 62
     7
100
AcDbLine
 10
63.4753273149
 20
104.7524828421
 30
0.0
 11
63.4753273149
 21
108.5524828421
 31
0.0
  0
LINE
  5
51
330
40
100
AcDbEntity
  8
0012666
  6
Continuous
 62
     7
100
AcDbLine
 10
63.0889569844
 20
109.0560104601
 30
0.0
 11
61.2612976361
 21
109.5457303065
 31
0.0
  0
LINE
  5
52
330
40
100
AcDbEntity
  8
0012666
  6
Continuous
 62
     7
100
AcDbLine
 10
63.4753273149
 20
104.7524828421
 30
0.0
 11
63.0889569844
 21
104.248955224
 31
0.0
  0
LINE
  5
53
330
40
100
AcDbEntity
  8
0012666
  6
Continuous
 62
     7
100
AcDbLine
 10
63.0889569844
 20
109.0560104601
 30
0.0
 11
63.4753273149
 21
108.5524828421
 31
0.0
  0
CIRCLE
  5
54
330
40
100
AcDbEntity
  8
0012666
  6
Continuous
 62
     7
100
AcDbCircle
 10
91.9753273149
 20
106.6524828421
 30
0.0
 40
25.0
  0
CIRCLE
  5
55
330
40
100
AcDbEntity
  8
0012666
  6
Continuous
 62
     7
100
AcDbCircle
 10
91.9753273149
 20
106.6524828421
 30
0.0
 40
24.0
  0
CIRCLE
  5
56
330
40
100
AcDbEntity
  8
0012666
  6
Continuous
 62
     7
100
AcDbCircle
 10
91.9753273149
 20
106.6524828421
 30
0.0
 40
22.6
  0
CIRCLE
  5
57
330
40
100
AcDbEntity
  8
0012666
  6
Continuous
 62
     7
100
AcDbCircle
 10
91.9753273149
 20
106.6524828421
 30
0.0
 40
22.5
  0
ARC
  5
58
330
40
100
AcDbEntity
  8
0012666
  6
Continuous
 62
     7
100
AcDbCircle
 10
91.9753273149
 20
106.6524828421
 30
0.0
 40
31.35
100
AcDbArc
 50
66.2860387457
 51
113.7139612543
  0
ARC
  5
59
330
40
100
AcDbEntity
  8
0012666
  6
Continuous
 62
     7
100
AcDbCircle
 10
91.9753273149
 20
106.6524828421
 30
0.0
 40
30.85
100
AcDbArc
 50
125.3813563087
 51
174.6186436913
  0
LINE
  5
5A
330
40
100
AcDbEntity
  8
0012666
  6
Continuous
 62
     7
100
AcDbLine
 10
79.1239382791
 20
134.6982365287
 30
0.0
 11
79.100902601
 21
134.7842068499
 31
0.0
  0
LINE
  5
5B
330
40
100
AcDbEntity
  8
0012666
  6
Continuous
 62
     7
100
AcDbLine
 10
74.0497520288
 20
131.8679237073
 30
0.0
 11
74.1126866718
 21
131.8049890643
 31
0.0
  0
LINE
  5
5C
330
40
100
AcDbEntity
  8
0012666
  6
Continuous
 62
     7
100
AcDbLine
 10
74.1126866718
 20
131.8049890643
 30
0.0
 11
75.4506261737
 21
130.4670495624
 31
0.0
  0
LINE
  5
5D
330
40
100
AcDbEntity
  8
0012666
  6
Continuous
 62
     7
100
AcDbLine
 10
73.4218712369
 20
131.9228561587
 30
0.0
 11
74.0497520288
 21
131.8679237073
 31
0.0
  0
LINE
  5
5E
330
40
100
AcDbEntity
  8
0012666
  6
Continuous
 62
     7
100
AcDbLine
 10
79.100902601
 20
134.7842068499
 30
0.0
 11
79.3672700986
 21
135.355433792
 31
0.0
  0
LINE
  5
5F
330
40
100
AcDbEntity
  8
0012666
  6
Continuous
 62
     7
100
AcDbLine
 10
76.0798790477
 20
130.3842068499
 30
0.0
 11
79.3707755821
 21
132.2842068499
 31
0.0
  0
LINE
  5
60
330
40
100
AcDbEntity
  8
0012666
  6
Continuous
 62
     7
100
AcDbLine
 10
79.6136581256
 20
132.8705771804
 30
0.0
 11
79.1239382791
 21
134.6982365287
 31
0.0
  0
LINE
  5
61
330
40
100
AcDbEntity
  8
0012666
  6
Continuous
 62
     7
100
AcDbLine
 10
76.0798790477
 20
130.3842068499
 30
0.0
 11
75.4506261737
 21
130.4670495624
 31
0.0
  0
LINE
  5
62
330
40
100
AcDbEntity
  8
0012666
  6
Continuous
 62
     7
100
AcDbLine
 10
79.6136581256
 20
132.8705771804
 30
0.0
 11
79.3707755821
 21
132.2842068499
 31
0.0
  0
ARC
  5
63
330
40
100
AcDbEntity
  8
0012666
  6
Continuous
 62
     7
100
AcDbCircle
 10
91.9753273149
 20
106.6524828421
 30
0.0
 40
30.85
100
AcDbArc
 50
65.3813563087
 51
114.6186436913
  0
ARC
  5
64
330
40
100
AcDbEntity
  8
0012666
  6
Continuous
 62
     7
100
AcDbCircle
 10
91.9753273149
 20
106.6524828421
 30
0.0
 40
31.35
100
AcDbArc
 50
6.2860387457
 51
53.7139612543
  0
LINE
  5
65
330
40
100
AcDbEntity
  8
0012666
  6
Continuous
 62
     7
100
AcDbLine
 10
109.8379679579
 20
131.8049890643
 30
0.0
 11
109.900902601
 21
131.8679237073
 31
0.0
  0
LINE
  5
66
330
40
100
AcDbEntity
  8
0012666
  6
Continuous
 62
     7
100
AcDbLine
 10
104.8497520288
 20
134.7842068499
 30
0.0
 11
104.8267163506
 21
134.6982365287
 31
0.0
  0
LINE
  5
67
330
40
100
AcDbEntity
  8
0012666
  6
Continuous
 62
     7
100
AcDbLine
 10
104.8267163506
 20
134.6982365287
 30
0.0
 11
104.3369965042
 21
132.8705771804
 31
0.0
  0
LINE
  5
68
330
40
100
AcDbEntity
  8
0012666
  6
Continuous
 62
     7
100
AcDbLine
 10
104.5833845312
 20
135.355433792
 30
0.0
 11
104.8497520288
 21
134.7842068499
 31
0.0
  0
LINE
  5
69
330
40
100
AcDbEntity
  8
0012666
  6
Continuous
 62
     7
100
AcDbLine
 10
109.900902601
 20
131.8679237073
 30
0.0
 11
110.5287833929
 21
131.9228561587
 31
0.0
  0
LINE
  5
6A
330
40
100
AcDbEntity
  8
0012666
  6
Continuous
 62
     7
100
AcDbLine
 10
104.5798790477
 20
132.2842068499
 30
0.0
 11
107.8707755821
 21
130.3842068499
 31
0.0
  0
LINE
  5
6B
330
40
100
AcDbEntity
  8
0012666
  6
Continuous
 62
     7
100
AcDbLine
 10
108.5000284561
 20
130.4670495624
 30
0.0
 11
109.8379679579
 21
131.8049890643
 31
0.0
  0
LINE
  5
6C
330
40
100
AcDbEntity
  8
0012666
  6
Continuous
 62
     7
100
AcDbLine
 10
104.5798790477
 20
132.2842068499
 30
0.0
 11
104.3369965042
 21
132.8705771804
 31
0.0
  0
LINE
  5
6D
330
40
100
AcDbEntity
  8
0012666
  6
Continuous
 62
     7
100
AcDbLine
 10
108.5000284561
 20
130.4670495624
 30
0.0
 11
107.8707755821
 21
130.3842068499
 31
0.0
  0
ARC
  5
6E
330
40
100
AcDbEntity
  8
0012666
  6
Continuous
 62
     7
100
AcDbCircle
 10
91.9753273149
 20
106.6524828421
 30
0.0
 40
30.85000000000001
100
AcDbArc
 50
5.3813563087
 51
54.6186436913
  0
ARC
  5
6F
330
40
100
AcDbEntity
  8
0012666
  6
Continuous
 62
     7
100
AcDbCircle
 10
91.9753273149
 20
106.6524828421
 30
0.0
 40
31.35
100
AcDbArc
 50
306.2860387457
 51
353.7139612543
  0
LINE
  5
70
330
40
100
AcDbEntity
  8
0012666
  6
Continuous
 62
     7
100
AcDbLine
 10
122.6893569937
 20
103.7592353776
 30
0.0
 11
122.7753273149
 21
103.7361996995
 31
0.0
  0
LINE
  5
71
330
40
100
AcDbEntity
  8
0012666
  6
Continuous
 62
     7
100
AcDbLine
 10
122.7753273149
 20
109.5687659847
 30
0.0
 11
122.6893569937
 21
109.5457303065
 31
0.0
  0
LINE
  5
72
330
40
100
AcDbEntity
  8
0012666
  6
Continuous
 62
     7
100
AcDbLine
 10
122.6893569937
 20
109.5457303065
 30
0.0
 11
120.8616976454
 21
109.0560104601
 31
0.0
  0
LINE
  5
73
330
40
100
AcDbEntity
  8
0012666
  6
Continuous
 62
     7
100
AcDbLine
 10
123.1368406092
 20
110.0850604753
 30
0.0
 11
122.7753273149
 21
109.5687659847
 31
0.0
  0
LINE
  5
74
330
40
100
AcDbEntity
  8
0012666
  6
Continuous
 62
     7
100
AcDbLine
 10
122.7753273149
 20
103.7361996995
 30
0.0
 11
123.1368406092
 21
103.2199052088
 31
0.0
  0
LINE
  5
75
330
40
100
AcDbEntity
  8
0012666
  6
Continuous
 62
     7
100
AcDbLine
 10
120.4753273149
 20
108.5524828421
 30
0.0
 11
120.4753273149
 21
104.7524828421
 31
0.0
  0
LINE
  5
76
330
40
100
AcDbEntity
  8
0012666
  6
Continuous
 62
     7
100
AcDbLine
 10
120.8616976454
 20
104.248955224
 30
0.0
 11
122.6893569937
 21
103.7592353776
 31
0.0
  0
LINE
  5
77
330
40
100
AcDbEntity
  8
0012666
  6
Continuous
 62
     7
100
AcDbLine
 10
120.4753273149
 20
108.5524828421
 30
0.0
 11
120.8616976454
 21
109.0560104601
 31
0.0
  0
LINE
  5
78
330
40
100
AcDbEntity
  8
0012666
  6
Continuous
 62
     7
100
AcDbLine
 10
120.8616976454
 20
104.248955224
 30
0.0
 11
120.4753273149
 21
104.7524828421
 31
0.0
  0
ARC
  5
79
330
40
100
AcDbEntity
  8
0012666
  6
Continuous
 62
     7
100
AcDbCircle
 10
91.9753273149
 20
106.6524828421
 30
0.0
 40
30.85000000000001
100
AcDbArc
 50
305.3813563087
 51
354.6186436913
  0
ARC
  5
7A
330
40
100
AcDbEntity
  8
0012666
  6
Continuous
 62
     7
100
AcDbCircle
 10
91.9753273149
 20
106.6524828421
 30
0.0
 40
31.35
100
AcDbArc
 50
246.2860387457
 51
293.7139612543
  0
LINE
  5
7B
330
40
100
AcDbEntity
  8
0012666
  6
Continuous
 62
     7
100
AcDbLine
 10
104.8267163506
 20
78.6067291554
 30
0.0
 11
104.8497520288
 21
78.5207588342
 31
0.0
  0
LINE
  5
7C
330
40
100
AcDbEntity
  8
0012666
  6
Continuous
 62
     7
100
AcDbLine
 10
109.900902601
 20
81.4370419768
 30
0.0
 11
109.8379679579
 21
81.4999766199
 31
0.0
  0
LINE
  5
7D
330
40
100
AcDbEntity
  8
0012666
  6
Continuous
 62
     7
100
AcDbLine
 10
109.8379679579
 20
81.4999766199
 30
0.0
 11
108.5000284561
 21
82.8379161217
 31
0.0
  0
LINE
  5
7E
330
40
100
AcDbEntity
  8
0012666
  6
Continuous
 62
     7
100
AcDbLine
 10
110.5287833929
 20
81.3821095255
 30
0.0
 11
109.900902601
 21
81.4370419768
 31
0.0
  0
LINE
  5
7F
330
40
100
AcDbEntity
  8
0012666
  6
Continuous
 62
     7
100
AcDbLine
 10
104.8497520288
 20
78.5207588342
 30
0.0
 11
104.5833845312
 21
77.9495318922
 31
0.0
  0
LINE
  5
80
330
40
100
AcDbEntity
  8
0012666
  6
Continuous
 62
     7
100
AcDbLine
 10
107.8707755821
 20
82.9207588342
 30
0.0
 11
104.5798790477
 21
81.0207588342
 31
0.0
  0
LINE
  5
81
330
40
100
AcDbEntity
  8
0012666
  6
Continuous
 62
     7
100
AcDbLine
 10
104.3369965042
 20
80.4343885037
 30
0.0
 11
104.8267163506
 21
78.6067291554
 31
0.0
  0
LINE
  5
82
330
40
100
AcDbEntity
  8
0012666
  6
Continuous
 62
     7
100
AcDbLine
 10
107.8707755821
 20
82.9207588342
 30
0.0
 11
108.5000284561
 21
82.8379161217
 31
0.0
  0
LINE
  5
83
330
40
100
AcDbEntity
  8
0012666
  6
Continuous
 62
     7
100
AcDbLine
 10
104.3369965042
 20
80.4343885037
 30
0.0
 11
104.5798790477
 21
81.0207588342
 31
0.0
  0
ARC
  5
84
330
40
100
AcDbEntity
  8
0012666
  6
Continuous
 62
     7
100
AcDbCircle
 10
91.9753273149
 20
106.6524828421
 30
0.0
 40
30.85000000000001
100
AcDbArc
 50
245.3813563087
 51
294.6186436913
  0
ARC
  5
85
330
40
100
AcDbEntity
  8
0012666
  6
Continuous
 62
     7
100
AcDbCircle
 10
91.9753273149
 20
106.6524828421
 30
0.0
 40
31.35
100
AcDbArc
 50
186.2860387457
 51
233.7139612543
  0
LINE
  5
86
330
40
100
AcDbEntity
  8
0012666
  6
Continuous
 62
     7
100
AcDbLine
 10
74.1126866718
 20
81.4999766199
 30
0.0
 11
74.0497520288
 21
81.4370419768
 31
0.0
  0
LINE
  5
87
330
40
100
AcDbEntity
  8
0012666
  6
Continuous
 62
     7
100
AcDbLine
 10
79.100902601
 20
78.5207588342
 30
0.0
 11
79.1239382791
 21
78.6067291554
 31
0.0
  0
LINE
  5
88
330
40
100
AcDbEntity
  8
0012666
  6
Continuous
 62
     7
100
AcDbLine
 10
79.1239382791
 20
78.6067291554
 30
0.0
 11
79.6136581256
 21
80.4343885037
 31
0.0
  0
LINE
  5
89
330
40
100
AcDbEntity
  8
0012666
  6
Continuous
 62
     7
100
AcDbLine
 10
79.3672700986
 20
77.9495318922
 30
0.0
 11
79.100902601
 21
78.5207588342
 31
0.0
  0
LINE
  5
8A
330
40
100
AcDbEntity
  8
0012666
  6
Continuous
 62
     7
100
AcDbLine
 10
74.0497520288
 20
81.4370419768
 30
0.0
 11
73.4218712369
 21
81.3821095255
 31
0.0
  0
LINE
  5
8B
330
40
100
AcDbEntity
  8
0012666
  6
Continuous
 62
     7
100
AcDbLine
 10
79.3707755821
 20
81.0207588342
 30
0.0
 11
76.0798790477
 21
82.9207588342
 31
0.0
  0
LINE
  5
8C
330
40
100
AcDbEntity
  8
0012666
  6
Continuous
 62
     7
100
AcDbLine
 10
75.4506261737
 20
82.8379161217
 30
0.0
 11
74.1126866718
 21
81.4999766199
 31
0.0
  0
LINE
  5
8D
330
40
100
AcDbEntity
  8
0012666
  6
Continuous
 62
     7
100
AcDbLine
 10
79.3707755821
 20
81.0207588342
 30
0.0
 11
79.6136581256
 21
80.4343885037
 31
0.0
  0
LINE
  5
8E
330
40
100
AcDbEntity
  8
0012666
  6
Continuous
 62
     7
100
AcDbLine
 10
75.4506261737
 20
82.8379161217
 30
0.0
 11
76.0798790477
 21
82.9207588342
 31
0.0
  0
ARC
  5
8F
330
40
100
AcDbEntity
  8
0012666
  6
Continuous
 62
     7
100
AcDbCircle
 10
91.9753273149
 20
106.6524828421
 30
0.0
 40
24.08
100
AcDbArc
 50
255.0
 51
195.0
  0
LINE
  5
92
330
40
100
AcDbEntity
  8
DV1_Default
  6
CENTER2
 62
     7
100
AcDbLine
 10
93.7253273689
 20
106.6524828421
 30
0.0
 11
90.2253272609
 21
106.6524828421
 31
0.0
  0
LINE
  5
93
330
40
100
AcDbEntity
  8
DV1_Default
  6
CENTER2
 62
     7
100
AcDbLine
 10
91.9753273149
 20
108.4024828961
 30
0.0
 11
91.9753273149
 21
104.9024827881
 31
0.0
  0
LINE
  5
94
330
40
100
AcDbEntity
  8
DV1_Default
  6
CENTER2
 62
     7
100
AcDbLine
 10
95.4753274229
 20
106.6524828421
 30
0.0
 11
125.3253273149
 21
106.6524828421
 31
0.0
  0
LINE
  5
95
330
40
100
AcDbEntity
  8
DV1_Default
  6
CENTER2
 62
     7
100
AcDbLine
 10
91.9753273149
 20
110.1524829501
 30
0.0
 11
91.9753273149
 21
140.0024828421
 31
0.0
  0
LINE
  5
96
330
40
100
AcDbEntity
  8
DV1_Default
  6
CENTER2
 62
     7
100
AcDbLine
 10
88.4753272069
 20
106.6524828421
 30
0.0
 11
58.6253273149
 21
106.6524828421
 31
0.0
  0
LINE
  5
97
330
40
100
AcDbEntity
  8
DV1_Default
  6
CENTER2
 62
     7
100
AcDbLine
 10
91.9753273149
 20
103.152482734
 30
0.0
 11
91.9753273149
 21
73.3024828421
 31
0.0
  0
ENDBLK
  5
99
330
40
100
AcDbEntity
  8
0
100
AcDbBlockEnd
  0
BLOCK
  5
12C
330
9A
100
AcDbEntity
  8
0
100
AcDbBlockBegin
  2
SE1
 70
     0
 10
0.0
 20
0.0
 30
0.0
  3
SE1
  1

  0
LINE
  5
9C
330
9A
100
AcDbEntity
  8
0012659
  6
Continuous
 62
     7
100
AcDbLine
 10
215.6839534071
 20
130.6524828421
 30
0.0
 11
215.6839534071
 21
82.6524828421
 31
0.0
  0
LINE
  5
9D
330
9A
100
AcDbEntity
  8
0012659
  6
Continuous
 62
     7
100
AcDbLine
 10
211.6839534071
 20
126.6774828421
 30
0.0
 11
211.6839534071
 21
86.6274828421
 31
0.0
  0
LINE
  5
9E
330
9A
100
AcDbEntity
  8
0012659
  6
Continuous
 62
     7
100
AcDbLine
 10
181.2339534071
 20
122.3980144254
 30
0.0
 11
181.2339534071
 21
90.9069512588
 31
0.0
  0
LINE
  5
9F
330
9A
100
AcDbEntity
  8
0012659
  6
Continuous
 62
     7
100
AcDbLine
 10
180.6839534071
 20
121.8480144254
 30
0.0
 11
180.6839534071
 21
91.4569512588
 31
0.0
  0
LINE
  5
A0
330
9A
100
AcDbEntity
  8
0012659
  6
Continuous
 62
     7
100
AcDbLine
 10
212.6839534071
 20
129.6524828421
 30
0.0
 11
212.6839534071
 21
83.6524828421
 31
0.0
  0
LINE
  5
A1
330
9A
100
AcDbEntity
  8
0012659
  6
Continuous
 62
     7
100
AcDbLine
 10
213.6839534071
 20
130.6524828421
 30
0.0
 11
213.6839534071
 21
82.6524828421
 31
0.0
  0
LINE
  5
A2
330
9A
100
AcDbEntity
  8
0012659
  6
Continuous
 62
     7
100
AcDbLine
 10
213.6839534071
 20
82.6524828421
 30
0.0
 11
215.6839534071
 21
82.6524828421
 31
0.0
  0
LINE
  5
A3
330
9A
100
AcDbEntity
  8
0012659
  6
Continuous
 62
     7
100
AcDbLine
 10
215.6839534071
 20
130.6524828421
 30
0.0
 11
213.6839534071
 21
130.6524828421
 31
0.0
  0
LINE
  5
A4
330
9A
100
AcDbEntity
  8
0012659
  6
Continuous
 62
     7
100
AcDbLine
 10
211.6839534071
 20
86.6274828421
 30
0.0
 11
212.6839534071
 21
86.6274828421
 31
0.0
  0
LINE
  5
A5
330
9A
100
AcDbEntity
  8
0012659
  6
Continuous
 62
     7
100
AcDbLine
 10
212.6839534071
 20
126.6774828421
 30
0.0
 11
211.6839534071
 21
126.6774828421
 31
0.0
  0
LINE
  5
A6
330
9A
100
AcDbEntity
  8
0012659
  6
Continuous
 62
     7
100
AcDbLine
 10
211.6839534071
 20
126.6774828421
 30
0.0
 11
181.2339534071
 21
122.3980144254
 31
0.0
  0
LINE
  5
A7
330
9A
100
AcDbEntity
  8
0012659
  6
Continuous
 62
     7
100
AcDbLine
 10
181.2339534071
 20
90.9069512588
 30
0.0
 11
211.6839534071
 21
86.6274828421
 31
0.0
  0
LINE
  5
A8
330
9A
100
AcDbEntity
  8
0012659
  6
Continuous
 62
     7
100
AcDbLine
 10
181.2339534071
 20
122.3980144254
 30
0.0
 11
180.6839534071
 21
121.8480144254
 31
0.0
  0
LINE
  5
A9
330
9A
100
AcDbEntity
  8
0012659
  6
Continuous
 62
     7
100
AcDbLine
 10
180.6839534071
 20
91.4569512588
 30
0.0
 11
181.2339534071
 21
90.9069512588
 31
0.0
  0
LINE
  5
AA
330
9A
100
AcDbEntity
  8
0012659
  6
Continuous
 62
     7
100
AcDbLine
 10
213.6839534071
 20
130.6524828421
 30
0.0
 11
212.6839534071
 21
129.6524828421
 31
0.0
  0
LINE
  5
AB
330
9A
100
AcDbEntity
  8
0012659
  6
Continuous
 62
     7
100
AcDbLine
 10
212.6839534071
 20
83.6524828421
 30
0.0
 11
213.6839534071
 21
82.6524828421
 31
0.0
  0
LINE
  5
AC
330
9A
100
AcDbEntity
  8
0012666
  6
Continuous
 62
     7
100
AcDbLine
 10
228.6839534071
 20
109.5457303065
 30
0.0
 11
228.6839534071
 21
131.8049890643
 31
0.0
  0
LINE
  5
AD
330
9A
100
AcDbEntity
  8
0012666
  6
Continuous
 62
     7
100
AcDbLine
 10
234.1839534071
 20
110.0850604753
 30
0.0
 11
234.1839534071
 21
131.9228561587
 31
0.0
  0
LINE
  5
AE
330
9A
100
AcDbEntity
  8
0012666
  6
Continuous
 62
     7
100
AcDbLine
 10
229.1839534071
 20
103.2199052088
 30
0.0
 11
229.1839534071
 21
81.3821095255
 31
0.0
  0
LINE
  5
AF
330
9A
100
AcDbEntity
  8
0012666
  6
Continuous
 62
     7
100
AcDbLine
 10
234.6839534071
 20
103.7592353776
 30
0.0
 11
234.6839534071
 21
81.4999766199
 31
0.0
  0
LINE
  5
B0
330
9A
100
AcDbEntity
  8
0012666
  6
Continuous
 62
     7
100
AcDbLine
 10
234.6839534071
 20
109.5457303065
 30
0.0
 11
234.5961980365
 21
109.5687659847
 31
0.0
  0
LINE
  5
B1
330
9A
100
AcDbEntity
  8
0012666
  6
Continuous
 62
     7
100
AcDbLine
 10
234.5961980365
 20
103.7361996995
 30
0.0
 11
234.6839534071
 21
103.7592353776
 31
0.0
  0
LINE
  5
B2
330
9A
100
AcDbEntity
  8
0012666
  6
Continuous
 62
     7
100
AcDbLine
 10
228.6839534071
 20
103.7592353776
 30
0.0
 11
228.6839534071
 21
104.248955224
 31
0.0
  0
LINE
  5
B3
330
9A
100
AcDbEntity
  8
0012666
  6
Continuous
 62
     7
100
AcDbLine
 10
234.6839534071
 20
103.7592353776
 30
0.0
 11
234.6839534071
 21
104.248955224
 31
0.0
  0
LINE
  5
B4
330
9A
100
AcDbEntity
  8
0012666
  6
Continuous
 62
     7
100
AcDbLine
 10
228.6839534071
 20
103.7592353776
 30
0.0
 11
228.7717087776
 21
103.7361996995
 31
0.0
  0
LINE
  5
B5
330
9A
100
AcDbEntity
  8
0012666
  6
Continuous
 62
     7
100
AcDbLine
 10
228.7717087776
 20
109.5687659847
 30
0.0
 11
228.6839534071
 21
109.5457303065
 31
0.0
  0
LINE
  5
B6
330
9A
100
AcDbEntity
  8
0012666
  6
Continuous
 62
     7
100
AcDbLine
 10
228.7717087776
 20
103.7361996995
 30
0.0
 11
229.1839534071
 21
103.2199052088
 31
0.0
  0
LINE
  5
B7
330
9A
100
AcDbEntity
  8
0012666
  6
Continuous
 62
     7
100
AcDbLine
 10
234.1839534071
 20
103.2199052088
 30
0.0
 11
234.5961980365
 21
103.7361996995
 31
0.0
  0
LINE
  5
B8
330
9A
100
AcDbEntity
  8
0012666
  6
Continuous
 62
     7
100
AcDbLine
 10
229.1839534071
 20
110.0850604753
 30
0.0
 11
228.7717087776
 21
109.5687659847
 31
0.0
  0
LINE
  5
B9
330
9A
100
AcDbEntity
  8
0012666
  6
Continuous
 62
     7
100
AcDbLine
 10
234.5961980365
 20
109.5687659847
 30
0.0
 11
228.7717087776
 21
109.5687659847
 31
0.0
  0
LINE
  5
BA
330
9A
100
AcDbEntity
  8
0012666
  6
Continuous
 62
     7
100
AcDbLine
 10
234.5961980365
 20
109.5687659847
 30
0.0
 11
234.1839534071
 21
110.0850604753
 31
0.0
  0
LINE
  5
BB
330
9A
100
AcDbEntity
  8
0012666
  6
Continuous
 62
     7
100
AcDbLine
 10
234.5961980365
 20
103.7361996995
 30
0.0
 11
228.7717087776
 21
103.7361996995
 31
0.0
  0
LINE
  5
BC
330
9A
100
AcDbEntity
  8
0012666
  6
Continuous
 62
     7
100
AcDbLine
 10
234.1839534071
 20
103.2199052088
 30
0.0
 11
229.1839534071
 21
103.2199052088
 31
0.0
  0
LINE
  5
BD
330
9A
100
AcDbEntity
  8
0012666
  6
Continuous
 62
     7
100
AcDbLine
 10
229.1839534071
 20
110.0850604753
 30
0.0
 11
234.1839534071
 21
110.0850604753
 31
0.0
  0
LINE
  5
BE
330
9A
100
AcDbEntity
  8
0012666
  6
Continuous
 62
     7
100
AcDbLine
 10
234.6839534071
 20
104.7524828421
 30
0.0
 11
234.6839534071
 21
108.5524828421
 31
0.0
  0
LINE
  5
BF
330
9A
100
AcDbEntity
  8
0012666
  6
Continuous
 62
     7
100
AcDbLine
 10
228.6839534071
 20
104.7524828421
 30
0.0
 11
228.6839534071
 21
108.5524828421
 31
0.0
  0
LINE
  5
C0
330
9A
100
AcDbEntity
  8
0012666
  6
Continuous
 62
     7
100
AcDbLine
 10
234.6839534071
 20
108.5524828421
 30
0.0
 11
228.6839534071
 21
108.5524828421
 31
0.0
  0
LINE
  5
C1
330
9A
100
AcDbEntity
  8
0012666
  6
Continuous
 62
     7
100
AcDbLine
 10
228.6839534071
 20
104.7524828421
 30
0.0
 11
234.6839534071
 21
104.7524828421
 31
0.0
  0
LINE
  5
C2
330
9A
100
AcDbEntity
  8
0012666
  6
Continuous
 62
     7
100
AcDbLine
 10
234.6839534071
 20
104.248955224
 30
0.0
 11
228.6839534071
 21
104.248955224
 31
0.0
  0
LINE
  5
C3
330
9A
100
AcDbEntity
  8
0012666
  6
Continuous
 62
     7
100
AcDbLine
 10
228.6839534071
 20
109.0560104601
 30
0.0
 11
228.6839534071
 21
109.5457303065
 31
0.0
  0
LINE
  5
C4
330
9A
100
AcDbEntity
  8
0012666
  6
Continuous
 62
     7
100
AcDbLine
 10
234.6839534071
 20
109.0560104601
 30
0.0
 11
234.6839534071
 21
109.5457303065
 31
0.0
  0
LINE
  5
C5
330
9A
100
AcDbEntity
  8
0012666
  6
Continuous
 62
     7
100
AcDbLine
 10
228.6839534071
 20
109.0560104601
 30
0.0
 11
234.6839534071
 21
109.0560104601
 31
0.0
  0
LINE
  5
C6
330
9A
100
AcDbEntity
  8
0012666
  6
Continuous
 62
     7
100
AcDbLine
 10
234.6839534071
 20
104.7524828421
 30
0.0
 11
234.6839534071
 21
104.248955224
 31
0.0
  0
LINE
  5
C7
330
9A
100
AcDbEntity
  8
0012666
  6
Continuous
 62
     7
100
AcDbLine
 10
228.6839534071
 20
104.248955224
 30
0.0
 11
228.6839534071
 21
104.7524828421
 31
0.0
  0
LINE
  5
C8
330
9A
100
AcDbEntity
  8
0012666
  6
Continuous
 62
     7
100
AcDbLine
 10
234.6839534071
 20
109.0560104601
 30
0.0
 11
234.6839534071
 21
108.5524828421
 31
0.0
  0
LINE
  5
C9
330
9A
100
AcDbEntity
  8
0012666
  6
Continuous
 62
     7
100
AcDbLine
 10
228.6839534071
 20
108.5524828421
 30
0.0
 11
228.6839534071
 21
109.0560104601
 31
0.0
  0
LINE
  5
CA
330
9A
100
AcDbEntity
  8
0012666
  6
Continuous
 62
     7
100
AcDbLine
 10
246.6839534071
 20
131.6524828421
 30
0.0
 11
246.6839534071
 21
81.6524828421
 31
0.0
  0
LINE
  5
CB
330
9A
100
AcDbEntity
  8
0012666
  6
Continuous
 62
     7
100
AcDbLine
 10
247.6839534071
 20
130.6524828421
 30
0.0
 11
247.6839534071
 21
82.6524828421
 31
0.0
  0
LINE
  5
CC
330
9A
100
AcDbEntity
  8
0012666
  6
Continuous
 62
     7
100
AcDbLine
 10
215.6839534071
 20
130.6524828421
 30
0.0
 11
215.6839534071
 21
82.6524828421
 31
0.0
  0
LINE
  5
CD
330
9A
100
AcDbEntity
  8
0012666
  6
Continuous
 62
     7
100
AcDbLine
 10
216.6839534071
 20
131.6524828421
 30
0.0
 11
216.6839534071
 21
81.6524828421
 31
0.0
  0
LINE
  5
CE
330
9A
100
AcDbEntity
  8
0012666
  6
Continuous
 62
     7
100
AcDbLine
 10
225.6839534071
 20
131.6524828421
 30
0.0
 11
225.6839534071
 21
81.6524828421
 31
0.0
  0
LINE
  5
CF
330
9A
100
AcDbEntity
  8
0012666
  6
Continuous
 62
     7
100
AcDbLine
 10
237.6839534071
 20
131.6524828421
 30
0.0
 11
237.6839534071
 21
81.6524828421
 31
0.0
  0
LINE
  5
D0
330
9A
100
AcDbEntity
  8
0012666
  6
Continuous
 62
     7
100
AcDbLine
 10
227.8839534071
 20
130.6524828421
 30
0.0
 11
227.8839534071
 21
82.6524828421
 31
0.0
  0
LINE
  5
D1
330
9A
100
AcDbEntity
  8
0012666
  6
Continuous
 62
     7
100
AcDbLine
 10
227.2303635686
 20
130.759662519
 30
0.0
 11
227.2303635686
 21
82.5453031651
 31
0.0
  0
LINE
  5
D2
330
9A
100
AcDbEntity
  8
0012666
  6
Continuous
 62
     7
100
AcDbLine
 10
227.6303635686
 20
130.6524828421
 30
0.0
 11
227.6303635686
 21
82.6524828421
 31
0.0
  0
LINE
  5
D3
330
9A
100
AcDbEntity
  8
0012666
  6
Continuous
 62
     7
100
AcDbLine
 10
235.4839534071
 20
130.6524828421
 30
0.0
 11
235.4839534071
 21
82.6524828421
 31
0.0
  0
LINE
  5
D4
330
9A
100
AcDbEntity
  8
0012666
  6
Continuous
 62
     7
100
AcDbLine
 10
235.7375432456
 20
130.6524828421
 30
0.0
 11
235.7375432456
 21
82.6524828421
 31
0.0
  0
LINE
  5
D5
330
9A
100
AcDbEntity
  8
0012666
  6
Continuous
 62
     7
100
AcDbLine
 10
236.1375432456
 20
130.759662519
 30
0.0
 11
236.1375432456
 21
82.5453031651
 31
0.0
  0
LINE
  5
D6
330
9A
100
AcDbEntity
  8
0012666
  6
Continuous
 62
     7
100
AcDbLine
 10
234.1839534071
 20
135.355433792
 30
0.0
 11
234.1839534071
 21
138.0024828421
 31
0.0
  0
LINE
  5
D7
330
9A
100
AcDbEntity
  8
0012666
  6
Continuous
 62
     7
100
AcDbLine
 10
234.6839534071
 20
131.8049890643
 30
0.0
 11
234.6839534071
 21
109.5457303065
 31
0.0
  0
LINE
  5
D8
330
9A
100
AcDbEntity
  8
0012666
  6
Continuous
 62
     7
100
AcDbLine
 10
234.6839534071
 20
134.6982365287
 30
0.0
 11
234.5961980365
 21
134.7842068499
 31
0.0
  0
LINE
  5
D9
330
9A
100
AcDbEntity
  8
0012666
  6
Continuous
 62
     7
100
AcDbLine
 10
234.5961980365
 20
131.8679237073
 30
0.0
 11
234.6839534071
 21
131.8049890643
 31
0.0
  0
LINE
  5
DA
330
9A
100
AcDbEntity
  8
0012666
  6
Continuous
 62
     7
100
AcDbLine
 10
228.6839534071
 20
134.6982365287
 30
0.0
 11
228.6839534071
 21
137.5024828421
 31
0.0
  0
LINE
  5
DB
330
9A
100
AcDbEntity
  8
0012666
  6
Continuous
 62
     7
100
AcDbLine
 10
229.1839534071
 20
131.9228561587
 30
0.0
 11
229.1839534071
 21
110.0850604753
 31
0.0
  0
LINE
  5
DC
330
9A
100
AcDbEntity
  8
0012666
  6
Continuous
 62
     7
100
AcDbLine
 10
228.6839534071
 20
131.8049890643
 30
0.0
 11
228.7717087776
 21
131.8679237073
 31
0.0
  0
LINE
  5
DD
330
9A
100
AcDbEntity
  8
0012666
  6
Continuous
 62
     7
100
AcDbLine
 10
228.7717087776
 20
134.7842068499
 30
0.0
 11
228.6839534071
 21
134.6982365287
 31
0.0
  0
LINE
  5
DE
330
9A
100
AcDbEntity
  8
0012666
  6
Continuous
 62
     7
100
AcDbLine
 10
228.7717087776
 20
131.8679237073
 30
0.0
 11
229.1839534071
 21
131.9228561587
 31
0.0
  0
LINE
  5
DF
330
9A
100
AcDbEntity
  8
0012666
  6
Continuous
 62
     7
100
AcDbLine
 10
234.1839534071
 20
131.9228561587
 30
0.0
 11
234.5961980365
 21
131.8679237073
 31
0.0
  0
LINE
  5
E0
330
9A
100
AcDbEntity
  8
0012666
  6
Continuous
 62
     7
100
AcDbLine
 10
229.1839534071
 20
135.355433792
 30
0.0
 11
228.7717087776
 21
134.7842068499
 31
0.0
  0
LINE
  5
E1
330
9A
100
AcDbEntity
  8
0012666
  6
Continuous
 62
     7
100
AcDbLine
 10
234.5961980365
 20
134.7842068499
 30
0.0
 11
228.7717087776
 21
134.7842068499
 31
0.0
  0
LINE
  5
E2
330
9A
100
AcDbEntity
  8
0012666
  6
Continuous
 62
     7
100
AcDbLine
 10
234.5961980365
 20
134.7842068499
 30
0.0
 11
234.1839534071
 21
135.355433792
 31
0.0
  0
LINE
  5
E3
330
9A
100
AcDbEntity
  8
0012666
  6
Continuous
 62
     7
100
AcDbLine
 10
234.1839534071
 20
131.9228561587
 30
0.0
 11
229.1839534071
 21
131.9228561587
 31
0.0
  0
LINE
  5
E4
330
9A
100
AcDbEntity
  8
0012666
  6
Continuous
 62
     7
100
AcDbLine
 10
229.1839534071
 20
135.355433792
 30
0.0
 11
234.1839534071
 21
135.355433792
 31
0.0
  0
LINE
  5
E5
330
9A
100
AcDbEntity
  8
0012666
  6
Continuous
 62
     7
100
AcDbLine
 10
234.6839534071
 20
131.8049890643
 30
0.0
 11
234.6839534071
 21
132.2842068499
 31
0.0
  0
LINE
  5
E6
330
9A
100
AcDbEntity
  8
0012666
  6
Continuous
 62
     7
100
AcDbLine
 10
228.6839534071
 20
131.8049890643
 30
0.0
 11
228.6839534071
 21
132.2842068499
 31
0.0
  0
LINE
  5
E7
330
9A
100
AcDbEntity
  8
0012666
  6
Continuous
 62
     7
100
AcDbLine
 10
234.6839534071
 20
132.2842068499
 30
0.0
 11
228.6839534071
 21
132.2842068499
 31
0.0
  0
LINE
  5
E8
330
9A
100
AcDbEntity
  8
0012666
  6
Continuous
 62
     7
100
AcDbLine
 10
228.6839534071
 20
132.8705771804
 30
0.0
 11
228.6839534071
 21
134.6982365287
 31
0.0
  0
LINE
  5
E9
330
9A
100
AcDbEntity
  8
0012666
  6
Continuous
 62
     7
100
AcDbLine
 10
234.6839534071
 20
132.8705771804
 30
0.0
 11
234.6839534071
 21
134.6982365287
 31
0.0
  0
LINE
  5
EA
330
9A
100
AcDbEntity
  8
0012666
  6
Continuous
 62
     7
100
AcDbLine
 10
228.6839534071
 20
132.8705771804
 30
0.0
 11
234.6839534071
 21
132.8705771804
 31
0.0
  0
LINE
  5
EB
330
9A
100
AcDbEntity
  8
0012666
  6
Continuous
 62
     7
100
AcDbLine
 10
234.6839534071
 20
132.8705771804
 30
0.0
 11
234.6839534071
 21
132.2842068499
 31
0.0
  0
LINE
  5
EC
330
9A
100
AcDbEntity
  8
0012666
  6
Continuous
 62
     7
100
AcDbLine
 10
228.6839534071
 20
132.2842068499
 30
0.0
 11
228.6839534071
 21
132.8705771804
 31
0.0
  0
LINE
  5
ED
330
9A
100
AcDbEntity
  8
0012666
  6
Continuous
 62
     7
100
AcDbLine
 10
234.6839534071
 20
137.5024828421
 30
0.0
 11
234.6839534071
 21
134.6982365287
 31
0.0
  0
LINE
  5
EE
330
9A
100
AcDbEntity
  8
0012666
  6
Continuous
 62
     7
100
AcDbLine
 10
229.1839534071
 20
138.0024828421
 30
0.0
 11
229.1839534071
 21
135.355433792
 31
0.0
  0
LINE
  5
EF
330
9A
100
AcDbEntity
  8
0012666
  6
Continuous
 62
     7
100
AcDbLine
 10
234.1839534071
 20
77.9495318922
 30
0.0
 11
234.1839534071
 21
75.3024828421
 31
0.0
  0
LINE
  5
F0
330
9A
100
AcDbEntity
  8
0012666
  6
Continuous
 62
     7
100
AcDbLine
 10
228.6839534071
 20
78.6067291554
 30
0.0
 11
228.6839534071
 21
75.8024828421
 31
0.0
  0
LINE
  5
F1
330
9A
100
AcDbEntity
  8
0012666
  6
Continuous
 62
     7
100
AcDbLine
 10
234.6839534071
 20
75.8024828421
 30
0.0
 11
234.6839534071
 21
78.6067291554
 31
0.0
  0
LINE
  5
F2
330
9A
100
AcDbEntity
  8
0012666
  6
Continuous
 62
     7
100
AcDbLine
 10
234.1839534071
 20
81.3821095255
 30
0.0
 11
234.1839534071
 21
103.2199052088
 31
0.0
  0
LINE
  5
F3
330
9A
100
AcDbEntity
  8
0012666
  6
Continuous
 62
     7
100
AcDbLine
 10
234.6839534071
 20
81.4999766199
 30
0.0
 11
234.5961980365
 21
81.4370419768
 31
0.0
  0
LINE
  5
F4
330
9A
100
AcDbEntity
  8
0012666
  6
Continuous
 62
     7
100
AcDbLine
 10
234.5961980365
 20
78.5207588342
 30
0.0
 11
234.6839534071
 21
78.6067291554
 31
0.0
  0
LINE
  5
F5
330
9A
100
AcDbEntity
  8
0012666
  6
Continuous
 62
     7
100
AcDbLine
 10
229.1839534071
 20
75.3024828421
 30
0.0
 11
229.1839534071
 21
77.9495318922
 31
0.0
  0
LINE
  5
F6
330
9A
100
AcDbEntity
  8
0012666
  6
Continuous
 62
     7
100
AcDbLine
 10
228.6839534071
 20
81.4999766199
 30
0.0
 11
228.6839534071
 21
103.7592353776
 31
0.0
  0
LINE
  5
F7
330
9A
100
AcDbEntity
  8
0012666
  6
Continuous
 62
     7
100
AcDbLine
 10
228.6839534071
 20
78.6067291554
 30
0.0
 11
228.6839534071
 21
80.4343885037
 31
0.0
  0
LINE
  5
F8
330
9A
100
AcDbEntity
  8
0012666
  6
Continuous
 62
     7
100
AcDbLine
 10
234.6839534071
 20
78.6067291554
 30
0.0
 11
234.6839534071
 21
80.4343885037
 31
0.0
  0
LINE
  5
F9
330
9A
100
AcDbEntity
  8
0012666
  6
Continuous
 62
     7
100
AcDbLine
 10
228.6839534071
 20
78.6067291554
 30
0.0
 11
228.7717087776
 21
78.5207588342
 31
0.0
  0
LINE
  5
FA
330
9A
100
AcDbEntity
  8
0012666
  6
Continuous
 62
     7
100
AcDbLine
 10
228.7717087776
 20
81.4370419768
 30
0.0
 11
228.6839534071
 21
81.4999766199
 31
0.0
  0
LINE
  5
FB
330
9A
100
AcDbEntity
  8
0012666
  6
Continuous
 62
     7
100
AcDbLine
 10
228.7717087776
 20
78.5207588342
 30
0.0
 11
229.1839534071
 21
77.9495318922
 31
0.0
  0
LINE
  5
FC
330
9A
100
AcDbEntity
  8
0012666
  6
Continuous
 62
     7
100
AcDbLine
 10
234.1839534071
 20
77.9495318922
 30
0.0
 11
234.5961980365
 21
78.5207588342
 31
0.0
  0
LINE
  5
FD
330
9A
100
AcDbEntity
  8
0012666
  6
Continuous
 62
     7
100
AcDbLine
 10
229.1839534071
 20
81.3821095255
 30
0.0
 11
228.7717087776
 21
81.4370419768
 31
0.0
  0
LINE
  5
FE
330
9A
100
AcDbEntity
  8
0012666
  6
Continuous
 62
     7
100
AcDbLine
 10
234.5961980365
 20
81.4370419768
 30
0.0
 11
234.1839534071
 21
81.3821095255
 31
0.0
  0
LINE
  5
FF
330
9A
100
AcDbEntity
  8
0012666
  6
Continuous
 62
     7
100
AcDbLine
 10
234.5961980365
 20
78.5207588342
 30
0.0
 11
228.7717087776
 21
78.5207588342
 31
0.0
  0
LINE
  5
100
330
9A
100
AcDbEntity
  8
0012666
  6
Continuous
 62
     7
100
AcDbLine
 10
234.1839534071
 20
77.9495318922
 30
0.0
 11
229.1839534071
 21
77.9495318922
 31
0.0
  0
LINE
  5
101
330
9A
100
AcDbEntity
  8
0012666
  6
Continuous
 62
     7
100
AcDbLine
 10
229.1839534071
 20
81.3821095255
 30
0.0
 11
234.1839534071
 21
81.3821095255
 31
0.0
  0
LINE
  5
102
330
9A
100
AcDbEntity
  8
0012666
  6
Continuous
 62
     7
100
AcDbLine
 10
234.6839534071
 20
81.0207588342
 30
0.0
 11
234.6839534071
 21
81.4999766199
 31
0.0
  0
LINE
  5
103
330
9A
100
AcDbEntity
  8
0012666
  6
Continuous
 62
     7
100
AcDbLine
 10
228.6839534071
 20
81.0207588342
 30
0.0
 11
228.6839534071
 21
81.4999766199
 31
0.0
  0
LINE
  5
104
330
9A
100
AcDbEntity
  8
0012666
  6
Continuous
 62
     7
100
AcDbLine
 10
228.6839534071
 20
81.0207588342
 30
0.0
 11
234.6839534071
 21
81.0207588342
 31
0.0
  0
LINE
  5
105
330
9A
100
AcDbEntity
  8
0012666
  6
Continuous
 62
     7
100
AcDbLine
 10
234.6839534071
 20
80.4343885037
 30
0.0
 11
228.6839534071
 21
80.4343885037
 31
0.0
  0
LINE
  5
106
330
9A
100
AcDbEntity
  8
0012666
  6
Continuous
 62
     7
100
AcDbLine
 10
234.6839534071
 20
81.0207588342
 30
0.0
 11
234.6839534071
 21
80.4343885037
 31
0.0
  0
LINE
  5
107
330
9A
100
AcDbEntity
  8
0012666
  6
Continuous
 62
     7
100
AcDbLine
 10
228.6839534071
 20
80.4343885037
 30
0.0
 11
228.6839534071
 21
81.0207588342
 31
0.0
  0
LINE
  5
108
330
9A
100
AcDbEntity
  8
0012666
  6
Continuous
 62
     7
100
AcDbLine
 10
216.6839534071
 20
81.6524828421
 30
0.0
 11
225.6839534071
 21
81.6524828421
 31
0.0
  0
LINE
  5
109
330
9A
100
AcDbEntity
  8
0012666
  6
Continuous
 62
     7
100
AcDbLine
 10
225.6839534071
 20
131.6524828421
 30
0.0
 11
216.6839534071
 21
131.6524828421
 31
0.0
  0
LINE
  5
10A
330
9A
100
AcDbEntity
  8
0012666
  6
Continuous
 62
     7
100
AcDbLine
 10
237.6839534071
 20
81.6524828421
 30
0.0
 11
246.6839534071
 21
81.6524828421
 31
0.0
  0
LINE
  5
10B
330
9A
100
AcDbEntity
  8
0012666
  6
Continuous
 62
     7
100
AcDbLine
 10
246.6839534071
 20
131.6524828421
 30
0.0
 11
237.6839534071
 21
131.6524828421
 31
0.0
  0
LINE
  5
10C
330
9A
100
AcDbEntity
  8
0012666
  6
Continuous
 62
     7
100
AcDbLine
 10
246.6839534071
 20
81.6524828421
 30
0.0
 11
247.6839534071
 21
82.6524828421
 31
0.0
  0
LINE
  5
10D
330
9A
100
AcDbEntity
  8
0012666
  6
Continuous
 62
     7
100
AcDbLine
 10
247.6839534071
 20
130.6524828421
 30
0.0
 11
246.6839534071
 21
131.6524828421
 31
0.0
  0
LINE
  5
10E
330
9A
100
AcDbEntity
  8
0012666
  6
Continuous
 62
     7
100
AcDbLine
 10
216.6839534071
 20
131.6524828421
 30
0.0
 11
215.6839534071
 21
130.6524828421
 31
0.0
  0
LINE
  5
10F
330
9A
100
AcDbEntity
  8
0012666
  6
Continuous
 62
     7
100
AcDbLine
 10
215.6839534071
 20
82.6524828421
 30
0.0
 11
216.6839534071
 21
81.6524828421
 31
0.0
  0
LINE
  5
110
330
9A
100
AcDbEntity
  8
0012666
  6
Continuous
 62
     7
100
AcDbLine
 10
227.6303635686
 20
82.6524828421
 30
0.0
 11
227.8839534071
 21
82.6524828421
 31
0.0
  0
LINE
  5
111
330
9A
100
AcDbEntity
  8
0012666
  6
Continuous
 62
     7
100
AcDbLine
 10
227.8839534071
 20
130.6524828421
 30
0.0
 11
227.6303635686
 21
130.6524828421
 31
0.0
  0
LINE
  5
112
330
9A
100
AcDbEntity
  8
0012666
  6
Continuous
 62
     7
100
AcDbLine
 10
225.6839534071
 20
81.6524828421
 30
0.0
 11
227.2303635686
 21
82.5453031651
 31
0.0
  0
LINE
  5
113
330
9A
100
AcDbEntity
  8
0012666
  6
Continuous
 62
     7
100
AcDbLine
 10
227.2303635686
 20
130.759662519
 30
0.0
 11
225.6839534071
 21
131.6524828421
 31
0.0
  0
LINE
  5
114
330
9A
100
AcDbEntity
  8
0012666
  6
Continuous
 62
     7
100
AcDbLine
 10
235.4839534071
 20
82.6524828421
 30
0.0
 11
235.7375432456
 21
82.6524828421
 31
0.0
  0
LINE
  5
115
330
9A
100
AcDbEntity
  8
0012666
  6
Continuous
 62
     7
100
AcDbLine
 10
235.7375432456
 20
130.6524828421
 30
0.0
 11
235.4839534071
 21
130.6524828421
 31
0.0
  0
LINE
  5
116
330
9A
100
AcDbEntity
  8
0012666
  6
Continuous
 62
     7
100
AcDbLine
 10
237.6839534071
 20
131.6524828421
 30
0.0
 11
236.1375432456
 21
130.759662519
 31
0.0
  0
LINE
  5
117
330
9A
100
AcDbEntity
  8
0012666
  6
Continuous
 62
     7
100
AcDbLine
 10
236.1375432456
 20
82.5453031651
 30
0.0
 11
237.6839534071
 21
81.6524828421
 31
0.0
  0
ARC
  5
118
330
9A
100
AcDbEntity
  8
0012666
  6
Continuous
 62
     7
100
AcDbCircle
 10
227.8839534071
 20
131.4524828421
 30
0.0
 40
0.7999999999999952
100
AcDbArc
 50
270.0
 51
0.0
  0
ARC
  5
119
330
9A
100
AcDbEntity
  8
0012666
  6
Continuous
 62
     7
100
AcDbCircle
 10
227.8839534071
 20
81.8524828421
 30
0.0
 40
0.7999999999999986
100
AcDbArc
 50
0.0
 51
90.0
  0
ARC
  5
11A
330
9A
100
AcDbEntity
  8
0012666
  6
Continuous
 62
     7
100
AcDbCircle
 10
227.6303635686
 20
81.8524828421
 30
0.0
 40
0.7999999999999975
100
AcDbArc
 50
90.0
 51
120.0
  0
ARC
  5
11B
330
9A
100
AcDbEntity
  8
0012666
  6
Continuous
 62
     7
100
AcDbCircle
 10
227.6303635686
 20
131.4524828421
 30
0.0
 40
0.7999999999999986
100
AcDbArc
 50
240.0
 51
270.0
  0
ARC
  5
11C
330
9A
100
AcDbEntity
  8
0012666
  6
Continuous
 62
     7
100
AcDbCircle
 10
235.4839534071
 20
81.8524828421
 30
0.0
 40
0.7999999999999952
100
AcDbArc
 50
90.0
 51
180.0
  0
ARC
  5
11D
330
9A
100
AcDbEntity
  8
0012666
  6
Continuous
 62
     7
100
AcDbCircle
 10
235.4839534071
 20
131.4524828421
 30
0.0
 40
0.7999999999999986
100
AcDbArc
 50
180.0
 51
270.0
  0
ARC
  5
11E
330
9A
100
AcDbEntity
  8
0012666
  6
Continuous
 62
     7
100
AcDbCircle
 10
235.7375432456
 20
81.8524828421
 30
0.0
 40
0.7999999999999986
100
AcDbArc
 50
60.0
 51
90.0
  0
ARC
  5
11F
330
9A
100
AcDbEntity
  8
0012666
  6
Continuous
 62
     7
100
AcDbCircle
 10
235.7375432456
 20
131.4524828421
 30
0.0
 40
0.8000000000000005
100
AcDbArc
 50
270.0
 51
300.0
  0
LINE
  5
120
330
9A
100
AcDbEntity
  8
0012666
  6
Continuous
 62
     7
100
AcDbLine
 10
234.6839534071
 20
137.5024828421
 30
0.0
 11
234.1839534071
 21
138.0024828421
 31
0.0
  0
LINE
  5
121
330
9A
100
AcDbEntity
  8
0012666
  6
Continuous
 62
     7
100
AcDbLine
 10
229.1839534071
 20
138.0024828421
 30
0.0
 11
228.6839534071
 21
137.5024828421
 31
0.0
  0
LINE
  5
122
330
9A
100
AcDbEntity
  8
0012666
  6
Continuous
 62
     7
100
AcDbLine
 10
234.1839534071
 20
138.0024828421
 30
0.0
 11
229.1839534071
 21
138.0024828421
 31
0.0
  0
LINE
  5
123
330
9A
100
AcDbEntity
  8
0012666
  6
Continuous
 62
     7
100
AcDbLine
 10
234.1839534071
 20
75.3024828421
 30
0.0
 11
234.6839534071
 21
75.8024828421
 31
0.0
  0
LINE
  5
124
330
9A
100
AcDbEntity
  8
0012666
  6
Continuous
 62
     7
100
AcDbLine
 10
228.6839534071
 20
75.8024828421
 30
0.0
 11
229.1839534071
 21
75.3024828421
 31
0.0
  0
LINE
  5
125
330
9A
100
AcDbEntity
  8
0012666
  6
Continuous
 62
     7
100
AcDbLine
 10
229.1839534071
 20
75.3024828421
 30
0.0
 11
234.1839534071
 21
75.3024828421
 31
0.0
  0
LINE
  5
126
330
9A
100
AcDbEntity
  8
0012666
  6
Continuous
 62
     7
100
AcDbLine
 10
225.6839534071
 20
82.5724828421
 30
0.0
 11
215.7639534071
 21
82.5724828421
 31
0.0
  0
LINE
  5
127
330
9A
100
AcDbEntity
  8
0012666
  6
Continuous
 62
     7
100
AcDbLine
 10
225.6839534071
 20
130.7324828421
 30
0.0
 11
215.7639534071
 21
130.7324828421
 31
0.0
  0
LINE
  5
128
330
9A
100
AcDbEntity
  8
0012666
  6
Continuous
 62
     7
100
AcDbLine
 10
237.6839534071
 20
130.7324828421
 30
0.0
 11
247.6039534071
 21
130.7324828421
 31
0.0
  0
LINE
  5
129
330
9A
100
AcDbEntity
  8
0012666
  6
Continuous
 62
     7
100
AcDbLine
 10
237.6839534071
 20
82.5724828421
 30
0.0
 11
247.6039534071
 21
82.5724828421
 31
0.0
  0
LINE
  5
12B
330
9A
100
AcDbEntity
  8
DV2_Default
  6
CENTER2
 62
     7
100
AcDbLine
 10
179.2339534071
 20
106.6524828421
 30
0.0
 11
249.5240408534
 21
106.6524828421
 31
0.0
  0
ENDBLK
  5
12D
330
9A
100
AcDbEntity
  8
0
100
AcDbBlockEnd
  0
BLOCK
  5
130
330
12F
100
AcDbEntity
  8
0
100
AcDbBlockBegin
  2
_OBLIQUE
 70
     0
 10
0.0
 20
0.0
 30
0.0
  3
_OBLIQUE
  1

  0
LINE
  5
132
330
12F
100
AcDbEntity
  8
0
  6
ByBlock
 62
     0
370
    -2
100
AcDbLine
 10
-0.5
 20
-0.5
 30
0.0
 11
0.5
 21
0.5
 31
0.0
  0
ENDBLK
  5
131
330
12F
100
AcDbEntity
  8
0
100
AcDbBlockEnd
  0
BLOCK
  5
134
330
133
100
AcDbEntity
  8
0
100
AcDbBlockBegin
  2
_DOT
 70
     0
 10
0.0
 20
0.0
 30
0.0
  3
_DOT
  1

  0
POLYLINE
  5
136
330
133
100
AcDbEntity
  8
0
  6
ByBlock
 62
     0
100
AcDb2dPolyline
 66
     1
 10
0.0
 20
0.0
 30
0.0
 70
     1
 40
0.5
 41
0.5
  0
VERTEX
  5
138
330
136
100
AcDbEntity
  8
0
  6
ByBlock
 62
     0
100
AcDbVertex
100
AcDb2dVertex
 10
-0.25
 20
0.0
 30
0.0
 42
1.0
  0
VERTEX
  5
139
330
136
100
AcDbEntity
  8
0
  6
ByBlock
 62
     0
100
AcDbVertex
100
AcDb2dVertex
 10
0.25
 20
0.0
 30
0.0
 42
1.0
  0
SEQEND
  5
13A
330
136
100
AcDbEntity
  8
0
  6
ByBlock
 62
     0
  0
LINE
  5
137
330
133
100
AcDbEntity
  8
0
  6
ByBlock
 62
     0
370
    -2
100
AcDbLine
 10
-0.5
 20
0.0
 30
0.0
 11
-1.0
 21
0.0
 31
0.0
  0
ENDBLK
  5
135
330
133
100
AcDbEntity
  8
0
100
AcDbBlockEnd
  0
BLOCK
  5
13E
330
13B
100
AcDbEntity
  8
0
100
AcDbBlockBegin
  2
_SE_FILLED
 70
     0
 10
0.0
 20
0.0
 30
0.0
  3
_SE_FILLED
  1

  0
SOLID
  5
13C
330
13B
100
AcDbEntity
  8
0
 62
     0
100
AcDbTrace
 10
0.0
 20
0.0
 30
0.0
 11
-1.0
 21
-0.1665
 31
0.0
 12
-1.0
 22
0.1665
 32
0.0
 13
0.0
 23
0.0
 33
0.0
  0
LINE
  5
13D
330
13B
100
AcDbEntity
  8
0
 62
     0
100
AcDbLine
 10
0.0
 20
0.0
 30
0.0
 11
-1.0
 21
0.0
 31
0.0
  0
ENDBLK
  5
13F
330
13B
100
AcDbEntity
  8
0
100
AcDbBlockEnd
  0
BLOCK
  5
14A
330
143
100
AcDbEntity
  8
0
100
AcDbBlockBegin
  2
DMBLK27
 70
     0
 10
0.0
 20
0.0
 30
0.0
  3
DMBLK27
  1

  0
HATCH
  5
144
330
143
100
AcDbEntity
  8
Default
  6
Continuous
 62
     7
100
AcDbHatch
 10
0.0
 20
0.0
 30
0.0
210
0.0
220
0.0
230
1.0
  2
SOLID
 70
     1
 71
     0
 91
        1
 92
        1
 93
        3
 72
     1
 10
184.1839535151011
 20
146.1366439951231
 11
180.6839534070677
 21
145.5533106437842
 72
     1
 10
180.6839534070677
 20
145.5533106437842
 11
184.1839535151011
 21
144.9699772924453
 72
     1
 10
184.1839535151011
 20
144.9699772924453
 11
184.1839535151011
 21
146.1366439951231
 97
        0
 75
     0
 76
     1
 98
        0
  0
HATCH
  5
145
330
143
100
AcDbEntity
  8
Default
  6
Continuous
 62
     7
100
AcDbHatch
 10
0.0
 20
0.0
 30
0.0
210
0.0
220
0.0
230
1.0
  2
SOLID
 70
     1
 71
     0
 91
        1
 92
        1
 93
        3
 72
     1
 10
225.1839537162668
 20
146.1366439951231
 11
225.1839537162668
 21
144.9699772924453
 72
     1
 10
225.1839537162668
 20
144.9699772924453
 11
228.6839538243002
 21
145.5533106437842
 72
     1
 10
228.6839538243002
 20
145.5533106437842
 11
225.1839537162668
 21
146.1366439951231
 97
        0
 75
     0
 76
     1
 98
        0
  0
LINE
  5
146
330
143
100
AcDbEntity
  8
Default
  6
Continuous
 62
     7
100
AcDbLine
 10
180.6839534071
 20
121.8480144254
 30
0.0
 11
180.6839534071
 21
147.3033106978
 31
0.0
  0
LINE
  5
147
330
143
100
AcDbEntity
  8
Default
  6
Continuous
 62
     7
100
AcDbLine
 10
228.6839534071
 20
131.8049890643
 30
0.0
 11
228.6839534071
 21
147.3033106978
 31
0.0
  0
LINE
  5
148
330
143
100
AcDbEntity
  8
Default
  6
Continuous
 62
     7
100
AcDbLine
 10
180.6839534071
 20
145.5533106438
 30
0.0
 11
228.6839538243
 21
145.5533106438
 31
0.0
  0
TEXT
  5
149
330
143
100
AcDbEntity
  8
Default
  6
Continuous
 62
     7
100
AcDbText
 10
202.536226343
 20
146.4283106438
 30
0.0
 40
3.5
  1
48
  7
SEACAD_Solid_Edge_ISO
 11
202.536226343
 21
149.9283106438
 31
0.0
100
AcDbText
 73
     3
  0
ENDBLK
  5
14B
330
143
100
AcDbEntity
  8
0
100
AcDbBlockEnd
  0
BLOCK
  5
154
330
14D
100
AcDbEntity
  8
0
100
AcDbBlockBegin
  2
DMBLK28
 70
     0
 10
0.0
 20
0.0
 30
0.0
  3
DMBLK28
  1

  0
HATCH
  5
14E
330
14D
100
AcDbEntity
  8
Default
  6
Continuous
 62
     7
100
AcDbHatch
 10
0.0
 20
0.0
 30
0.0
210
0.0
220
0.0
230
1.0
  2
SOLID
 70
     1
 71
     0
 91
        1
 92
        1
 93
        3
 72
     1
 10
244.1839532990342
 20
145.929518764508
 11
244.1839532990342
 21
144.7628520618302
 72
     1
 10
244.1839532990342
 20
144.7628520618302
 11
247.6839534070677
 21
145.3461854131691
 72
     1
 10
247.6839534070677
 20
145.3461854131691
 11
244.1839532990342
 21
145.929518764508
 97
        0
 75
     0
 76
     1
 98
        0
  0
HATCH
  5
14F
330
14D
100
AcDbEntity
  8
Default
  6
Continuous
 62
     7
100
AcDbHatch
 10
0.0
 20
0.0
 30
0.0
210
0.0
220
0.0
230
1.0
  2
SOLID
 70
     1
 71
     0
 91
        1
 92
        1
 93
        3
 72
     1
 10
238.1839532468802
 20
145.929518764508
 11
234.6839531388468
 21
145.3461854131691
 72
     1
 10
234.6839531388468
 20
145.3461854131691
 11
238.1839532468802
 21
144.7628520618302
 72
     1
 10
238.1839532468802
 20
144.7628520618302
 11
238.1839532468802
 21
145.929518764508
 97
        0
 75
     0
 76
     1
 98
        0
  0
LINE
  5
150
330
14D
100
AcDbEntity
  8
Default
  6
Continuous
 62
     7
100
AcDbLine
 10
247.6839534071
 20
130.6524828421
 30
0.0
 11
247.6839534071
 21
147.0961854672
 31
0.0
  0
LINE
  5
151
330
14D
100
AcDbEntity
  8
Default
  6
Continuous
 62
     7
100
AcDbLine
 10
234.6839534071
 20
131.8049890643
 30
0.0
 11
234.6839534071
 21
147.0961854672
 31
0.0
  0
LINE
  5
152
330
14D
100
AcDbEntity
  8
Default
  6
Continuous
 62
     7
100
AcDbLine
 10
247.6839534071
 20
145.3461854132
 30
0.0
 11
234.6839531388
 21
145.3461854132
 31
0.0
  0
TEXT
  5
153
330
14D
100
AcDbEntity
  8
Default
  6
Continuous
 62
     7
100
AcDbText
 10
239.5532714548
 20
146.2211854132
 30
0.0
 40
3.5
  1
13
  7
SEACAD_Solid_Edge_ISO
 11
239.5532714548
 21
149.7211854132
 31
0.0
100
AcDbText
 73
     3
  0
ENDBLK
  5
155
330
14D
100
AcDbEntity
  8
0
100
AcDbBlockEnd
  0
BLOCK
  5
15E
330
157
100
AcDbEntity
  8
0
100
AcDbBlockBegin
  2
DMBLK29
 70
     0
 10
0.0
 20
0.0
 30
0.0
  3
DMBLK29
  1

  0
HATCH
  5
158
330
157
100
AcDbEntity
  8
Default
  6
Continuous
 62
     7
100
AcDbHatch
 10
0.0
 20
0.0
 30
0.0
210
0.0
220
0.0
230
1.0
  2
SOLID
 70
     1
 71
     0
 91
        1
 92
        1
 93
        3
 72
     1
 10
184.1839535151011
 20
154.5366446269324
 11
180.6839534070677
 21
153.9533112755935
 72
     1
 10
180.6839534070677
 20
153.9533112755935
 11
184.1839535151011
 21
153.3699779242546
 72
     1
 10
184.1839535151011
 20
153.3699779242546
 11
184.1839535151011
 21
154.5366446269324
 97
        0
 75
     0
 76
     1
 98
        0
  0
HATCH
  5
159
330
157
100
AcDbEntity
  8
Default
  6
Continuous
 62
     7
100
AcDbHatch
 10
0.0
 20
0.0
 30
0.0
210
0.0
220
0.0
230
1.0
  2
SOLID
 70
     1
 71
     0
 91
        1
 92
        1
 93
        3
 72
     1
 10
244.1839549679643
 20
154.5366446269324
 11
244.1839549679643
 21
153.3699779242546
 72
     1
 10
244.1839549679643
 20
153.3699779242546
 11
247.6839550759977
 21
153.9533112755935
 72
     1
 10
247.6839550759977
 20
153.9533112755935
 11
244.1839549679643
 21
154.5366446269324
 97
        0
 75
     0
 76
     1
 98
        0
  0
LINE
  5
15A
330
157
100
AcDbEntity
  8
Default
  6
Continuous
 62
     7
100
AcDbLine
 10
180.6839534071
 20
121.8480144254
 30
0.0
 11
180.6839534071
 21
155.7033113296
 31
0.0
  0
LINE
  5
15B
330
157
100
AcDbEntity
  8
Default
  6
Continuous
 62
     7
100
AcDbLine
 10
247.6839534071
 20
130.6524828421
 30
0.0
 11
247.6839534071
 21
155.7033113296
 31
0.0
  0
LINE
  5
15C
330
157
100
AcDbEntity
  8
Default
  6
Continuous
 62
     7
100
AcDbLine
 10
180.6839534071
 20
153.9533112756
 30
0.0
 11
247.683955076
 21
153.9533112756
 31
0.0
  0
TEXT
  5
15D
330
157
100
AcDbEntity
  8
Default
  6
Continuous
 62
     7
100
AcDbText
 10
211.9964542415
 20
154.8283112756
 30
0.0
 40
3.5
  1
67
  7
SEACAD_Solid_Edge_ISO
 11
211.9964542415
 21
158.3283112756
 31
0.0
100
AcDbText
 73
     3
  0
ENDBLK
  5
15F
330
157
100
AcDbEntity
  8
0
100
AcDbBlockEnd
  0
BLOCK
  5
168
330
160
100
AcDbEntity
  8
0
100
AcDbBlockBegin
  2
GDimGGroup
 70
     0
 10
0.0
 20
0.0
 30
0.0
  3
GDimGGroup
  1

  0
HATCH
  5
162
330
160
100
AcDbEntity
  8
Default
  6
Continuous
 62
     7
100
AcDbHatch
 10
0.0
 20
0.0
 30
0.0
210
0.0
220
0.0
230
1.0
  2
SOLID
 70
     1
 71
     0
 91
        1
 92
        1
 93
        3
 72
     1
 10
167.9127905016478
 20
128.1524827340419
 11
169.0794572043256
 21
128.1524827340419
 72
     1
 10
169.0794572043256
 20
128.1524827340419
 11
168.4961238529867
 21
131.6524828420753
 72
     1
 10
168.4961238529867
 20
131.6524828420753
 11
167.9127905016478
 21
128.1524827340419
 97
        0
 75
     0
 76
     1
 98
        0
  0
HATCH
  5
163
330
160
100
AcDbEntity
  8
Default
  6
Continuous
 62
     7
100
AcDbHatch
 10
0.0
 20
0.0
 30
0.0
210
0.0
220
0.0
230
1.0
  2
SOLID
 70
     1
 71
     0
 91
        1
 92
        1
 93
        3
 72
     1
 10
167.9127905016478
 20
85.1524822050507
 11
168.4961238529867
 21
81.65248209701728
 72
     1
 10
168.4961238529867
 20
81.65248209701728
 11
169.0794572043256
 21
85.1524822050507
 72
     1
 10
169.0794572043256
 20
85.1524822050507
 11
167.9127905016478
 21
85.1524822050507
 97
        0
 75
     0
 76
     1
 98
        0
  0
LINE
  5
164
330
160
100
AcDbEntity
  8
Default
  6
Continuous
 62
     7
100
AcDbLine
 10
216.6839534071
 20
131.6524828421
 30
0.0
 11
166.746123799
 21
131.6524828421
 31
0.0
  0
LINE
  5
165
330
160
100
AcDbEntity
  8
Default
  6
Continuous
 62
     7
100
AcDbLine
 10
216.6839534071
 20
81.6524828421
 30
0.0
 11
166.746123799
 21
81.6524828421
 31
0.0
  0
LINE
  5
166
330
160
100
AcDbEntity
  8
Default
  6
Continuous
 62
     7
100
AcDbLine
 10
168.496123853
 20
131.6524828421
 30
0.0
 11
168.496123853
 21
81.652482097
 31
0.0
  0
TEXT
  5
167
330
160
100
AcDbEntity
  8
Default
  6
Continuous
 62
     7
100
AcDbText
 10
167.621123853
 20
98.4115733786
 30
0.0
 40
3.5
  1
M50 x 1.5
 50
90.0
  7
SEACAD_Solid_Edge_ISO
 11
164.121123853
 21
98.4115733786
 31
0.0
100
AcDbText
 73
     3
  0
ENDBLK
  5
169
330
160
100
AcDbEntity
  8
0
100
AcDbBlockEnd
  0
BLOCK
  5
172
330
16A
100
AcDbEntity
  8
0
100
AcDbBlockBegin
  2
GDimGGroup1
 70
     0
 10
0.0
 20
0.0
 30
0.0
  3
GDimGGroup1
  1

  0
HATCH
  5
16C
330
16A
100
AcDbEntity
  8
Default
  6
Continuous
 62
     7
100
AcDbHatch
 10
0.0
 20
0.0
 30
0.0
210
0.0
220
0.0
230
1.0
  2
SOLID
 70
     1
 71
     0
 91
        1
 92
        1
 93
        3
 72
     1
 10
263.9000392514305
 20
128.1524827340419
 11
263.3167059000916
 21
131.6524828420753
 72
     1
 10
263.3167059000916
 20
131.6524828420753
 11
262.7333725487527
 21
128.1524827340419
 72
     1
 10
262.7333725487527
 20
128.1524827340419
 11
263.9000392514305
 21
128.1524827340419
 97
        0
 75
     0
 76
     1
 98
        0
  0
HATCH
  5
16D
330
16A
100
AcDbEntity
  8
Default
  6
Continuous
 62
     7
100
AcDbHatch
 10
0.0
 20
0.0
 30
0.0
210
0.0
220
0.0
230
1.0
  2
SOLID
 70
     1
 71
     0
 91
        1
 92
        1
 93
        3
 72
     1
 10
263.9000392514305
 20
85.1524822050507
 11
262.7333725487527
 21
85.1524822050507
 72
     1
 10
262.7333725487527
 20
85.1524822050507
 11
263.3167059000916
 21
81.65248209701728
 72
     1
 10
263.3167059000916
 20
81.65248209701728
 11
263.9000392514305
 21
85.1524822050507
 97
        0
 75
     0
 76
     1
 98
        0
  0
LINE
  5
16E
330
16A
100
AcDbEntity
  8
Default
  6
Continuous
 62
     7
100
AcDbLine
 10
246.6839534071
 20
131.6524828421
 30
0.0
 11
265.0667059541
 21
131.6524828421
 31
0.0
  0
LINE
  5
16F
330
16A
100
AcDbEntity
  8
Default
  6
Continuous
 62
     7
100
AcDbLine
 10
246.6839534071
 20
81.6524828421
 30
0.0
 11
265.0667059541
 21
81.6524828421
 31
0.0
  0
LINE
  5
170
330
16A
100
AcDbEntity
  8
Default
  6
Continuous
 62
     7
100
AcDbLine
 10
263.3167059001
 20
131.6524828421
 30
0.0
 11
263.3167059001
 21
81.652482097
 31
0.0
  0
TEXT
  5
171
330
16A
100
AcDbEntity
  8
Default
  6
Continuous
 62
     7
100
AcDbText
 10
262.4417059001
 20
98.4115733786
 30
0.0
 40
3.5
  1
M50 x 1.5
 50
90.0
  7
SEACAD_Solid_Edge_ISO
 11
258.9417059001
 21
98.4115733786
 31
0.0
100
AcDbText
 73
     3
  0
ENDBLK
  5
173
330
16A
100
AcDbEntity
  8
0
100
AcDbBlockEnd
  0
BLOCK
  5
17E
330
176
100
AcDbEntity
  8
0
100
AcDbBlockBegin
  2
DMBLK30
 70
     0
 10
0.0
 20
0.0
 30
0.0
  3
DMBLK30
  1

  0
LINE
  5
177
330
176
100
AcDbEntity
  8
Default
  6
Continuous
 62
     7
100
AcDbLine
 10
68.0513307014
 20
86.3925498205
 30
0.0
 11
115.899326512
 21
126.9124180516
 31
0.0
  0
LINE
  5
178
330
176
100
AcDbEntity
  8
Default
  6
Continuous
 62
     7
100
AcDbLine
 10
115.8993239284
 20
126.9124158637
 30
0.0
 11
133.7336737248
 21
142.0153578259
 31
0.0
  0
HATCH
  5
179
330
176
100
AcDbEntity
  8
Default
  6
Continuous
 62
     7
100
AcDbHatch
 10
0.0
 20
0.0
 30
0.0
210
0.0
220
0.0
230
1.0
  2
SOLID
 70
     1
 71
     0
 91
        1
 92
        1
 93
        3
 72
     1
 10
70.345292299645
 20
89.09958117253049
 11
68.05133070142018
 21
86.39254982049778
 72
     1
 10
68.05133070142018
 20
86.39254982049776
 11
71.0992504895894
 21
88.20926760813148
 72
     1
 10
71.09925048958938
 20
88.20926760813148
 11
70.34529229964498
 21
89.09958117253049
 97
        0
 75
     0
 76
     1
 98
        0
  0
HATCH
  5
17A
330
176
100
AcDbEntity
  8
Default
  6
Continuous
 62
     7
100
AcDbHatch
 10
0.0
 20
0.0
 30
0.0
210
0.0
220
0.0
230
1.0
  2
SOLID
 70
     1
 71
     0
 91
        1
 92
        1
 93
        3
 72
     1
 10
112.8514041401854
 20
125.0956980760192
 11
113.6053623301298
 21
124.2053845116202
 72
     1
 10
113.6053623301298
 20
124.2053845116202
 11
115.8993239283546
 21
126.9124158636529
 72
     1
 10
115.8993239283546
 20
126.9124158636529
 11
112.8514041401854
 21
125.0956980760192
 97
        0
 75
     0
 76
     1
 98
        0
  0
ARC
  5
17B
330
176
100
AcDbEntity
  8
Default
  6
Continuous
 62
     7
100
AcDbCircle
 10
91.9753273149
 20
106.6524828421
 30
0.0
 40
31.34999999999999
100
AcDbArc
 50
217.0611212706
 51
6.2860387457
  0
TEXT
  5
17C
330
176
100
AcDbEntity
  8
Default
  6
Continuous
 62
     7
100
AcDbText
 10
126.7700910152
 20
137.2648777484
 30
0.0
 40
3.5
  1
62,7
 50
40.2594502706
  7
SEACAD_Solid_Edge_ISO
 11
124.5082165152
 21
139.9358183592
 31
0.0
100
AcDbText
 73
     3
  0
TEXT
  5
17D
330
176
100
AcDbEntity
  8
Default
  6
Continuous
 62
     7
100
AcDbText
 10
122.9229993635
 20
134.0069848282
 30
0.0
 40
3.5
  1
O
 50
40.2594502706
  7
SEACAD_Solid_Edge_ISO1_Symbols
 11
120.6611248635
 21
136.677925439
 31
0.0
100
AcDbText
 73
     3
  0
ENDBLK
  5
17F
330
176
100
AcDbEntity
  8
0
100
AcDbBlockEnd
  0
BLOCK
  5
188
330
181
100
AcDbEntity
  8
0
100
AcDbBlockBegin
  2
DMBLK31
 70
     0
 10
0.0
 20
0.0
 30
0.0
  3
DMBLK31
  1

  0
HATCH
  5
182
330
181
100
AcDbEntity
  8
Default
  6
Continuous
 62
     7
100
AcDbHatch
 10
0.0
 20
0.0
 30
0.0
210
0.0
220
0.0
230
1.0
  2
SOLID
 70
     1
 71
     0
 91
        1
 92
        1
 93
        3
 72
     1
 10
184.1839535151011
 20
137.7366452259591
 11
180.6839534070677
 21
137.1533118746202
 72
     1
 10
180.6839534070677
 20
137.1533118746202
 11
184.1839535151011
 21
136.5699785232813
 72
     1
 10
184.1839535151011
 20
136.5699785232813
 11
184.1839535151011
 21
137.7366452259591
 97
        0
 75
     0
 76
     1
 98
        0
  0
HATCH
  5
183
330
181
100
AcDbEntity
  8
Default
  6
Continuous
 62
     7
100
AcDbHatch
 10
0.0
 20
0.0
 30
0.0
210
0.0
220
0.0
230
1.0
  2
SOLID
 70
     1
 71
     0
 91
        1
 92
        1
 93
        3
 72
     1
 10
209.1839548189527
 20
137.7366452259591
 11
209.1839548189527
 21
136.5699785232813
 72
     1
 10
209.1839548189527
 20
136.5699785232813
 11
212.6839549269861
 21
137.1533118746202
 72
     1
 10
212.6839549269861
 20
137.1533118746202
 11
209.1839548189527
 21
137.7366452259591
 97
        0
 75
     0
 76
     1
 98
        0
  0
LINE
  5
184
330
181
100
AcDbEntity
  8
Default
  6
Continuous
 62
     7
100
AcDbLine
 10
180.6839534071
 20
121.8480144254
 30
0.0
 11
180.6839534071
 21
138.9033119286
 31
0.0
  0
LINE
  5
185
330
181
100
AcDbEntity
  8
Default
  6
Continuous
 62
     7
100
AcDbLine
 10
212.6839534071
 20
129.6524828421
 30
0.0
 11
212.6839534071
 21
138.9033119286
 31
0.0
  0
LINE
  5
186
330
181
100
AcDbEntity
  8
Default
  6
Continuous
 62
     7
100
AcDbLine
 10
180.6839534071
 20
137.1533118746
 30
0.0
 11
212.683954927
 21
137.1533118746
 31
0.0
  0
TEXT
  5
187
330
181
100
AcDbEntity
  8
Default
  6
Continuous
 62
     7
100
AcDbText
 10
194.6953178034
 20
138.0283118746
 30
0.0
 40
3.5
  1
32
  7
SEACAD_Solid_Edge_ISO
 11
194.6953178034
 21
141.5283118746
 31
0.0
100
AcDbText
 73
     3
  0
ENDBLK
  5
189
330
181
100
AcDbEntity
  8
0
100
AcDbBlockEnd
  0
BLOCK
  5
18E
330
18A
100
AcDbEntity
  8
0
100
AcDbBlockBegin
  2
SEANNOT_GROUP
 70
     0
 10
0.0
 20
0.0
 30
0.0
  3
SEANNOT_GROUP
  1

  0
TEXT
  5
18C
330
18A
100
AcDbEntity
  8
Default
  6
Continuous
 62
     7
100
AcDbText
 10
243.1483969886
 20
25.7525109624
 30
0.0
 40
3.5
  1
379984000
  7
SEACAD_Solid_Edge_ISOB
 11
243.1483969886
 21
29.2525109624
 31
0.0
100
AcDbText
 73
     3
  0
TEXT
  5
18D
330
18A
100
AcDbEntity
  8
Default
  6
Continuous
 62
     7
100
AcDbText
 10
261.7620333522
 20
25.7525109624
 30
0.0
 40
3.5
  1
 
  7
SEACAD_Solid_Edge_ISOB
 11
261.7620333522
 21
29.2525109624
 31
0.0
100
AcDbText
 73
     3
  0
ENDBLK
  5
18F
330
18A
100
AcDbEntity
  8
0
100
AcDbBlockEnd
  0
BLOCK
  5
192
330
190
100
AcDbEntity
  8
0
100
AcDbBlockBegin
  2
SEANNOT_GROUP1
 70
     0
 10
0.0
 20
0.0
 30
0.0
  3
SEANNOT_GROUP1
  1

  0
TEXT
  5
191
330
190
100
AcDbEntity
  8
Default
  6
Continuous
 62
     7
100
AcDbText
 10
243.1477357349
 20
20.0537100543
 30
0.0
 40
3.5
  1
19.08.2015
  7
SEACAD_Solid_Edge_ISO
 11
243.1477357349
 21
23.5537100543
 31
0.0
100
AcDbText
 73
     3
  0
ENDBLK
  5
193
330
190
100
AcDbEntity
  8
0
100
AcDbBlockEnd
  0
BLOCK
  5
197
330
194
100
AcDbEntity
  8
0
100
AcDbBlockBegin
  2
SEANNOT_GROUP2
 70
     0
 10
0.0
 20
0.0
 30
0.0
  3
SEANNOT_GROUP2
  1

  0
TEXT
  5
195
330
194
100
AcDbEntity
  8
Default
  6
Continuous
 62
     7
100
AcDbText
 10
243.1795282745
 20
31.5598894014
 30
0.0
 40
3.5
  1
RC-ADP 40
  7
SEACAD_Solid_Edge_ISOB
 11
243.1795282745
 21
35.0598894014
 31
0.0
100
AcDbText
 73
     3
  0
TEXT
  5
196
330
194
100
AcDbEntity
  8
Default
  6
Continuous
 62
     7
100
AcDbText
 10
260.5204373654
 20
31.5598894014
 30
0.0
 40
3.5
  1
 
  7
SEACAD_Solid_Edge_ISOB
 11
260.5204373654
 21
35.0598894014
 31
0.0
100
AcDbText
 73
     3
  0
ENDBLK
  5
198
330
194
100
AcDbEntity
  8
0
100
AcDbBlockEnd
  0
BLOCK
  5
19B
330
199
100
AcDbEntity
  8
0
100
AcDbBlockBegin
  2
SEANNOT_GROUP3
 70
     0
 10
0.0
 20
0.0
 30
0.0
  3
SEANNOT_GROUP3
  1

  0
TEXT
  5
19A
330
199
100
AcDbEntity
  8
Default
  6
Continuous
 62
     7
100
AcDbText
 10
243.2357917511
 20
14.1955389783
 30
0.0
 40
3.5
  1
1:1
  7
SEACAD_Solid_Edge_ISO
 11
243.2357917511
 21
17.6955389783
 31
0.0
100
AcDbText
 73
     3
  0
ENDBLK
  5
19C
330
199
100
AcDbEntity
  8
0
100
AcDbBlockEnd
  0
BLOCK
  5
24E
330
19D
100
AcDbEntity
  8
0
100
AcDbBlockBegin
  2
RF-Massblatt_ZR
 70
     0
 10
0.0
 20
0.0
 30
0.0
  3
RF-Massblatt_ZR
  1

  0
MTEXT
  5
19E
102
{ACAD_XDICTIONARY
360
258
102
}
330
19D
100
AcDbEntity
  8
Default
100
AcDbMText
 10
15.2206856049
 20
34.9613084294
 30
0.0
 40
2.5
 41
39.4575344727
 71
     1
 72
     1
  3
{\fSolid Edge ISO|b0||i0||c0|p34;\C7;\H2.5;\W1.;REGO-FIX AG\P}{\fSolid Edge ISO|b0||i0||c0|p34;\C7;\H2.5;\W1.;Obermattweg 60\P}{\fSolid Edge ISO|b0||i0||c0|p34;\C7;\H2.5;\W1.;4456 Tenniken / Switzerland\P}{\fSolid Edge ISO|b0||i0||c0|p34;\C7;\H2.5;\
  1
W1.;\P}{\fSolid Edge ISO|b0||i0||c0|p34;\C7;\H2.5;\W1.;Phone  +41 61 976 14 66\P}{\fSolid Edge ISO|b0||i0||c0|p34;\C7;\H2.5;\W1.;Fax     +41 61 976 14 14\P}{\fSolid Edge ISO|b0||i0||c0|p34;\C7;\H2.5;\W1.;www.rego-fix.com}
 73
     1
 44
1.0
1001
ACAD
1000
ACAD_MTEXT_DEFINED_HEIGHT_BEGIN
1070
    46
1040
29.1915434454
1000
ACAD_MTEXT_DEFINED_HEIGHT_END
  0
MTEXT
  5
19F
102
{ACAD_XDICTIONARY
360
25A
102
}
330
19D
100
AcDbEntity
  8
Default
100
AcDbMText
 10
90.3836341545
 20
34.5483194895
 30
0.0
 40
2.5
 41
101.918604533
 71
     1
 72
     1
  3
{\fSolid Edge ISO|b0||i0||c0|p34;\C7;\H1.8;\W1.;This is a non-controlled copy. All information given herein is subject to change without notice\P}{\fSolid Edge ISO|b0||i0||c0|p34;\C7;\H1.8;\W1.;\P}{\fSolid Edge ISO|b0||i0||c0|p34;\C7;\H1.8;\W1.;The 
  3
information given herein has been carefully checked and is believed to be correct. REGO-FIX,\P}{\fSolid Edge ISO|b0||i0||c0|p34;\C7;\H1.8;\W1.;however, assumes no responsibility or liability for any errors, inaccuracies or omissions that may appear\
  3
P}{\fSolid Edge ISO|b0||i0||c0|p34;\C7;\H1.8;\W1.;in this drawing\P}{\fSolid Edge ISO|b0||i0||c0|p34;\C7;\H1.8;\W1.;\P}{\fSolid Edge ISO|b0||i0||c0|p34;\C7;\H1.8;\W1.;This document is subject to copyright laws. No part of this document may be reprod
  3
uced or transmitted\P}{\fSolid Edge ISO|b0||i0||c0|p34;\C7;\H1.8;\W1.;in any form or any means, electronic or mechanic, for any purpose, without the express written permission\P}{\fSolid Edge ISO|b0||i0||c0|p34;\C7;\H1.8;\W1.;of REGO-FIX\P}{\fSolid 
  1
Edge ISO|b0||i0||c0|p34;\C7;\H1.8;\W1.;\P}
 73
     1
 44
1.0
1001
ACAD
1000
ACAD_MTEXT_DEFINED_HEIGHT_BEGIN
1070
    46
1040
29.4545554545
1000
ACAD_MTEXT_DEFINED_HEIGHT_END
  0
INSERT
  5
1A0
330
19D
100
AcDbEntity
  8
Default
100
AcDbBlockReference
  2
SEANNOT_GROUP
 10
0.0
 20
0.0
 30
0.0
  0
INSERT
  5
1A1
330
19D
100
AcDbEntity
  8
Default
100
AcDbBlockReference
  2
SEANNOT_GROUP1
 10
0.0
 20
0.0
 30
0.0
  0
MTEXT
  5
1A2
102
{ACAD_XDICTIONARY
360
25C
102
}
330
19D
100
AcDbEntity
  8
Default
100
AcDbMText
 10
222.0323311835
 20
34.9392490761
 30
0.0
 40
2.5
 41
20.1335141444
 71
     1
 72
     1
  1
{\fSolid Edge ISO|b0||i0||c0|p34;\C7;\H3.5;\W1.;Type :\P}{\fSolid Edge ISO|b0||i0||c0|p34;\C7;\H3.5;\W1.;Part No. :\P}{\fSolid Edge ISO|b0||i0||c0|p34;\C7;\H3.5;\W1.;Date : \P}{\fSolid Edge ISO|b0||i0||c0|p34;\C7;\H3.5;\W1.;Scale :}
 73
     1
 44
1.0
1001
ACAD
1000
ACAD_MTEXT_DEFINED_HEIGHT_BEGIN
1070
    46
1040
22.9091009091
1000
ACAD_MTEXT_DEFINED_HEIGHT_END
  0
HATCH
  5
1A3
330
19D
100
AcDbEntity
  8
Default
  6
Continuous
 62
     7
100
AcDbHatch
 10
0.0
 20
0.0
 30
0.0
210
0.0
220
0.0
230
1.0
  2
SOLID
 70
     1
 71
     0
 91
        2
 92
        1
 93
        8
 72
     1
 10
42.32151487645756
 20
194.9385447651445
 11
42.32151487645756
 21
185.754685531833
 72
     1
 10
42.32151487645756
 20
185.754685531833
 11
44.71349367764382
 21
185.754685531833
 72
     1
 10
44.71349367764382
 20
185.754685531833
 11
44.71349367764383
 21
189.3282899440406
 72
     1
 10
44.71349367764383
 20
189.3282899440406
 11
47.00448595301438
 21
185.7478114001811
 72
     1
 10
47.00448595301438
 20
185.7478114001811
 11
49.97291566094713
 21
185.7478114001811
 72
     1
 10
49.97291566094713
 20
185.7478114001811
 11
47.10204571873984
 21
189.5154994518056
 72
     4
 94
        3
 73
     0
 74
     0
 95
       13
 96
        9
 40
0.0
 40
0.0
 40
0.0
 40
0.0
 40
0.1682415633710326
 40
0.3112681914447826
 40
0.5539761544022483
 40
0.7107596191140148
 40
0.8308266189414909
 40
1.0
 40
1.0
 40
1.0
 40
1.0
 10
47.10204571873983
 20
189.5154994518056
 10
47.5931902595439
 20
189.6265805291013
 10
48.41052790741877
 20
189.9866544242094
 10
49.14927051893395
 20
191.374603553537
 10
49.14927051893395
 20
192.9422769694344
 10
48.41052790741877
 20
194.2009180278366
 10
47.29934300891939
 20
194.8460946065546
 10
46.49304789960713
 20
194.9385447651445
 10
45.98580602652625
 20
194.9385447651445
 72
     1
 10
45.98580602652625
 20
194.9385447651445
 11
42.32151487645756
 21
194.9385447651445
 97
        0
 92
        1
 93
        4
 72
     4
 94
        3
 73
     0
 74
     0
 95
       12
 96
        8
 40
0.0
 40
0.0
 40
0.0
 40
0.0
 40
0.2394376657705028
 40
0.4132736096609977
 40
0.5875160438247272
 40
0.777186877551972
 40
1.0
 40
1.0
 40
1.0
 40
1.0
 10
45.44995777665132
 20
190.809244951587
 10
45.7438733344969
 20
190.809244951587
 10
46.29138342069198
 20
191.0091856468439
 10
46.60356878458519
 20
191.6212126027502
 10
46.60356878458519
 20
192.3024082097274
 10
46.29138342069198
 20
192.9158248437984
 10
45.7438733344969
 20
193.1018851122585
 10
45.44995777665132
 20
193.1018851122585
 72
     1
 10
45.44995777665132
 20
193.1018851122585
 11
44.71349367764383
 21
193.1018851122585
 72
     1
 10
44.71349367764383
 20
193.1018851122585
 11
44.71349367764383
 21
190.809244951587
 72
     1
 10
44.71349367764383
 20
190.809244951587
 11
45.44995777665132
 21
190.809244951587
 97
        0
 75
     0
 76
     1
 98
        0
  0
LINE
  5
1A4
330
19D
100
AcDbEntity
  8
Default
  6
Continuous
 62
     7
100
AcDbLine
 10
42.3215148765
 20
194.9385447651
 30
0.0
 11
42.3215148765
 21
185.7546855318
 31
0.0
  0
LINE
  5
1A5
330
19D
100
AcDbEntity
  8
Default
  6
Continuous
 62
     7
100
AcDbLine
 10
42.3215148765
 20
185.7546855318
 30
0.0
 11
44.7134936776
 21
185.7546855318
 31
0.0
  0
LINE
  5
1A6
330
19D
100
AcDbEntity
  8
Default
  6
Continuous
 62
     7
100
AcDbLine
 10
44.7134936776
 20
185.7546855318
 30
0.0
 11
44.7134936776
 21
189.328289944
 31
0.0
  0
LINE
  5
1A7
330
19D
100
AcDbEntity
  8
Default
  6
Continuous
 62
     7
100
AcDbLine
 10
44.7134936776
 20
189.328289944
 30
0.0
 11
47.004485953
 21
185.7478114002
 31
0.0
  0
LINE
  5
1A8
330
19D
100
AcDbEntity
  8
Default
  6
Continuous
 62
     7
100
AcDbLine
 10
47.004485953
 20
185.7478114002
 30
0.0
 11
49.9729156609
 21
185.7478114002
 31
0.0
  0
LINE
  5
1A9
330
19D
100
AcDbEntity
  8
Default
  6
Continuous
 62
     7
100
AcDbLine
 10
49.9729156609
 20
185.7478114002
 30
0.0
 11
47.1020457187
 21
189.5154994518
 31
0.0
  0
SPLINE
  5
1AA
330
19D
100
AcDbEntity
  8
Default
  6
Continuous
 62
     7
100
AcDbSpline
210
0.0
220
0.0
230
1.0
 70
     8
 71
     3
 72
    13
 73
     9
 74
     0
 42
0.0000000011628157
 43
0.0000000001
 12
1.0
 22
0.0
 32
0.0
 13
1.0
 23
0.0
 33
0.0
 40
0.0
 40
0.0
 40
0.0
 40
0.0
 40
0.1691733810585091
 40
0.2892403808859852
 40
0.4460238455977516
 40
0.6887318085552174
 40
0.8317584366289674
 40
1.0
 40
1.0
 40
1.0
 40
1.0
 10
45.98580602652625
 20
194.9385447651445
 30
0.0
 10
46.49304789960713
 20
194.9385447651445
 30
0.0
 10
47.29934300891939
 20
194.8460946065546
 30
0.0
 10
48.41052790741877
 20
194.2009180278366
 30
0.0
 10
49.14927051893395
 20
192.9422769694344
 30
0.0
 10
49.14927051893395
 20
191.374603553537
 30
0.0
 10
48.41052790741877
 20
189.9866544242094
 30
0.0
 10
47.5931902595439
 20
189.6265805291013
 30
0.0
 10
47.10204571873983
 20
189.5154994518056
 30
0.0
  0
LINE
  5
1AB
330
19D
100
AcDbEntity
  8
Default
  6
Continuous
 62
     7
100
AcDbLine
 10
42.3215148765
 20
194.9385447651
 30
0.0
 11
45.9858060265
 21
194.9385447651
 31
0.0
  0
LINE
  5
1AC
330
19D
100
AcDbEntity
  8
Default
  6
Continuous
 62
     7
100
AcDbLine
 10
44.7134936776
 20
190.8092449516
 30
0.0
 11
44.7134936776
 21
193.1018851123
 31
0.0
  0
LINE
  5
1AD
330
19D
100
AcDbEntity
  8
Default
  6
Continuous
 62
     7
100
AcDbLine
 10
44.7134936776
 20
193.1018851123
 30
0.0
 11
45.4499577767
 21
193.1018851123
 31
0.0
  0
SPLINE
  5
1AE
330
19D
100
AcDbEntity
  8
Default
  6
Continuous
 62
     7
100
AcDbSpline
210
0.0
220
0.0
230
1.0
 70
     8
 71
     3
 72
    12
 73
     8
 74
     0
 42
0.0000000026277758
 43
0.0000000001
 12
1.0
 22
0.0
 32
0.0
 13
1.0
 23
0.0
 33
0.0
 40
0.0
 40
0.0
 40
0.0
 40
0.0
 40
0.222813122448028
 40
0.4124839561752728
 40
0.5867263903390023
 40
0.7605623342294972
 40
1.0
 40
1.0
 40
1.0
 40
1.0
 10
45.44995777665132
 20
193.1018851122585
 30
0.0
 10
45.7438733344969
 20
193.1018851122585
 30
0.0
 10
46.29138342069198
 20
192.9158248437984
 30
0.0
 10
46.60356878458519
 20
192.3024082097274
 30
0.0
 10
46.60356878458519
 20
191.6212126027502
 30
0.0
 10
46.29138342069198
 20
191.0091856468439
 30
0.0
 10
45.7438733344969
 20
190.809244951587
 30
0.0
 10
45.44995777665132
 20
190.809244951587
 30
0.0
  0
LINE
  5
1AF
330
19D
100
AcDbEntity
  8
Default
  6
Continuous
 62
     7
100
AcDbLine
 10
45.4499577767
 20
190.8092449516
 30
0.0
 11
44.7134936776
 21
190.8092449516
 31
0.0
  0
HATCH
  5
1B0
330
19D
100
AcDbEntity
  8
Default
  6
Continuous
 62
     7
100
AcDbHatch
 10
0.0
 20
0.0
 30
0.0
210
0.0
220
0.0
230
1.0
  2
SOLID
 70
     1
 71
     0
 91
        1
 92
        1
 93
       12
 72
     1
 10
52.60362221190818
 20
187.798730559416
 11
52.60362221190818
 21
189.3556342128608
 72
     1
 10
52.60362221190818
 20
189.3556342128608
 11
55.28097979562975
 21
189.3556342128608
 72
     1
 10
55.28097979562974
 20
189.3556342128608
 11
55.28097979562974
 21
191.3941140266129
 72
     1
 10
55.28097979562974
 20
191.3941140266129
 11
52.59678034187073
 21
191.3941140266129
 72
     1
 10
52.59678034187073
 20
191.3941140266129
 11
52.59678034187074
 21
192.8944997375615
 72
     1
 10
52.59678034187074
 20
192.8944997375615
 11
55.41613119856132
 21
192.8944997375615
 72
     1
 10
55.41613119856132
 20
192.8944997375615
 11
55.41613119856132
 21
194.9385447651445
 72
     1
 10
55.41613119856132
 20
194.9385447651445
 11
50.21398623070634
 21
194.9385447651445
 72
     1
 10
50.21398623070634
 20
194.9385447651445
 11
50.21398623070634
 21
185.754685531833
 72
     1
 10
50.21398623070634
 20
185.754685531833
 11
55.41613119856132
 21
185.754685531833
 72
     1
 10
55.41613119856132
 20
185.754685531833
 11
55.41613119856132
 21
187.798730559416
 72
     1
 10
55.41613119856132
 20
187.798730559416
 11
52.60362221190818
 21
187.798730559416
 97
        0
 75
     0
 76
     1
 98
        0
  0
LINE
  5
1B1
330
19D
100
AcDbEntity
  8
Default
  6
Continuous
 62
     7
100
AcDbLine
 10
52.6036222119
 20
189.3556342129
 30
0.0
 11
52.6036222119
 21
187.7987305594
 31
0.0
  0
LINE
  5
1B2
330
19D
100
AcDbEntity
  8
Default
  6
Continuous
 62
     7
100
AcDbLine
 10
55.2809797956
 20
189.3556342129
 30
0.0
 11
52.6036222119
 21
189.3556342129
 31
0.0
  0
LINE
  5
1B3
330
19D
100
AcDbEntity
  8
Default
  6
Continuous
 62
     7
100
AcDbLine
 10
55.2809797956
 20
191.3941140266
 30
0.0
 11
55.2809797956
 21
189.3556342129
 31
0.0
  0
LINE
  5
1B4
330
19D
100
AcDbEntity
  8
Default
  6
Continuous
 62
     7
100
AcDbLine
 10
55.2809797956
 20
191.3941140266
 30
0.0
 11
52.5967803419
 21
191.3941140266
 31
0.0
  0
LINE
  5
1B5
330
19D
100
AcDbEntity
  8
Default
  6
Continuous
 62
     7
100
AcDbLine
 10
52.5967803419
 20
191.3941140266
 30
0.0
 11
52.5967803419
 21
192.8944997376
 31
0.0
  0
LINE
  5
1B6
330
19D
100
AcDbEntity
  8
Default
  6
Continuous
 62
     7
100
AcDbLine
 10
55.4161311986
 20
192.8944997376
 30
0.0
 11
52.5967803419
 21
192.8944997376
 31
0.0
  0
LINE
  5
1B7
330
19D
100
AcDbEntity
  8
Default
  6
Continuous
 62
     7
100
AcDbLine
 10
55.4161311986
 20
194.9385447651
 30
0.0
 11
55.4161311986
 21
192.8944997376
 31
0.0
  0
LINE
  5
1B8
330
19D
100
AcDbEntity
  8
Default
  6
Continuous
 62
     7
100
AcDbLine
 10
50.2139862307
 20
194.9385447651
 30
0.0
 11
55.4161311986
 21
194.9385447651
 31
0.0
  0
LINE
  5
1B9
330
19D
100
AcDbEntity
  8
Default
  6
Continuous
 62
     7
100
AcDbLine
 10
50.2139862307
 20
194.9385447651
 30
0.0
 11
50.2139862307
 21
185.7546855318
 31
0.0
  0
LINE
  5
1BA
330
19D
100
AcDbEntity
  8
Default
  6
Continuous
 62
     7
100
AcDbLine
 10
50.2139862307
 20
185.7546855318
 30
0.0
 11
55.4161311986
 21
185.7546855318
 31
0.0
  0
LINE
  5
1BB
330
19D
100
AcDbEntity
  8
Default
  6
Continuous
 62
     7
100
AcDbLine
 10
55.4161311986
 20
187.7987305594
 30
0.0
 11
55.4161311986
 21
185.7546855318
 31
0.0
  0
LINE
  5
1BC
330
19D
100
AcDbEntity
  8
Default
  6
Continuous
 62
     7
100
AcDbLine
 10
52.6036222119
 20
187.7987305594
 30
0.0
 11
55.4161311986
 21
187.7987305594
 31
0.0
  0
HATCH
  5
1BD
330
19D
100
AcDbEntity
  8
Default
  6
Continuous
 62
     7
100
AcDbHatch
 10
0.0
 20
0.0
 30
0.0
210
0.0
220
0.0
230
1.0
  2
SOLID
 70
     1
 71
     0
 91
        1
 92
        1
 93
        6
 72
     4
 94
        3
 73
     0
 74
     0
 95
       17
 96
       13
 40
0.0
 40
0.0
 40
0.0
 40
0.0
 40
0.0781569980609236
 40
0.1459155123438746
 40
0.2569614383774849
 40
0.3416031469267623
 40
0.4351595973751964
 40
0.5725053592530724
 40
0.6753155999625021
 40
0.8109216076953838
 40
0.9017536478098003
 40
1.0
 40
1.0
 40
1.0
 40
1.0
 10
62.60211765162255
 20
189.0131190060215
 10
62.60440332268294
 20
188.5799174877168
 10
62.35973076203619
 20
187.9560829917903
 10
61.26453463043728
 20
187.3478839187325
 10
59.91106536086289
 20
187.3897234323977
 10
58.88110830387972
 20
188.1923730818099
 10
58.24317353707665
 20
189.4502256150186
 10
58.24317353707665
 20
191.0043917765008
 10
58.87341713804551
 20
192.5922365854512
 10
60.37683856576468
 20
193.3595471623809
 10
61.92575680626642
 20
192.9199700346165
 10
62.38565067821839
 20
192.3361937533583
 10
62.64254429913613
 20
191.7092922681641
 72
     1
 10
62.64254429913613
 20
191.7092922681641
 11
64.90499610849052
 21
192.6489136254976
 72
     4
 94
        3
 73
     0
 74
     0
 95
       22
 96
       18
 40
0.0
 40
0.0
 40
0.0
 40
0.0
 40
0.059755830700327
 40
0.1018913095675961
 40
0.1777912414453394
 40
0.2493799822716574
 40
0.3125221715618911
 40
0.3682413675943287
 40
0.4482855948127654
 40
0.5137638129624216
 40
0.5768889367295501
 40
0.6366828485538842
 40
0.7158403264613673
 40
0.7994135112569251
 40
0.8649639311660863
 40
0.9312699723359608
 40
1.0
 40
1.0
 40
1.0
 40
1.0
 10
64.90499610849054
 20
192.6489136254976
 10
64.60719067814091
 20
193.3539793965547
 10
64.05851484850886
 20
194.105514126421
 10
62.63836208482976
 20
195.0658867736329
 10
60.82395695771496
 20
195.3439789500815
 10
58.83542182670931
 20
195.0743942062145
 10
57.24441368253967
 20
194.1235289339185
 10
56.00694377481819
 20
192.4650301441042
 10
55.69870535235847
 20
190.4196305360265
 10
56.01908691001423
 20
188.396539322017
 10
56.92483574722785
 20
186.8320922380815
 10
58.50462924109291
 20
185.7007626388067
 10
60.69615505427507
 20
185.3109641301924
 10
62.93316340250266
 20
185.7118776336189
 10
64.57920935278783
 20
187.0796656589289
 10
65.37197304638754
 20
188.9372101606111
 10
65.40292757463243
 20
190.1519532946387
 10
65.39532369300086
 20
190.8766363852651
 72
     1
 10
65.39532369300086
 20
190.8766363852651
 11
60.677507484394
 21
190.8766363852651
 72
     1
 10
60.677507484394
 20
190.8766363852651
 11
60.677507484394
 21
189.0131190060215
 72
     1
 10
60.677507484394
 20
189.0131190060215
 11
62.60211765162255
 21
189.0131190060215
 97
        0
 75
     0
 76
     1
 98
        0
  0
SPLINE
  5
1BE
330
19D
100
AcDbEntity
  8
Default
  6
Continuous
 62
     7
100
AcDbSpline
210
0.0
220
0.0
230
1.0
 70
     8
 71
     3
 72
    17
 73
    13
 74
     0
 42
0.0000000006940834
 43
0.0000000001
 12
1.0
 22
0.0
 32
0.0
 13
1.0
 23
0.0
 33
0.0
 40
0.0
 40
0.0
 40
0.0
 40
0.0
 40
0.0982463521901998
 40
0.1890783923046162
 40
0.3246844000374979
 40
0.4274946407469275
 40
0.5648404026248036
 40
0.6583968530732377
 40
0.7430385616225151
 40
0.8540844876561254
 40
0.9218430019390764
 40
1.0
 40
1.0
 40
1.0
 40
1.0
 10
62.64254429913613
 20
191.7092922681641
 30
0.0
 10
62.38565067821839
 20
192.3361937533583
 30
0.0
 10
61.92575680626642
 20
192.9199700346165
 30
0.0
 10
60.37683856576468
 20
193.3595471623809
 30
0.0
 10
58.87341713804551
 20
192.5922365854512
 30
0.0
 10
58.24317353707665
 20
191.0043917765008
 30
0.0
 10
58.24317353707665
 20
189.4502256150186
 30
0.0
 10
58.88110830387972
 20
188.1923730818099
 30
0.0
 10
59.91106536086289
 20
187.3897234323977
 30
0.0
 10
61.26453463043728
 20
187.3478839187325
 30
0.0
 10
62.35973076203619
 20
187.9560829917903
 30
0.0
 10
62.60440332268294
 20
188.5799174877168
 30
0.0
 10
62.60211765162255
 20
189.0131190060215
 30
0.0
  0
LINE
  5
1BF
330
19D
100
AcDbEntity
  8
Default
  6
Continuous
 62
     7
100
AcDbLine
 10
62.6425442991
 20
191.7092922682
 30
0.0
 11
64.9049961085
 21
192.6489136255
 31
0.0
  0
SPLINE
  5
1C0
330
19D
100
AcDbEntity
  8
Default
  6
Continuous
 62
     7
100
AcDbSpline
210
0.0
220
0.0
230
1.0
 70
     8
 71
     3
 72
    22
 73
    18
 74
     0
 42
0.0000000003373676
 43
0.0000000001
 12
1.0
 22
0.0
 32
0.0
 13
1.0
 23
0.0
 33
0.0
 40
0.0
 40
0.0
 40
0.0
 40
0.0
 40
0.0687300276640392
 40
0.1350360688339138
 40
0.2005864887430749
 40
0.2841596735386326
 40
0.3633171514461158
 40
0.4231110632704499
 40
0.4862361870375785
 40
0.5517144051872346
 40
0.6317586324056713
 40
0.6874778284381089
 40
0.7506200177283426
 40
0.8222087585546606
 40
0.8981086904324039
 40
0.940244169299673
 40
1.0
 40
1.0
 40
1.0
 40
1.0
 10
65.39532369300086
 20
190.8766363852651
 30
0.0
 10
65.40292757463243
 20
190.1519532946387
 30
0.0
 10
65.37197304638754
 20
188.9372101606111
 30
0.0
 10
64.57920935278783
 20
187.0796656589289
 30
0.0
 10
62.93316340250266
 20
185.7118776336189
 30
0.0
 10
60.69615505427507
 20
185.3109641301924
 30
0.0
 10
58.50462924109291
 20
185.7007626388067
 30
0.0
 10
56.92483574722785
 20
186.8320922380815
 30
0.0
 10
56.01908691001423
 20
188.396539322017
 30
0.0
 10
55.69870535235847
 20
190.4196305360265
 30
0.0
 10
56.00694377481819
 20
192.4650301441042
 30
0.0
 10
57.24441368253967
 20
194.1235289339185
 30
0.0
 10
58.83542182670931
 20
195.0743942062145
 30
0.0
 10
60.82395695771496
 20
195.3439789500815
 30
0.0
 10
62.63836208482976
 20
195.0658867736329
 30
0.0
 10
64.05851484850886
 20
194.105514126421
 30
0.0
 10
64.60719067814091
 20
193.3539793965547
 30
0.0
 10
64.90499610849054
 20
192.6489136254976
 30
0.0
  0
LINE
  5
1C1
330
19D
100
AcDbEntity
  8
Default
  6
Continuous
 62
     7
100
AcDbLine
 10
60.6775074844
 20
190.8766363853
 30
0.0
 11
65.395323693
 21
190.8766363853
 31
0.0
  0
LINE
  5
1C2
330
19D
100
AcDbEntity
  8
Default
  6
Continuous
 62
     7
100
AcDbLine
 10
60.6775074844
 20
189.013119006
 30
0.0
 11
60.6775074844
 21
190.8766363853
 31
0.0
  0
LINE
  5
1C3
330
19D
100
AcDbEntity
  8
Default
  6
Continuous
 62
     7
100
AcDbLine
 10
62.6021176516
 20
189.013119006
 30
0.0
 11
60.6775074844
 21
189.013119006
 31
0.0
  0
HATCH
  5
1C4
330
19D
100
AcDbEntity
  8
Default
  6
Continuous
 62
     7
100
AcDbHatch
 10
0.0
 20
0.0
 30
0.0
210
0.0
220
0.0
230
1.0
  2
SOLID
 70
     1
 71
     0
 91
        2
 92
        1
 93
        1
 72
     3
 10
70.96578140876095
 20
190.3720273578977
 11
-0.005286795527256564
 21
-4.901382380901144
 40
1.028338920689181
 50
0.0
 51
360.0
 73
     1
 97
        0
 92
        1
 93
        1
 72
     3
 10
70.96578140876095
 20
190.3720273578977
 11
2.592775394041936
 21
0.0
 40
1.0
 50
0.0
 51
360.0
 73
     1
 97
        0
 75
     0
 76
     1
 98
        0
  0
ELLIPSE
  5
1C5
330
19D
100
AcDbEntity
  8
Default
  6
Continuous
 62
     7
100
AcDbEllipse
 10
70.9657814088
 20
190.3720273579
 30
0.0
 11
5.040282267460851
 21
-0.005436617606403405
 31
0.0
210
0.0
220
0.0
230
1.0
 40
0.9724420421
 41
0.0
 42
6.283185307179586
  0
CIRCLE
  5
1C6
330
19D
100
AcDbEntity
  8
Default
  6
Continuous
 62
     7
100
AcDbCircle
 10
70.9657814088
 20
190.3720273579
 30
0.0
 40
2.592775394041936
  0
HATCH
  5
1C7
330
19D
100
AcDbEntity
  8
Default
  6
Continuous
 62
     7
100
AcDbHatch
 10
0.0
 20
0.0
 30
0.0
210
0.0
220
0.0
230
1.0
  2
SOLID
 70
     1
 71
     0
 91
        1
 92
        1
 93
        4
 72
     1
 10
76.83067844905624
 20
188.7418183146848
 11
80.3697086050752
 21
188.7418183146848
 72
     1
 10
80.3697086050752
 20
188.7418183146848
 11
80.3697086050752
 21
190.6481551185038
 72
     1
 10
80.3697086050752
 20
190.6481551185038
 11
76.83067844905625
 21
190.6481551185038
 72
     1
 10
76.83067844905625
 20
190.6481551185038
 11
76.83067844905625
 21
188.7418183146848
 97
        0
 75
     0
 76
     1
 98
        0
  0
LINE
  5
1C8
330
19D
100
AcDbEntity
  8
Default
  6
Continuous
 62
     7
100
AcDbLine
 10
80.3697086051
 20
188.7418183147
 30
0.0
 11
76.8306784491
 21
188.7418183147
 31
0.0
  0
LINE
  5
1C9
330
19D
100
AcDbEntity
  8
Default
  6
Continuous
 62
     7
100
AcDbLine
 10
80.3697086051
 20
190.6481551185
 30
0.0
 11
80.3697086051
 21
188.7418183147
 31
0.0
  0
LINE
  5
1CA
330
19D
100
AcDbEntity
  8
Default
  6
Continuous
 62
     7
100
AcDbLine
 10
76.8306784491
 20
190.6481551185
 30
0.0
 11
80.3697086051
 21
190.6481551185
 31
0.0
  0
LINE
  5
1CB
330
19D
100
AcDbEntity
  8
Default
  6
Continuous
 62
     7
100
AcDbLine
 10
76.8306784491
 20
188.7418183147
 30
0.0
 11
76.8306784491
 21
190.6481551185
 31
0.0
  0
HATCH
  5
1CC
330
19D
100
AcDbEntity
  8
Default
  6
Continuous
 62
     7
100
AcDbHatch
 10
0.0
 20
0.0
 30
0.0
210
0.0
220
0.0
230
1.0
  2
SOLID
 70
     1
 71
     0
 91
        1
 92
        1
 93
       10
 72
     1
 10
83.77703945951268
 20
185.754685531833
 11
83.77703945951268
 21
189.3540948096742
 72
     1
 10
83.77703945951268
 20
189.3540948096742
 11
86.38678552754043
 21
189.3540948096742
 72
     1
 10
86.38678552754043
 20
189.3540948096742
 11
86.38678552754043
 21
191.3985895549831
 72
     1
 10
86.38678552754043
 20
191.3985895549831
 11
83.78216277283542
 21
191.3985895549831
 72
     1
 10
83.78216277283542
 20
191.3985895549831
 11
83.78216277283543
 21
192.8889055285979
 72
     1
 10
83.78216277283543
 20
192.8889055285979
 11
86.63475454268763
 21
192.8889055285978
 72
     1
 10
86.63475454268763
 20
192.8889055285978
 11
86.63475454268763
 21
194.9385447651445
 72
     1
 10
86.63475454268763
 20
194.9385447651445
 11
81.38378245706785
 21
194.9385447651445
 72
     1
 10
81.38378245706784
 20
194.9385447651445
 11
81.38378245706781
 21
185.754685531833
 72
     1
 10
81.38378245706781
 20
185.754685531833
 11
83.77703945951266
 21
185.754685531833
 97
        0
 75
     0
 76
     1
 98
        0
  0
LINE
  5
1CD
330
19D
100
AcDbEntity
  8
Default
  6
Continuous
 62
     7
100
AcDbLine
 10
83.7770394595
 20
189.3540948097
 30
0.0
 11
83.7770394595
 21
185.7546855318
 31
0.0
  0
LINE
  5
1CE
330
19D
100
AcDbEntity
  8
Default
  6
Continuous
 62
     7
100
AcDbLine
 10
86.3867855275
 20
189.3540948097
 30
0.0
 11
83.7770394595
 21
189.3540948097
 31
0.0
  0
LINE
  5
1CF
330
19D
100
AcDbEntity
  8
Default
  6
Continuous
 62
     7
100
AcDbLine
 10
86.3867855275
 20
191.398589555
 30
0.0
 11
86.3867855275
 21
189.3540948097
 31
0.0
  0
LINE
  5
1D0
330
19D
100
AcDbEntity
  8
Default
  6
Continuous
 62
     7
100
AcDbLine
 10
86.3867855275
 20
191.398589555
 30
0.0
 11
83.7821627728
 21
191.398589555
 31
0.0
  0
LINE
  5
1D1
330
19D
100
AcDbEntity
  8
Default
  6
Continuous
 62
     7
100
AcDbLine
 10
83.7821627728
 20
191.398589555
 30
0.0
 11
83.7821627728
 21
192.8889055286
 31
0.0
  0
LINE
  5
1D2
330
19D
100
AcDbEntity
  8
Default
  6
Continuous
 62
     7
100
AcDbLine
 10
86.6347545427
 20
192.8889055286
 30
0.0
 11
83.7821627728
 21
192.8889055286
 31
0.0
  0
LINE
  5
1D3
330
19D
100
AcDbEntity
  8
Default
  6
Continuous
 62
     7
100
AcDbLine
 10
86.6347545427
 20
194.9385447651
 30
0.0
 11
86.6347545427
 21
192.8889055286
 31
0.0
  0
LINE
  5
1D4
330
19D
100
AcDbEntity
  8
Default
  6
Continuous
 62
     7
100
AcDbLine
 10
81.3837824571
 20
194.9385447651
 30
0.0
 11
86.6347545427
 21
194.9385447651
 31
0.0
  0
LINE
  5
1D5
330
19D
100
AcDbEntity
  8
Default
  6
Continuous
 62
     7
100
AcDbLine
 10
81.3837824571
 20
194.9385447651
 30
0.0
 11
81.3837824571
 21
185.7546855318
 31
0.0
  0
LINE
  5
1D6
330
19D
100
AcDbEntity
  8
Default
  6
Continuous
 62
     7
100
AcDbLine
 10
81.3837824571
 20
185.7546855318
 30
0.0
 11
83.7770394595
 21
185.7546855318
 31
0.0
  0
HATCH
  5
1D7
330
19D
100
AcDbEntity
  8
Default
  6
Continuous
 62
     7
100
AcDbHatch
 10
0.0
 20
0.0
 30
0.0
210
0.0
220
0.0
230
1.0
  2
SOLID
 70
     1
 71
     0
 91
        1
 92
        1
 93
        4
 72
     1
 10
89.97185990344924
 20
185.754685531833
 11
89.97185990344924
 21
194.9385447651445
 72
     1
 10
89.97185990344924
 20
194.9385447651445
 11
87.58928083822045
 21
194.9385447651445
 72
     1
 10
87.58928083822046
 20
194.9385447651445
 11
87.58928083822046
 21
185.754685531833
 72
     1
 10
87.58928083822046
 20
185.754685531833
 11
89.97185990344926
 21
185.754685531833
 97
        0
 75
     0
 76
     1
 98
        0
  0
LINE
  5
1D8
330
19D
100
AcDbEntity
  8
Default
  6
Continuous
 62
     7
100
AcDbLine
 10
89.9718599034
 20
194.9385447651
 30
0.0
 11
89.9718599034
 21
185.7546855318
 31
0.0
  0
LINE
  5
1D9
330
19D
100
AcDbEntity
  8
Default
  6
Continuous
 62
     7
100
AcDbLine
 10
87.5892808382
 20
194.9385447651
 30
0.0
 11
89.9718599034
 21
194.9385447651
 31
0.0
  0
LINE
  5
1DA
330
19D
100
AcDbEntity
  8
Default
  6
Continuous
 62
     7
100
AcDbLine
 10
87.5892808382
 20
194.9551488259
 30
0.0
 11
87.5892808382
 21
185.7546855318
 31
0.0
  0
LINE
  5
1DB
330
19D
100
AcDbEntity
  8
Default
  6
Continuous
 62
     7
100
AcDbLine
 10
87.5892808382
 20
185.7546855318
 30
0.0
 11
89.9718599034
 21
185.7546855318
 31
0.0
  0
HATCH
  5
1DC
330
19D
100
AcDbEntity
  8
Default
  6
Continuous
 62
     7
100
AcDbHatch
 10
0.0
 20
0.0
 30
0.0
210
0.0
220
0.0
230
1.0
  2
SOLID
 70
     1
 71
     0
 91
        1
 92
        1
 93
       12
 72
     1
 10
90.93992312325815
 20
194.9385447651445
 11
93.86565170849006
 21
190.6771667977491
 72
     1
 10
93.86565170849006
 20
190.6771667977491
 11
90.23544677063222
 21
185.754685531833
 72
     1
 10
90.23544677063222
 20
185.754685531833
 11
93.1808857211796
 21
185.754685531833
 72
     1
 10
93.1808857211796
 20
185.754685531833
 11
95.26688397738292
 21
188.746364358591
 72
     1
 10
95.26688397738292
 20
188.746364358591
 11
97.15857006725494
 21
185.754685531833
 72
     1
 10
97.15857006725496
 20
185.754685531833
 11
100.0991694138435
 21
185.754685531833
 72
     1
 10
100.0991694138435
 20
185.754685531833
 11
96.69453445955821
 21
190.6423625766103
 72
     1
 10
96.69453445955823
 20
190.6423625766103
 11
99.62030195498981
 21
194.9385447651445
 72
     1
 10
99.6203019549898
 20
194.9385447651445
 11
96.65881529073843
 21
194.9385447651445
 72
     1
 10
96.65881529073845
 20
194.9385447651445
 11
95.25899539432831
 21
192.5894803753558
 72
     1
 10
95.25899539432831
 20
192.5894803753558
 11
93.87885666756846
 21
194.9385447651445
 72
     1
 10
93.87885666756846
 20
194.9385447651445
 11
90.93992312325815
 21
194.9385447651445
 97
        0
 75
     0
 76
     1
 98
        0
  0
LINE
  5
1DD
330
19D
100
AcDbEntity
  8
Default
  6
Continuous
 62
     7
100
AcDbLine
 10
93.8656517085
 20
190.6771667977
 30
0.0
 11
90.9399231233
 21
194.9385447651
 31
0.0
  0
LINE
  5
1DE
330
19D
100
AcDbEntity
  8
Default
  6
Continuous
 62
     7
100
AcDbLine
 10
90.2354467706
 20
185.7546855318
 30
0.0
 11
93.8656517085
 21
190.6771667977
 31
0.0
  0
LINE
  5
1DF
330
19D
100
AcDbEntity
  8
Default
  6
Continuous
 62
     7
100
AcDbLine
 10
90.2354467706
 20
185.7546855318
 30
0.0
 11
93.1808857212
 21
185.7546855318
 31
0.0
  0
LINE
  5
1E0
330
19D
100
AcDbEntity
  8
Default
  6
Continuous
 62
     7
100
AcDbLine
 10
95.2668839774
 20
188.7463643586
 30
0.0
 11
93.1808857212
 21
185.7546855318
 31
0.0
  0
LINE
  5
1E1
330
19D
100
AcDbEntity
  8
Default
  6
Continuous
 62
     7
100
AcDbLine
 10
97.1585700673
 20
185.7546855318
 30
0.0
 11
95.2668839774
 21
188.7463643586
 31
0.0
  0
LINE
  5
1E2
330
19D
100
AcDbEntity
  8
Default
  6
Continuous
 62
     7
100
AcDbLine
 10
97.1585700673
 20
185.7546855318
 30
0.0
 11
100.0991694138
 21
185.7546855318
 31
0.0
  0
LINE
  5
1E3
330
19D
100
AcDbEntity
  8
Default
  6
Continuous
 62
     7
100
AcDbLine
 10
96.6945344596
 20
190.6423625766
 30
0.0
 11
100.0991694138
 21
185.7546855318
 31
0.0
  0
LINE
  5
1E4
330
19D
100
AcDbEntity
  8
Default
  6
Continuous
 62
     7
100
AcDbLine
 10
99.620301955
 20
194.9385447651
 30
0.0
 11
96.6945344596
 21
190.6423625766
 31
0.0
  0
LINE
  5
1E5
330
19D
100
AcDbEntity
  8
Default
  6
Continuous
 62
     7
100
AcDbLine
 10
96.6588152907
 20
194.9385447651
 30
0.0
 11
99.620301955
 21
194.9385447651
 31
0.0
  0
LINE
  5
1E6
330
19D
100
AcDbEntity
  8
Default
  6
Continuous
 62
     7
100
AcDbLine
 10
95.2589953943
 20
192.5894803754
 30
0.0
 11
96.6588152907
 21
194.9385447651
 31
0.0
  0
LINE
  5
1E7
330
19D
100
AcDbEntity
  8
Default
  6
Continuous
 62
     7
100
AcDbLine
 10
93.8788566676
 20
194.9385447651
 30
0.0
 11
95.2589953943
 21
192.5894803754
 31
0.0
  0
LINE
  5
1E8
330
19D
100
AcDbEntity
  8
Default
  6
Continuous
 62
     7
100
AcDbLine
 10
90.9399231233
 20
194.9385447651
 30
0.0
 11
93.8788566676
 21
194.9385447651
 31
0.0
  0
HATCH
  5
1E9
330
19D
100
AcDbEntity
  8
Default
  6
Continuous
 62
     7
100
AcDbHatch
 10
0.0
 20
0.0
 30
0.0
210
0.0
220
0.0
230
1.0
  2
SOLID
 70
     1
 71
     0
 91
        2
 92
        1
 93
        1
 72
     3
 10
101.0869246934458
 20
193.241809297309
 11
1.751245468585817
 21
0.0
 40
1.0
 50
0.0
 51
360.0
 73
     1
 97
        0
 92
        1
 93
        1
 72
     3
 10
101.0869246934458
 20
193.241809297309
 11
1.36406508544596
 21
0.0
 40
1.0
 50
0.0
 51
360.0
 73
     1
 97
        0
 75
     0
 76
     1
 98
        0
  0
CIRCLE
  5
1EA
330
19D
100
AcDbEntity
  8
Default
  6
Continuous
 62
     7
100
AcDbCircle
 10
101.0869246934
 20
193.2418092973
 30
0.0
 40
1.751245468585817
  0
CIRCLE
  5
1EB
330
19D
100
AcDbEntity
  8
Default
  6
Continuous
 62
     7
100
AcDbCircle
 10
101.0869246934
 20
193.2418092973
 30
0.0
 40
1.36406508544596
  0
HATCH
  5
1EC
330
19D
100
AcDbEntity
  8
Default
  6
Continuous
 62
     7
100
AcDbHatch
 10
0.0
 20
0.0
 30
0.0
210
0.0
220
0.0
230
1.0
  2
SOLID
 70
     1
 71
     0
 91
        2
 92
        1
 93
        9
 72
     1
 10
100.7806936830239
 20
192.366664053748
 11
100.7806936830239
 21
193.1428885623729
 72
     1
 10
100.7806936830239
 20
193.1428885623729
 11
101.1022199045179
 21
193.1428885623729
 72
     1
 10
101.1022199045179
 20
193.1428885623729
 11
101.5047712885049
 21
192.366664053748
 72
     1
 10
101.5047712885049
 20
192.366664053748
 11
101.8764087918349
 21
192.366664053748
 72
     1
 10
101.8764087918349
 20
192.366664053748
 11
101.4738574078479
 21
193.1428885623729
 72
     4
 94
        3
 73
     0
 74
     0
 95
       11
 96
        7
 40
0.0
 40
0.0
 40
0.0
 40
0.0
 40
0.2306009460498227
 40
0.5056923327732079
 40
0.7895006526090165
 40
1.0
 40
1.0
 40
1.0
 40
1.0
 10
101.4738574078479
 20
193.1428885623729
 10
101.6431575326942
 20
193.1534364070392
 10
101.8331662100916
 20
193.3055064590674
 10
101.9257605053318
 20
193.6341383640911
 10
101.8210688775049
 20
194.0059423058328
 10
101.5813068772545
 20
194.1419447204104
 10
101.4738574078479
 20
194.1353674976777
 72
     1
 10
101.4738574078479
 20
194.1353674976777
 11
100.4255103886626
 21
194.1353674976777
 72
     1
 10
100.4255103886626
 20
194.1353674976777
 11
100.4255103886626
 21
192.366664053748
 72
     1
 10
100.4255103886626
 20
192.366664053748
 11
100.7806936830239
 21
192.366664053748
 97
        0
 92
        1
 93
        4
 72
     4
 94
        3
 73
     0
 74
     0
 95
       11
 96
        7
 40
0.0
 40
0.0
 40
0.0
 40
0.0
 40
0.2117763581161702
 40
0.5056586337025859
 40
0.8357622146819392
 40
1.0
 40
1.0
 40
1.0
 40
1.0
 10
101.3942625768373
 20
193.48088245875
 10
101.4483854945454
 20
193.4798368267229
 10
101.5436700354477
 20
193.5357965881548
 10
101.5633309568845
 20
193.7403968269171
 10
101.4591847039673
 20
193.8346316297714
 10
101.3756204539029
 20
193.853662130763
 10
101.3189503593848
 20
193.8536779351398
 72
     1
 10
101.3189503593848
 20
193.8536779351398
 11
100.7767023937271
 21
193.8536779351398
 72
     1
 10
100.7767023937271
 20
193.8536779351398
 11
100.7767023937271
 21
193.4808824587501
 72
     1
 10
100.7767023937271
 20
193.48088245875
 11
101.3942625768373
 21
193.48088245875
 97
        0
 75
     0
 76
     1
 98
        0
  0
LINE
  5
1ED
330
19D
100
AcDbEntity
  8
Default
  6
Continuous
 62
     7
100
AcDbLine
 10
100.780693683
 20
193.1428885624
 30
0.0
 11
100.780693683
 21
192.3666640537
 31
0.0
  0
LINE
  5
1EE
330
19D
100
AcDbEntity
  8
Default
  6
Continuous
 62
     7
100
AcDbLine
 10
101.1022199045
 20
193.1428885624
 30
0.0
 11
100.780693683
 21
193.1428885624
 31
0.0
  0
LINE
  5
1EF
330
19D
100
AcDbEntity
  8
Default
  6
Continuous
 62
     7
100
AcDbLine
 10
101.5047712885
 20
192.3666640537
 30
0.0
 11
101.1022199045
 21
193.1428885624
 31
0.0
  0
LINE
  5
1F0
330
19D
100
AcDbEntity
  8
Default
  6
Continuous
 62
     7
100
AcDbLine
 10
101.5047712885
 20
192.3666640537
 30
0.0
 11
101.8764087918
 21
192.3666640537
 31
0.0
  0
LINE
  5
1F1
330
19D
100
AcDbEntity
  8
Default
  6
Continuous
 62
     7
100
AcDbLine
 10
101.4738574078
 20
193.1428885624
 30
0.0
 11
101.8764087918
 21
192.3666640537
 31
0.0
  0
SPLINE
  5
1F2
330
19D
100
AcDbEntity
  8
Default
  6
Continuous
 62
     7
100
AcDbSpline
210
0.0
220
0.0
230
1.0
 70
     8
 71
     3
 72
    11
 73
     7
 74
     0
 42
0.0000000065617358
 43
0.0000000001
 12
1.0
 22
0.0
 32
0.0
 13
1.0
 23
0.0
 33
0.0
 40
0.0
 40
0.0
 40
0.0
 40
0.0
 40
0.2104993473909836
 40
0.494307667226792
 40
0.7693990539501773
 40
1.0
 40
1.0
 40
1.0
 40
1.0
 10
101.4738574078479
 20
194.1353674976777
 30
0.0
 10
101.5813068772545
 20
194.1419447204104
 30
0.0
 10
101.8210688775049
 20
194.0059423058328
 30
0.0
 10
101.9257605053318
 20
193.6341383640911
 30
0.0
 10
101.8331662100916
 20
193.3055064590674
 30
0.0
 10
101.6431575326942
 20
193.1534364070392
 30
0.0
 10
101.4738574078479
 20
193.1428885623729
 30
0.0
  0
LINE
  5
1F3
330
19D
100
AcDbEntity
  8
Default
  6
Continuous
 62
     7
100
AcDbLine
 10
100.4255103887
 20
194.1353674977
 30
0.0
 11
101.4738574078
 21
194.1353674977
 31
0.0
  0
LINE
  5
1F4
330
19D
100
AcDbEntity
  8
Default
  6
Continuous
 62
     7
100
AcDbLine
 10
100.4255103887
 20
192.3666640537
 30
0.0
 11
100.4255103887
 21
194.1353674977
 31
0.0
  0
LINE
  5
1F5
330
19D
100
AcDbEntity
  8
Default
  6
Continuous
 62
     7
100
AcDbLine
 10
100.4255103887
 20
192.3666640537
 30
0.0
 11
100.780693683
 21
192.3666640537
 31
0.0
  0
LINE
  5
1F6
330
19D
100
AcDbEntity
  8
Default
  6
Continuous
 62
     7
100
AcDbLine
 10
100.7767023937
 20
193.4808824588
 30
0.0
 11
100.7767023937
 21
193.8536779351
 31
0.0
  0
LINE
  5
1F7
330
19D
100
AcDbEntity
  8
Default
  6
Continuous
 62
     7
100
AcDbLine
 10
100.7767023937
 20
193.8536779351
 30
0.0
 11
101.3189503594
 21
193.8536779351
 31
0.0
  0
SPLINE
  5
1F8
330
19D
100
AcDbEntity
  8
Default
  6
Continuous
 62
     7
100
AcDbSpline
210
0.0
220
0.0
230
1.0
 70
     8
 71
     3
 72
    11
 73
     7
 74
     0
 42
0.0000000153138662
 43
0.0000000001
 12
1.0
 22
0.0
 32
0.0
 13
1.0
 23
0.0
 33
0.0
 40
0.0
 40
0.0
 40
0.0
 40
0.0
 40
0.1642377853180608
 40
0.4943413662974141
 40
0.7882236418838298
 40
1.0
 40
1.0
 40
1.0
 40
1.0
 10
101.3189503593848
 20
193.8536779351398
 30
0.0
 10
101.3756204539029
 20
193.853662130763
 30
0.0
 10
101.4591847039673
 20
193.8346316297714
 30
0.0
 10
101.5633309568845
 20
193.7403968269171
 30
0.0
 10
101.5436700354477
 20
193.5357965881548
 30
0.0
 10
101.4483854945454
 20
193.4798368267229
 30
0.0
 10
101.3942625768373
 20
193.48088245875
 30
0.0
  0
LINE
  5
1F9
330
19D
100
AcDbEntity
  8
Default
  6
Continuous
 62
     7
100
AcDbLine
 10
100.7767023937
 20
193.4808824588
 30
0.0
 11
101.3942625768
 21
193.4808824588
 31
0.0
  0
MTEXT
  5
1FA
102
{ACAD_XDICTIONARY
360
25E
102
}
330
19D
100
AcDbEntity
  8
Default
100
AcDbMText
 10
29.5218912885
 20
193.2372814279
 30
0.0
 40
2.5
 41
6.0126142396
 71
     1
 72
     1
  1
{\fArial|b0||i0||c0|p34;\C7;\H1.562478211;\W1.;Swiss\P}{\fArial|b0||i0||c0|p34;\C7;\H1.562478211;\W1.;\P}
 73
     1
 44
1.0
1001
ACAD
1000
ACAD_MTEXT_DEFINED_HEIGHT_BEGIN
1070
    46
1040
4.8912369838
1000
ACAD_MTEXT_DEFINED_HEIGHT_END
  0
MTEXT
  5
1FB
102
{ACAD_XDICTIONARY
360
260
102
}
330
19D
100
AcDbEntity
  8
Default
100
AcDbMText
 10
29.5295117651
 20
191.0881126023
 30
0.0
 40
2.5
 41
10.9307255893
 71
     1
 72
     1
  1
{\fArial|b0||i0||c0|p34;\C7;\H1.555658846;\W1.;Precision}
 73
     1
 44
1.0
1001
ACAD
1000
ACAD_MTEXT_DEFINED_HEIGHT_BEGIN
1070
    46
1040
2.522475136
1000
ACAD_MTEXT_DEFINED_HEIGHT_END
  0
MTEXT
  5
1FC
102
{ACAD_XDICTIONARY
360
262
102
}
330
19D
100
AcDbEntity
  8
Default
100
AcDbMText
 10
30.6049856603
 20
188.9176107411
 30
0.0
 40
2.5
 41
6.0226538131
 71
     1
 72
     1
  1
{\fArial|b0||i0||c0|p34;\C7;\H1.555658846;\W1.;ools}
 73
     1
 44
1.0
1001
ACAD
1000
ACAD_MTEXT_DEFINED_HEIGHT_BEGIN
1070
    46
1040
2.4638129235
1000
ACAD_MTEXT_DEFINED_HEIGHT_END
  0
MTEXT
  5
1FD
102
{ACAD_XDICTIONARY
360
264
102
}
330
19D
100
AcDbEntity
  8
Default
100
AcDbMText
 10
29.5295117651
 20
188.9176107411
 30
0.0
 40
2.5
 41
1.3527476667
 71
     1
 72
     1
  1
{\fArial|b0||i0||c0|p34;\C7;\H1.555658846;\W1.;T}
 73
     1
 44
1.0
1001
ACAD
1000
ACAD_MTEXT_DEFINED_HEIGHT_BEGIN
1070
    46
1040
2.4442588527
1000
ACAD_MTEXT_DEFINED_HEIGHT_END
  0
HATCH
  5
1FE
330
19D
100
AcDbEntity
  8
Default
  6
Continuous
 62
     7
100
AcDbHatch
 10
0.0
 20
0.0
 30
0.0
210
0.0
220
0.0
230
1.0
  2
SOLID
 70
     1
 71
     0
 91
        2
 92
        1
 93
        4
 72
     1
 10
14.99878275002649
 20
194.974890689558
 11
14.99878275002649
 21
185.8256208126932
 72
     1
 10
14.99878275002649
 20
185.8256208126932
 11
27.17726457592141
 21
185.8256208126932
 72
     1
 10
27.1772645759214
 20
185.8256208126932
 11
27.1772645759214
 21
194.974890689558
 72
     1
 10
27.1772645759214
 20
194.974890689558
 11
14.99878275002649
 21
194.974890689558
 97
        0
 92
        1
 93
        4
 72
     1
 10
15.20275065475991
 20
186.0257023597236
 11
26.96840768357588
 21
186.0257023597236
 72
     1
 10
26.96840768357588
 20
186.0257023597236
 11
26.96840768357588
 21
194.7736155142314
 72
     1
 10
26.96840768357588
 20
194.7736155142314
 11
15.2027506547599
 21
194.7736155142314
 72
     1
 10
15.2027506547599
 20
194.7736155142314
 11
15.2027506547599
 21
186.0257023597236
 97
        0
 75
     0
 76
     1
 98
        0
  0
LINE
  5
1FF
330
19D
100
AcDbEntity
  8
Default
  6
Continuous
 62
     7
100
AcDbLine
 10
14.99878275
 20
185.8256208127
 30
0.0
 11
14.99878275
 21
194.9748906896
 31
0.0
  0
LINE
  5
200
330
19D
100
AcDbEntity
  8
Default
  6
Continuous
 62
     7
100
AcDbLine
 10
27.1772645759
 20
185.8256208127
 30
0.0
 11
14.99878275
 21
185.8256208127
 31
0.0
  0
LINE
  5
201
330
19D
100
AcDbEntity
  8
Default
  6
Continuous
 62
     7
100
AcDbLine
 10
27.1772645759
 20
194.9748906896
 30
0.0
 11
27.1772645759
 21
185.8256208127
 31
0.0
  0
LINE
  5
202
330
19D
100
AcDbEntity
  8
Default
  6
Continuous
 62
     7
100
AcDbLine
 10
14.99878275
 20
194.9748906896
 30
0.0
 11
27.1772645759
 21
194.9748906896
 31
0.0
  0
LINE
  5
203
330
19D
100
AcDbEntity
  8
Default
  6
Continuous
 62
     7
100
AcDbLine
 10
15.2027506548
 20
186.0257023597
 30
0.0
 11
15.2027506548
 21
194.7736155142
 31
0.0
  0
LINE
  5
204
330
19D
100
AcDbEntity
  8
Default
  6
Continuous
 62
     7
100
AcDbLine
 10
15.2027506548
 20
194.7736155142
 30
0.0
 11
26.9684076836
 21
194.7736155142
 31
0.0
  0
LINE
  5
205
330
19D
100
AcDbEntity
  8
Default
  6
Continuous
 62
     7
100
AcDbLine
 10
26.9684076836
 20
186.0257023597
 30
0.0
 11
26.9684076836
 21
194.7736155142
 31
0.0
  0
LINE
  5
206
330
19D
100
AcDbEntity
  8
Default
  6
Continuous
 62
     7
100
AcDbLine
 10
26.9684076836
 20
186.0257023597
 30
0.0
 11
15.2027506548
 21
186.0257023597
 31
0.0
  0
HATCH
  5
207
330
19D
100
AcDbEntity
  8
Default
  6
Continuous
 62
     7
100
AcDbHatch
 10
0.0
 20
0.0
 30
0.0
210
0.0
220
0.0
230
1.0
  2
SOLID
 70
     1
 71
     0
 91
        2
 92
        1
 93
        4
 72
     1
 10
28.17371138479891
 20
194.974890689558
 11
28.17371138479891
 21
185.8256208126932
 72
     1
 10
28.17371138479891
 20
185.8256208126932
 11
40.33963643564059
 21
185.8256208126932
 72
     1
 10
40.33963643564059
 20
185.8256208126932
 11
40.33963643564059
 21
194.974890689558
 72
     1
 10
40.33963643564059
 20
194.974890689558
 11
28.17371138479891
 21
194.974890689558
 97
        0
 92
        1
 93
        4
 72
     1
 10
28.37425239533051
 20
186.0257023597236
 11
40.13528897407203
 21
186.0257023597236
 72
     1
 10
40.13528897407203
 20
186.0257023597236
 11
40.13528897407203
 21
194.7736155142314
 72
     1
 10
40.13528897407203
 20
194.7736155142314
 11
28.37425239533052
 21
194.7736155142314
 72
     1
 10
28.37425239533052
 20
194.7736155142314
 11
28.37425239533052
 21
186.0257023597236
 97
        0
 75
     0
 76
     1
 98
        0
  0
LINE
  5
208
330
19D
100
AcDbEntity
  8
Default
  6
Continuous
 62
     7
100
AcDbLine
 10
28.1737113848
 20
185.8256208127
 30
0.0
 11
28.1737113848
 21
194.9748906896
 31
0.0
  0
LINE
  5
209
330
19D
100
AcDbEntity
  8
Default
  6
Continuous
 62
     7
100
AcDbLine
 10
40.3396364356
 20
185.8256208127
 30
0.0
 11
28.1737113848
 21
185.8256208127
 31
0.0
  0
LINE
  5
20A
330
19D
100
AcDbEntity
  8
Default
  6
Continuous
 62
     7
100
AcDbLine
 10
40.3396364356
 20
194.9748906896
 30
0.0
 11
40.3396364356
 21
185.8256208127
 31
0.0
  0
LINE
  5
20B
330
19D
100
AcDbEntity
  8
Default
  6
Continuous
 62
     7
100
AcDbLine
 10
28.1737113848
 20
194.9748906896
 30
0.0
 11
40.3396364356
 21
194.9748906896
 31
0.0
  0
LINE
  5
20C
330
19D
100
AcDbEntity
  8
Default
  6
Continuous
 62
     7
100
AcDbLine
 10
28.3742523953
 20
194.7736155142
 30
0.0
 11
28.3742523953
 21
186.0257023597
 31
0.0
  0
LINE
  5
20D
330
19D
100
AcDbEntity
  8
Default
  6
Continuous
 62
     7
100
AcDbLine
 10
28.3742523953
 20
194.7736155142
 30
0.0
 11
40.1352889741
 21
194.7736155142
 31
0.0
  0
LINE
  5
20E
330
19D
100
AcDbEntity
  8
Default
  6
Continuous
 62
     7
100
AcDbLine
 10
40.1352889741
 20
194.7736155142
 30
0.0
 11
40.1352889741
 21
186.0257023597
 31
0.0
  0
LINE
  5
20F
330
19D
100
AcDbEntity
  8
Default
  6
Continuous
 62
     7
100
AcDbLine
 10
40.1352889741
 20
186.0257023597
 30
0.0
 11
28.3742523953
 21
186.0257023597
 31
0.0
  0
HATCH
  5
210
330
19D
100
AcDbEntity
  8
Default
  6
Continuous
 62
     7
100
AcDbHatch
 10
0.0
 20
0.0
 30
0.0
210
0.0
220
0.0
230
1.0
  2
SOLID
 70
     1
 71
     0
 91
        8
 92
        1
 93
        3
 72
     1
 10
15.81996887265055
 20
186.9716704369563
 11
26.41612982970763
 21
186.9716704369563
 72
     1
 10
26.41612982970763
 20
186.9716704369563
 11
21.11804935117908
 21
193.8440734706497
 72
     1
 10
21.11804935117908
 20
193.8440734706497
 11
15.81996887265054
 21
186.9716704369562
 97
        0
 92
        1
 93
       12
 72
     1
 10
21.00786416990799
 20
187.280043606177
 11
21.00786416990799
 21
188.3232248945974
 72
     1
 10
21.00786416990799
 20
188.3232248945974
 11
21.22378643526709
 21
188.3232248945974
 72
     1
 10
21.22378643526709
 20
188.3232248945974
 11
21.22378643526707
 21
188.5774880992162
 72
     1
 10
21.22378643526707
 20
188.5774880992161
 11
21.00786416990797
 21
188.5774880992161
 72
     4
 94
        3
 73
     0
 74
     0
 95
       12
 96
        8
 40
0.0
 40
0.0
 40
0.0
 40
0.0
 40
0.1963694091052418
 40
0.3659463030620277
 40
0.4747591556715436
 40
0.6080847184487777
 40
1.0
 40
1.0
 40
1.0
 40
1.0
 10
21.00786416990799
 20
188.5774880992161
 10
21.00769777732163
 20
188.6564701306604
 10
21.008600036461
 20
188.6748584257491
 10
21.0121696213488
 20
188.7248904332461
 10
21.03974084514088
 20
188.7659540369276
 10
21.09810542606024
 20
188.7885065769093
 10
21.13639494721656
 20
188.7854100798475
 10
21.20651549082839
 20
188.785424421144
 72
     1
 10
21.20651549082839
 20
188.785424421144
 11
21.20651549082839
 21
189.0485464675638
 72
     4
 94
        3
 73
     0
 74
     0
 95
       13
 96
        9
 40
0.0
 40
0.0
 40
0.0
 40
0.0
 40
0.2271078216113191
 40
0.4161221501543617
 40
0.5520930048876243
 40
0.6438038720134633
 40
0.7408124663355202
 40
1.0
 40
1.0
 40
1.0
 40
1.0
 10
21.20651549082839
 20
189.0485464675638
 10
21.11303635436383
 20
189.0484636370475
 10
20.96736573877034
 20
189.0499633625263
 10
20.81355916855328
 20
189.0444173963789
 10
20.72711481037246
 20
188.9841660419546
 10
20.67192244000064
 20
188.9069917785839
 10
20.64323791465559
 20
188.780077212837
 10
20.6490003198215
 20
188.6912660900334
 10
20.6473639143836
 20
188.5801526123739
 72
     1
 10
20.6473639143836
 20
188.5801526123739
 11
20.46156307892937
 21
188.5801526123739
 72
     1
 10
20.46156307892937
 20
188.5801526123739
 11
20.46156307892937
 21
188.3232248945973
 72
     1
 10
20.46156307892937
 20
188.3232248945973
 11
20.6473639143836
 21
188.3232248945974
 72
     1
 10
20.6473639143836
 20
188.3232248945974
 11
20.6473639143836
 21
187.280043606177
 72
     1
 10
20.6473639143836
 20
187.280043606177
 11
21.00786416990799
 21
187.280043606177
 97
        0
 92
        1
 93
        4
 72
     1
 10
21.38558994873867
 20
187.280043606177
 11
21.74163358120775
 21
187.280043606177
 72
     1
 10
21.74163358120775
 20
187.280043606177
 11
21.74163358120775
 21
188.591085677074
 72
     1
 10
21.74163358120775
 20
188.591085677074
 11
21.38558994873866
 21
188.591085677074
 72
     1
 10
21.38558994873866
 20
188.591085677074
 11
21.38558994873866
 21
187.280043606177
 97
        0
 92
        1
 93
       12
 72
     1
 10
21.86336440502292
 20
187.280043606177
 11
22.29357807976006
 21
187.280043606177
 72
     1
 10
22.29357807976006
 20
187.280043606177
 11
22.5128617489222
 21
187.664827420415
 72
     1
 10
22.5128617489222
 20
187.664827420415
 11
22.74258749756823
 21
187.280043606177
 72
     1
 10
22.74258749756822
 20
187.280043606177
 11
23.19159691537642
 21
187.280043606177
 72
     1
 10
23.19159691537642
 20
187.280043606177
 11
22.72588017039397
 21
187.9572056459645
 72
     1
 10
22.72588017039397
 20
187.9572056459645
 11
23.16235909282147
 21
188.5910856770739
 72
     1
 10
23.16235909282147
 20
188.591085677074
 11
22.72463877094573
 21
188.591085677074
 72
     1
 10
22.72463877094573
 20
188.591085677074
 11
22.52722713199285
 21
188.2372736930933
 72
     1
 10
22.52722713199285
 20
188.2372736930933
 11
22.32321064266611
 21
188.591085677074
 72
     1
 10
22.32321064266611
 20
188.591085677074
 11
21.88697687931055
 21
188.591085677074
 72
     1
 10
21.88697687931055
 20
188.591085677074
 11
22.31525575969218
 21
187.9572056459645
 72
     1
 10
22.31525575969218
 20
187.9572056459645
 11
21.86336440502293
 21
187.280043606177
 97
        0
 92
        1
 93
        7
 72
     4
 94
        3
 73
     0
 74
     0
 95
       12
 96
        8
 40
0.0
 40
0.0
 40
0.0
 40
0.0
 40
0.2996681639207807
 40
0.4964799695835521
 40
0.68434856198005
 40
0.851888826469892
 40
1.0
 40
1.0
 40
1.0
 40
1.0
 10
21.37777513087799
 20
188.785424421144
 10
21.49576861847934
 20
188.7833399947052
 10
21.65972117119823
 20
188.7870131370553
 10
21.90718946335765
 20
188.8323291653408
 10
22.07743060776147
 20
188.9468139864056
 10
22.15937922373466
 20
189.119044828017
 10
22.16779209933727
 20
189.2245324951971
 10
22.1704889117655
 20
189.2827975698994
 72
     1
 10
22.1704889117655
 20
189.2827975698994
 11
22.1704889117655
 21
190.6245107529341
 72
     1
 10
22.1704889117655
 20
190.6245107529341
 11
21.83213632999875
 21
190.6245107529341
 72
     1
 10
21.83213632999875
 20
190.6245107529341
 11
21.83213632999875
 21
190.4573794687502
 72
     4
 94
        3
 73
     0
 74
     0
 95
       18
 96
       14
 40
0.0
 40
0.0
 40
0.0
 40
0.0
 40
0.049918958198369
 40
0.1029683479443044
 40
0.2013573979316207
 40
0.306492170798069
 40
0.4454465223499084
 40
0.5715759647843356
 40
0.6883870828793712
 40
0.7902712580605774
 40
0.8901128900259564
 40
0.9499280410527614
 40
1.0
 40
1.0
 40
1.0
 40
1.0
 10
21.83213632999875
 20
190.4573794687502
 10
21.80368281700783
 20
190.5003419203894
 10
21.75089374158368
 20
190.5753776145168
 10
21.57448125557331
 20
190.668103779344
 10
21.3136873666104
 20
190.6636775466471
 10
21.02551565229992
 20
190.4904054895993
 10
20.90532992089851
 20
190.1373108059086
 10
20.89812181418541
 20
189.7794267200064
 10
21.0258478332434
 20
189.4589260502325
 10
21.29727990105132
 20
189.3051247401455
 10
21.53513384913557
 20
189.2775648072189
 10
21.74083599836752
 20
189.3568733552897
 10
21.80559464823735
 20
189.4383605848447
 10
21.83247637349007
 20
189.4835708175996
 72
     4
 94
        3
 73
     0
 74
     0
 95
       13
 96
        9
 40
0.0
 40
0.0
 40
0.0
 40
0.0
 40
0.2107584163945606
 40
0.3689251257012292
 40
0.4773402963830309
 40
0.6267974682744708
 40
0.7927243308008671
 40
1.0
 40
1.0
 40
1.0
 40
1.0
 10
21.83247637349007
 20
189.4835708175996
 10
21.83362624079747
 20
189.4231447461067
 10
21.83626231628453
 20
189.3329395645589
 10
21.82968056802527
 20
189.2218313391597
 10
21.77146133173995
 20
189.131606197854
 10
21.69912054052457
 20
189.0761020984766
 10
21.58254222345165
 20
189.052325003012
 10
21.49700976942099
 20
189.0473056955538
 10
21.37777513087799
 20
189.0485464675638
 72
     1
 10
21.37777513087799
 20
189.0485464675638
 11
21.37777513087799
 21
188.7854244211439
 97
        0
 92
        1
 93
        4
 72
     1
 10
20.76228756264485
 20
189.705476973737
 11
20.41043917969737
 21
189.705476973737
 72
     4
 94
        3
 73
     0
 74
     0
 95
       12
 96
        8
 40
0.0
 40
0.0
 40
0.0
 40
0.0
 40
0.0800021584216466
 40
0.2719128922284969
 40
0.4981704978280754
 40
0.7206073609973707
 40
1.0
 40
1.0
 40
1.0
 40
1.0
 10
20.41043917969737
 20
189.705476973737
 10
20.4017793712913
 20
189.6845033852614
 10
20.37522214184102
 20
189.6238511796164
 10
20.26174979501661
 20
189.5370825524213
 10
20.0692010684937
 20
189.5332364516581
 10
19.91639261686636
 20
189.6551658802592
 10
19.89383257649871
 20
189.7687468153739
 10
19.88834088640196
 20
189.864082794716
 72
     1
 10
19.88834088640196
 20
189.864082794716
 11
20.78440434063953
 21
189.864082794716
 72
     4
 94
        3
 73
     0
 74
     0
 95
       20
 96
       16
 40
0.0
 40
0.0
 40
0.0
 40
0.0
 40
0.053729581352792
 40
0.1421442887252777
 40
0.229735275324255
 40
0.3291790322945396
 40
0.3921445453383586
 40
0.471200640762828
 40
0.6141895552108053
 40
0.6722274543755765
 40
0.7503555249371847
 40
0.8440184738666436
 40
0.9138307141264308
 40
0.9659572729778229
 40
1.0
 40
1.0
 40
1.0
 40
1.0
 10
20.78440434063955
 20
189.864082794716
 10
20.78610633611133
 20
189.9610842287173
 10
20.7825316461883
 20
190.1829292421034
 10
20.66091904536091
 20
190.4779846055463
 10
20.34016713863363
 20
190.6683139785378
 10
20.00057836121601
 20
190.6700388293484
 10
19.70696312314157
 20
190.5106303585316
 10
19.50857301345652
 20
190.1675324499258
 10
19.51090525317629
 20
189.7585375368886
 10
19.69322977757529
 20
189.4122106635273
 10
19.97930696378491
 20
189.2510489982433
 10
20.32020287057411
 20
189.2519455235229
 10
20.59003141618623
 20
189.3743652708817
 10
20.7210110987676
 20
189.5212399094019
 10
20.75855546459628
 20
189.6388846116005
 10
20.76228756264485
 20
189.705476973737
 97
        0
 92
        1
 93
        1
 72
     3
 10
22.9487917259214
 20
189.9693031750505
 11
0.0
 21
0.7022382344309845
 40
0.963620135099746
 50
0.0
 51
360.0
 73
     1
 97
        0
 92
        1
 93
        8
 72
     1
 10
19.15364783934837
 20
189.3024706242108
 11
19.15364783934837
 21
189.9564957931844
 72
     4
 94
        3
 73
     0
 74
     0
 95
       12
 96
        8
 40
0.0
 40
0.0
 40
0.0
 40
0.0
 40
0.2862211861571168
 40
0.4920794652214968
 40
0.6813328760549254
 40
0.8350285650319174
 40
1.0
 40
1.0
 40
1.0
 40
1.0
 10
19.15364783934837
 20
189.9564957931844
 10
19.15364783934837
 20
190.0222179017491
 10
19.15845169523772
 20
190.1198921996575
 10
19.23100033948207
 20
190.2295803496729
 10
19.33475455883368
 20
190.2860983366738
 10
19.42769082204128
 20
190.3044295111388
 10
19.49621567910834
 20
190.3024045783201
 10
19.54837892683
 20
190.282221157948
 72
     1
 10
19.54837892683
 20
190.282221157948
 11
19.54837892683
 21
190.6387685773706
 72
     4
 94
        3
 73
     0
 74
     0
 95
       10
 96
        6
 40
0.0
 40
0.0
 40
0.0
 40
0.0
 40
0.4015114482364358
 40
0.6909582036092352
 40
1.0
 40
1.0
 40
1.0
 40
1.0
 10
19.54837892683
 20
190.6387685773706
 10
19.47246487849072
 20
190.6420212140671
 10
19.35806655190547
 20
190.6427324016333
 10
19.20344589048223
 20
190.5410979207596
 10
19.15362071914407
 20
190.4582103306236
 10
19.12508518002372
 20
190.4071397390069
 72
     1
 10
19.12508518002372
 20
190.4071397390069
 11
19.12508518002372
 21
190.610520962158
 72
     1
 10
19.12508518002372
 20
190.610520962158
 11
18.7893908455063
 21
190.610520962158
 72
     1
 10
18.7893908455063
 20
190.610520962158
 11
18.7893908455063
 21
189.3024706242108
 72
     1
 10
18.7893908455063
 20
189.3024706242108
 11
19.15364783934838
 21
189.3024706242108
 97
        0
 75
     0
 76
     1
 98
        0
  0
LINE
  5
211
330
19D
100
AcDbEntity
  8
Default
  6
Continuous
 62
     7
100
AcDbLine
 10
15.8199688727
 20
186.971670437
 30
0.0
 11
26.4161298297
 21
186.971670437
 31
0.0
  0
LINE
  5
212
330
19D
100
AcDbEntity
  8
Default
  6
Continuous
 62
     7
100
AcDbLine
 10
26.4161298297
 20
186.971670437
 30
0.0
 11
21.1180493512
 21
193.8440734706
 31
0.0
  0
LINE
  5
213
330
19D
100
AcDbEntity
  8
Default
  6
Continuous
 62
     7
100
AcDbLine
 10
21.1180493512
 20
193.8440734706
 30
0.0
 11
15.8199688727
 21
186.971670437
 31
0.0
  0
LINE
  5
214
330
19D
100
AcDbEntity
  8
Default
  6
Continuous
 62
     7
100
AcDbLine
 10
20.4615630789
 20
188.3232248946
 30
0.0
 11
20.6473639144
 21
188.3232248946
 31
0.0
  0
LINE
  5
215
330
19D
100
AcDbEntity
  8
Default
  6
Continuous
 62
     7
100
AcDbLine
 10
20.4615630789
 20
188.5801526124
 30
0.0
 11
20.4615630789
 21
188.3232248946
 31
0.0
  0
LINE
  5
216
330
19D
100
AcDbEntity
  8
Default
  6
Continuous
 62
     7
100
AcDbLine
 10
20.6473639144
 20
188.5801526124
 30
0.0
 11
20.4615630789
 21
188.5801526124
 31
0.0
  0
SPLINE
  5
217
330
19D
100
AcDbEntity
  8
Default
  6
Continuous
 62
     7
100
AcDbSpline
210
0.0
220
0.0
230
1.0
 70
     8
 71
     3
 72
    13
 73
     9
 74
     0
 42
0.0000000108277551
 43
0.0000000001
 12
1.0
 22
0.0
 32
0.0
 13
1.0
 23
0.0
 33
0.0
 40
0.0
 40
0.0
 40
0.0
 40
0.0
 40
0.2591875336644798
 40
0.3561961279865367
 40
0.4479069951123757
 40
0.5838778498456383
 40
0.7728921783886809
 40
1.0
 40
1.0
 40
1.0
 40
1.0
 10
20.6473639143836
 20
188.5801526123739
 30
0.0
 10
20.6490003198215
 20
188.6912660900334
 30
0.0
 10
20.64323791465559
 20
188.780077212837
 30
0.0
 10
20.67192244000064
 20
188.9069917785839
 30
0.0
 10
20.72711481037246
 20
188.9841660419546
 30
0.0
 10
20.81355916855328
 20
189.0444173963789
 30
0.0
 10
20.96736573877034
 20
189.0499633625263
 30
0.0
 10
21.11303635436383
 20
189.0484636370475
 30
0.0
 10
21.20651549082839
 20
189.0485464675638
 30
0.0
  0
LINE
  5
218
330
19D
100
AcDbEntity
  8
Default
  6
Continuous
 62
     7
100
AcDbLine
 10
21.2065154908
 20
189.0485464676
 30
0.0
 11
21.2065154908
 21
188.7854244211
 31
0.0
  0
SPLINE
  5
219
330
19D
100
AcDbEntity
  8
Default
  6
Continuous
 62
     7
100
AcDbSpline
210
0.0
220
0.0
230
1.0
 70
     8
 71
     3
 72
    12
 73
     8
 74
     0
 42
0.0000000271651889
 43
0.0000000001
 12
1.0
 22
0.0
 32
0.0
 13
1.0
 23
0.0
 33
0.0
 40
0.0
 40
0.0
 40
0.0
 40
0.0
 40
0.1963694091052418
 40
0.3659463030620277
 40
0.4747591556715435
 40
0.6080847184487777
 40
1.0
 40
1.0
 40
1.0
 40
1.0
 10
21.00786416990799
 20
188.5774880992161
 30
0.0
 10
21.00769777732163
 20
188.6564701306604
 30
0.0
 10
21.008600036461
 20
188.6748584257491
 30
0.0
 10
21.0121696213488
 20
188.7248904332461
 30
0.0
 10
21.03974084514088
 20
188.7659540369276
 30
0.0
 10
21.09810542606024
 20
188.7885065769093
 30
0.0
 10
21.13639494721656
 20
188.7854100798475
 30
0.0
 10
21.20651549082839
 20
188.785424421144
 30
0.0
  0
LINE
  5
21A
330
19D
100
AcDbEntity
  8
Default
  6
Continuous
 62
     7
100
AcDbLine
 10
21.2237864353
 20
188.5774880992
 30
0.0
 11
21.0078641699
 21
188.5774880992
 31
0.0
  0
LINE
  5
21B
330
19D
100
AcDbEntity
  8
Default
  6
Continuous
 62
     7
100
AcDbLine
 10
21.2237864353
 20
188.3232248946
 30
0.0
 11
21.2237864353
 21
188.5774880992
 31
0.0
  0
LINE
  5
21C
330
19D
100
AcDbEntity
  8
Default
  6
Continuous
 62
     7
100
AcDbLine
 10
21.0078641699
 20
188.3232248946
 30
0.0
 11
21.2237864353
 21
188.3232248946
 31
0.0
  0
LINE
  5
21D
330
19D
100
AcDbEntity
  8
Default
  6
Continuous
 62
     7
100
AcDbLine
 10
21.0078641699
 20
187.2800436062
 30
0.0
 11
21.0078641699
 21
188.3232248946
 31
0.0
  0
LINE
  5
21E
330
19D
100
AcDbEntity
  8
Default
  6
Continuous
 62
     7
100
AcDbLine
 10
20.6473639144
 20
187.2800436062
 30
0.0
 11
21.0078641699
 21
187.2800436062
 31
0.0
  0
LINE
  5
21F
330
19D
100
AcDbEntity
  8
Default
  6
Continuous
 62
     7
100
AcDbLine
 10
20.6473639144
 20
188.3232248946
 30
0.0
 11
20.6473639144
 21
187.2800436062
 31
0.0
  0
LINE
  5
220
330
19D
100
AcDbEntity
  8
Default
  6
Continuous
 62
     7
100
AcDbLine
 10
19.1536478393
 20
189.9564957932
 30
0.0
 11
19.1536478393
 21
189.3024706242
 31
0.0
  0
LINE
  5
221
330
19D
100
AcDbEntity
  8
Default
  6
Continuous
 62
     7
100
AcDbLine
 10
19.1536478393
 20
189.3024706242
 30
0.0
 11
18.7893908455
 21
189.3024706242
 31
0.0
  0
LINE
  5
222
330
19D
100
AcDbEntity
  8
Default
  6
Continuous
 62
     7
100
AcDbLine
 10
18.7893908455
 20
189.3024706242
 30
0.0
 11
18.7893908455
 21
190.6105209622
 31
0.0
  0
LINE
  5
223
330
19D
100
AcDbEntity
  8
Default
  6
Continuous
 62
     7
100
AcDbLine
 10
18.7893908455
 20
190.6105209622
 30
0.0
 11
19.12508518
 21
190.6105209622
 31
0.0
  0
LINE
  5
224
330
19D
100
AcDbEntity
  8
Default
  6
Continuous
 62
     7
100
AcDbLine
 10
19.12508518
 20
190.6105209622
 30
0.0
 11
19.12508518
 21
190.407139739
 31
0.0
  0
SPLINE
  5
225
330
19D
100
AcDbEntity
  8
Default
  6
Continuous
 62
     7
100
AcDbSpline
210
0.0
220
0.0
230
1.0
 70
     8
 71
     3
 72
    10
 73
     6
 74
     0
 42
0.000000018845546
 43
0.0000000001
 12
1.0
 22
0.0
 32
0.0
 13
1.0
 23
0.0
 33
0.0
 40
0.0
 40
0.0
 40
0.0
 40
0.0
 40
0.3090417963907648
 40
0.5984885517635642
 40
1.0
 40
1.0
 40
1.0
 40
1.0
 10
19.12508518002372
 20
190.4071397390069
 30
0.0
 10
19.15362071914407
 20
190.4582103306236
 30
0.0
 10
19.20344589048223
 20
190.5410979207596
 30
0.0
 10
19.35806655190547
 20
190.6427324016333
 30
0.0
 10
19.47246487849072
 20
190.6420212140671
 30
0.0
 10
19.54837892683
 20
190.6387685773706
 30
0.0
  0
LINE
  5
226
330
19D
100
AcDbEntity
  8
Default
  6
Continuous
 62
     7
100
AcDbLine
 10
19.5483789268
 20
190.6387685774
 30
0.0
 11
19.5483789268
 21
190.2822211579
 31
0.0
  0
SPLINE
  5
227
330
19D
100
AcDbEntity
  8
Default
  6
Continuous
 62
     7
100
AcDbSpline
210
0.0
220
0.0
230
1.0
 70
     8
 71
     3
 72
    12
 73
     8
 74
     0
 42
0.0000000158131064
 43
0.0000000001
 12
1.0
 22
0.0
 32
0.0
 13
1.0
 23
0.0
 33
0.0
 40
0.0
 40
0.0
 40
0.0
 40
0.0
 40
0.1649714349680826
 40
0.3186671239450746
 40
0.5079205347785032
 40
0.7137788138428832
 40
1.0
 40
1.0
 40
1.0
 40
1.0
 10
19.54837892683
 20
190.282221157948
 30
0.0
 10
19.49621567910834
 20
190.3024045783201
 30
0.0
 10
19.42769082204128
 20
190.3044295111388
 30
0.0
 10
19.33475455883368
 20
190.2860983366738
 30
0.0
 10
19.23100033948207
 20
190.2295803496729
 30
0.0
 10
19.15845169523772
 20
190.1198921996575
 30
0.0
 10
19.15364783934837
 20
190.0222179017491
 30
0.0
 10
19.15364783934837
 20
189.9564957931844
 30
0.0
  0
SPLINE
  5
228
330
19D
100
AcDbEntity
  8
Default
  6
Continuous
 62
     7
100
AcDbSpline
210
0.0
220
0.0
230
1.0
 70
     8
 71
     3
 72
    20
 73
    16
 74
     0
 42
0.0000000023618715
 43
0.0000000001
 12
1.0
 22
0.0
 32
0.0
 13
1.0
 23
0.0
 33
0.0
 40
0.0
 40
0.0
 40
0.0
 40
0.0
 40
0.053729581352792
 40
0.1421442887252777
 40
0.229735275324255
 40
0.3291790322945397
 40
0.3921445453383586
 40
0.471200640762828
 40
0.6141895552108053
 40
0.6722274543755765
 40
0.7503555249371847
 40
0.8440184738666436
 40
0.9138307141264308
 40
0.9659572729778229
 40
1.0
 40
1.0
 40
1.0
 40
1.0
 10
20.78440434063955
 20
189.864082794716
 30
0.0
 10
20.78610633611133
 20
189.9610842287173
 30
0.0
 10
20.7825316461883
 20
190.1829292421034
 30
0.0
 10
20.66091904536091
 20
190.4779846055463
 30
0.0
 10
20.34016713863363
 20
190.6683139785378
 30
0.0
 10
20.00057836121601
 20
190.6700388293484
 30
0.0
 10
19.70696312314157
 20
190.5106303585316
 30
0.0
 10
19.50857301345652
 20
190.1675324499258
 30
0.0
 10
19.51090525317629
 20
189.7585375368886
 30
0.0
 10
19.69322977757529
 20
189.4122106635273
 30
0.0
 10
19.97930696378491
 20
189.2510489982433
 30
0.0
 10
20.32020287057411
 20
189.2519455235229
 30
0.0
 10
20.59003141618623
 20
189.3743652708817
 30
0.0
 10
20.7210110987676
 20
189.5212399094019
 30
0.0
 10
20.75855546459628
 20
189.6388846116005
 30
0.0
 10
20.76228756264485
 20
189.705476973737
 30
0.0
  0
LINE
  5
229
330
19D
100
AcDbEntity
  8
Default
  6
Continuous
 62
     7
100
AcDbLine
 10
19.8883408864
 20
189.8640827947
 30
0.0
 11
20.7844043406
 21
189.8640827947
 31
0.0
  0
SPLINE
  5
22A
330
19D
100
AcDbEntity
  8
Default
  6
Continuous
 62
     7
100
AcDbSpline
210
0.0
220
0.0
230
1.0
 70
     8
 71
     3
 72
    12
 73
     8
 74
     0
 42
0.0000000120319417
 43
0.0000000001
 12
1.0
 22
0.0
 32
0.0
 13
1.0
 23
0.0
 33
0.0
 40
0.0
 40
0.0
 40
0.0
 40
0.0
 40
0.2793926390026293
 40
0.5018295021719246
 40
0.7280871077715031
 40
0.9199978415783534
 40
1.0
 40
1.0
 40
1.0
 40
1.0
 10
19.88834088640196
 20
189.864082794716
 30
0.0
 10
19.89383257649871
 20
189.7687468153739
 30
0.0
 10
19.91639261686636
 20
189.6551658802592
 30
0.0
 10
20.0692010684937
 20
189.5332364516581
 30
0.0
 10
20.26174979501661
 20
189.5370825524213
 30
0.0
 10
20.37522214184102
 20
189.6238511796164
 30
0.0
 10
20.4017793712913
 20
189.6845033852614
 30
0.0
 10
20.41043917969737
 20
189.705476973737
 30
0.0
  0
LINE
  5
22B
330
19D
100
AcDbEntity
  8
Default
  6
Continuous
 62
     7
100
AcDbLine
 10
20.4104391797
 20
189.7054769737
 30
0.0
 11
20.7622875626
 21
189.7054769737
 31
0.0
  0
LINE
  5
22C
330
19D
100
AcDbEntity
  8
Default
  6
Continuous
 62
     7
100
AcDbLine
 10
21.3855899487
 20
187.2800436062
 30
0.0
 11
21.3855899487
 21
188.5910856771
 31
0.0
  0
LINE
  5
22D
330
19D
100
AcDbEntity
  8
Default
  6
Continuous
 62
     7
100
AcDbLine
 10
21.3855899487
 20
188.5910856771
 30
0.0
 11
21.7416335812
 21
188.5910856771
 31
0.0
  0
LINE
  5
22E
330
19D
100
AcDbEntity
  8
Default
  6
Continuous
 62
     7
100
AcDbLine
 10
21.7416335812
 20
188.5910856771
 30
0.0
 11
21.7416335812
 21
187.2800436062
 31
0.0
  0
LINE
  5
22F
330
19D
100
AcDbEntity
  8
Default
  6
Continuous
 62
     7
100
AcDbLine
 10
21.7416335812
 20
187.2800436062
 30
0.0
 11
21.3855899487
 21
187.2800436062
 31
0.0
  0
LINE
  5
230
330
19D
100
AcDbEntity
  8
Default
  6
Continuous
 62
     7
100
AcDbLine
 10
21.3777751309
 20
189.0485464676
 30
0.0
 11
21.3777751309
 21
188.7854244211
 31
0.0
  0
SPLINE
  5
231
330
19D
100
AcDbEntity
  8
Default
  6
Continuous
 62
     7
100
AcDbSpline
210
0.0
220
0.0
230
1.0
 70
     8
 71
     3
 72
    13
 73
     9
 74
     0
 42
0.0000000127479243
 43
0.0000000001
 12
1.0
 22
0.0
 32
0.0
 13
1.0
 23
0.0
 33
0.0
 40
0.0
 40
0.0
 40
0.0
 40
0.0
 40
0.2107584163945606
 40
0.3689251257012291
 40
0.4773402963830308
 40
0.6267974682744708
 40
0.7927243308008671
 40
1.0
 40
1.0
 40
1.0
 40
1.0
 10
21.83247637349007
 20
189.4835708175996
 30
0.0
 10
21.83362624079747
 20
189.4231447461067
 30
0.0
 10
21.83626231628453
 20
189.3329395645589
 30
0.0
 10
21.82968056802527
 20
189.2218313391597
 30
0.0
 10
21.77146133173995
 20
189.131606197854
 30
0.0
 10
21.69912054052457
 20
189.0761020984766
 30
0.0
 10
21.58254222345165
 20
189.052325003012
 30
0.0
 10
21.49700976942099
 20
189.0473056955538
 30
0.0
 10
21.37777513087799
 20
189.0485464675638
 30
0.0
  0
SPLINE
  5
232
330
19D
100
AcDbEntity
  8
Default
  6
Continuous
 62
     7
100
AcDbSpline
210
0.0
220
0.0
230
1.0
 70
     8
 71
     3
 72
    18
 73
    14
 74
     0
 42
0.000000003396526
 43
0.0000000001
 12
1.0
 22
0.0
 32
0.0
 13
1.0
 23
0.0
 33
0.0
 40
0.0
 40
0.0
 40
0.0
 40
0.0
 40
0.049918958198369
 40
0.1029683479443044
 40
0.2013573979316206
 40
0.3064921707980691
 40
0.4454465223499085
 40
0.5715759647843356
 40
0.6883870828793712
 40
0.7902712580605774
 40
0.8901128900259564
 40
0.9499280410527614
 40
1.0
 40
1.0
 40
1.0
 40
1.0
 10
21.83213632999875
 20
190.4573794687502
 30
0.0
 10
21.80368281700783
 20
190.5003419203894
 30
0.0
 10
21.75089374158368
 20
190.5753776145168
 30
0.0
 10
21.57448125557331
 20
190.668103779344
 30
0.0
 10
21.3136873666104
 20
190.6636775466471
 30
0.0
 10
21.02551565229992
 20
190.4904054895993
 30
0.0
 10
20.90532992089851
 20
190.1373108059086
 30
0.0
 10
20.89812181418541
 20
189.7794267200064
 30
0.0
 10
21.0258478332434
 20
189.4589260502325
 30
0.0
 10
21.29727990105132
 20
189.3051247401455
 30
0.0
 10
21.53513384913557
 20
189.2775648072189
 30
0.0
 10
21.74083599836752
 20
189.3568733552897
 30
0.0
 10
21.80559464823735
 20
189.4383605848447
 30
0.0
 10
21.83247637349007
 20
189.4835708175996
 30
0.0
  0
LINE
  5
233
330
19D
100
AcDbEntity
  8
Default
  6
Continuous
 62
     7
100
AcDbLine
 10
21.83213633
 20
190.6245107529
 30
0.0
 11
21.83213633
 21
190.4573794688
 31
0.0
  0
LINE
  5
234
330
19D
100
AcDbEntity
  8
Default
  6
Continuous
 62
     7
100
AcDbLine
 10
21.83213633
 20
190.6245107529
 30
0.0
 11
22.1704889118
 21
190.6245107529
 31
0.0
  0
LINE
  5
235
330
19D
100
AcDbEntity
  8
Default
  6
Continuous
 62
     7
100
AcDbLine
 10
22.1704889118
 20
190.6245107529
 30
0.0
 11
22.1704889118
 21
189.2827975699
 31
0.0
  0
SPLINE
  5
236
330
19D
100
AcDbEntity
  8
Default
  6
Continuous
 62
     7
100
AcDbSpline
210
0.0
220
0.0
230
1.0
 70
     8
 71
     3
 72
    12
 73
     8
 74
     0
 42
0.0000000091438826
 43
0.0000000001
 12
1.0
 22
0.0
 32
0.0
 13
1.0
 23
0.0
 33
0.0
 40
0.0
 40
0.0
 40
0.0
 40
0.0
 40
0.1481111735301081
 40
0.31565143801995
 40
0.5035200304164479
 40
0.7003318360792193
 40
1.0
 40
1.0
 40
1.0
 40
1.0
 10
22.1704889117655
 20
189.2827975698994
 30
0.0
 10
22.16779209933727
 20
189.2245324951971
 30
0.0
 10
22.15937922373466
 20
189.119044828017
 30
0.0
 10
22.07743060776147
 20
188.9468139864056
 30
0.0
 10
21.90718946335765
 20
188.8323291653408
 30
0.0
 10
21.65972117119823
 20
188.7870131370553
 30
0.0
 10
21.49576861847934
 20
188.7833399947052
 30
0.0
 10
21.37777513087799
 20
188.785424421144
 30
0.0
  0
LINE
  5
237
330
19D
100
AcDbEntity
  8
Default
  6
Continuous
 62
     7
100
AcDbLine
 10
21.8869768793
 20
188.5910856771
 30
0.0
 11
22.3152557597
 21
187.957205646
 31
0.0
  0
LINE
  5
238
330
19D
100
AcDbEntity
  8
Default
  6
Continuous
 62
     7
100
AcDbLine
 10
22.3232106427
 20
188.5910856771
 30
0.0
 11
21.8869768793
 21
188.5910856771
 31
0.0
  0
LINE
  5
239
330
19D
100
AcDbEntity
  8
Default
  6
Continuous
 62
     7
100
AcDbLine
 10
22.527227132
 20
188.2372736931
 30
0.0
 11
22.3232106427
 21
188.5910856771
 31
0.0
  0
LINE
  5
23A
330
19D
100
AcDbEntity
  8
Default
  6
Continuous
 62
     7
100
AcDbLine
 10
22.7246387709
 20
188.5910856771
 30
0.0
 11
22.527227132
 21
188.2372736931
 31
0.0
  0
LINE
  5
23B
330
19D
100
AcDbEntity
  8
Default
  6
Continuous
 62
     7
100
AcDbLine
 10
23.1623590928
 20
188.5910856771
 30
0.0
 11
22.7246387709
 21
188.5910856771
 31
0.0
  0
LINE
  5
23C
330
19D
100
AcDbEntity
  8
Default
  6
Continuous
 62
     7
100
AcDbLine
 10
22.7258801704
 20
187.957205646
 30
0.0
 11
23.1623590928
 21
188.5910856771
 31
0.0
  0
LINE
  5
23D
330
19D
100
AcDbEntity
  8
Default
  6
Continuous
 62
     7
100
AcDbLine
 10
23.1915969154
 20
187.2800436062
 30
0.0
 11
22.7258801704
 21
187.957205646
 31
0.0
  0
LINE
  5
23E
330
19D
100
AcDbEntity
  8
Default
  6
Continuous
 62
     7
100
AcDbLine
 10
22.7425874976
 20
187.2800436062
 30
0.0
 11
23.1915969154
 21
187.2800436062
 31
0.0
  0
LINE
  5
23F
330
19D
100
AcDbEntity
  8
Default
  6
Continuous
 62
     7
100
AcDbLine
 10
22.5128617489
 20
187.6648274204
 30
0.0
 11
22.7425874976
 21
187.2800436062
 31
0.0
  0
LINE
  5
240
330
19D
100
AcDbEntity
  8
Default
  6
Continuous
 62
     7
100
AcDbLine
 10
22.2935780798
 20
187.2800436062
 30
0.0
 11
22.5128617489
 21
187.6648274204
 31
0.0
  0
LINE
  5
241
330
19D
100
AcDbEntity
  8
Default
  6
Continuous
 62
     7
100
AcDbLine
 10
21.863364405
 20
187.2800436062
 30
0.0
 11
22.2935780798
 21
187.2800436062
 31
0.0
  0
LINE
  5
242
330
19D
100
AcDbEntity
  8
Default
  6
Continuous
 62
     7
100
AcDbLine
 10
22.3152557597
 20
187.957205646
 30
0.0
 11
21.863364405
 21
187.2800436062
 31
0.0
  0
ELLIPSE
  5
243
330
19D
100
AcDbEntity
  8
Default
  6
Continuous
 62
     7
100
AcDbEllipse
 10
22.9487917259
 20
189.9693031751
 30
0.0
 11
0.0
 21
0.7022382344309845
 31
0.0
210
0.0
220
0.0
230
1.0
 40
0.9636201351
 41
0.0
 42
6.283185307179586
  0
HATCH
  5
244
330
19D
100
AcDbEntity
  8
Default
  6
Continuous
 62
     7
100
AcDbHatch
 10
0.0
 20
0.0
 30
0.0
210
0.0
220
0.0
230
1.0
  2
SOLID
 70
     1
 71
     0
 91
        1
 92
        1
 93
        2
 72
     4
 94
        3
 73
     0
 74
     0
 95
       12
 96
        8
 40
0.0
 40
0.0
 40
0.0
 40
0.0
 40
0.222805684083124
 40
0.40592564385619
 40
0.6080013273744347
 40
0.7919843621368736
 40
1.0
 40
1.0
 40
1.0
 40
1.0
 10
20.41497467091002
 20
190.0939938125795
 10
20.40737500745012
 20
190.1598442241313
 10
20.38781272677162
 20
190.2686547174916
 10
20.23785603151567
 20
190.3691695176547
 10
20.07485797419596
 20
190.3631938487289
 10
19.93575694182442
 20
190.2570830543919
 10
19.91382980439132
 20
190.1551052691845
 10
19.90406129787981
 20
190.0939938125795
 72
     1
 10
19.90406129787981
 20
190.0939938125795
 11
20.41497467091001
 21
190.0939938125795
 97
        0
 75
     0
 76
     1
 98
        0
  0
SPLINE
  5
245
330
19D
100
AcDbEntity
  8
Default
  6
Continuous
 62
     7
100
AcDbSpline
210
0.0
220
0.0
230
1.0
 70
     8
 71
     3
 72
    12
 73
     8
 74
     0
 42
0.0000000116059552
 43
0.0000000001
 12
1.0
 22
0.0
 32
0.0
 13
1.0
 23
0.0
 33
0.0
 40
0.0
 40
0.0
 40
0.0
 40
0.0
 40
0.2080156378631264
 40
0.3919986726255654
 40
0.59407435614381
 40
0.777194315916876
 40
1.0
 40
1.0
 40
1.0
 40
1.0
 10
19.90406129787981
 20
190.0939938125795
 30
0.0
 10
19.91382980439132
 20
190.1551052691845
 30
0.0
 10
19.93575694182442
 20
190.2570830543919
 30
0.0
 10
20.07485797419596
 20
190.3631938487289
 30
0.0
 10
20.23785603151567
 20
190.3691695176547
 30
0.0
 10
20.38781272677162
 20
190.2686547174916
 30
0.0
 10
20.40737500745012
 20
190.1598442241313
 30
0.0
 10
20.41497467091002
 20
190.0939938125795
 30
0.0
  0
LINE
  5
246
330
19D
100
AcDbEntity
  8
Default
  6
Continuous
 62
     7
100
AcDbLine
 10
19.9040612979
 20
190.0939938126
 30
0.0
 11
20.4149746709
 21
190.0939938126
 31
0.0
  0
HATCH
  5
247
330
19D
100
AcDbEntity
  8
Default
  6
Continuous
 62
     7
100
AcDbHatch
 10
0.0
 20
0.0
 30
0.0
210
0.0
220
0.0
230
1.0
  2
SOLID
 70
     1
 71
     0
 91
        1
 92
        1
 93
        1
 72
     3
 10
21.55417040313359
 20
189.9690066507931
 11
0.0
 21
-0.3707486255374555
 40
0.765787131158088
 50
0.0
 51
360.0
 73
     1
 97
        0
 75
     0
 76
     1
 98
        0
  0
ELLIPSE
  5
248
330
19D
100
AcDbEntity
  8
Default
  6
Continuous
 62
     7
100
AcDbEllipse
 10
21.5541704031
 20
189.9690066508
 30
0.0
 11
0.0
 21
-0.3707486255374555
 31
0.0
210
0.0
220
0.0
230
1.0
 40
0.7657871312
 41
0.0
 42
6.283185307179586
  0
HATCH
  5
249
330
19D
100
AcDbEntity
  8
Default
  6
Continuous
 62
     7
100
AcDbHatch
 10
0.0
 20
0.0
 30
0.0
210
0.0
220
0.0
230
1.0
  2
SOLID
 70
     1
 71
     0
 91
        1
 92
        1
 93
        1
 72
     3
 10
22.9487917259214
 20
189.9693031750505
 11
-0.01008353416426543
 21
-0.3979909072825952
 40
0.7581952575498678
 50
0.0
 51
360.0
 73
     1
 97
        0
 75
     0
 76
     1
 98
        0
  0
ELLIPSE
  5
24A
330
19D
100
AcDbEntity
  8
Default
  6
Continuous
 62
     7
100
AcDbEllipse
 10
22.9487917259
 20
189.9693031751
 30
0.0
 11
-0.01008353416426543
 21
-0.3979909072825952
 31
0.0
210
0.0
220
0.0
230
1.0
 40
0.7581952575
 41
0.0
 42
6.283185307179586
  0
INSERT
  5
24B
330
19D
100
AcDbEntity
  8
Default
100
AcDbBlockReference
  2
SEANNOT_GROUP2
 10
0.0
 20
0.0
 30
0.0
  0
INSERT
  5
24C
330
19D
100
AcDbEntity
  8
Default
100
AcDbBlockReference
  2
SEANNOT_GROUP3
 10
0.0
 20
0.0
 30
0.0
  0
POINT
  5
24D
330
19D
100
AcDbEntity
  8
Default
  6
Continuous
 62
     7
100
AcDbPoint
 10
0.0
 20
0.0
 30
0.0
  0
ENDBLK
  5
24F
330
19D
100
AcDbEntity
  8
0
100
AcDbBlockEnd
  0
ENDSEC
  0
SECTION
  2
ENTITIES
  0
INSERT
  5
41
330
1F
100
AcDbEntity
  8
Default
100
AcDbBlockReference
  2
SE
 10
0.0
 20
0.0
 30
0.0
  0
INSERT
  5
9B
330
1F
100
AcDbEntity
  8
Default
100
AcDbBlockReference
  2
SE1
 10
0.0
 20
0.0
 30
0.0
  0
DIMENSION
  5
142
330
1F
100
AcDbEntity
  8
Default
  6
Continuous
 62
     7
100
AcDbDimension
  2
DMBLK27
 10
228.6839534071
 20
145.5533106438
 30
0.0
 11
204.6839536157
 21
145.5533106438
 31
0.0
 70
   160
  1
\A1;<>
 71
     5
 42
-1.0
  3
DIN
100
AcDbAlignedDimension
 13
180.6839534071
 23
121.8480144254
 33
0.0
 14
228.6839534071
 24
131.8049890643
 34
0.0
100
AcDbRotatedDimension
  0
DIMENSION
  5
14C
330
1F
100
AcDbEntity
  8
Default
  6
Continuous
 62
     7
100
AcDbDimension
  2
DMBLK28
 10
234.6839534071
 20
145.3461854132
 30
0.0
 11
241.183953273
 21
145.3461854132
 31
0.0
 70
   160
  1
\A1;<>
 71
     5
 42
-1.0
  3
DIN
100
AcDbAlignedDimension
 13
247.6839534071
 23
130.6524828421
 33
0.0
 14
234.6839534071
 24
131.8049890643
 34
0.0
100
AcDbRotatedDimension
  0
DIMENSION
  5
156
330
1F
100
AcDbEntity
  8
Default
  6
Continuous
 62
     7
100
AcDbDimension
  2
DMBLK29
 10
247.6839534071
 20
153.9533112756
 30
0.0
 11
214.1839542415
 21
153.9533112756
 31
0.0
 70
   160
  1
\A1;<>
 71
     5
 42
-1.0
  3
DIN
100
AcDbAlignedDimension
 13
180.6839534071
 23
121.8480144254
 33
0.0
 14
247.6839534071
 24
130.6524828421
 34
0.0
100
AcDbRotatedDimension
  0
INSERT
  5
161
330
1F
100
AcDbEntity
  8
Default
100
AcDbBlockReference
  2
GDimGGroup
 10
0.0
 20
0.0
 30
0.0
  0
INSERT
  5
16B
330
1F
100
AcDbEntity
  8
Default
100
AcDbBlockReference
  2
GDimGGroup1
 10
0.0
 20
0.0
 30
0.0
  0
DIMENSION
  5
174
330
1F
100
AcDbEntity
  8
Default
  6
Continuous
 62
     7
100
AcDbDimension
  2
DMBLK30
 10
73.4218712369
 20
81.3821095255
 30
0.0
 11
128.5793316905
 21
122.9539170306
 31
0.0
 70
   163
  1
\A1;%%C <>
 71
     5
 42
-1.0
  3
DIN
100
AcDbDiametricDimension
 15
110.5287833929
 25
131.9228561587
 35
0.0
 40
0.0
1001
ACAD
1000
DSTYLE
1002
{
1070
   279
1070
     1
1070
     0
1002
}
  0
DIMENSION
  5
180
330
1F
100
AcDbEntity
  8
Default
  6
Continuous
 62
     7
100
AcDbDimension
  2
DMBLK31
 10
212.6839534071
 20
137.1533118746
 30
0.0
 11
196.683954167
 21
137.1533118746
 31
0.0
 70
   160
  1
\A1;<>
 71
     5
 42
-1.0
  3
DIN
100
AcDbAlignedDimension
 13
180.6839534071
 23
121.8480144254
 33
0.0
 14
212.6839534071
 24
129.6524828421
 34
0.0
100
AcDbRotatedDimension
  0
INSERT
  5
250
330
1F
100
AcDbEntity
  8
Default
 62
     7
100
AcDbBlockReference
  2
RF-Massblatt_ZR
 10
0.0
 20
0.0
 30
0.0
  0
ENDSEC
  0
SECTION
  2
OBJECTS
  0
DICTIONARY
  5
C
330
0
100
AcDbDictionary
281
     1
  3
ACAD_GROUP
350
D
  3
ACAD_LAYOUT
350
1A
  3
ACAD_MATERIAL
350
3B
  3
ACAD_MLEADERSTYLE
350
253
  3
ACAD_MLINESTYLE
350
17
  3
ACAD_PLOTSETTINGS
350
19
  3
ACAD_PLOTSTYLENAME
350
E
  3
ACAD_VISUALSTYLE
350
2A
  3
AcDbVariableDictionary
350
251
  0
DICTIONARY
  5
258
330
19E
100
AcDbDictionary
280
     1
281
     1
  3
ACAD_MTEXT_RT
360
259
  0
DICTIONARY
  5
25A
330
19F
100
AcDbDictionary
280
     1
281
     1
  3
ACAD_MTEXT_RT
360
25B
  0
DICTIONARY
  5
25C
330
1A2
100
AcDbDictionary
280
     1
281
     1
  3
ACAD_MTEXT_RT
360
25D
  0
DICTIONARY
  5
25E
330
1FA
100
AcDbDictionary
280
     1
281
     1
  3
ACAD_MTEXT_RT
360
25F
  0
DICTIONARY
  5
260
330
1FB
100
AcDbDictionary
280
     1
281
     1
  3
ACAD_MTEXT_RT
360
261
  0
DICTIONARY
  5
262
330
1FC
100
AcDbDictionary
280
     1
281
     1
  3
ACAD_MTEXT_RT
360
263
  0
DICTIONARY
  5
264
330
1FD
100
AcDbDictionary
280
     1
281
     1
  3
ACAD_MTEXT_RT
360
265
  0
DICTIONARY
  5
D
102
{ACAD_REACTORS
330
C
102
}
330
C
100
AcDbDictionary
281
     1
  0
DICTIONARY
  5
1A
102
{ACAD_REACTORS
330
C
102
}
330
C
100
AcDbDictionary
281
     1
  3
Layout1
350
1E
  3
Model
350
22
  0
DICTIONARY
  5
3B
102
{ACAD_REACTORS
330
C
102
}
330
C
100
AcDbDictionary
281
     1
  3
ByBlock
350
3D
  3
ByLayer
350
3C
  3
Global
350
3E
  0
DICTIONARY
  5
253
102
{ACAD_REACTORS
330
C
102
}
330
C
100
AcDbDictionary
281
     1
  0
DICTIONARY
  5
17
102
{ACAD_REACTORS
330
C
102
}
330
C
100
AcDbDictionary
281
     1
  3
Standard
350
18
  0
DICTIONARY
  5
19
102
{ACAD_REACTORS
330
C
102
}
330
C
100
AcDbDictionary
281
     1
  0
ACDBDICTIONARYWDFLT
  5
E
102
{ACAD_REACTORS
330
C
102
}
330
C
100
AcDbDictionary
281
     1
  3
Normal
350
F
100
AcDbDictionaryWithDefault
340
F
  0
DICTIONARY
  5
2A
102
{ACAD_REACTORS
330
C
102
}
330
C
100
AcDbDictionary
281
     1
  3
2dWireframe
350
2F
  3
3D Hidden
350
31
  3
3dWireframe
350
30
  3
Basic
350
32
  3
Brighten
350
36
  3
ColorChange
350
3A
  3
Conceptual
350
34
  3
Dim
350
35
  3
Facepattern
350
39
  3
Flat
350
2B
  3
FlatWithEdges
350
2C
  3
Gouraud
350
2D
  3
GouraudWithEdges
350
2E
  3
Linepattern
350
38
  3
Realistic
350
33
  3
Thicken
350
37
  0
DICTIONARY
  5
251
102
{ACAD_REACTORS
330
C
102
}
330
C
100
AcDbDictionary
281
     1
  3
DIMASSOC
350
256
  3
HIDETEXT
350
257
  3
PSOLHEIGHT
350
255
  3
PSOLWIDTH
350
254
  0
XRECORD
  5
259
102
{ACAD_REACTORS
330
258
102
}
330
258
100
AcDbXrecord
280
     1
 40
8785650.0
  1
\pxsm1.;{\fSolid Edge ISO|b0||i0||c0|p34;\C7;\H2.5;\W1.;REGO-FIX AG\P}{\fSolid Edge ISO|b0||i0||c0|p34;\C7;\H2.5;\W1.;Obermattweg 60\P}{\fSolid Edge ISO|b0||i0||c0|p34;\C7;\H2.5;\W1.;4456 Tenniken / Switzerland\P}{\fSolid Edge ISO|b0||i0||c0|p34;\C7;
  1
\H2.5;\W1.;\P}{\fSolid Edge ISO|b0||i0||c0|p34;\C7;\H2.5;\W1.;Phone  +41 61 976 14 66\P}{\fSolid Edge ISO|b0||i0||c0|p34;\C7;\H2.5;\W1.;Fax     +41 61 976 14 14\P}{\fSolid Edge ISO|b0||i0||c0|p34;\C7;\H2.5;\W1.;www.rego-fix.com}
  0
XRECORD
  5
25B
102
{ACAD_REACTORS
330
25A
102
}
330
25A
100
AcDbXrecord
280
     1
 40
47791503.0
  1
\pxsm1.;{\fSolid Edge ISO|b0||i0||c0|p34;\C7;\H1.8;\W1.;This is a non-controlled copy. All information given herein is subject to change without notice\P}{\fSolid Edge ISO|b0||i0||c0|p34;\C7;\H1.8;\W1.;\P}{\fSolid Edge ISO|b0||i0||c0|p34;\C7;\H1.8;\W
  1
1.;The information given herein has been carefully checked and is believed to be correct. REGO-FIX,\P}{\fSolid Edge ISO|b0||i0||c0|p34;\C7;\H1.8;\W1.;however, assumes no responsibility or liability for any errors, inaccuracies or omissions that may a
  1
ppear\P}{\fSolid Edge ISO|b0||i0||c0|p34;\C7;\H1.8;\W1.;in this drawing\P}{\fSolid Edge ISO|b0||i0||c0|p34;\C7;\H1.8;\W1.;\P}{\fSolid Edge ISO|b0||i0||c0|p34;\C7;\H1.8;\W1.;This document is subject to copyright laws. No part of this document may be r
  1
eproduced or transmitted\P}{\fSolid Edge ISO|b0||i0||c0|p34;\C7;\H1.8;\W1.;in any form or any means, electronic or mechanic, for any purpose, without the express written permission\P}{\fSolid Edge ISO|b0||i0||c0|p34;\C7;\H1.8;\W1.;of REGO-FIX\P}{\fSo
  1
lid Edge ISO|b0||i0||c0|p34;\C7;\H1.8;\W1.;\P}
  0
XRECORD
  5
25D
102
{ACAD_REACTORS
330
25C
102
}
330
25C
100
AcDbXrecord
280
     1
 40
2197156.0
  1
\pxsm1.;{\fSolid Edge ISO|b0||i0||c0|p34;\C7;\H3.5;\W1.;Type :\P}{\fSolid Edge ISO|b0||i0||c0|p34;\C7;\H3.5;\W1.;Part No. :\P}{\fSolid Edge ISO|b0||i0||c0|p34;\C7;\H3.5;\W1.;Date : \P}{\fSolid Edge ISO|b0||i0||c0|p34;\C7;\H3.5;\W1.;Scale :}
  0
XRECORD
  5
25F
102
{ACAD_REACTORS
330
25E
102
}
330
25E
100
AcDbXrecord
280
     1
 40
428362.0
  1
\pxsm1.;{\fArial|b0||i0||c0|p34;\C7;\H1.562478211;\W1.;Swiss\P}{\fArial|b0||i0||c0|p34;\C7;\H1.562478211;\W1.;\P}
  0
XRECORD
  5
261
102
{ACAD_REACTORS
330
260
102
}
330
260
100
AcDbXrecord
280
     1
 40
133293.0
  1
\pxsm1.;{\fArial|b0||i0||c0|p34;\C7;\H1.555658846;\W1.;Precision}
  0
XRECORD
  5
263
102
{ACAD_REACTORS
330
262
102
}
330
262
100
AcDbXrecord
280
     1
 40
105685.0
  1
\pxsm1.;{\fArial|b0||i0||c0|p34;\C7;\H1.555658846;\W1.;ools}
  0
XRECORD
  5
265
102
{ACAD_REACTORS
330
264
102
}
330
264
100
AcDbXrecord
280
     1
 40
87310.0
  1
\pxsm1.;{\fArial|b0||i0||c0|p34;\C7;\H1.555658846;\W1.;T}
  0
LAYOUT
  5
1E
102
{ACAD_REACTORS
330
1A
102
}
330
1A
100
AcDbPlotSettings
  1

  2
none_device
  4

  6

 40
0.0
 41
0.0
 42
0.0
 43
0.0
 44
0.0
 45
0.0
 46
0.0
 47
0.0
 48
0.0
 49
0.0
140
0.0
141
0.0
142
1.0
143
1.0
 70
   688
 72
     0
 73
     0
 74
     5
  7

 75
    16
147
1.0
148
0.0
149
0.0
100
AcDbLayout
  1
Layout1
 70
     1
 71
     1
 10
0.0
 20
0.0
 11
297.0
 21
210.0
 12
0.0
 22
0.0
 32
0.0
 14
0.0
 24
0.0
 34
0.0
 15
297.0
 25
210.0
 35
0.0
146
0.0
 13
0.0
 23
0.0
 33
0.0
 16
1.0
 26
0.0
 36
0.0
 17
0.0
 27
1.0
 37
0.0
 76
     0
330
1B
  0
LAYOUT
  5
22
102
{ACAD_REACTORS
330
1A
102
}
330
1A
100
AcDbPlotSettings
  1

  2
none_device
  4

  6

 40
0.0
 41
0.0
 42
0.0
 43
0.0
 44
0.0
 45
0.0
 46
0.0
 47
0.0
 48
0.0
 49
0.0
140
0.0
141
0.0
142
1.0
143
1.0
 70
  1712
 72
     0
 73
     0
 74
     0
  7

 75
     0
147
1.0
148
0.0
149
0.0
100
AcDbLayout
  1
Model
 70
     1
 71
     0
 10
0.0
 20
0.0
 11
297.0
 21
210.0
 12
0.0
 22
0.0
 32
0.0
 14
0.0
 24
0.0
 34
0.0
 15
297.0
 25
210.0
 35
0.0
146
0.0
 13
0.0
 23
0.0
 33
0.0
 16
1.0
 26
0.0
 36
0.0
 17
0.0
 27
1.0
 37
0.0
 76
     0
330
1F
331
29
  0
MATERIAL
  5
3D
102
{ACAD_REACTORS
330
3B
102
}
102
{ACAD_XDICTIONARY
360
288
102
}
330
3B
100
AcDbMaterial
  1
ByBlock
  0
MATERIAL
  5
3C
102
{ACAD_REACTORS
330
3B
102
}
102
{ACAD_XDICTIONARY
360
286
102
}
330
3B
100
AcDbMaterial
  1
ByLayer
  0
MATERIAL
  5
3E
102
{ACAD_REACTORS
330
3B
102
}
102
{ACAD_XDICTIONARY
360
28A
102
}
330
3B
100
AcDbMaterial
  1
Global
  0
MLINESTYLE
  5
18
102
{ACAD_REACTORS
330
17
102
}
330
17
100
AcDbMlineStyle
  2
Standard
 70
     0
  3

 62
   256
 51
90.0
 52
90.0
 71
     2
 49
0.5
 62
   256
  6
BYLAYER
 49
-0.5
 62
   256
  6
BYLAYER
  0
ACDBPLACEHOLDER
  5
F
102
{ACAD_REACTORS
330
E
102
}
330
E
  0
VISUALSTYLE
  5
2F
102
{ACAD_REACTORS
330
2A
102
}
102
{ACAD_XDICTIONARY
360
26E
102
}
330
2A
100
AcDbVisualStyle
  2
2dWireframe
 70
     4
 71
     0
 72
     2
 73
     0
 90
        0
 40
-0.6
 41
-30.0
 62
     5
 63
     7
 74
     1
 91
        4
 64
     7
 65
   257
 75
     1
175
     1
 42
1.0
 92
        0
 66
   257
 43
1.0
 76
     1
 77
     6
 78
     2
 67
     7
 79
     5
170
     0
171
     0
290
     0
174
     0
 93
        1
 44
0.0
173
     0
291
     0
 45
0.0
1001
ACAD
1000
AcDbSavedByObjectVersion
1070
     0
  0
VISUALSTYLE
  5
31
102
{ACAD_REACTORS
330
2A
102
}
102
{ACAD_XDICTIONARY
360
272
102
}
330
2A
100
AcDbVisualStyle
  2
3D Hidden
 70
     6
 71
     1
 72
     2
 73
     2
 90
        0
 40
-0.6
 41
-30.0
 62
     5
 63
     7
 74
     2
 91
        2
 64
     7
 65
   257
 75
     2
175
     1
 42
40.0
 92
        0
 66
   257
 43
1.0
 76
     1
 77
     6
 78
     2
 67
     7
 79
     3
170
     0
171
     0
290
     0
174
     0
 93
        1
 44
0.0
173
     0
291
     0
 45
0.0
1001
ACAD
1000
AcDbSavedByObjectVersion
1070
     0
  0
VISUALSTYLE
  5
30
102
{ACAD_REACTORS
330
2A
102
}
102
{ACAD_XDICTIONARY
360
270
102
}
330
2A
100
AcDbVisualStyle
  2
3dWireframe
 70
     5
 71
     0
 72
     2
 73
     0
 90
        0
 40
-0.6
 41
-30.0
 62
     5
 63
     7
 74
     1
 91
        4
 64
     7
 65
   257
 75
     1
175
     1
 42
1.0
 92
        0
 66
   257
 43
1.0
 76
     1
 77
     6
 78
     2
 67
     7
 79
     5
170
     0
171
     0
290
     0
174
     0
 93
        1
 44
0.0
173
     0
291
     0
 45
0.0
1001
ACAD
1000
AcDbSavedByObjectVersion
1070
     0
  0
VISUALSTYLE
  5
32
102
{ACAD_REACTORS
330
2A
102
}
102
{ACAD_XDICTIONARY
360
274
102
}
330
2A
100
AcDbVisualStyle
  2
Basic
 70
     7
 71
     1
 72
     0
 73
     1
 90
        0
 40
-0.6
 41
-30.0
 62
     5
 63
     7
 74
     0
 91
        4
 64
     7
 65
   257
 75
     1
175
     1
 42
1.0
 92
        8
 66
     7
 43
1.0
 76
     1
 77
     6
 78
     2
 67
     7
 79
     5
170
     0
171
     0
290
     0
174
     0
 93
        1
 44
0.0
173
     0
291
     1
 45
0.0
1001
ACAD
1000
AcDbSavedByObjectVersion
1070
     0
  0
VISUALSTYLE
  5
36
102
{ACAD_REACTORS
330
2A
102
}
102
{ACAD_XDICTIONARY
360
27C
102
}
330
2A
100
AcDbVisualStyle
  2
Brighten
 70
    12
 71
     2
 72
     2
 73
     0
 90
        0
 40
-0.6
 41
-30.0
 62
     5
 63
     7
 74
     1
 91
        4
 64
     7
 65
   257
 75
     1
175
     1
 42
1.0
 92
        8
 66
     7
 43
1.0
 76
     1
 77
     6
 78
     2
 67
     7
 79
     5
170
     0
171
     0
290
     0
174
     0
 93
        1
 44
50.0
173
     0
291
     1
 45
0.0
1001
ACAD
1000
AcDbSavedByObjectVersion
1070
     0
  0
VISUALSTYLE
  5
3A
102
{ACAD_REACTORS
330
2A
102
}
102
{ACAD_XDICTIONARY
360
284
102
}
330
2A
100
AcDbVisualStyle
  2
ColorChange
 70
    16
 71
     2
 72
     2
 73
     3
 90
        0
 40
-0.6
 41
-30.0
 62
     5
 63
     8
 74
     1
 91
        4
 64
     7
 65
   257
 75
     1
175
     1
 42
1.0
 92
        8
 66
     8
 43
1.0
 76
     1
 77
     6
 78
     2
 67
     7
 79
     5
170
     0
171
     0
290
     0
174
     0
 93
        1
 44
0.0
173
     0
291
     1
 45
0.0
1001
ACAD
1000
AcDbSavedByObjectVersion
1070
     0
  0
VISUALSTYLE
  5
34
102
{ACAD_REACTORS
330
2A
102
}
102
{ACAD_XDICTIONARY
360
278
102
}
330
2A
100
AcDbVisualStyle
  2
Conceptual
 70
     9
 71
     3
 72
     2
 73
     0
 90
        0
 40
-0.6
 41
-30.0
 62
     5
 63
     7
 74
     2
 91
        2
 64
     7
 65
   257
 75
     1
175
     1
 42
40.0
 92
        8
 66
     7
 43
1.0
 76
     1
 77
     6
 78
     2
 67
     7
 79
     3
170
     0
171
     0
290
     0
174
     0
 93
        1
 44
0.0
173
     0
291
     0
 45
0.0
1001
ACAD
1000
AcDbSavedByObjectVersion
1070
     0
  0
VISUALSTYLE
  5
35
102
{ACAD_REACTORS
330
2A
102
}
102
{ACAD_XDICTIONARY
360
27A
102
}
330
2A
100
AcDbVisualStyle
  2
Dim
 70
    11
 71
     2
 72
     2
 73
     0
 90
        0
 40
-0.6
 41
-30.0
 62
     5
 63
     7
 74
     1
 91
        4
 64
     7
 65
   257
 75
     1
175
     1
 42
1.0
 92
        8
 66
     7
 43
1.0
 76
     1
 77
     6
 78
     2
 67
     7
 79
     5
170
     0
171
     0
290
     0
174
     0
 93
        1
 44
-50.0
173
     0
291
     1
 45
0.0
1001
ACAD
1000
AcDbSavedByObjectVersion
1070
     0
  0
VISUALSTYLE
  5
39
102
{ACAD_REACTORS
330
2A
102
}
102
{ACAD_XDICTIONARY
360
282
102
}
330
2A
100
AcDbVisualStyle
  2
Facepattern
 70
    15
 71
     2
 72
     2
 73
     0
 90
        0
 40
-0.6
 41
-30.0
 62
     5
 63
     7
 74
     1
 91
        4
 64
     7
 65
   257
 75
     1
175
     1
 42
1.0
 92
        8
 66
     7
 43
1.0
 76
     1
 77
     6
 78
     2
 67
     7
 79
     5
170
     0
171
     0
290
     0
174
     0
 93
        1
 44
0.0
173
     0
291
     1
 45
0.0
1001
ACAD
1000
AcDbSavedByObjectVersion
1070
     0
  0
VISUALSTYLE
  5
2B
102
{ACAD_REACTORS
330
2A
102
}
102
{ACAD_XDICTIONARY
360
266
102
}
330
2A
100
AcDbVisualStyle
  2
Flat
 70
     0
 71
     2
 72
     1
 73
     1
 90
        2
 40
-0.6
 41
30.0
 62
     5
 63
     7
 74
     0
 91
        4
 64
     7
 65
   257
 75
     1
175
     1
 42
1.0
 92
        8
 66
     7
 43
1.0
 76
     1
 77
     6
 78
     2
 67
     7
 79
     5
170
     0
171
     0
290
     0
174
     0
 93
       13
 44
0.0
173
     0
291
     1
 45
0.0
1001
ACAD
1000
AcDbSavedByObjectVersion
1070
     0
  0
VISUALSTYLE
  5
2C
102
{ACAD_REACTORS
330
2A
102
}
102
{ACAD_XDICTIONARY
360
268
102
}
330
2A
100
AcDbVisualStyle
  2
FlatWithEdges
 70
     1
 71
     2
 72
     1
 73
     1
 90
        2
 40
-0.6
 41
30.0
 62
     5
 63
     7
 74
     1
 91
        4
 64
     7
 65
   257
 75
     1
175
     1
 42
1.0
 92
        0
 66
   257
 43
1.0
 76
     1
 77
     6
 78
     2
 67
     7
 79
     5
170
     0
171
     0
290
     0
174
     0
 93
       13
 44
0.0
173
     0
291
     1
 45
0.0
1001
ACAD
1000
AcDbSavedByObjectVersion
1070
     0
  0
VISUALSTYLE
  5
2D
102
{ACAD_REACTORS
330
2A
102
}
102
{ACAD_XDICTIONARY
360
26A
102
}
330
2A
100
AcDbVisualStyle
  2
Gouraud
 70
     2
 71
     2
 72
     2
 73
     1
 90
        2
 40
-0.6
 41
30.0
 62
     5
 63
     7
 74
     0
 91
        4
 64
     7
 65
   257
 75
     1
175
     1
 42
1.0
 92
        0
 66
     7
 43
1.0
 76
     1
 77
     6
 78
     2
 67
     7
 79
     5
170
     0
171
     0
290
     0
174
     0
 93
       13
 44
0.0
173
     0
291
     1
 45
0.0
1001
ACAD
1000
AcDbSavedByObjectVersion
1070
     0
  0
VISUALSTYLE
  5
2E
102
{ACAD_REACTORS
330
2A
102
}
102
{ACAD_XDICTIONARY
360
26C
102
}
330
2A
100
AcDbVisualStyle
  2
GouraudWithEdges
 70
     3
 71
     2
 72
     2
 73
     1
 90
        2
 40
-0.6
 41
30.0
 62
     5
 63
     7
 74
     1
 91
        4
 64
     7
 65
   257
 75
     1
175
     1
 42
1.0
 92
        0
 66
   257
 43
1.0
 76
     1
 77
     6
 78
     2
 67
     7
 79
     5
170
     0
171
     0
290
     0
174
     0
 93
       13
 44
0.0
173
     0
291
     1
 45
0.0
1001
ACAD
1000
AcDbSavedByObjectVersion
1070
     0
  0
VISUALSTYLE
  5
38
102
{ACAD_REACTORS
330
2A
102
}
102
{ACAD_XDICTIONARY
360
280
102
}
330
2A
100
AcDbVisualStyle
  2
Linepattern
 70
    14
 71
     2
 72
     2
 73
     0
 90
        0
 40
-0.6
 41
-30.0
 62
     5
 63
     7
 74
     1
 91
        4
 64
     7
 65
   257
 75
     7
175
     7
 42
1.0
 92
        8
 66
     7
 43
1.0
 76
     1
 77
     6
 78
     2
 67
     7
 79
     5
170
     0
171
     0
290
     0
174
     0
 93
        1
 44
0.0
173
     0
291
     1
 45
0.0
1001
ACAD
1000
AcDbSavedByObjectVersion
1070
     0
  0
VISUALSTYLE
  5
33
102
{ACAD_REACTORS
330
2A
102
}
102
{ACAD_XDICTIONARY
360
276
102
}
330
2A
100
AcDbVisualStyle
  2
Realistic
 70
     8
 71
     2
 72
     2
 73
     0
 90
        0
 40
-0.6
 41
-30.0
 62
     5
 63
     7
 74
     1
 91
        0
 64
     7
 65
   257
 75
     1
175
     1
 42
1.0
 92
        8
 66
     8
 43
1.0
 76
     1
 77
     6
 78
     2
 67
     7
 79
     5
170
     0
171
     0
290
     0
174
     0
 93
       13
 44
0.0
173
     0
291
     0
 45
0.0
1001
ACAD
1000
AcDbSavedByObjectVersion
1070
     0
  0
VISUALSTYLE
  5
37
102
{ACAD_REACTORS
330
2A
102
}
102
{ACAD_XDICTIONARY
360
27E
102
}
330
2A
100
AcDbVisualStyle
  2
Thicken
 70
    13
 71
     2
 72
     2
 73
     0
 90
        0
 40
-0.6
 41
-30.0
 62
     5
 63
     7
 74
     1
 91
        4
 64
     7
 65
   257
 75
     1
175
     1
 42
1.0
 92
       12
 66
     7
 43
1.0
 76
     1
 77
     6
 78
     2
 67
     7
 79
     5
170
     0
171
     0
290
     0
174
     0
 93
        1
 44
0.0
173
     0
291
     1
 45
0.0
1001
ACAD
1000
AcDbSavedByObjectVersion
1070
     0
  0
DICTIONARYVAR
  5
256
102
{ACAD_REACTORS
330
251
102
}
330
251
100
DictionaryVariables
280
     0
  1
2
  0
DICTIONARYVAR
  5
257
102
{ACAD_REACTORS
330
251
102
}
330
251
100
DictionaryVariables
280
     0
  1
1
  0
DICTIONARYVAR
  5
255
102
{ACAD_REACTORS
330
251
102
}
330
251
100
DictionaryVariables
280
     0
  1
80.000000
  0
DICTIONARYVAR
  5
254
102
{ACAD_REACTORS
330
251
102
}
330
251
100
DictionaryVariables
280
     0
  1
5.000000
  0
DICTIONARY
  5
288
330
3D
100
AcDbDictionary
280
     1
281
     1
  3
ACAD_XREC_ROUNDTRIP
360
289
  0
DICTIONARY
  5
286
330
3C
100
AcDbDictionary
280
     1
281
     1
  3
ACAD_XREC_ROUNDTRIP
360
287
  0
DICTIONARY
  5
28A
330
3E
100
AcDbDictionary
280
     1
281
     1
  3
ACAD_XREC_ROUNDTRIP
360
28B
  0
DICTIONARY
  5
26E
330
2F
100
AcDbDictionary
280
     1
281
     1
  3
ACAD_XREC_ROUNDTRIP
360
26F
  0
DICTIONARY
  5
272
330
31
100
AcDbDictionary
280
     1
281
     1
  3
ACAD_XREC_ROUNDTRIP
360
273
  0
DICTIONARY
  5
270
330
30
100
AcDbDictionary
280
     1
281
     1
  3
ACAD_XREC_ROUNDTRIP
360
271
  0
DICTIONARY
  5
274
330
32
100
AcDbDictionary
280
     1
281
     1
  3
ACAD_XREC_ROUNDTRIP
360
275
  0
DICTIONARY
  5
27C
330
36
100
AcDbDictionary
280
     1
281
     1
  3
ACAD_XREC_ROUNDTRIP
360
27D
  0
DICTIONARY
  5
284
330
3A
100
AcDbDictionary
280
     1
281
     1
  3
ACAD_XREC_ROUNDTRIP
360
285
  0
DICTIONARY
  5
278
330
34
100
AcDbDictionary
280
     1
281
     1
  3
ACAD_XREC_ROUNDTRIP
360
279
  0
DICTIONARY
  5
27A
330
35
100
AcDbDictionary
280
     1
281
     1
  3
ACAD_XREC_ROUNDTRIP
360
27B
  0
DICTIONARY
  5
282
330
39
100
AcDbDictionary
280
     1
281
     1
  3
ACAD_XREC_ROUNDTRIP
360
283
  0
DICTIONARY
  5
266
330
2B
100
AcDbDictionary
280
     1
281
     1
  3
ACAD_XREC_ROUNDTRIP
360
267
  0
DICTIONARY
  5
268
330
2C
100
AcDbDictionary
280
     1
281
     1
  3
ACAD_XREC_ROUNDTRIP
360
269
  0
DICTIONARY
  5
26A
330
2D
100
AcDbDictionary
280
     1
281
     1
  3
ACAD_XREC_ROUNDTRIP
360
26B
  0
DICTIONARY
  5
26C
330
2E
100
AcDbDictionary
280
     1
281
     1
  3
ACAD_XREC_ROUNDTRIP
360
26D
  0
DICTIONARY
  5
280
330
38
100
AcDbDictionary
280
     1
281
     1
  3
ACAD_XREC_ROUNDTRIP
360
281
  0
DICTIONARY
  5
276
330
33
100
AcDbDictionary
280
     1
281
     1
  3
ACAD_XREC_ROUNDTRIP
360
277
  0
DICTIONARY
  5
27E
330
37
100
AcDbDictionary
280
     1
281
     1
  3
ACAD_XREC_ROUNDTRIP
360
27F
  0
XRECORD
  5
289
102
{ACAD_REACTORS
330
288
102
}
330
288
100
AcDbXrecord
280
     1
102
MATERIAL
148
0.0
149
0.0
149
0.0
 93
        0
 94
      127
282
     0
 72
     1
 77
     1
171
     1
175
     1
179
     1
273
     0
  0
XRECORD
  5
287
102
{ACAD_REACTORS
330
286
102
}
330
286
100
AcDbXrecord
280
     1
102
MATERIAL
148
0.0
149
0.0
149
0.0
 93
        0
 94
      127
282
     0
 72
     1
 77
     1
171
     1
175
     1
179
     1
273
     0
  0
XRECORD
  5
28B
102
{ACAD_REACTORS
330
28A
102
}
330
28A
100
AcDbXrecord
280
     1
102
MATERIAL
148
0.0
149
0.0
149
0.0
 93
        0
 94
      127
282
     0
 72
     1
 77
     1
171
     1
175
     1
179
     1
273
     0
  0
XRECORD
  5
26F
102
{ACAD_REACTORS
330
26E
102
}
330
26E
100
AcDbXrecord
280
     1
102
RTVSPropertyOp0
 70
     1
102
RTVSPropertyOp1
 70
     1
102
RTVSPropertyOp2
 70
     1
102
RTVSPropertyOp3
 70
     1
102
RTVSPropertyOp4
 70
     1
102
RTVSPropertyOp5
 70
     1
102
RTVSPropertyOp6
 70
     1
102
RTVSPropertyOp7
 70
     1
102
RTVSPropertyOp8
 70
     1
102
RTVSPropertyOp9
 70
     1
102
RTVSPropertyOp10
 70
     1
102
RTVSPropertyOp11
 70
     1
102
RTVSPropertyOp12
 70
     1
102
RTVSPropertyOp13
 70
     1
102
RTVSPropertyOp14
 70
     1
102
RTVSPropertyOp15
 70
     1
102
RTVSPropertyOp16
 70
     1
102
RTVSPropertyOp17
 70
     1
102
RTVSPropertyOp18
 70
     1
102
RTVSPropertyOp19
 70
     1
102
RTVSPropertyOp20
 70
     1
102
RTVSPropertyOp21
 70
     1
102
RTVSPropertyOp22
 70
     1
102
RTVSPropertyOp23
 70
     1
102
RTVSPropertyOp24
 70
     1
102
RTVSPropertyOp25
 70
     1
102
RTVSPropertyOp26
 70
     1
102
RTVSPropertyOp27
 70
     1
102
RTVSPropertyOp28
 70
     1
102
RTVSPropertyOp29
 70
     1
102
RTVSPropertyOp30
 70
     1
102
RTVSPropertyOp31
 70
     1
102
RTVSPropertyOp32
 70
     1
  0
XRECORD
  5
273
102
{ACAD_REACTORS
330
272
102
}
330
272
100
AcDbXrecord
280
     1
102
RTVSPropertyOp0
 70
     1
102
RTVSPropertyOp1
 70
     1
102
RTVSPropertyOp2
 70
     1
102
RTVSPropertyOp3
 70
     1
102
RTVSPropertyOp4
 70
     1
102
RTVSPropertyOp5
 70
     1
102
RTVSPropertyOp6
 70
     1
102
RTVSPropertyOp7
 70
     1
102
RTVSPropertyOp8
 70
     1
102
RTVSPropertyOp9
 70
     1
102
RTVSPropertyOp10
 70
     1
102
RTVSPropertyOp11
 70
     1
102
RTVSPropertyOp12
 70
     1
102
RTVSPropertyOp13
 70
     1
102
RTVSPropertyOp14
 70
     1
102
RTVSPropertyOp15
 70
     1
102
RTVSPropertyOp16
 70
     1
102
RTVSPropertyOp17
 70
     1
102
RTVSPropertyOp18
 70
     1
102
RTVSPropertyOp19
 70
     1
102
RTVSPropertyOp20
 70
     1
102
RTVSPropertyOp21
 70
     1
102
RTVSPropertyOp22
 70
     1
102
RTVSPropertyOp23
 70
     1
102
RTVSPropertyOp24
 70
     1
102
RTVSPropertyOp25
 70
     1
102
RTVSPropertyOp26
 70
     1
102
RTVSPropertyOp27
 70
     1
102
RTVSPropertyOp28
 70
     1
102
RTVSPropertyOp29
 70
     1
102
RTVSPropertyOp30
 70
     1
102
RTVSPropertyOp31
 70
     1
102
RTVSPropertyOp32
 70
     1
  0
XRECORD
  5
271
102
{ACAD_REACTORS
330
270
102
}
330
270
100
AcDbXrecord
280
     1
102
RTVSPropertyOp0
 70
     1
102
RTVSPropertyOp1
 70
     1
102
RTVSPropertyOp2
 70
     1
102
RTVSPropertyOp3
 70
     1
102
RTVSPropertyOp4
 70
     1
102
RTVSPropertyOp5
 70
     1
102
RTVSPropertyOp6
 70
     1
102
RTVSPropertyOp7
 70
     1
102
RTVSPropertyOp8
 70
     1
102
RTVSPropertyOp9
 70
     1
102
RTVSPropertyOp10
 70
     1
102
RTVSPropertyOp11
 70
     1
102
RTVSPropertyOp12
 70
     1
102
RTVSPropertyOp13
 70
     1
102
RTVSPropertyOp14
 70
     1
102
RTVSPropertyOp15
 70
     1
102
RTVSPropertyOp16
 70
     1
102
RTVSPropertyOp17
 70
     1
102
RTVSPropertyOp18
 70
     1
102
RTVSPropertyOp19
 70
     1
102
RTVSPropertyOp20
 70
     1
102
RTVSPropertyOp21
 70
     1
102
RTVSPropertyOp22
 70
     1
102
RTVSPropertyOp23
 70
     1
102
RTVSPropertyOp24
 70
     1
102
RTVSPropertyOp25
 70
     1
102
RTVSPropertyOp26
 70
     1
102
RTVSPropertyOp27
 70
     1
102
RTVSPropertyOp28
 70
     1
102
RTVSPropertyOp29
 70
     1
102
RTVSPropertyOp30
 70
     1
102
RTVSPropertyOp31
 70
     1
102
RTVSPropertyOp32
 70
     1
  0
XRECORD
  5
275
102
{ACAD_REACTORS
330
274
102
}
330
274
100
AcDbXrecord
280
     1
102
RTVSPropertyOp0
 70
     1
102
RTVSPropertyOp1
 70
     1
102
RTVSPropertyOp2
 70
     1
102
RTVSPropertyOp3
 70
     1
102
RTVSPropertyOp4
 70
     1
102
RTVSPropertyOp5
 70
     1
102
RTVSPropertyOp6
 70
     1
102
RTVSPropertyOp7
 70
     1
102
RTVSPropertyOp8
 70
     1
102
RTVSPropertyOp9
 70
     1
102
RTVSPropertyOp10
 70
     1
102
RTVSPropertyOp11
 70
     1
102
RTVSPropertyOp12
 70
     1
102
RTVSPropertyOp13
 70
     1
102
RTVSPropertyOp14
 70
     1
102
RTVSPropertyOp15
 70
     1
102
RTVSPropertyOp16
 70
     1
102
RTVSPropertyOp17
 70
     1
102
RTVSPropertyOp18
 70
     1
102
RTVSPropertyOp19
 70
     1
102
RTVSPropertyOp20
 70
     1
102
RTVSPropertyOp21
 70
     1
102
RTVSPropertyOp22
 70
     1
102
RTVSPropertyOp23
 70
     1
102
RTVSPropertyOp24
 70
     1
102
RTVSPropertyOp25
 70
     1
102
RTVSPropertyOp26
 70
     1
102
RTVSPropertyOp27
 70
     1
102
RTVSPropertyOp28
 70
     1
102
RTVSPropertyOp29
 70
     1
102
RTVSPropertyOp30
 70
     1
102
RTVSPropertyOp31
 70
     1
102
RTVSPropertyOp32
 70
     1
  0
XRECORD
  5
27D
102
{ACAD_REACTORS
330
27C
102
}
330
27C
100
AcDbXrecord
280
     1
102
RTVSPropertyOp0
 70
     1
102
RTVSPropertyOp1
 70
     1
102
RTVSPropertyOp2
 70
     1
102
RTVSPropertyOp3
 70
     1
102
RTVSPropertyOp4
 70
     1
102
RTVSPropertyOp5
 70
     1
102
RTVSPropertyOp6
 70
     1
102
RTVSPropertyOp7
 70
     1
102
RTVSPropertyOp8
 70
     1
102
RTVSPropertyOp9
 70
     1
102
RTVSPropertyOp10
 70
     1
102
RTVSPropertyOp11
 70
     1
102
RTVSPropertyOp12
 70
     1
102
RTVSPropertyOp13
 70
     1
102
RTVSPropertyOp14
 70
     1
102
RTVSPropertyOp15
 70
     1
102
RTVSPropertyOp16
 70
     1
102
RTVSPropertyOp17
 70
     1
102
RTVSPropertyOp18
 70
     1
102
RTVSPropertyOp19
 70
     1
102
RTVSPropertyOp20
 70
     1
102
RTVSPropertyOp21
 70
     1
102
RTVSPropertyOp22
 70
     1
102
RTVSPropertyOp23
 70
     1
102
RTVSPropertyOp24
 70
     1
102
RTVSPropertyOp25
 70
     1
102
RTVSPropertyOp26
 70
     1
102
RTVSPropertyOp27
 70
     1
102
RTVSPropertyOp28
 70
     1
102
RTVSPropertyOp29
 70
     1
102
RTVSPropertyOp30
 70
     1
102
RTVSPropertyOp31
 70
     1
102
RTVSPropertyOp32
 70
     1
  0
XRECORD
  5
285
102
{ACAD_REACTORS
330
284
102
}
330
284
100
AcDbXrecord
280
     1
102
RTVSPropertyOp0
 70
     1
102
RTVSPropertyOp1
 70
     1
102
RTVSPropertyOp2
 70
     1
102
RTVSPropertyOp3
 70
     1
102
RTVSPropertyOp4
 70
     1
102
RTVSPropertyOp5
 70
     1
102
RTVSPropertyOp6
 70
     1
102
RTVSPropertyOp7
 70
     1
102
RTVSPropertyOp8
 70
     1
102
RTVSPropertyOp9
 70
     1
102
RTVSPropertyOp10
 70
     1
102
RTVSPropertyOp11
 70
     1
102
RTVSPropertyOp12
 70
     1
102
RTVSPropertyOp13
 70
     1
102
RTVSPropertyOp14
 70
     1
102
RTVSPropertyOp15
 70
     1
102
RTVSPropertyOp16
 70
     1
102
RTVSPropertyOp17
 70
     1
102
RTVSPropertyOp18
 70
     1
102
RTVSPropertyOp19
 70
     1
102
RTVSPropertyOp20
 70
     1
102
RTVSPropertyOp21
 70
     1
102
RTVSPropertyOp22
 70
     1
102
RTVSPropertyOp23
 70
     1
102
RTVSPropertyOp24
 70
     1
102
RTVSPropertyOp25
 70
     1
102
RTVSPropertyOp26
 70
     1
102
RTVSPropertyOp27
 70
     1
102
RTVSPropertyOp28
 70
     1
102
RTVSPropertyOp29
 70
     1
102
RTVSPropertyOp30
 70
     1
102
RTVSPropertyOp31
 70
     1
102
RTVSPropertyOp32
 70
     1
  0
XRECORD
  5
279
102
{ACAD_REACTORS
330
278
102
}
330
278
100
AcDbXrecord
280
     1
102
RTVSPropertyOp0
 70
     1
102
RTVSPropertyOp1
 70
     1
102
RTVSPropertyOp2
 70
     1
102
RTVSPropertyOp3
 70
     1
102
RTVSPropertyOp4
 70
     1
102
RTVSPropertyOp5
 70
     1
102
RTVSPropertyOp6
 70
     1
102
RTVSPropertyOp7
 70
     1
102
RTVSPropertyOp8
 70
     1
102
RTVSPropertyOp9
 70
     1
102
RTVSPropertyOp10
 70
     1
102
RTVSPropertyOp11
 70
     1
102
RTVSPropertyOp12
 70
     1
102
RTVSPropertyOp13
 70
     1
102
RTVSPropertyOp14
 70
     1
102
RTVSPropertyOp15
 70
     1
102
RTVSPropertyOp16
 70
     1
102
RTVSPropertyOp17
 70
     1
102
RTVSPropertyOp18
 70
     1
102
RTVSPropertyOp19
 70
     1
102
RTVSPropertyOp20
 70
     1
102
RTVSPropertyOp21
 70
     1
102
RTVSPropertyOp22
 70
     1
102
RTVSPropertyOp23
 70
     1
102
RTVSPropertyOp24
 70
     1
102
RTVSPropertyOp25
 70
     1
102
RTVSPropertyOp26
 70
     1
102
RTVSPropertyOp27
 70
     1
102
RTVSPropertyOp28
 70
     1
102
RTVSPropertyOp29
 70
     1
102
RTVSPropertyOp30
 70
     1
102
RTVSPropertyOp31
 70
     1
102
RTVSPropertyOp32
 70
     1
  0
XRECORD
  5
27B
102
{ACAD_REACTORS
330
27A
102
}
330
27A
100
AcDbXrecord
280
     1
102
RTVSPropertyOp0
 70
     1
102
RTVSPropertyOp1
 70
     1
102
RTVSPropertyOp2
 70
     1
102
RTVSPropertyOp3
 70
     1
102
RTVSPropertyOp4
 70
     1
102
RTVSPropertyOp5
 70
     1
102
RTVSPropertyOp6
 70
     1
102
RTVSPropertyOp7
 70
     1
102
RTVSPropertyOp8
 70
     1
102
RTVSPropertyOp9
 70
     1
102
RTVSPropertyOp10
 70
     1
102
RTVSPropertyOp11
 70
     1
102
RTVSPropertyOp12
 70
     1
102
RTVSPropertyOp13
 70
     1
102
RTVSPropertyOp14
 70
     1
102
RTVSPropertyOp15
 70
     1
102
RTVSPropertyOp16
 70
     1
102
RTVSPropertyOp17
 70
     1
102
RTVSPropertyOp18
 70
     1
102
RTVSPropertyOp19
 70
     1
102
RTVSPropertyOp20
 70
     1
102
RTVSPropertyOp21
 70
     1
102
RTVSPropertyOp22
 70
     1
102
RTVSPropertyOp23
 70
     1
102
RTVSPropertyOp24
 70
     1
102
RTVSPropertyOp25
 70
     1
102
RTVSPropertyOp26
 70
     1
102
RTVSPropertyOp27
 70
     1
102
RTVSPropertyOp28
 70
     1
102
RTVSPropertyOp29
 70
     1
102
RTVSPropertyOp30
 70
     1
102
RTVSPropertyOp31
 70
     1
102
RTVSPropertyOp32
 70
     1
  0
XRECORD
  5
283
102
{ACAD_REACTORS
330
282
102
}
330
282
100
AcDbXrecord
280
     1
102
RTVSPropertyOp0
 70
     1
102
RTVSPropertyOp1
 70
     1
102
RTVSPropertyOp2
 70
     1
102
RTVSPropertyOp3
 70
     1
102
RTVSPropertyOp4
 70
     1
102
RTVSPropertyOp5
 70
     1
102
RTVSPropertyOp6
 70
     1
102
RTVSPropertyOp7
 70
     1
102
RTVSPropertyOp8
 70
     1
102
RTVSPropertyOp9
 70
     1
102
RTVSPropertyOp10
 70
     1
102
RTVSPropertyOp11
 70
     1
102
RTVSPropertyOp12
 70
     1
102
RTVSPropertyOp13
 70
     1
102
RTVSPropertyOp14
 70
     1
102
RTVSPropertyOp15
 70
     1
102
RTVSPropertyOp16
 70
     1
102
RTVSPropertyOp17
 70
     1
102
RTVSPropertyOp18
 70
     1
102
RTVSPropertyOp19
 70
     1
102
RTVSPropertyOp20
 70
     1
102
RTVSPropertyOp21
 70
     1
102
RTVSPropertyOp22
 70
     1
102
RTVSPropertyOp23
 70
     1
102
RTVSPropertyOp24
 70
     1
102
RTVSPropertyOp25
 70
     1
102
RTVSPropertyOp26
 70
     1
102
RTVSPropertyOp27
 70
     1
102
RTVSPropertyOp28
 70
     1
102
RTVSPropertyOp29
 70
     1
102
RTVSPropertyOp30
 70
     1
102
RTVSPropertyOp31
 70
     1
102
RTVSPropertyOp32
 70
     1
  0
XRECORD
  5
267
102
{ACAD_REACTORS
330
266
102
}
330
266
100
AcDbXrecord
280
     1
102
RTVSPropertyOp0
 70
     1
102
RTVSPropertyOp1
 70
     1
102
RTVSPropertyOp2
 70
     1
102
RTVSPropertyOp3
 70
     1
102
RTVSPropertyOp4
 70
     1
102
RTVSPropertyOp5
 70
     1
102
RTVSPropertyOp6
 70
     1
102
RTVSPropertyOp7
 70
     1
102
RTVSPropertyOp8
 70
     1
102
RTVSPropertyOp9
 70
     1
102
RTVSPropertyOp10
 70
     1
102
RTVSPropertyOp11
 70
     1
102
RTVSPropertyOp12
 70
     1
102
RTVSPropertyOp13
 70
     1
102
RTVSPropertyOp14
 70
     1
102
RTVSPropertyOp15
 70
     1
102
RTVSPropertyOp16
 70
     1
102
RTVSPropertyOp17
 70
     1
102
RTVSPropertyOp18
 70
     1
102
RTVSPropertyOp19
 70
     1
102
RTVSPropertyOp20
 70
     1
102
RTVSPropertyOp21
 70
     1
102
RTVSPropertyOp22
 70
     1
102
RTVSPropertyOp23
 70
     1
102
RTVSPropertyOp24
 70
     1
102
RTVSPropertyOp25
 70
     1
102
RTVSPropertyOp26
 70
     1
102
RTVSPropertyOp27
 70
     1
102
RTVSPropertyOp28
 70
     1
102
RTVSPropertyOp29
 70
     1
102
RTVSPropertyOp30
 70
     1
102
RTVSPropertyOp31
 70
     1
102
RTVSPropertyOp32
 70
     1
  0
XRECORD
  5
269
102
{ACAD_REACTORS
330
268
102
}
330
268
100
AcDbXrecord
280
     1
102
RTVSPropertyOp0
 70
     1
102
RTVSPropertyOp1
 70
     1
102
RTVSPropertyOp2
 70
     1
102
RTVSPropertyOp3
 70
     1
102
RTVSPropertyOp4
 70
     1
102
RTVSPropertyOp5
 70
     1
102
RTVSPropertyOp6
 70
     1
102
RTVSPropertyOp7
 70
     1
102
RTVSPropertyOp8
 70
     1
102
RTVSPropertyOp9
 70
     1
102
RTVSPropertyOp10
 70
     1
102
RTVSPropertyOp11
 70
     1
102
RTVSPropertyOp12
 70
     1
102
RTVSPropertyOp13
 70
     1
102
RTVSPropertyOp14
 70
     1
102
RTVSPropertyOp15
 70
     1
102
RTVSPropertyOp16
 70
     1
102
RTVSPropertyOp17
 70
     1
102
RTVSPropertyOp18
 70
     1
102
RTVSPropertyOp19
 70
     1
102
RTVSPropertyOp20
 70
     1
102
RTVSPropertyOp21
 70
     1
102
RTVSPropertyOp22
 70
     1
102
RTVSPropertyOp23
 70
     1
102
RTVSPropertyOp24
 70
     1
102
RTVSPropertyOp25
 70
     1
102
RTVSPropertyOp26
 70
     1
102
RTVSPropertyOp27
 70
     1
102
RTVSPropertyOp28
 70
     1
102
RTVSPropertyOp29
 70
     1
102
RTVSPropertyOp30
 70
     1
102
RTVSPropertyOp31
 70
     1
102
RTVSPropertyOp32
 70
     1
  0
XRECORD
  5
26B
102
{ACAD_REACTORS
330
26A
102
}
330
26A
100
AcDbXrecord
280
     1
102
RTVSPropertyOp0
 70
     1
102
RTVSPropertyOp1
 70
     1
102
RTVSPropertyOp2
 70
     1
102
RTVSPropertyOp3
 70
     1
102
RTVSPropertyOp4
 70
     1
102
RTVSPropertyOp5
 70
     1
102
RTVSPropertyOp6
 70
     1
102
RTVSPropertyOp7
 70
     1
102
RTVSPropertyOp8
 70
     1
102
RTVSPropertyOp9
 70
     1
102
RTVSPropertyOp10
 70
     1
102
RTVSPropertyOp11
 70
     1
102
RTVSPropertyOp12
 70
     1
102
RTVSPropertyOp13
 70
     1
102
RTVSPropertyOp14
 70
     1
102
RTVSPropertyOp15
 70
     1
102
RTVSPropertyOp16
 70
     1
102
RTVSPropertyOp17
 70
     1
102
RTVSPropertyOp18
 70
     1
102
RTVSPropertyOp19
 70
     1
102
RTVSPropertyOp20
 70
     1
102
RTVSPropertyOp21
 70
     1
102
RTVSPropertyOp22
 70
     1
102
RTVSPropertyOp23
 70
     1
102
RTVSPropertyOp24
 70
     1
102
RTVSPropertyOp25
 70
     1
102
RTVSPropertyOp26
 70
     1
102
RTVSPropertyOp27
 70
     1
102
RTVSPropertyOp28
 70
     1
102
RTVSPropertyOp29
 70
     1
102
RTVSPropertyOp30
 70
     1
102
RTVSPropertyOp31
 70
     1
102
RTVSPropertyOp32
 70
     1
  0
XRECORD
  5
26D
102
{ACAD_REACTORS
330
26C
102
}
330
26C
100
AcDbXrecord
280
     1
102
RTVSPropertyOp0
 70
     1
102
RTVSPropertyOp1
 70
     1
102
RTVSPropertyOp2
 70
     1
102
RTVSPropertyOp3
 70
     1
102
RTVSPropertyOp4
 70
     1
102
RTVSPropertyOp5
 70
     1
102
RTVSPropertyOp6
 70
     1
102
RTVSPropertyOp7
 70
     1
102
RTVSPropertyOp8
 70
     1
102
RTVSPropertyOp9
 70
     1
102
RTVSPropertyOp10
 70
     1
102
RTVSPropertyOp11
 70
     1
102
RTVSPropertyOp12
 70
     1
102
RTVSPropertyOp13
 70
     1
102
RTVSPropertyOp14
 70
     1
102
RTVSPropertyOp15
 70
     1
102
RTVSPropertyOp16
 70
     1
102
RTVSPropertyOp17
 70
     1
102
RTVSPropertyOp18
 70
     1
102
RTVSPropertyOp19
 70
     1
102
RTVSPropertyOp20
 70
     1
102
RTVSPropertyOp21
 70
     1
102
RTVSPropertyOp22
 70
     1
102
RTVSPropertyOp23
 70
     1
102
RTVSPropertyOp24
 70
     1
102
RTVSPropertyOp25
 70
     1
102
RTVSPropertyOp26
 70
     1
102
RTVSPropertyOp27
 70
     1
102
RTVSPropertyOp28
 70
     1
102
RTVSPropertyOp29
 70
     1
102
RTVSPropertyOp30
 70
     1
102
RTVSPropertyOp31
 70
     1
102
RTVSPropertyOp32
 70
     1
  0
XRECORD
  5
281
102
{ACAD_REACTORS
330
280
102
}
330
280
100
AcDbXrecord
280
     1
102
RTVSPropertyOp0
 70
     1
102
RTVSPropertyOp1
 70
     1
102
RTVSPropertyOp2
 70
     1
102
RTVSPropertyOp3
 70
     1
102
RTVSPropertyOp4
 70
     1
102
RTVSPropertyOp5
 70
     1
102
RTVSPropertyOp6
 70
     1
102
RTVSPropertyOp7
 70
     1
102
RTVSPropertyOp8
 70
     1
102
RTVSPropertyOp9
 70
     1
102
RTVSPropertyOp10
 70
     1
102
RTVSPropertyOp11
 70
     1
102
RTVSPropertyOp12
 70
     1
102
RTVSPropertyOp13
 70
     1
102
RTVSPropertyOp14
 70
     1
102
RTVSPropertyOp15
 70
     1
102
RTVSPropertyOp16
 70
     1
102
RTVSPropertyOp17
 70
     1
102
RTVSPropertyOp18
 70
     1
102
RTVSPropertyOp19
 70
     1
102
RTVSPropertyOp20
 70
     1
102
RTVSPropertyOp21
 70
     1
102
RTVSPropertyOp22
 70
     1
102
RTVSPropertyOp23
 70
     1
102
RTVSPropertyOp24
 70
     1
102
RTVSPropertyOp25
 70
     1
102
RTVSPropertyOp26
 70
     1
102
RTVSPropertyOp27
 70
     1
102
RTVSPropertyOp28
 70
     1
102
RTVSPropertyOp29
 70
     1
102
RTVSPropertyOp30
 70
     1
102
RTVSPropertyOp31
 70
     1
102
RTVSPropertyOp32
 70
     1
  0
XRECORD
  5
277
102
{ACAD_REACTORS
330
276
102
}
330
276
100
AcDbXrecord
280
     1
102
RTVSPropertyOp0
 70
     1
102
RTVSPropertyOp1
 70
     1
102
RTVSPropertyOp2
 70
     1
102
RTVSPropertyOp3
 70
     1
102
RTVSPropertyOp4
 70
     1
102
RTVSPropertyOp5
 70
     1
102
RTVSPropertyOp6
 70
     1
102
RTVSPropertyOp7
 70
     1
102
RTVSPropertyOp8
 70
     1
102
RTVSPropertyOp9
 70
     1
102
RTVSPropertyOp10
 70
     1
102
RTVSPropertyOp11
 70
     1
102
RTVSPropertyOp12
 70
     1
102
RTVSPropertyOp13
 70
     1
102
RTVSPropertyOp14
 70
     1
102
RTVSPropertyOp15
 70
     1
102
RTVSPropertyOp16
 70
     1
102
RTVSPropertyOp17
 70
     1
102
RTVSPropertyOp18
 70
     1
102
RTVSPropertyOp19
 70
     1
102
RTVSPropertyOp20
 70
     1
102
RTVSPropertyOp21
 70
     1
102
RTVSPropertyOp22
 70
     1
102
RTVSPropertyOp23
 70
     1
102
RTVSPropertyOp24
 70
     1
102
RTVSPropertyOp25
 70
     1
102
RTVSPropertyOp26
 70
     1
102
RTVSPropertyOp27
 70
     1
102
RTVSPropertyOp28
 70
     1
102
RTVSPropertyOp29
 70
     1
102
RTVSPropertyOp30
 70
     1
102
RTVSPropertyOp31
 70
     1
102
RTVSPropertyOp32
 70
     1
  0
XRECORD
  5
27F
102
{ACAD_REACTORS
330
27E
102
}
330
27E
100
AcDbXrecord
280
     1
102
RTVSPropertyOp0
 70
     1
102
RTVSPropertyOp1
 70
     1
102
RTVSPropertyOp2
 70
     1
102
RTVSPropertyOp3
 70
     1
102
RTVSPropertyOp4
 70
     1
102
RTVSPropertyOp5
 70
     1
102
RTVSPropertyOp6
 70
     1
102
RTVSPropertyOp7
 70
     1
102
RTVSPropertyOp8
 70
     1
102
RTVSPropertyOp9
 70
     1
102
RTVSPropertyOp10
 70
     1
102
RTVSPropertyOp11
 70
     1
102
RTVSPropertyOp12
 70
     1
102
RTVSPropertyOp13
 70
     1
102
RTVSPropertyOp14
 70
     1
102
RTVSPropertyOp15
 70
     1
102
RTVSPropertyOp16
 70
     1
102
RTVSPropertyOp17
 70
     1
102
RTVSPropertyOp18
 70
     1
102
RTVSPropertyOp19
 70
     1
102
RTVSPropertyOp20
 70
     1
102
RTVSPropertyOp21
 70
     1
102
RTVSPropertyOp22
 70
     1
102
RTVSPropertyOp23
 70
     1
102
RTVSPropertyOp24
 70
     1
102
RTVSPropertyOp25
 70
     1
102
RTVSPropertyOp26
 70
     1
102
RTVSPropertyOp27
 70
     1
102
RTVSPropertyOp28
 70
     1
102
RTVSPropertyOp29
 70
     1
102
RTVSPropertyOp30
 70
     1
102
RTVSPropertyOp31
 70
     1
102
RTVSPropertyOp32
 70
     1
  0
ENDSEC
  0
EOF
