  0
SECTION
  2
HEADER
  9
$ACADVER
  1
AC1015
  9
$ACADMAINTVER
 70
     6
  9
$DWGCODEPAGE
  3
ANSI_1252
  9
$INSBASE
 10
0.0
 20
0.0
 30
0.0
  9
$EXTMIN
 10
0.0
 20
0.0
 30
0.0
  9
$EXTMAX
 10
297.0
 20
210.0
 30
0.0
  9
$LIMMIN
 10
0.0
 20
0.0
  9
$LIMMAX
 10
297.0
 20
210.0
  9
$ORTHOMODE
 70
     0
  9
$REGENMODE
 70
     1
  9
$FILLMODE
 70
     1
  9
$QTEXTMODE
 70
     0
  9
$MIRRTEXT
 70
     1
  9
$LTSCALE
 40
1.0
  9
$ATTMODE
 70
     1
  9
$TEXTSIZE
 40
2.5
  9
$TRACEWID
 40
1.0
  9
$TEXTSTYLE
  7
Standard
  9
$CLAYER
  8
0
  9
$CELTYPE
  6
ByLayer
  9
$CECOLOR
 62
   256
  9
$CELTSCALE
 40
1.0
  9
$DISPSILH
 70
     0
  9
$DIMSCALE
 40
1.0
  9
$DIMASZ
 40
2.5
  9
$DIMEXO
 40
0.625
  9
$DIMDLI
 40
3.75
  9
$DIMRND
 40
0.0
  9
$DIMDLE
 40
0.0
  9
$DIMEXE
 40
1.25
  9
$DIMTP
 40
0.0
  9
$DIMTM
 40
0.0
  9
$DIMTXT
 40
2.5
  9
$DIMCEN
 40
2.5
  9
$DIMTSZ
 40
0.0
  9
$DIMTOL
 70
     0
  9
$DIMLIM
 70
     0
  9
$DIMTIH
 70
     0
  9
$DIMTOH
 70
     0
  9
$DIMSE1
 70
     0
  9
$DIMSE2
 70
     0
  9
$DIMTAD
 70
     1
  9
$DIMZIN
 70
     8
  9
$DIMBLK
  1

  9
$DIMASO
 70
     1
  9
$DIMSHO
 70
     1
  9
$DIMPOST
  1

  9
$DIMAPOST
  1

  9
$DIMALT
 70
     0
  9
$DIMALTD
 70
     3
  9
$DIMALTF
 40
0.0393700787
  9
$DIMLFAC
 40
1.0
  9
$DIMTOFL
 70
     1
  9
$DIMTVP
 40
0.0
  9
$DIMTIX
 70
     0
  9
$DIMSOXD
 70
     0
  9
$DIMSAH
 70
     0
  9
$DIMBLK1
  1

  9
$DIMBLK2
  1

  9
$DIMSTYLE
  2
ISO-25
  9
$DIMCLRD
 70
     0
  9
$DIMCLRE
 70
     0
  9
$DIMCLRT
 70
     0
  9
$DIMTFAC
 40
1.0
  9
$DIMGAP
 40
0.625
  9
$DIMJUST
 70
     0
  9
$DIMSD1
 70
     0
  9
$DIMSD2
 70
     0
  9
$DIMTOLJ
 70
     0
  9
$DIMTZIN
 70
     8
  9
$DIMALTZ
 70
     0
  9
$DIMALTTZ
 70
     0
  9
$DIMUPT
 70
     0
  9
$DIMDEC
 70
     2
  9
$DIMTDEC
 70
     2
  9
$DIMALTU
 70
     2
  9
$DIMALTTD
 70
     3
  9
$DIMTXSTY
  7
Standard
  9
$DIMAUNIT
 70
     0
  9
$DIMADEC
 70
     0
  9
$DIMALTRND
 40
0.0
  9
$DIMAZIN
 70
     0
  9
$DIMDSEP
 70
    44
  9
$DIMATFIT
 70
     3
  9
$DIMFRAC
 70
     0
  9
$DIMLDRBLK
  1

  9
$DIMLUNIT
 70
     2
  9
$DIMLWD
 70
    -2
  9
$DIMLWE
 70
    -2
  9
$DIMTMOVE
 70
     0
  9
$LUNITS
 70
     2
  9
$LUPREC
 70
     4
  9
$SKETCHINC
 40
1.0
  9
$FILLETRAD
 40
10.0
  9
$AUNITS
 70
     0
  9
$AUPREC
 70
     0
  9
$MENU
  1
.
  9
$ELEVATION
 40
0.0
  9
$PELEVATION
 40
0.0
  9
$THICKNESS
 40
0.0
  9
$LIMCHECK
 70
     0
  9
$CHAMFERA
 40
10.0
  9
$CHAMFERB
 40
10.0
  9
$CHAMFERC
 40
20.0
  9
$CHAMFERD
 40
0.0
  9
$SKPOLY
 70
     0
  9
$TDCREATE
 40
2457511.302279641
  9
$TDUCREATE
 40
2457511.218946308
  9
$TDUPDATE
 40
2457511.302283345
  9
$TDUUPDATE
 40
2457511.218950012
  9
$TDINDWG
 40
0.0000000116
  9
$TDUSRTIMER
 40
0.0000000116
  9
$USRTIMER
 70
     1
  9
$ANGBASE
 50
0.0
  9
$ANGDIR
 70
     0
  9
$PDMODE
 70
     0
  9
$PDSIZE
 40
0.0
  9
$PLINEWID
 40
0.0
  9
$SPLFRAME
 70
     0
  9
$SPLINETYPE
 70
     6
  9
$SPLINESEGS
 70
     8
  9
$HANDSEED
  5
247
  9
$SURFTAB1
 70
     6
  9
$SURFTAB2
 70
     6
  9
$SURFTYPE
 70
     6
  9
$SURFU
 70
     6
  9
$SURFV
 70
     6
  9
$UCSBASE
  2

  9
$UCSNAME
  2

  9
$UCSORG
 10
0.0
 20
0.0
 30
0.0
  9
$UCSXDIR
 10
1.0
 20
0.0
 30
0.0
  9
$UCSYDIR
 10
0.0
 20
1.0
 30
0.0
  9
$UCSORTHOREF
  2

  9
$UCSORTHOVIEW
 70
     0
  9
$UCSORGTOP
 10
0.0
 20
0.0
 30
0.0
  9
$UCSORGBOTTOM
 10
0.0
 20
0.0
 30
0.0
  9
$UCSORGLEFT
 10
0.0
 20
0.0
 30
0.0
  9
$UCSORGRIGHT
 10
0.0
 20
0.0
 30
0.0
  9
$UCSORGFRONT
 10
0.0
 20
0.0
 30
0.0
  9
$UCSORGBACK
 10
0.0
 20
0.0
 30
0.0
  9
$PUCSBASE
  2

  9
$PUCSNAME
  2

  9
$PUCSORG
 10
0.0
 20
0.0
 30
0.0
  9
$PUCSXDIR
 10
1.0
 20
0.0
 30
0.0
  9
$PUCSYDIR
 10
0.0
 20
1.0
 30
0.0
  9
$PUCSORTHOREF
  2

  9
$PUCSORTHOVIEW
 70
     0
  9
$PUCSORGTOP
 10
0.0
 20
0.0
 30
0.0
  9
$PUCSORGBOTTOM
 10
0.0
 20
0.0
 30
0.0
  9
$PUCSORGLEFT
 10
0.0
 20
0.0
 30
0.0
  9
$PUCSORGRIGHT
 10
0.0
 20
0.0
 30
0.0
  9
$PUCSORGFRONT
 10
0.0
 20
0.0
 30
0.0
  9
$PUCSORGBACK
 10
0.0
 20
0.0
 30
0.0
  9
$USERI1
 70
     0
  9
$USERI2
 70
     0
  9
$USERI3
 70
     0
  9
$USERI4
 70
     0
  9
$USERI5
 70
     0
  9
$USERR1
 40
0.0
  9
$USERR2
 40
0.0
  9
$USERR3
 40
0.0
  9
$USERR4
 40
0.0
  9
$USERR5
 40
0.0
  9
$WORLDVIEW
 70
     1
  9
$SHADEDGE
 70
     3
  9
$SHADEDIF
 70
    70
  9
$TILEMODE
 70
     1
  9
$MAXACTVP
 70
    64
  9
$PINSBASE
 10
0.0
 20
0.0
 30
0.0
  9
$PLIMCHECK
 70
     0
  9
$PEXTMIN
 10
0.0
 20
0.0
 30
0.0
  9
$PEXTMAX
 10
297.0
 20
210.0
 30
0.0
  9
$PLIMMIN
 10
0.0
 20
0.0
  9
$PLIMMAX
 10
297.0
 20
210.0
  9
$UNITMODE
 70
     0
  9
$VISRETAIN
 70
     1
  9
$PLINEGEN
 70
     0
  9
$PSLTSCALE
 70
     1
  9
$TREEDEPTH
 70
  3020
  9
$CMLSTYLE
  2
Standard
  9
$CMLJUST
 70
     0
  9
$CMLSCALE
 40
20.0
  9
$PROXYGRAPHICS
 70
     1
  9
$MEASUREMENT
 70
     1
  9
$CELWEIGHT
370
    -1
  9
$ENDCAPS
280
     0
  9
$JOINSTYLE
280
     0
  9
$LWDISPLAY
290
     0
  9
$INSUNITS
 70
     4
  9
$HYPERLINKBASE
  1

  9
$STYLESHEET
  1

  9
$XEDIT
290
     1
  9
$CEPSNTYPE
380
     0
  9
$PSTYLEMODE
290
     1
  9
$FINGERPRINTGUID
  2
{F48F097A-B271-4FDB-BFD0-62F8363DE150}
  9
$VERSIONGUID
  2
{FAEB1C32-E019-11D5-929B-00C0DF256EC4}
  9
$EXTNAMES
290
     1
  9
$PSVPSCALE
 40
0.0
  9
$OLESTARTUP
290
     0
  0
ENDSEC
  0
SECTION
  2
CLASSES
  0
CLASS
  1
ACDBDICTIONARYWDFLT
  2
AcDbDictionaryWithDefault
  3
ObjectDBX Classes
 90
        0
280
     0
281
     0
  0
CLASS
  1
VISUALSTYLE
  2
AcDbVisualStyle
  3
ObjectDBX Classes
 90
     4095
280
     0
281
     0
  0
CLASS
  1
MATERIAL
  2
AcDbMaterial
  3
ObjectDBX Classes
 90
     1153
280
     0
281
     0
  0
CLASS
  1
DICTIONARYVAR
  2
AcDbDictionaryVar
  3
ObjectDBX Classes
 90
        0
280
     0
281
     0
  0
CLASS
  1
ACDBPLACEHOLDER
  2
AcDbPlaceHolder
  3
ObjectDBX Classes
 90
        0
280
     0
281
     0
  0
CLASS
  1
LAYOUT
  2
AcDbLayout
  3
ObjectDBX Classes
 90
        0
280
     0
281
     0
  0
ENDSEC
  0
SECTION
  2
TABLES
  0
TABLE
  2
VPORT
  5
8
330
0
100
AcDbSymbolTable
 70
     1
  0
VPORT
  5
29
330
8
100
AcDbSymbolTableRecord
100
AcDbViewportTableRecord
  2
*Active
 70
     0
 10
0.0
 20
0.0
 11
1.0
 21
1.0
 12
344.1869158879
 22
148.5
 13
0.0
 23
0.0
 14
10.0
 24
10.0
 15
10.0
 25
10.0
 16
0.0
 26
0.0
 36
1.0
 17
0.0
 27
0.0
 37
0.0
 40
297.0
 41
1.9729729729
 42
50.0
 43
0.0
 44
0.0
 50
0.0
 51
0.0
 71
     0
 72
   100
 73
     1
 74
     3
 75
     0
 76
     0
 77
     0
 78
     0
281
     0
 65
     1
110
0.0
120
0.0
130
0.0
111
1.0
121
0.0
131
0.0
112
0.0
122
1.0
132
0.0
 79
     0
146
0.0
  0
ENDTAB
  0
TABLE
  2
LTYPE
  5
5
330
0
100
AcDbSymbolTable
 70
     5
  0
LTYPE
  5
14
330
5
100
AcDbSymbolTableRecord
100
AcDbLinetypeTableRecord
  2
ByBlock
 70
     0
  3

 72
    65
 73
     0
 40
0.0
  0
LTYPE
  5
15
330
5
100
AcDbSymbolTableRecord
100
AcDbLinetypeTableRecord
  2
ByLayer
 70
     0
  3

 72
    65
 73
     0
 40
0.0
  0
LTYPE
  5
16
330
5
100
AcDbSymbolTableRecord
100
AcDbLinetypeTableRecord
  2
Continuous
 70
     0
  3
Solid line
 72
    65
 73
     0
 40
0.0
  0
LTYPE
  5
43
330
5
100
AcDbSymbolTableRecord
100
AcDbLinetypeTableRecord
  2
PHANTOM2
 70
     0
  3
Phantom (.5x) ___ _ _ ___ _ _ ___ _ _ ___ _ _
 72
    65
 73
     6
 40
31.75
 49
15.875
 74
     4
 75
     0
340
0
 46
0.0
 50
0.0
 44
0.0
 45
0.0
 49
-3.175
 74
     4
 75
     0
340
0
 46
0.0
 50
0.0
 44
0.0
 45
0.0
 49
3.175
 74
     4
 75
     0
340
0
 46
0.0
 50
0.0
 44
0.0
 45
0.0
 49
-3.175
 74
     4
 75
     0
340
0
 46
0.0
 50
0.0
 44
0.0
 45
0.0
 49
3.175
 74
     4
 75
     0
340
0
 46
0.0
 50
0.0
 44
0.0
 45
0.0
 49
-3.175
 74
     4
 75
     0
340
0
 46
0.0
 50
0.0
 44
0.0
 45
0.0
  0
LTYPE
  5
45
330
5
100
AcDbSymbolTableRecord
100
AcDbLinetypeTableRecord
  2
CENTER2
 70
     0
  3
Center (.5x) ___ _ ___ _ ___ _ ___ _ ___ _ ___
 72
    65
 73
     4
 40
28.575
 49
19.05
 74
     4
 75
     0
340
0
 46
0.0
 50
0.0
 44
0.0
 45
0.0
 49
-3.175
 74
     4
 75
     0
340
0
 46
0.0
 50
0.0
 44
0.0
 45
0.0
 49
3.175
 74
     4
 75
     0
340
0
 46
0.0
 50
0.0
 44
0.0
 45
0.0
 49
-3.175
 74
     4
 75
     0
340
0
 46
0.0
 50
0.0
 44
0.0
 45
0.0
  0
LTYPE
  5
72
330
5
100
AcDbSymbolTableRecord
100
AcDbLinetypeTableRecord
  2
DIVIDE2
 70
     0
  3
Divide (.5x) __..__..__..__..__..__..__..__.._
 72
    65
 73
     6
 40
15.875
 49
6.35
 74
     4
 75
     0
340
0
 46
0.0
 50
0.0
 44
0.0
 45
0.0
 49
-3.175
 74
     4
 75
     0
340
0
 46
0.0
 50
0.0
 44
0.0
 45
0.0
 49
0.0
 74
     4
 75
     0
340
0
 46
0.0
 50
0.0
 44
0.0
 45
0.0
 49
-3.175
 74
     4
 75
     0
340
0
 46
0.0
 50
0.0
 44
0.0
 45
0.0
 49
0.0
 74
     4
 75
     0
340
0
 46
0.0
 50
0.0
 44
0.0
 45
0.0
 49
-3.175
 74
     4
 75
     0
340
0
 46
0.0
 50
0.0
 44
0.0
 45
0.0
  0
LTYPE
  5
113
330
5
100
AcDbSymbolTableRecord
100
AcDbLinetypeTableRecord
  2
HIDDEN2
 70
     0
  3
Hidden (.5x) _ _ _ _ _ _ _ _ _ _ _ _ _ _ _ _ _ 
 72
    65
 73
     2
 40
4.7625
 49
3.175
 74
     4
 75
     0
340
0
 46
0.0
 50
0.0
 44
0.0
 45
0.0
 49
-1.5875
 74
     4
 75
     0
340
0
 46
0.0
 50
0.0
 44
0.0
 45
0.0
  0
ENDTAB
  0
TABLE
  2
LAYER
  5
2
330
0
100
AcDbSymbolTable
 70
     5
  0
LAYER
  5
10
330
2
100
AcDbSymbolTableRecord
100
AcDbLayerTableRecord
  2
0
 70
     0
 62
     7
  6
Continuous
370
    -3
390
F
  0
LAYER
  5
3F
330
2
100
AcDbSymbolTableRecord
100
AcDbLayerTableRecord
  2
Default
 70
     0
 62
     7
  6
Continuous
370
    -3
390
F
  0
LAYER
  5
42
330
2
100
AcDbSymbolTableRecord
100
AcDbLayerTableRecord
  2
DV1_Default
 70
     0
 62
     7
  6
Continuous
370
    -3
390
F
  0
LAYER
  5
4F
330
2
100
AcDbSymbolTableRecord
100
AcDbLayerTableRecord
  2
DV1_Vermassung
 70
     1
 62
    -7
  6
Continuous
370
    -3
390
F
  0
LAYER
  5
75
330
2
100
AcDbSymbolTableRecord
100
AcDbLayerTableRecord
  2
0011430
 70
     0
 62
     7
  6
Continuous
370
    -3
390
F
  0
ENDTAB
  0
TABLE
  2
STYLE
  5
3
330
0
100
AcDbSymbolTable
 70
     5
  0
STYLE
  5
11
330
3
100
AcDbSymbolTableRecord
100
AcDbTextStyleTableRecord
  2
Standard
 70
     0
 40
0.0
 41
1.0
 50
0.0
 71
     0
 42
2.5
  3
txt
  4

  0
STYLE
  5
62
330
3
100
AcDbSymbolTableRecord
100
AcDbTextStyleTableRecord
  2
SEACAD_Solid_Edge_ISO
 70
     0
 40
0.0
 41
1.0
 50
0.0
 71
     0
 42
0.2
  3
seiso.ttf
  4

1001
ACAD
1000
Solid Edge ISO
1071
        0
  0
STYLE
  5
171
330
3
100
AcDbSymbolTableRecord
100
AcDbTextStyleTableRecord
  2
SEACAD_Solid_Edge_ISO1_Symbols
 70
     0
 40
0.0
 41
1.0
 50
0.0
 71
     0
 42
0.2
  3
semeci1.ttf
  4

1001
ACAD
1000
Solid Edge ISO1 Symbols
1071
        0
  0
STYLE
  5
1B3
330
3
100
AcDbSymbolTableRecord
100
AcDbTextStyleTableRecord
  2
SEACAD_Solid_Edge_ANSIB
 70
     0
 40
0.0
 41
1.0
 50
0.0
 71
     0
 42
0.2
  3
seansbd.ttf
  4

1001
ACAD
1000
Solid Edge ANSI
1071
 33554432
  0
STYLE
  5
1B8
330
3
100
AcDbSymbolTableRecord
100
AcDbTextStyleTableRecord
  2
SEACAD_Solid_Edge_ANSI
 70
     0
 40
0.0
 41
1.0
 50
0.0
 71
     0
 42
0.2
  3
seans.ttf
  4

1001
ACAD
1000
Solid Edge ANSI
1071
        0
  0
ENDTAB
  0
TABLE
  2
VIEW
  5
6
330
0
100
AcDbSymbolTable
 70
     0
  0
ENDTAB
  0
TABLE
  2
UCS
  5
7
330
0
100
AcDbSymbolTable
 70
     0
  0
ENDTAB
  0
TABLE
  2
APPID
  5
9
330
0
100
AcDbSymbolTable
 70
     1
  0
APPID
  5
12
330
9
100
AcDbSymbolTableRecord
100
AcDbRegAppTableRecord
  2
ACAD
 70
     0
  0
ENDTAB
  0
TABLE
  2
DIMSTYLE
  5
A
330
0
100
AcDbSymbolTable
 70
     3
100
AcDbDimStyleTable
  0
DIMSTYLE
105
27
330
A
100
AcDbSymbolTableRecord
100
AcDbDimStyleTableRecord
  2
ISO-25
 70
     0
 41
2.5
 42
0.625
 43
3.75
 44
1.25
 73
     0
 74
     0
 77
     1
 78
     8
140
2.5
141
2.5
143
0.0393700787
147
0.625
171
     3
172
     1
178
     0
271
     2
272
     2
274
     3
278
    44
283
     0
284
     8
340
11
  0
DIMSTYLE
105
50
330
A
100
AcDbSymbolTableRecord
100
AcDbDimStyleTableRecord
  2
Standard
 70
     0
178
     0
340
11
  0
DIMSTYLE
105
63
102
{ACAD_REACTORS
330
64
330
142
330
14C
330
156
330
160
330
18A
102
}
330
A
100
AcDbSymbolTableRecord
100
AcDbDimStyleTableRecord
  2
DIN
 70
     0
 41
3.5
 42
0.0
 44
1.75
 73
     0
 74
     0
 77
     1
 78
     8
140
3.5
141
1.75
147
1.75
172
     1
173
     1
178
     0
179
     3
271
     3
272
     3
278
    44
284
     8
340
62
343
5D
344
5D
  0
ENDTAB
  0
TABLE
  2
BLOCK_RECORD
  5
1
330
0
100
AcDbSymbolTable
 70
    22
  0
BLOCK_RECORD
  5
1F
330
1
100
AcDbSymbolTableRecord
100
AcDbBlockTableRecord
  2
*Model_Space
340
22
  0
BLOCK_RECORD
  5
1B
330
1
100
AcDbSymbolTableRecord
100
AcDbBlockTableRecord
  2
*Paper_Space
340
1E
  0
BLOCK_RECORD
  5
40
330
1
100
AcDbSymbolTableRecord
100
AcDbBlockTableRecord
  2
SE
340
0
102
{BLKREFS
331
41
102
}
  0
BLOCK_RECORD
  5
51
330
1
100
AcDbSymbolTableRecord
100
AcDbBlockTableRecord
  2
_OBLIQUE
340
0
  0
BLOCK_RECORD
  5
55
330
1
100
AcDbSymbolTableRecord
100
AcDbBlockTableRecord
  2
_DOT
340
0
  0
BLOCK_RECORD
  5
5D
330
1
100
AcDbSymbolTableRecord
100
AcDbBlockTableRecord
  2
_SE_FILLED
340
0
  0
BLOCK_RECORD
  5
65
330
1
100
AcDbSymbolTableRecord
100
AcDbBlockTableRecord
  2
DMBLK33
340
0
  0
BLOCK_RECORD
  5
143
330
1
100
AcDbSymbolTableRecord
100
AcDbBlockTableRecord
  2
DMBLK34
340
0
  0
BLOCK_RECORD
  5
14D
330
1
100
AcDbSymbolTableRecord
100
AcDbBlockTableRecord
  2
DMBLK35
340
0
  0
BLOCK_RECORD
  5
157
330
1
100
AcDbSymbolTableRecord
100
AcDbBlockTableRecord
  2
DMBLK36
340
0
  0
BLOCK_RECORD
  5
161
330
1
100
AcDbSymbolTableRecord
100
AcDbBlockTableRecord
  2
DMBLK37
340
0
  0
BLOCK_RECORD
  5
16A
330
1
100
AcDbSymbolTableRecord
100
AcDbBlockTableRecord
  2
GDimGGroup
340
0
102
{BLKREFS
331
16B
102
}
  0
BLOCK_RECORD
  5
176
330
1
100
AcDbSymbolTableRecord
100
AcDbBlockTableRecord
  2
GDimGGroup1
340
0
102
{BLKREFS
331
177
102
}
  0
BLOCK_RECORD
  5
180
330
1
100
AcDbSymbolTableRecord
100
AcDbBlockTableRecord
  2
GDimGGroup2
340
0
102
{BLKREFS
331
181
102
}
  0
BLOCK_RECORD
  5
18B
330
1
100
AcDbSymbolTableRecord
100
AcDbBlockTableRecord
  2
DMBLK38
340
0
  0
BLOCK_RECORD
  5
194
330
1
100
AcDbSymbolTableRecord
100
AcDbBlockTableRecord
  2
GDimGGroup3
340
0
102
{BLKREFS
331
195
102
}
  0
BLOCK_RECORD
  5
19E
330
1
100
AcDbSymbolTableRecord
100
AcDbBlockTableRecord
  2
GDimGGroup4
340
0
102
{BLKREFS
331
19F
102
}
  0
BLOCK_RECORD
  5
1A7
330
1
100
AcDbSymbolTableRecord
100
AcDbBlockTableRecord
  2
GDimGGroup5
340
0
102
{BLKREFS
331
1A8
102
}
  0
BLOCK_RECORD
  5
1B2
330
1
100
AcDbSymbolTableRecord
100
AcDbBlockTableRecord
  2
SEANNOT_GROUP
340
0
102
{BLKREFS
331
1C7
102
}
  0
BLOCK_RECORD
  5
1B7
330
1
100
AcDbSymbolTableRecord
100
AcDbBlockTableRecord
  2
SEANNOT_GROUP1
340
0
102
{BLKREFS
331
1C8
102
}
  0
BLOCK_RECORD
  5
1BC
330
1
100
AcDbSymbolTableRecord
100
AcDbBlockTableRecord
  2
SEANNOT_GROUP2
340
0
102
{BLKREFS
331
1CA
102
}
  0
BLOCK_RECORD
  5
1C0
330
1
100
AcDbSymbolTableRecord
100
AcDbBlockTableRecord
  2
SEANNOT_GROUP3
340
0
102
{BLKREFS
331
1CB
102
}
  0
BLOCK_RECORD
  5
1C4
330
1
100
AcDbSymbolTableRecord
100
AcDbBlockTableRecord
  2
RF-Massblatt_2016
340
0
102
{BLKREFS
331
213
102
}
  0
ENDTAB
  0
ENDSEC
  0
SECTION
  2
BLOCKS
  0
BLOCK
  5
20
330
1F
100
AcDbEntity
  8
0
100
AcDbBlockBegin
  2
*Model_Space
 70
     0
 10
0.0
 20
0.0
 30
0.0
  3
*Model_Space
  1

  0
ENDBLK
  5
21
330
1F
100
AcDbEntity
  8
0
100
AcDbBlockEnd
  0
BLOCK
  5
1C
330
1B
100
AcDbEntity
 67
     1
  8
0
100
AcDbBlockBegin
  2
*Paper_Space
 70
     0
 10
0.0
 20
0.0
 30
0.0
  3
*Paper_Space
  1

  0
ENDBLK
  5
1D
330
1B
100
AcDbEntity
 67
     1
  8
0
100
AcDbBlockEnd
  0
BLOCK
  5
140
330
40
100
AcDbEntity
  8
0
100
AcDbBlockBegin
  2
SE
 70
     0
 10
0.0
 20
0.0
 30
0.0
  3
SE
  1

  0
LINE
  5
44
330
40
100
AcDbEntity
  8
DV1_Default
  6
PHANTOM2
 62
     7
100
AcDbLine
 10
137.8385091447
 20
62.4892918364
 30
0.0
 11
137.8385091447
 21
63.8931113727
 31
0.0
  0
LINE
  5
46
330
40
100
AcDbEntity
  8
DV1_Default
  6
CENTER2
 62
     7
100
AcDbLine
 10
150.6885091987
 20
98.8181113727
 30
0.0
 11
147.1885090907
 21
98.8181113727
 31
0.0
  0
LINE
  5
47
330
40
100
AcDbEntity
  8
DV1_Default
  6
CENTER2
 62
     7
100
AcDbLine
 10
148.9385091447
 20
100.5681114268
 30
0.0
 11
148.9385091447
 21
97.0681113187
 31
0.0
  0
LINE
  5
48
330
40
100
AcDbEntity
  8
DV1_Default
  6
CENTER2
 62
     7
100
AcDbLine
 10
152.4385092528
 20
98.8181113727
 30
0.0
 11
156.1385091447
 21
98.8181113727
 31
0.0
  0
LINE
  5
49
330
40
100
AcDbEntity
  8
DV1_Default
  6
CENTER2
 62
     7
100
AcDbLine
 10
148.9385091447
 20
102.3181114808
 30
0.0
 11
148.9385091447
 21
106.0181113727
 31
0.0
  0
LINE
  5
4A
330
40
100
AcDbEntity
  8
DV1_Default
  6
CENTER2
 62
     7
100
AcDbLine
 10
145.4385090367
 20
98.8181113727
 30
0.0
 11
141.7385091447
 21
98.8181113727
 31
0.0
  0
LINE
  5
4B
330
40
100
AcDbEntity
  8
DV1_Default
  6
CENTER2
 62
     7
100
AcDbLine
 10
148.9385091447
 20
95.3181112647
 30
0.0
 11
148.9385091447
 21
91.6181113727
 31
0.0
  0
LINE
  5
4C
330
40
100
AcDbEntity
  8
DV1_Default
  6
CENTER2
 62
     7
100
AcDbLine
 10
176.3385091447
 20
115.3181113727
 30
0.0
 11
176.3385091447
 21
139.3181113727
 31
0.0
  0
LINE
  5
4D
330
40
100
AcDbEntity
  8
DV1_Default
  6
CENTER2
 62
     7
100
AcDbLine
 10
34.2385091447
 20
98.8181113727
 30
0.0
 11
239.8385091447
 21
98.8181113727
 31
0.0
  0
LINE
  5
4E
330
40
100
AcDbEntity
  8
DV1_Default
  6
CENTER2
 62
     7
100
AcDbLine
 10
208.3385091447
 20
115.3181113727
 30
0.0
 11
208.3385091447
 21
139.3181113727
 31
0.0
  0
DIMENSION
  5
64
330
40
100
AcDbEntity
  8
DV1_Vermassung
  6
Continuous
 62
     7
100
AcDbDimension
  2
DMBLK33
 10
237.8385091447
 20
84.0857719973
 30
0.0
 11
187.8385098898
 21
84.0857719973
 31
0.0
 70
   160
  1
\A1;<>
 71
     5
 42
-1.0
  3
DIN
100
AcDbAlignedDimension
 13
137.8385091447
 23
62.4892918364
 33
0.0
 14
237.8385091447
 24
98.8181113727
 34
0.0
100
AcDbRotatedDimension
  0
HATCH
  5
6E
330
40
100
AcDbEntity
  8
DV1_Default
  6
Continuous
 62
     7
100
AcDbHatch
 10
0.0
 20
0.0
 30
0.0
210
0.0
220
0.0
230
1.0
  2
LINE
 70
     0
 71
     0
 91
        1
 92
        1
 93
       32
 72
     1
 10
139.0010191136974
 20
133.9126431447212
 11
38.20660507697366
 21
119.2135385575165
 72
     2
 10
38.53850914472873
 20
116.9376124405681
 40
2.300000000000018
 50
98.29710000000088
 51
180.0
 73
     1
 72
     1
 10
36.23850914472871
 20
116.9376124405681
 11
36.2385091447287
 21
112.5681113727389
 72
     2
 10
37.4885091447287
 20
112.5681113727389
 40
1.250000000000001
 50
180.0
 51
270.0
 73
     1
 72
     1
 10
37.4885091447287
 20
111.3181113727389
 11
47.73850914472871
 21
111.3181113727389
 72
     1
 10
47.73850914472872
 20
111.3181113727389
 11
47.73850914472873
 21
111.1681113727389
 72
     1
 10
47.73850914472873
 20
111.1681113727389
 11
48.08850914472872
 21
110.8181113727389
 72
     1
 10
48.08850914472872
 20
110.8181113727389
 11
83.03850914472869
 21
110.8181113727389
 72
     1
 10
83.03850914472869
 20
110.8181113727389
 11
83.03850914472869
 21
109.1941113727389
 72
     1
 10
83.03850914472869
 20
109.1941113727389
 11
156.9934150194529
 21
109.1941113727389
 72
     1
 10
156.9934150194529
 20
109.1941113727389
 11
162.8385091447287
 21
119.3181113727389
 72
     1
 10
162.8385091447287
 20
119.3181113727389
 11
166.338509144728
 21
119.3181113727389
 72
     1
 10
166.338509144728
 20
119.3181113727389
 11
166.338509144728
 21
135.8181113727389
 72
     1
 10
166.338509144728
 20
135.8181113727389
 11
167.2135091447283
 21
136.6931113727392
 72
     1
 10
167.2135091447283
 20
136.6931113727392
 11
165.338509144728
 21
138.5681113727389
 72
     1
 10
165.338509144728
 20
138.5681113727389
 11
157.6885091447287
 21
138.5681113727389
 72
     2
 10
157.6885091447287
 20
139.3681113727389
 40
0.7999999999999986
 50
90.0
 51
180.0
 73
     0
 72
     1
 10
156.8885091447287
 20
139.3681113727389
 11
156.8885091447287
 21
146.7681113727389
 72
     1
 10
156.8885091447287
 20
146.7681113727389
 11
156.0885091447287
 21
147.5681113727389
 72
     1
 10
156.0885091447287
 20
147.5681113727389
 11
152.1861044089204
 21
147.5681113727389
 72
     1
 10
152.1861044089204
 20
147.5681113727389
 11
150.8135091447287
 21
145.1907066369305
 72
     1
 10
150.8135091447287
 20
145.1907066369305
 11
150.8135091447287
 21
144.7181113727389
 72
     2
 10
150.4135091447287
 20
144.7181113727389
 40
0.3999999999999976
 50
0.0
 51
90.0
 73
     0
 72
     1
 10
150.4135091447287
 20
144.3181113727389
 11
147.4635091447287
 21
144.3181113727389
 72
     2
 10
147.4635091447287
 20
144.7181113727389
 40
0.3999999999999993
 50
90.0
 51
180.0
 73
     0
 72
     1
 10
147.0635091447287
 20
144.7181113727389
 11
147.0635091447287
 21
145.1907066369306
 72
     1
 10
147.0635091447287
 20
145.1907066369306
 11
145.690913880537
 21
147.5681113727389
 72
     1
 10
145.6909138805371
 20
147.5681113727389
 11
141.8385091447287
 21
147.5681113727389
 72
     1
 10
141.8385091447287
 20
147.5681113727389
 11
141.0385091447287
 21
146.7681113727389
 72
     1
 10
141.0385091447287
 20
146.7681113727389
 11
141.0385091447287
 21
134.4092796345928
 72
     2
 10
140.2385091447287
 20
134.4092796345928
 40
0.8000000000000017
 50
0.0
 51
105.0000000000006
 73
     0
 72
     1
 10
140.0314539086467
 20
133.6365389735616
 11
139.0010191136974
 21
133.9126431447212
 97
        0
 75
     0
 76
     1
 52
45.0
 41
1.0
 77
     0
 78
     1
 53
45.0
 43
0.0
 44
0.0
 45
-2.245064030267288
 46
2.245064030267288
 79
     0
 98
        0
  0
HATCH
  5
6F
330
40
100
AcDbEntity
  8
DV1_Default
  6
Continuous
 62
     7
100
AcDbHatch
 10
0.0
 20
0.0
 30
0.0
210
0.0
220
0.0
230
1.0
  2
LINE
 70
     0
 71
     0
 91
        1
 92
        1
 93
        4
 72
     1
 10
49.71250914472872
 20
109.1941113727389
 11
83.03850914472869
 21
109.1941113727389
 72
     1
 10
83.03850914472868
 20
109.1941113727389
 11
83.03850914472869
 21
110.8181113727389
 72
     1
 10
83.03850914472869
 20
110.8181113727389
 11
48.08850914472871
 21
110.8181113727389
 72
     1
 10
48.08850914472872
 20
110.8181113727389
 11
49.71250914472872
 21
109.1941113727389
 97
        0
 75
     0
 76
     1
 52
45.0
 41
1.0
 77
     0
 78
     1
 53
45.0
 43
0.0
 44
0.0
 45
-2.245064030267288
 46
2.245064030267288
 79
     0
 98
        0
  0
HATCH
  5
70
330
40
100
AcDbEntity
  8
DV1_Default
  6
Continuous
 62
     7
100
AcDbHatch
 10
0.0
 20
0.0
 30
0.0
210
0.0
220
0.0
230
1.0
  2
LINE
 70
     0
 71
     0
 91
        1
 92
        1
 93
        8
 72
     1
 10
186.338509144728
 20
135.8181113727389
 11
186.338509144728
 21
118.8181113727389
 72
     1
 10
186.338509144728
 20
118.8181113727389
 11
198.3385091447287
 21
118.8181113727389
 72
     1
 10
198.3385091447287
 20
118.8181113727389
 11
198.3385091447287
 21
135.8181113727389
 72
     1
 10
198.3385091447287
 20
135.8181113727389
 11
199.2135091447287
 21
136.6931113727389
 72
     1
 10
199.2135091447287
 20
136.6931113727389
 11
197.3385091447287
 21
138.5681113727389
 72
     1
 10
197.3385091447287
 20
138.5681113727389
 11
187.338509144728
 21
138.5681113727389
 72
     1
 10
187.338509144728
 20
138.5681113727389
 11
185.463509144728
 21
136.6931113727389
 72
     1
 10
185.463509144728
 20
136.6931113727389
 11
186.338509144728
 21
135.8181113727389
 97
        0
 75
     0
 76
     1
 52
45.0
 41
1.0
 77
     0
 78
     1
 53
45.0
 43
0.0
 44
0.0
 45
-2.245064030267288
 46
2.245064030267288
 79
     0
 98
        0
  0
HATCH
  5
71
330
40
100
AcDbEntity
  8
DV1_Default
  6
Continuous
 62
     7
100
AcDbHatch
 10
0.0
 20
0.0
 30
0.0
210
0.0
220
0.0
230
1.0
  2
LINE
 70
     0
 71
     0
 91
        1
 92
        1
 93
       11
 72
     1
 10
218.3385091447287
 20
118.8181113727389
 11
237.0385091447287
 21
118.8181113727389
 72
     2
 10
237.0385091447287
 20
119.6181113727389
 40
0.800000000000009
 50
270.0
 51
360.0
 73
     1
 72
     1
 10
237.8385091447287
 20
119.6181113727389
 11
237.8385091447287
 21
128.4038978103658
 72
     2
 10
236.8385091447287
 20
128.4038978103658
 40
0.9999999999999989
 50
0.0
 51
45.0
 73
     1
 72
     1
 10
237.5456159259153
 20
129.1110045915524
 11
233.0591724350828
 21
133.5974480823849
 72
     1
 10
233.0591724350828
 20
133.5974480823849
 11
228.3814023635422
 21
138.2752181539255
 72
     2
 10
227.6742955823556
 20
137.5681113727389
 40
1.000000000000001
 50
44.99999999999885
 51
90.0
 73
     1
 72
     1
 10
227.6742955823556
 20
138.5681113727389
 11
219.3385091447287
 21
138.5681113727389
 72
     1
 10
219.3385091447287
 20
138.5681113727389
 11
217.4635091447287
 21
136.6931113727389
 72
     1
 10
217.4635091447287
 20
136.6931113727389
 11
218.3385091447287
 21
135.8181113727389
 72
     1
 10
218.3385091447287
 20
135.8181113727389
 11
218.3385091447287
 21
118.8181113727389
 97
        0
 75
     0
 76
     1
 52
45.0
 41
1.0
 77
     0
 78
     1
 53
45.0
 43
0.0
 44
0.0
 45
-2.245064030267288
 46
2.245064030267288
 79
     0
 98
        0
  0
LINE
  5
73
330
40
100
AcDbEntity
  8
DV1_Default
  6
DIVIDE2
 62
     7
100
AcDbLine
 10
237.8385091447
 20
98.8181113727
 30
0.0
 11
237.8385091447
 21
128.8181113727
 31
0.0
  0
LINE
  5
74
330
40
100
AcDbEntity
  8
DV1_Default
  6
DIVIDE2
 62
     7
100
AcDbLine
 10
233.0591724351
 20
133.5974480824
 30
0.0
 11
237.8385091447
 21
128.8181113727
 31
0.0
  0
LINE
  5
76
330
40
100
AcDbEntity
  8
0011430
  6
Continuous
 62
     7
100
AcDbLine
 10
237.8385091447
 20
128.4038978104
 30
0.0
 11
237.8385091447
 21
119.6181113727
 31
0.0
  0
ARC
  5
77
330
40
100
AcDbEntity
  8
0011430
  6
Continuous
 62
     7
100
AcDbCircle
 10
156.8885091447
 20
98.8181113727
 30
0.0
 40
12.85
100
AcDbArc
 50
273.5693607119
 51
0.0
  0
LINE
  5
78
330
40
100
AcDbEntity
  8
0011430
  6
Continuous
 62
     7
100
AcDbLine
 10
237.8385091447
 20
119.6181113727
 30
0.0
 11
237.8385091447
 21
98.8181113727
 31
0.0
  0
ARC
  5
79
330
40
100
AcDbEntity
  8
0011430
  6
Continuous
 62
     7
100
AcDbCircle
 10
176.4360040012
 20
136.3994573626
 30
0.0
 40
19.66967761673761
100
AcDbArc
 50
256.0306052384
 51
283.3924529681
  0
ARC
  5
7A
330
40
100
AcDbEntity
  8
0011430
  6
Continuous
 62
     7
100
AcDbCircle
 10
208.3385091447
 20
136.8215544746
 30
0.0
 40
20.09093750355679
100
AcDbArc
 50
256.6014884215
 51
283.3931107322
  0
ARC
  5
7B
330
40
100
AcDbEntity
  8
0011430
  6
Continuous
 62
     7
100
AcDbCircle
 10
148.9385091447
 20
98.8181113727
 30
0.0
 40
3.5
100
AcDbArc
 50
180.0
 51
0.0
  0
ARC
  5
7C
330
40
100
AcDbEntity
  8
0011430
  6
Continuous
 62
     7
100
AcDbCircle
 10
148.9385091447
 20
98.8181113727
 30
0.0
 40
4.800000000000001
100
AcDbArc
 50
180.0
 51
0.0
  0
ARC
  5
7D
330
40
100
AcDbEntity
  8
0011430
  6
Continuous
 62
     7
100
AcDbCircle
 10
148.9385091447
 20
98.8181113727
 30
0.0
 40
3.7
100
AcDbArc
 50
180.0
 51
0.0
  0
ARC
  5
7E
330
40
100
AcDbEntity
  8
0011430
  6
Continuous
 62
     7
100
AcDbCircle
 10
148.9385091447
 20
98.8181113727
 30
0.0
 40
5.0
100
AcDbArc
 50
180.0
 51
0.0
  0
ARC
  5
7F
330
40
100
AcDbEntity
  8
0011430
  6
Continuous
 62
     7
100
AcDbCircle
 10
148.9385091447
 20
98.8181113727
 30
0.0
 40
5.199999999999998
100
AcDbArc
 50
180.0
 51
0.0
  0
LINE
  5
80
330
40
100
AcDbEntity
  8
0011430
  6
Continuous
 62
     7
100
AcDbLine
 10
49.7125091447
 20
109.1941113727
 30
0.0
 11
49.7125091447
 21
98.8181113727
 31
0.0
  0
LINE
  5
81
330
40
100
AcDbEntity
  8
0011430
  6
Continuous
 62
     7
100
AcDbLine
 10
155.5885091447
 20
86.4681113727
 30
0.0
 11
156.0885091447
 21
85.9681113727
 31
0.0
  0
LINE
  5
82
330
40
100
AcDbEntity
  8
0011430
  6
Continuous
 62
     7
100
AcDbLine
 10
141.8385091447
 20
85.9681113727
 30
0.0
 11
142.3385091447
 21
86.4681113727
 31
0.0
  0
ARC
  5
83
330
40
100
AcDbEntity
  8
0011430
  6
Continuous
 62
     7
100
AcDbCircle
 10
155.5885091447
 20
68.3181113727
 30
0.0
 40
0.4999999999999908
100
AcDbArc
 50
0.0
 51
45.0
  0
LINE
  5
84
330
40
100
AcDbEntity
  8
0011430
  6
Continuous
 62
     7
100
AcDbLine
 10
156.0885091447
 20
68.8181113727
 30
0.0
 11
155.9420625353
 21
68.6716647633
 31
0.0
  0
LINE
  5
85
330
40
100
AcDbEntity
  8
0011430
  6
Continuous
 62
     7
100
AcDbLine
 10
141.9849557541
 20
68.6716647633
 30
0.0
 11
141.8385091447
 21
68.8181113727
 31
0.0
  0
ARC
  5
86
330
40
100
AcDbEntity
  8
0011430
  6
Continuous
 62
     7
100
AcDbCircle
 10
142.3385091447
 20
68.3181113727
 30
0.0
 40
0.500000000000003
100
AcDbArc
 50
135.0
 51
180.0
  0
LINE
  5
87
330
40
100
AcDbEntity
  8
0011430
  6
Continuous
 62
     7
100
AcDbLine
 10
141.4243501158
 20
85.5539523438
 30
0.0
 11
141.8385091447
 21
85.9681113727
 31
0.0
  0
LINE
  5
88
330
40
100
AcDbEntity
  8
0011430
  6
Continuous
 62
     7
100
AcDbLine
 10
156.0885091447
 20
85.9681113727
 30
0.0
 11
156.5026681736
 21
85.5539523438
 31
0.0
  0
LINE
  5
89
330
40
100
AcDbEntity
  8
0011430
  6
Continuous
 62
     7
100
AcDbLine
 10
151.7100404795
 20
85.9681113727
 30
0.0
 11
156.0885091447
 21
85.9681113727
 31
0.0
  0
LINE
  5
8A
330
40
100
AcDbEntity
  8
0011430
  6
Continuous
 62
     7
100
AcDbLine
 10
141.8385091447
 20
85.9681113727
 30
0.0
 11
146.1669778099
 21
85.9681113727
 31
0.0
  0
LINE
  5
8B
330
40
100
AcDbEntity
  8
0011430
  6
Continuous
 62
     7
100
AcDbLine
 10
156.0885091447
 20
60.3920460004
 30
0.0
 11
156.0885091447
 21
68.3181113727
 31
0.0
  0
LINE
  5
8C
330
40
100
AcDbEntity
  8
0011430
  6
Continuous
 62
     7
100
AcDbLine
 10
141.8385091447
 20
68.3181113727
 30
0.0
 11
141.8385091447
 21
60.3920460004
 31
0.0
  0
LINE
  5
8D
330
40
100
AcDbEntity
  8
0011430
  6
Continuous
 62
     7
100
AcDbLine
 10
156.8885091447
 20
69.6181113727
 30
0.0
 11
156.8885091447
 21
60.7844092127
 31
0.0
  0
LINE
  5
8E
330
40
100
AcDbEntity
  8
0011430
  6
Continuous
 62
     7
100
AcDbLine
 10
141.0385091447
 20
60.7844092127
 30
0.0
 11
141.0385091447
 21
69.6181113727
 31
0.0
  0
LINE
  5
8F
330
40
100
AcDbEntity
  8
0011430
  6
Continuous
 62
     7
100
AcDbLine
 10
150.4135091447
 20
68.8181113727
 30
0.0
 11
150.8135091447
 21
68.8181113727
 31
0.0
  0
SPLINE
  5
90
330
40
100
AcDbEntity
  8
0011430
  6
Continuous
 62
     7
100
AcDbSpline
210
0.0
220
0.0
230
1.0
 70
     8
 71
     3
 72
    12
 73
     8
 74
     0
 42
0.0000000134554639
 43
0.0000000001
 12
1.0
 22
0.0
 32
0.0
 13
1.0
 23
0.0
 33
0.0
 40
0.0
 40
0.0
 40
0.0
 40
0.0
 40
0.4999999999999862
 40
0.4999999999999862
 40
0.7499999999999931
 40
0.7499999999999931
 40
1.0
 40
1.0
 40
1.0
 40
1.0
 10
150.8135091447287
 20
64.07894039817477
 30
0.0
 10
150.8135091447287
 20
64.20158950726884
 30
0.0
 10
150.782539770698
 20
64.32395800534033
 30
0.0
 10
150.6817453794898
 20
64.47776548532016
 30
0.0
 10
150.6388029171786
 20
64.52341974548136
 30
0.0
 10
150.5352071017087
 20
64.58970397210129
 30
0.0
 10
150.4747419024302
 20
64.60919440654428
 30
0.0
 10
150.4135091447287
 20
64.60919440654459
 30
0.0
  0
LINE
  5
91
330
40
100
AcDbEntity
  8
0011430
  6
Continuous
 62
     7
100
AcDbLine
 10
150.8135091447
 20
85.9681113727
 30
0.0
 11
150.4135091447
 21
85.9681113727
 31
0.0
  0
LINE
  5
92
330
40
100
AcDbEntity
  8
0011430
  6
Continuous
 62
     7
100
AcDbLine
 10
147.4635091447
 20
85.9681113727
 30
0.0
 11
147.0635091447
 21
85.9681113727
 31
0.0
  0
LINE
  5
93
330
40
100
AcDbEntity
  8
0011430
  6
Continuous
 62
     7
100
AcDbLine
 10
147.4635091447
 20
85.9681113727
 30
0.0
 11
150.4135091447
 21
85.9681113727
 31
0.0
  0
LINE
  5
94
330
40
100
AcDbEntity
  8
0011430
  6
Continuous
 62
     7
100
AcDbLine
 10
141.0385091447
 20
98.8181113727
 30
0.0
 11
141.0385091447
 21
85.1681113727
 31
0.0
  0
LINE
  5
95
330
40
100
AcDbEntity
  8
0011430
  6
Continuous
 62
     7
100
AcDbLine
 10
147.0635091447
 20
68.8181113727
 30
0.0
 11
147.4635091447
 21
68.8181113727
 31
0.0
  0
LINE
  5
96
330
40
100
AcDbEntity
  8
0011430
  6
Continuous
 62
     7
100
AcDbLine
 10
150.4135091447
 20
68.8181113727
 30
0.0
 11
147.4635091447
 21
68.8181113727
 31
0.0
  0
LINE
  5
97
330
40
100
AcDbEntity
  8
0011430
  6
Continuous
 62
     7
100
AcDbLine
 10
147.0635091447
 20
63.4568671704
 30
0.0
 11
147.0635091447
 21
64.0789403982
 31
0.0
  0
SPLINE
  5
98
330
40
100
AcDbEntity
  8
0011430
  6
Continuous
 62
     7
100
AcDbSpline
210
0.0
220
0.0
230
1.0
 70
     8
 71
     3
 72
    12
 73
     8
 74
     0
 42
0.0000000134573007
 43
0.0000000001
 12
1.0
 22
0.0
 32
0.0
 13
1.0
 23
0.0
 33
0.0
 40
0.0
 40
0.0
 40
0.0
 40
0.0
 40
0.2500000000000059
 40
0.2500000000000059
 40
0.5000000000000119
 40
0.5000000000000119
 40
1.0
 40
1.0
 40
1.0
 40
1.0
 10
147.4635091447287
 20
64.60919440654425
 30
0.0
 10
147.4025907693153
 20
64.6091944065441
 30
0.0
 10
147.3413855649318
 20
64.5894956659809
 30
0.0
 10
147.2380934215304
 20
64.5232773546446
 30
0.0
 10
147.1951513650217
 20
64.47755242870359
 30
0.0
 10
147.094933002667
 20
64.32470660866356
 30
0.0
 10
147.0635091447287
 20
64.20052937130508
 30
0.0
 10
147.0635091447287
 20
64.07894039817477
 30
0.0
  0
LINE
  5
99
330
40
100
AcDbEntity
  8
0011430
  6
Continuous
 62
     7
100
AcDbLine
 10
147.4635091447
 20
64.6091944065
 30
0.0
 11
150.4135091447
 21
64.6091944065
 31
0.0
  0
LINE
  5
9A
330
40
100
AcDbEntity
  8
0011430
  6
Continuous
 62
     7
100
AcDbLine
 10
150.8135091447
 20
64.0789403982
 30
0.0
 11
150.8135091447
 21
63.4568671704
 31
0.0
  0
LINE
  5
9B
330
40
100
AcDbEntity
  8
0011430
  6
Continuous
 62
     7
100
AcDbLine
 10
47.7385091447
 20
111.1681113727
 30
0.0
 11
47.7385091447
 21
98.8181113727
 31
0.0
  0
LINE
  5
9C
330
40
100
AcDbEntity
  8
0011430
  6
Continuous
 62
     7
100
AcDbLine
 10
156.8885091447
 20
69.6181113727
 30
0.0
 11
156.0885091447
 21
68.8181113727
 31
0.0
  0
LINE
  5
9D
330
40
100
AcDbEntity
  8
0011430
  6
Continuous
 62
     7
100
AcDbLine
 10
156.0885091447
 20
60.3920460004
 30
0.0
 11
156.8885091447
 21
60.7844092127
 31
0.0
  0
LINE
  5
9E
330
40
100
AcDbEntity
  8
0011430
  6
Continuous
 62
     7
100
AcDbLine
 10
156.5026681736
 20
85.5539523438
 30
0.0
 11
156.8885091447
 21
85.1681113727
 31
0.0
  0
LINE
  5
9F
330
40
100
AcDbEntity
  8
0011430
  6
Continuous
 62
     7
100
AcDbLine
 10
156.0885091447
 20
85.1380697995
 30
0.0
 11
156.5026681736
 21
85.5539523438
 31
0.0
  0
LINE
  5
A0
330
40
100
AcDbEntity
  8
0011430
  6
Continuous
 62
     7
100
AcDbLine
 10
150.8135091447
 20
68.8181113727
 30
0.0
 11
152.1861044089
 21
68.8181113727
 31
0.0
  0
SPLINE
  5
A1
330
40
100
AcDbEntity
  8
0011430
  6
Continuous
 62
     7
100
AcDbSpline
210
0.0
220
0.0
230
1.0
 70
     8
 71
     3
 72
     8
 73
     4
 74
     0
 42
0.0000000029777954
 43
0.0000000001
 12
1.0
 22
0.0
 32
0.0
 13
1.0
 23
0.0
 33
0.0
 40
0.0
 40
0.0
 40
0.0
 40
0.0
 40
1.0
 40
1.0
 40
1.0
 40
1.0
 10
152.1861044089204
 20
60.39204600039041
 30
0.0
 10
151.7224263656741
 20
61.41093262518216
 30
0.0
 10
151.2644758067309
 20
62.43253944114737
 30
0.0
 10
150.8135091447287
 20
63.45686717041298
 30
0.0
  0
LINE
  5
A2
330
40
100
AcDbEntity
  8
0011430
  6
Continuous
 62
     7
100
AcDbLine
 10
151.7100404795
 20
85.9681113727
 30
0.0
 11
150.8135091447
 21
85.9681113727
 31
0.0
  0
LINE
  5
A3
330
40
100
AcDbEntity
  8
0011430
  6
Continuous
 62
     7
100
AcDbLine
 10
151.7100404795
 20
85.9681113727
 30
0.0
 11
152.1861044089
 21
85.1380697995
 31
0.0
  0
LINE
  5
A4
330
40
100
AcDbEntity
  8
0011430
  6
Continuous
 62
     7
100
AcDbLine
 10
152.1861044089
 20
68.8181113727
 30
0.0
 11
156.0885091447
 21
68.8181113727
 31
0.0
  0
LINE
  5
A5
330
40
100
AcDbEntity
  8
0011430
  6
Continuous
 62
     7
100
AcDbLine
 10
156.0885091447
 20
60.3920460004
 30
0.0
 11
152.1861044089
 21
60.3920460004
 31
0.0
  0
LINE
  5
A6
330
40
100
AcDbEntity
  8
0011430
  6
Continuous
 62
     7
100
AcDbLine
 10
152.1861044089
 20
85.1380697995
 30
0.0
 11
156.0885091447
 21
85.1380697995
 31
0.0
  0
LINE
  5
A7
330
40
100
AcDbEntity
  8
0011430
  6
Continuous
 62
     7
100
AcDbLine
 10
156.8885091447
 20
60.7844092127
 30
0.0
 11
156.8885091447
 21
50.8681113727
 31
0.0
  0
LINE
  5
A8
330
40
100
AcDbEntity
  8
0011430
  6
Continuous
 62
     7
100
AcDbLine
 10
156.8885091447
 20
69.6181113727
 30
0.0
 11
156.8885091447
 21
85.1681113727
 31
0.0
  0
LINE
  5
A9
330
40
100
AcDbEntity
  8
0011430
  6
Continuous
 62
     7
100
AcDbLine
 10
150.8135091447
 20
63.4568671704
 30
0.0
 11
150.8135091447
 21
52.4455161085
 31
0.0
  0
LINE
  5
AA
330
40
100
AcDbEntity
  8
0011430
  6
Continuous
 62
     7
100
AcDbLine
 10
150.8135091447
 20
68.8181113727
 30
0.0
 11
150.8135091447
 21
85.9681113727
 31
0.0
  0
LINE
  5
AB
330
40
100
AcDbEntity
  8
0011430
  6
Continuous
 62
     7
100
AcDbLine
 10
152.1861044089
 20
60.3920460004
 30
0.0
 11
152.1861044089
 21
50.0681113727
 31
0.0
  0
LINE
  5
AC
330
40
100
AcDbEntity
  8
0011430
  6
Continuous
 62
     7
100
AcDbLine
 10
152.1861044089
 20
68.8181113727
 30
0.0
 11
152.1861044089
 21
85.1380697995
 31
0.0
  0
LINE
  5
AD
330
40
100
AcDbEntity
  8
0011430
  6
Continuous
 62
     7
100
AcDbLine
 10
156.0885091447
 20
60.3920460004
 30
0.0
 11
156.0885091447
 21
50.0681113727
 31
0.0
  0
LINE
  5
AE
330
40
100
AcDbEntity
  8
0011430
  6
Continuous
 62
     7
100
AcDbLine
 10
156.0885091447
 20
68.8181113727
 30
0.0
 11
156.0885091447
 21
85.1380697995
 31
0.0
  0
LINE
  5
AF
330
40
100
AcDbEntity
  8
0011430
  6
Continuous
 62
     7
100
AcDbLine
 10
36.2385091447
 20
112.5681113727
 30
0.0
 11
36.2385091447
 21
98.8181113727
 31
0.0
  0
LINE
  5
B0
330
40
100
AcDbEntity
  8
0011430
  6
Continuous
 62
     7
100
AcDbLine
 10
36.2385091447
 20
80.6986103049
 30
0.0
 11
36.2385091447
 21
98.8181113727
 31
0.0
  0
LINE
  5
B1
330
40
100
AcDbEntity
  8
0011430
  6
Continuous
 62
     7
100
AcDbLine
 10
139.0010191137
 20
98.8181113727
 30
0.0
 11
139.0010191137
 21
63.7235796008
 31
0.0
  0
LINE
  5
B2
330
40
100
AcDbEntity
  8
0011430
  6
Continuous
 62
     7
100
AcDbLine
 10
141.0385091447
 20
69.6181113727
 30
0.0
 11
141.8385091447
 21
68.8181113727
 31
0.0
  0
LINE
  5
B3
330
40
100
AcDbEntity
  8
0011430
  6
Continuous
 62
     7
100
AcDbLine
 10
141.8385091447
 20
60.3920460004
 30
0.0
 11
141.0385091447
 21
60.7844092127
 31
0.0
  0
LINE
  5
B4
330
40
100
AcDbEntity
  8
0011430
  6
Continuous
 62
     7
100
AcDbLine
 10
141.4243501158
 20
85.5539523438
 30
0.0
 11
141.0385091447
 21
85.1681113727
 31
0.0
  0
LINE
  5
B5
330
40
100
AcDbEntity
  8
0011430
  6
Continuous
 62
     7
100
AcDbLine
 10
141.8385091447
 20
85.1380697995
 30
0.0
 11
141.4243501158
 21
85.5539523438
 31
0.0
  0
LINE
  5
B6
330
40
100
AcDbEntity
  8
0011430
  6
Continuous
 62
     7
100
AcDbLine
 10
147.0635091447
 20
68.8181113727
 30
0.0
 11
145.6909138805
 21
68.8181113727
 31
0.0
  0
SPLINE
  5
B7
330
40
100
AcDbEntity
  8
0011430
  6
Continuous
 62
     7
100
AcDbSpline
210
0.0
220
0.0
230
1.0
 70
     8
 71
     3
 72
     8
 73
     4
 74
     0
 42
0.0000000029777954
 43
0.0000000001
 12
1.0
 22
0.0
 32
0.0
 13
1.0
 23
0.0
 33
0.0
 40
0.0
 40
0.0
 40
0.0
 40
0.0
 40
1.0
 40
1.0
 40
1.0
 40
1.0
 10
145.6909138805371
 20
60.39204600039041
 30
0.0
 10
146.1545919237833
 20
61.41093262518216
 30
0.0
 10
146.6125424827265
 20
62.43253944114738
 30
0.0
 10
147.0635091447287
 20
63.45686717041299
 30
0.0
  0
LINE
  5
B8
330
40
100
AcDbEntity
  8
0011430
  6
Continuous
 62
     7
100
AcDbLine
 10
146.1669778099
 20
85.9681113727
 30
0.0
 11
147.0635091447
 21
85.9681113727
 31
0.0
  0
LINE
  5
B9
330
40
100
AcDbEntity
  8
0011430
  6
Continuous
 62
     7
100
AcDbLine
 10
146.1669778099
 20
85.9681113727
 30
0.0
 11
145.6909138805
 21
85.1380697995
 31
0.0
  0
LINE
  5
BA
330
40
100
AcDbEntity
  8
0011430
  6
Continuous
 62
     7
100
AcDbLine
 10
145.6909138805
 20
68.8181113727
 30
0.0
 11
141.8385091447
 21
68.8181113727
 31
0.0
  0
LINE
  5
BB
330
40
100
AcDbEntity
  8
0011430
  6
Continuous
 62
     7
100
AcDbLine
 10
141.8385091447
 20
60.3920460004
 30
0.0
 11
145.6909138805
 21
60.3920460004
 31
0.0
  0
LINE
  5
BC
330
40
100
AcDbEntity
  8
0011430
  6
Continuous
 62
     7
100
AcDbLine
 10
145.6909138805
 20
85.1380697995
 30
0.0
 11
141.8385091447
 21
85.1380697995
 31
0.0
  0
LINE
  5
BD
330
40
100
AcDbEntity
  8
0011430
  6
Continuous
 62
     7
100
AcDbLine
 10
141.0385091447
 20
60.7844092127
 30
0.0
 11
141.0385091447
 21
50.8681113727
 31
0.0
  0
LINE
  5
BE
330
40
100
AcDbEntity
  8
0011430
  6
Continuous
 62
     7
100
AcDbLine
 10
141.0385091447
 20
69.6181113727
 30
0.0
 11
141.0385091447
 21
85.1681113727
 31
0.0
  0
LINE
  5
BF
330
40
100
AcDbEntity
  8
0011430
  6
Continuous
 62
     7
100
AcDbLine
 10
147.0635091447
 20
63.4568671704
 30
0.0
 11
147.0635091447
 21
52.4455161085
 31
0.0
  0
LINE
  5
C0
330
40
100
AcDbEntity
  8
0011430
  6
Continuous
 62
     7
100
AcDbLine
 10
147.0635091447
 20
68.8181113727
 30
0.0
 11
147.0635091447
 21
85.9681113727
 31
0.0
  0
LINE
  5
C1
330
40
100
AcDbEntity
  8
0011430
  6
Continuous
 62
     7
100
AcDbLine
 10
145.6909138805
 20
60.3920460004
 30
0.0
 11
145.6909138805
 21
50.0681113727
 31
0.0
  0
LINE
  5
C2
330
40
100
AcDbEntity
  8
0011430
  6
Continuous
 62
     7
100
AcDbLine
 10
145.6909138805
 20
68.8181113727
 30
0.0
 11
145.6909138805
 21
85.1380697995
 31
0.0
  0
LINE
  5
C3
330
40
100
AcDbEntity
  8
0011430
  6
Continuous
 62
     7
100
AcDbLine
 10
141.8385091447
 20
60.3920460004
 30
0.0
 11
141.8385091447
 21
50.0681113727
 31
0.0
  0
LINE
  5
C4
330
40
100
AcDbEntity
  8
0011430
  6
Continuous
 62
     7
100
AcDbLine
 10
141.8385091447
 20
68.8181113727
 30
0.0
 11
141.8385091447
 21
85.1380697995
 31
0.0
  0
LINE
  5
C5
330
40
100
AcDbEntity
  8
0011430
  6
Continuous
 62
     7
100
AcDbLine
 10
156.8885091447
 20
85.1681113727
 30
0.0
 11
156.8885091447
 21
85.9681113727
 31
0.0
  0
ARC
  5
C6
330
40
100
AcDbEntity
  8
0011430
  6
Continuous
 62
     7
100
AcDbCircle
 10
208.3385091447
 20
187.5970718694
 30
0.0
 40
50.2477757456717
100
AcDbArc
 50
257.3546767239
 51
282.6453232761
  0
ARC
  5
C7
330
40
100
AcDbEntity
  8
0011430
  6
Continuous
 62
     7
100
AcDbCircle
 10
176.3385091447
 20
187.5881051049
 30
0.0
 40
50.2390265182752
100
AcDbArc
 50
257.3524380387
 51
282.6475619613
  0
LINE
  5
C8
330
40
100
AcDbEntity
  8
0011430
  6
Continuous
 62
     7
100
AcDbLine
 10
177.8385091447
 20
63.8181113727
 30
0.0
 11
206.8385091447
 21
63.8181113727
 31
0.0
  0
LINE
  5
C9
330
40
100
AcDbEntity
  8
0011430
  6
Continuous
 62
     7
100
AcDbLine
 10
177.8385091447
 20
63.8181113727
 30
0.0
 11
173.0885091447
 21
59.0681113727
 31
0.0
  0
LINE
  5
CA
330
40
100
AcDbEntity
  8
0011430
  6
Continuous
 62
     7
100
AcDbLine
 10
206.8385091447
 20
63.8181113727
 30
0.0
 11
211.5885091447
 21
59.0681113727
 31
0.0
  0
LINE
  5
CB
330
40
100
AcDbEntity
  8
0011430
  6
Continuous
 62
     7
100
AcDbLine
 10
237.8385091447
 20
98.8181113727
 30
0.0
 11
237.8385091447
 21
69.2323249351
 31
0.0
  0
LINE
  5
CC
330
40
100
AcDbEntity
  8
0011430
  6
Continuous
 62
     7
100
AcDbLine
 10
162.8385091447
 20
119.3181113727
 30
0.0
 11
162.8385091447
 21
98.8181113727
 31
0.0
  0
LINE
  5
CD
330
40
100
AcDbEntity
  8
0011430
  6
Continuous
 62
     7
100
AcDbLine
 10
169.8385091447
 20
117.3181113727
 30
0.0
 11
169.8385091447
 21
98.8181113727
 31
0.0
  0
LINE
  5
CE
330
40
100
AcDbEntity
  8
0011430
  6
Continuous
 62
     7
100
AcDbLine
 10
170.3385091447
 20
117.3181113727
 30
0.0
 11
170.3385091447
 21
98.8181113727
 31
0.0
  0
LINE
  5
CF
330
40
100
AcDbEntity
  8
0011430
  6
Continuous
 62
     7
100
AcDbLine
 10
156.9934150195
 20
109.1941113727
 30
0.0
 11
156.9934150195
 21
98.8181113727
 31
0.0
  0
ARC
  5
D0
330
40
100
AcDbEntity
  8
0011430
  6
Continuous
 62
     7
100
AcDbCircle
 10
156.8885091447
 20
98.8181113727
 30
0.0
 40
12.84999999999265
100
AcDbArc
 50
270.0
 51
273.5693607119
  0
LINE
  5
D1
330
40
100
AcDbEntity
  8
0011430
  6
Continuous
 62
     7
100
AcDbLine
 10
197.3385091447
 20
138.5681113727
 30
0.0
 11
199.2135091447
 21
136.6931113727
 31
0.0
  0
LINE
  5
D2
330
40
100
AcDbEntity
  8
0011430
  6
Continuous
 62
     7
100
AcDbLine
 10
198.3385091447
 20
118.8181113727
 30
0.0
 11
186.3385091447
 21
118.8181113727
 31
0.0
  0
LINE
  5
D3
330
40
100
AcDbEntity
  8
0011430
  6
Continuous
 62
     7
100
AcDbLine
 10
187.3385091447
 20
138.5681113727
 30
0.0
 11
197.3385091447
 21
138.5681113727
 31
0.0
  0
LINE
  5
D4
330
40
100
AcDbEntity
  8
0011430
  6
Continuous
 62
     7
100
AcDbLine
 10
185.4635091447
 20
136.6931113727
 30
0.0
 11
187.3385091447
 21
138.5681113727
 31
0.0
  0
LINE
  5
D5
330
40
100
AcDbEntity
  8
0011430
  6
Continuous
 62
     7
100
AcDbLine
 10
36.2385091447
 20
116.9376124406
 30
0.0
 11
36.2385091447
 21
112.5681113727
 31
0.0
  0
ARC
  5
D6
330
40
100
AcDbEntity
  8
0011430
  6
Continuous
 62
     7
100
AcDbCircle
 10
38.5385091447
 20
116.9376124406
 30
0.0
 40
2.300000000000018
100
AcDbArc
 50
98.2971
 51
180.0
  0
LINE
  5
D7
330
40
100
AcDbEntity
  8
0011430
  6
Continuous
 62
     7
100
AcDbLine
 10
139.0010191137
 20
133.9126431447
 30
0.0
 11
38.206605077
 21
119.2135385575
 31
0.0
  0
LINE
  5
D8
330
40
100
AcDbEntity
  8
0011430
  6
Continuous
 62
     7
100
AcDbLine
 10
140.0314539086
 20
133.6365389736
 30
0.0
 11
139.0010191137
 21
133.9126431447
 31
0.0
  0
ARC
  5
D9
330
40
100
AcDbEntity
  8
0011430
  6
Continuous
 62
     7
100
AcDbCircle
 10
140.2385091447
 20
134.4092796346
 30
0.0
 40
0.8000000000000017
100
AcDbArc
 50
255.0
 51
0.0
  0
LINE
  5
DA
330
40
100
AcDbEntity
  8
0011430
  6
Continuous
 62
     7
100
AcDbLine
 10
141.0385091447
 20
146.7681113727
 30
0.0
 11
141.0385091447
 21
134.4092796346
 31
0.0
  0
ARC
  5
DB
330
40
100
AcDbEntity
  8
0011430
  6
Continuous
 62
     7
100
AcDbCircle
 10
37.4885091447
 20
112.5681113727
 30
0.0
 40
1.250000000000001
100
AcDbArc
 50
180.0
 51
270.0
  0
LINE
  5
DC
330
40
100
AcDbEntity
  8
0011430
  6
Continuous
 62
     7
100
AcDbLine
 10
141.0385091447
 20
146.7681113727
 30
0.0
 11
141.8385091447
 21
147.5681113727
 31
0.0
  0
LINE
  5
DD
330
40
100
AcDbEntity
  8
0011430
  6
Continuous
 62
     7
100
AcDbLine
 10
37.4885091447
 20
111.3181113727
 30
0.0
 11
47.7385091447
 21
111.3181113727
 31
0.0
  0
LINE
  5
DE
330
40
100
AcDbEntity
  8
0011430
  6
Continuous
 62
     7
100
AcDbLine
 10
141.8385091447
 20
147.5681113727
 30
0.0
 11
145.6909138805
 21
147.5681113727
 31
0.0
  0
LINE
  5
DF
330
40
100
AcDbEntity
  8
0011430
  6
Continuous
 62
     7
100
AcDbLine
 10
145.6909138805
 20
147.5681113727
 30
0.0
 11
147.0635091447
 21
145.1907066369
 31
0.0
  0
LINE
  5
E0
330
40
100
AcDbEntity
  8
0011430
  6
Continuous
 62
     7
100
AcDbLine
 10
47.7385091447
 20
111.3181113727
 30
0.0
 11
47.7385091447
 21
111.1681113727
 31
0.0
  0
LINE
  5
E1
330
40
100
AcDbEntity
  8
0011430
  6
Continuous
 62
     7
100
AcDbLine
 10
147.0635091447
 20
144.7181113727
 30
0.0
 11
147.0635091447
 21
145.1907066369
 31
0.0
  0
LINE
  5
E2
330
40
100
AcDbEntity
  8
0011430
  6
Continuous
 62
     7
100
AcDbLine
 10
49.7125091447
 20
109.1941113727
 30
0.0
 11
47.7385091447
 21
111.1681113727
 31
0.0
  0
ARC
  5
E3
330
40
100
AcDbEntity
  8
0011430
  6
Continuous
 62
     7
100
AcDbCircle
 10
147.4635091447
 20
144.7181113727
 30
0.0
 40
0.3999999999999993
100
AcDbArc
 50
180.0
 51
270.0
  0
LINE
  5
E4
330
40
100
AcDbEntity
  8
0011430
  6
Continuous
 62
     7
100
AcDbLine
 10
83.0385091447
 20
109.1941113727
 30
0.0
 11
49.7125091447
 21
109.1941113727
 31
0.0
  0
LINE
  5
E5
330
40
100
AcDbEntity
  8
0011430
  6
Continuous
 62
     7
100
AcDbLine
 10
150.4135091447
 20
144.3181113727
 30
0.0
 11
147.4635091447
 21
144.3181113727
 31
0.0
  0
ARC
  5
E6
330
40
100
AcDbEntity
  8
0011430
  6
Continuous
 62
     7
100
AcDbCircle
 10
150.4135091447
 20
144.7181113727
 30
0.0
 40
0.3999999999999976
100
AcDbArc
 50
270.0
 51
0.0
  0
LINE
  5
E7
330
40
100
AcDbEntity
  8
0011430
  6
Continuous
 62
     7
100
AcDbLine
 10
156.9934150195
 20
109.1941113727
 30
0.0
 11
83.0385091447
 21
109.1941113727
 31
0.0
  0
LINE
  5
E8
330
40
100
AcDbEntity
  8
0011430
  6
Continuous
 62
     7
100
AcDbLine
 10
162.8385091447
 20
119.3181113727
 30
0.0
 11
156.9934150195
 21
109.1941113727
 31
0.0
  0
LINE
  5
E9
330
40
100
AcDbEntity
  8
0011430
  6
Continuous
 62
     7
100
AcDbLine
 10
150.8135091447
 20
145.1907066369
 30
0.0
 11
150.8135091447
 21
144.7181113727
 31
0.0
  0
LINE
  5
EA
330
40
100
AcDbEntity
  8
0011430
  6
Continuous
 62
     7
100
AcDbLine
 10
152.1861044089
 20
147.5681113727
 30
0.0
 11
150.8135091447
 21
145.1907066369
 31
0.0
  0
LINE
  5
EB
330
40
100
AcDbEntity
  8
0011430
  6
Continuous
 62
     7
100
AcDbLine
 10
156.0885091447
 20
147.5681113727
 30
0.0
 11
152.1861044089
 21
147.5681113727
 31
0.0
  0
LINE
  5
EC
330
40
100
AcDbEntity
  8
0011430
  6
Continuous
 62
     7
100
AcDbLine
 10
156.8885091447
 20
146.7681113727
 30
0.0
 11
156.0885091447
 21
147.5681113727
 31
0.0
  0
LINE
  5
ED
330
40
100
AcDbEntity
  8
0011430
  6
Continuous
 62
     7
100
AcDbLine
 10
156.8885091447
 20
139.3681113727
 30
0.0
 11
156.8885091447
 21
146.7681113727
 31
0.0
  0
ARC
  5
EE
330
40
100
AcDbEntity
  8
0011430
  6
Continuous
 62
     7
100
AcDbCircle
 10
157.6885091447
 20
139.3681113727
 30
0.0
 40
0.7999999999999986
100
AcDbArc
 50
180.0
 51
270.0
  0
LINE
  5
EF
330
40
100
AcDbEntity
  8
0011430
  6
Continuous
 62
     7
100
AcDbLine
 10
166.3385091447
 20
119.3181113727
 30
0.0
 11
162.8385091447
 21
119.3181113727
 31
0.0
  0
LINE
  5
F0
330
40
100
AcDbEntity
  8
0011430
  6
Continuous
 62
     7
100
AcDbLine
 10
157.6885091447
 20
138.5681113727
 30
0.0
 11
165.3385091447
 21
138.5681113727
 31
0.0
  0
LINE
  5
F1
330
40
100
AcDbEntity
  8
0011430
  6
Continuous
 62
     7
100
AcDbLine
 10
165.3385091447
 20
138.5681113727
 30
0.0
 11
167.2135091447
 21
136.6931113727
 31
0.0
  0
LINE
  5
F2
330
40
100
AcDbEntity
  8
0011430
  6
Continuous
 62
     7
100
AcDbLine
 10
217.4635091447
 20
136.6931113727
 30
0.0
 11
219.3385091447
 21
138.5681113727
 31
0.0
  0
LINE
  5
F3
330
40
100
AcDbEntity
  8
0011430
  6
Continuous
 62
     7
100
AcDbLine
 10
237.0385091447
 20
118.8181113727
 30
0.0
 11
218.3385091447
 21
118.8181113727
 31
0.0
  0
LINE
  5
F4
330
40
100
AcDbEntity
  8
0011430
  6
Continuous
 62
     7
100
AcDbLine
 10
219.3385091447
 20
138.5681113727
 30
0.0
 11
227.6742955824
 21
138.5681113727
 31
0.0
  0
ARC
  5
F5
330
40
100
AcDbEntity
  8
0011430
  6
Continuous
 62
     7
100
AcDbCircle
 10
237.0385091447
 20
119.6181113727
 30
0.0
 40
0.800000000000009
100
AcDbArc
 50
270.0
 51
0.0
  0
ARC
  5
F6
330
40
100
AcDbEntity
  8
0011430
  6
Continuous
 62
     7
100
AcDbCircle
 10
227.6742955824
 20
137.5681113727
 30
0.0
 40
1.000000000000001
100
AcDbArc
 50
45.0
 51
90.0
  0
LINE
  5
F7
330
40
100
AcDbEntity
  8
0011430
  6
Continuous
 62
     7
100
AcDbLine
 10
228.3814023635
 20
138.2752181539
 30
0.0
 11
237.5456159259
 21
129.1110045916
 31
0.0
  0
ARC
  5
F8
330
40
100
AcDbEntity
  8
0011430
  6
Continuous
 62
     7
100
AcDbCircle
 10
236.8385091447
 20
128.4038978104
 30
0.0
 40
0.9999999999999989
100
AcDbArc
 50
0.0
 51
45.0
  0
LINE
  5
F9
330
40
100
AcDbEntity
  8
0011430
  6
Continuous
 62
     7
100
AcDbLine
 10
237.5456159259
 20
98.8181113727
 30
0.0
 11
237.8385091447
 21
98.8181113727
 31
0.0
  0
ARC
  5
FA
330
40
100
AcDbEntity
  8
0011430
  6
Continuous
 62
     7
100
AcDbCircle
 10
38.5385091447
 20
80.6986103049
 30
0.0
 40
2.300000000000024
100
AcDbArc
 50
180.0
 51
261.7029
  0
LINE
  5
FB
330
40
100
AcDbEntity
  8
0011430
  6
Continuous
 62
     7
100
AcDbLine
 10
38.206605077
 20
78.422684188
 30
0.0
 11
139.0010191137
 21
63.7235796008
 31
0.0
  0
LINE
  5
FC
330
40
100
AcDbEntity
  8
0011430
  6
Continuous
 62
     7
100
AcDbLine
 10
139.0010191137
 20
63.7235796008
 30
0.0
 11
140.0314539086
 21
63.9996837719
 31
0.0
  0
ARC
  5
FD
330
40
100
AcDbEntity
  8
0011430
  6
Continuous
 62
     7
100
AcDbCircle
 10
140.2385091447
 20
63.2269431109
 30
0.0
 40
0.8000000000000036
100
AcDbArc
 50
0.0
 51
105.0
  0
ARC
  5
FE
330
40
100
AcDbEntity
  8
0011430
  6
Continuous
 62
     7
100
AcDbCircle
 10
227.6742955824
 20
60.0681113727
 30
0.0
 40
1.000000000000001
100
AcDbArc
 50
270.0
 51
315.0
  0
LINE
  5
FF
330
40
100
AcDbEntity
  8
0011430
  6
Continuous
 62
     7
100
AcDbLine
 10
211.5885091447
 20
59.0681113727
 30
0.0
 11
227.6742955824
 21
59.0681113727
 31
0.0
  0
LINE
  5
100
330
40
100
AcDbEntity
  8
0011430
  6
Continuous
 62
     7
100
AcDbLine
 10
157.6885091447
 20
59.0681113727
 30
0.0
 11
173.0885091447
 21
59.0681113727
 31
0.0
  0
LINE
  5
101
330
40
100
AcDbEntity
  8
0011430
  6
Continuous
 62
     7
100
AcDbLine
 10
228.3814023635
 20
59.3610045916
 30
0.0
 11
237.5456159259
 21
68.5252181539
 31
0.0
  0
ARC
  5
102
330
40
100
AcDbEntity
  8
0011430
  6
Continuous
 62
     7
100
AcDbCircle
 10
236.8385091447
 20
69.2323249351
 30
0.0
 40
0.9999999999999989
100
AcDbArc
 50
315.0
 51
0.0
  0
LINE
  5
103
330
40
100
AcDbEntity
  8
0011430
  6
Continuous
 62
     7
100
AcDbLine
 10
141.8385091447
 20
50.0681113727
 30
0.0
 11
145.6909138805
 21
50.0681113727
 31
0.0
  0
LINE
  5
104
330
40
100
AcDbEntity
  8
0011430
  6
Continuous
 62
     7
100
AcDbLine
 10
141.0385091447
 20
50.8681113727
 30
0.0
 11
141.8385091447
 21
50.0681113727
 31
0.0
  0
ARC
  5
105
330
40
100
AcDbEntity
  8
0011430
  6
Continuous
 62
     7
100
AcDbCircle
 10
147.4635091447
 20
52.9181113727
 30
0.0
 40
0.3999999999999993
100
AcDbArc
 50
90.0
 51
180.0
  0
LINE
  5
106
330
40
100
AcDbEntity
  8
0011430
  6
Continuous
 62
     7
100
AcDbLine
 10
147.4635091447
 20
53.3181113727
 30
0.0
 11
150.4135091447
 21
53.3181113727
 31
0.0
  0
ARC
  5
107
330
40
100
AcDbEntity
  8
0011430
  6
Continuous
 62
     7
100
AcDbCircle
 10
150.4135091447
 20
52.9181113727
 30
0.0
 40
0.3999999999999976
100
AcDbArc
 50
0.0
 51
90.0
  0
LINE
  5
108
330
40
100
AcDbEntity
  8
0011430
  6
Continuous
 62
     7
100
AcDbLine
 10
145.6909138805
 20
50.0681113727
 30
0.0
 11
147.0635091447
 21
52.4455161085
 31
0.0
  0
LINE
  5
109
330
40
100
AcDbEntity
  8
0011430
  6
Continuous
 62
     7
100
AcDbLine
 10
150.8135091447
 20
52.4455161085
 30
0.0
 11
152.1861044089
 21
50.0681113727
 31
0.0
  0
LINE
  5
10A
330
40
100
AcDbEntity
  8
0011430
  6
Continuous
 62
     7
100
AcDbLine
 10
152.1861044089
 20
50.0681113727
 30
0.0
 11
156.0885091447
 21
50.0681113727
 31
0.0
  0
LINE
  5
10B
330
40
100
AcDbEntity
  8
0011430
  6
Continuous
 62
     7
100
AcDbLine
 10
156.0885091447
 20
50.0681113727
 30
0.0
 11
156.8885091447
 21
50.8681113727
 31
0.0
  0
ARC
  5
10C
330
40
100
AcDbEntity
  8
0011430
  6
Continuous
 62
     7
100
AcDbCircle
 10
157.6885091447
 20
58.2681113727
 30
0.0
 40
0.7999999999999986
100
AcDbArc
 50
90.0
 51
180.0
  0
LINE
  5
10D
330
40
100
AcDbEntity
  8
0011430
  6
Continuous
 62
     7
100
AcDbLine
 10
48.0885091447
 20
110.8181113727
 30
0.0
 11
83.0385091447
 21
110.8181113727
 31
0.0
  0
LINE
  5
10E
330
40
100
AcDbEntity
  8
0011430
  6
Continuous
 62
     7
100
AcDbLine
 10
83.0385091447
 20
98.8181113727
 30
0.0
 11
83.0385091447
 21
110.8181113727
 31
0.0
  0
LINE
  5
10F
330
40
100
AcDbEntity
  8
0011430
  6
Continuous
 62
     7
100
AcDbLine
 10
167.8385091447
 20
117.3181113727
 30
0.0
 11
184.8385091447
 21
117.3181113727
 31
0.0
  0
LINE
  5
110
330
40
100
AcDbEntity
  8
0011430
  6
Continuous
 62
     7
100
AcDbLine
 10
166.3385091447
 20
135.8181113727
 30
0.0
 11
186.3385091447
 21
135.8181113727
 31
0.0
  0
LINE
  5
111
330
40
100
AcDbEntity
  8
0011430
  6
Continuous
 62
     7
100
AcDbLine
 10
166.3385091447
 20
118.8181113727
 30
0.0
 11
186.3385091447
 21
118.8181113727
 31
0.0
  0
LINE
  5
112
330
40
100
AcDbEntity
  8
0011430
  6
Continuous
 62
     7
100
AcDbLine
 10
167.8385091447
 20
137.3181113727
 30
0.0
 11
184.8385091447
 21
137.3181113727
 31
0.0
  0
LINE
  5
114
330
40
100
AcDbEntity
  8
0011430
  6
HIDDEN2
 62
     7
100
AcDbLine
 10
169.9876561836
 20
126.3181113727
 30
0.0
 11
169.9876561836
 21
137.3181113727
 31
0.0
  0
LINE
  5
115
330
40
100
AcDbEntity
  8
0011430
  6
HIDDEN2
 62
     7
100
AcDbLine
 10
169.9876561836
 20
126.3181113727
 30
0.0
 11
171.5753694239
 21
126.3181113727
 31
0.0
  0
LINE
  5
116
330
40
100
AcDbEntity
  8
0011430
  6
HIDDEN2
 62
     7
100
AcDbLine
 10
173.1630826642
 20
126.3181113727
 30
0.0
 11
173.1630826642
 21
137.3181113727
 31
0.0
  0
LINE
  5
117
330
40
100
AcDbEntity
  8
0011430
  6
HIDDEN2
 62
     7
100
AcDbLine
 10
173.1630826642
 20
126.3181113727
 30
0.0
 11
176.3385091447
 21
126.3181113727
 31
0.0
  0
LINE
  5
118
330
40
100
AcDbEntity
  8
0011430
  6
HIDDEN2
 62
     7
100
AcDbLine
 10
179.5139356253
 20
126.3181113727
 30
0.0
 11
179.5139356253
 21
137.3181113727
 31
0.0
  0
LINE
  5
119
330
40
100
AcDbEntity
  8
0011430
  6
HIDDEN2
 62
     7
100
AcDbLine
 10
179.5139356253
 20
126.3181113727
 30
0.0
 11
181.1016488655
 21
126.3181113727
 31
0.0
  0
LINE
  5
11A
330
40
100
AcDbEntity
  8
0011430
  6
HIDDEN2
 62
     7
100
AcDbLine
 10
182.6893621058
 20
126.3181113727
 30
0.0
 11
182.6893621058
 21
137.3181113727
 31
0.0
  0
LINE
  5
11B
330
40
100
AcDbEntity
  8
0011430
  6
HIDDEN2
 62
     7
100
AcDbLine
 10
171.5753694239
 20
126.3181113727
 30
0.0
 11
173.1630826642
 21
126.3181113727
 31
0.0
  0
LINE
  5
11C
330
40
100
AcDbEntity
  8
0011430
  6
HIDDEN2
 62
     7
100
AcDbLine
 10
176.3385091447
 20
126.3181113727
 30
0.0
 11
179.5139356253
 21
126.3181113727
 31
0.0
  0
LINE
  5
11D
330
40
100
AcDbEntity
  8
0011430
  6
HIDDEN2
 62
     7
100
AcDbLine
 10
181.1016488655
 20
126.3181113727
 30
0.0
 11
182.6893621058
 21
126.3181113727
 31
0.0
  0
LINE
  5
11E
330
40
100
AcDbEntity
  8
0011430
  6
Continuous
 62
     7
100
AcDbLine
 10
186.3385091447
 20
118.8181113727
 30
0.0
 11
186.3385091447
 21
135.8181113727
 31
0.0
  0
LINE
  5
11F
330
40
100
AcDbEntity
  8
0011430
  6
Continuous
 62
     7
100
AcDbLine
 10
166.3385091447
 20
135.8181113727
 30
0.0
 11
166.3385091447
 21
118.8181113727
 31
0.0
  0
LINE
  5
120
330
40
100
AcDbEntity
  8
0011430
  6
Continuous
 62
     7
100
AcDbLine
 10
166.3385091447
 20
118.8181113727
 30
0.0
 11
167.8385091447
 21
117.3181113727
 31
0.0
  0
LINE
  5
121
330
40
100
AcDbEntity
  8
0011430
  6
Continuous
 62
     7
100
AcDbLine
 10
184.8385091447
 20
117.3181113727
 30
0.0
 11
186.3385091447
 21
118.8181113727
 31
0.0
  0
LINE
  5
122
330
40
100
AcDbEntity
  8
0011430
  6
Continuous
 62
     7
100
AcDbLine
 10
186.3385091447
 20
135.8181113727
 30
0.0
 11
184.8385091447
 21
137.3181113727
 31
0.0
  0
LINE
  5
123
330
40
100
AcDbEntity
  8
0011430
  6
Continuous
 62
     7
100
AcDbLine
 10
167.8385091447
 20
137.3181113727
 30
0.0
 11
166.3385091447
 21
135.8181113727
 31
0.0
  0
LINE
  5
124
330
40
100
AcDbEntity
  8
0011430
  6
HIDDEN2
 62
     7
100
AcDbLine
 10
170.8385091447
 20
126.3181113727
 30
0.0
 11
176.3385091447
 21
123.0133779681
 31
0.0
  0
LINE
  5
125
330
40
100
AcDbEntity
  8
0011430
  6
HIDDEN2
 62
     7
100
AcDbLine
 10
176.3385091447
 20
123.0133779681
 30
0.0
 11
181.8385091447
 21
126.3181113727
 31
0.0
  0
LINE
  5
126
330
40
100
AcDbEntity
  8
0011430
  6
Continuous
 62
     7
100
AcDbLine
 10
185.1115091447
 20
137.0451113727
 30
0.0
 11
185.1115091447
 21
117.5911113727
 31
0.0
  0
LINE
  5
127
330
40
100
AcDbEntity
  8
0011430
  6
Continuous
 62
     7
100
AcDbLine
 10
167.5655091447
 20
137.0451113727
 30
0.0
 11
167.5655091447
 21
117.5911113727
 31
0.0
  0
LINE
  5
128
330
40
100
AcDbEntity
  8
0011430
  6
Continuous
 62
     7
100
AcDbLine
 10
199.8385091447
 20
117.3181113727
 30
0.0
 11
216.8385091447
 21
117.3181113727
 31
0.0
  0
LINE
  5
129
330
40
100
AcDbEntity
  8
0011430
  6
Continuous
 62
     7
100
AcDbLine
 10
198.3385091447
 20
135.8181113727
 30
0.0
 11
218.3385091447
 21
135.8181113727
 31
0.0
  0
LINE
  5
12A
330
40
100
AcDbEntity
  8
0011430
  6
Continuous
 62
     7
100
AcDbLine
 10
198.3385091447
 20
118.8181113727
 30
0.0
 11
218.3385091447
 21
118.8181113727
 31
0.0
  0
LINE
  5
12B
330
40
100
AcDbEntity
  8
0011430
  6
Continuous
 62
     7
100
AcDbLine
 10
199.8385091447
 20
137.3181113727
 30
0.0
 11
216.8385091447
 21
137.3181113727
 31
0.0
  0
LINE
  5
12C
330
40
100
AcDbEntity
  8
0011430
  6
HIDDEN2
 62
     7
100
AcDbLine
 10
201.9876561836
 20
126.3181113727
 30
0.0
 11
201.9876561836
 21
137.3181113727
 31
0.0
  0
LINE
  5
12D
330
40
100
AcDbEntity
  8
0011430
  6
HIDDEN2
 62
     7
100
AcDbLine
 10
201.9876561836
 20
126.3181113727
 30
0.0
 11
203.5753694239
 21
126.3181113727
 31
0.0
  0
LINE
  5
12E
330
40
100
AcDbEntity
  8
0011430
  6
HIDDEN2
 62
     7
100
AcDbLine
 10
205.1630826642
 20
126.3181113727
 30
0.0
 11
205.1630826642
 21
137.3181113727
 31
0.0
  0
LINE
  5
12F
330
40
100
AcDbEntity
  8
0011430
  6
HIDDEN2
 62
     7
100
AcDbLine
 10
205.1630826642
 20
126.3181113727
 30
0.0
 11
208.3385091447
 21
126.3181113727
 31
0.0
  0
LINE
  5
130
330
40
100
AcDbEntity
  8
0011430
  6
HIDDEN2
 62
     7
100
AcDbLine
 10
211.5139356253
 20
126.3181113727
 30
0.0
 11
211.5139356253
 21
137.3181113727
 31
0.0
  0
LINE
  5
131
330
40
100
AcDbEntity
  8
0011430
  6
HIDDEN2
 62
     7
100
AcDbLine
 10
211.5139356253
 20
126.3181113727
 30
0.0
 11
213.1016488655
 21
126.3181113727
 31
0.0
  0
LINE
  5
132
330
40
100
AcDbEntity
  8
0011430
  6
HIDDEN2
 62
     7
100
AcDbLine
 10
214.6893621058
 20
126.3181113727
 30
0.0
 11
214.6893621058
 21
137.3181113727
 31
0.0
  0
LINE
  5
133
330
40
100
AcDbEntity
  8
0011430
  6
HIDDEN2
 62
     7
100
AcDbLine
 10
203.5753694239
 20
126.3181113727
 30
0.0
 11
205.1630826642
 21
126.3181113727
 31
0.0
  0
LINE
  5
134
330
40
100
AcDbEntity
  8
0011430
  6
HIDDEN2
 62
     7
100
AcDbLine
 10
208.3385091447
 20
126.3181113727
 30
0.0
 11
211.5139356253
 21
126.3181113727
 31
0.0
  0
LINE
  5
135
330
40
100
AcDbEntity
  8
0011430
  6
HIDDEN2
 62
     7
100
AcDbLine
 10
213.1016488655
 20
126.3181113727
 30
0.0
 11
214.6893621058
 21
126.3181113727
 31
0.0
  0
LINE
  5
136
330
40
100
AcDbEntity
  8
0011430
  6
Continuous
 62
     7
100
AcDbLine
 10
218.3385091447
 20
118.8181113727
 30
0.0
 11
218.3385091447
 21
135.8181113727
 31
0.0
  0
LINE
  5
137
330
40
100
AcDbEntity
  8
0011430
  6
Continuous
 62
     7
100
AcDbLine
 10
198.3385091447
 20
135.8181113727
 30
0.0
 11
198.3385091447
 21
118.8181113727
 31
0.0
  0
LINE
  5
138
330
40
100
AcDbEntity
  8
0011430
  6
Continuous
 62
     7
100
AcDbLine
 10
198.3385091447
 20
118.8181113727
 30
0.0
 11
199.8385091447
 21
117.3181113727
 31
0.0
  0
LINE
  5
139
330
40
100
AcDbEntity
  8
0011430
  6
Continuous
 62
     7
100
AcDbLine
 10
216.8385091447
 20
117.3181113727
 30
0.0
 11
218.3385091447
 21
118.8181113727
 31
0.0
  0
LINE
  5
13A
330
40
100
AcDbEntity
  8
0011430
  6
Continuous
 62
     7
100
AcDbLine
 10
218.3385091447
 20
135.8181113727
 30
0.0
 11
216.8385091447
 21
137.3181113727
 31
0.0
  0
LINE
  5
13B
330
40
100
AcDbEntity
  8
0011430
  6
Continuous
 62
     7
100
AcDbLine
 10
199.8385091447
 20
137.3181113727
 30
0.0
 11
198.3385091447
 21
135.8181113727
 31
0.0
  0
LINE
  5
13C
330
40
100
AcDbEntity
  8
0011430
  6
HIDDEN2
 62
     7
100
AcDbLine
 10
202.8385091447
 20
126.3181113727
 30
0.0
 11
208.3385091447
 21
123.0133779681
 31
0.0
  0
LINE
  5
13D
330
40
100
AcDbEntity
  8
0011430
  6
HIDDEN2
 62
     7
100
AcDbLine
 10
208.3385091447
 20
123.0133779681
 30
0.0
 11
213.8385091447
 21
126.3181113727
 31
0.0
  0
LINE
  5
13E
330
40
100
AcDbEntity
  8
0011430
  6
Continuous
 62
     7
100
AcDbLine
 10
217.1115091447
 20
137.0451113727
 30
0.0
 11
217.1115091447
 21
117.5911113727
 31
0.0
  0
LINE
  5
13F
330
40
100
AcDbEntity
  8
0011430
  6
Continuous
 62
     7
100
AcDbLine
 10
199.5655091447
 20
137.0451113727
 30
0.0
 11
199.5655091447
 21
117.5911113727
 31
0.0
  0
ENDBLK
  5
141
330
40
100
AcDbEntity
  8
0
100
AcDbBlockEnd
  0
BLOCK
  5
52
330
51
100
AcDbEntity
  8
0
100
AcDbBlockBegin
  2
_OBLIQUE
 70
     0
 10
0.0
 20
0.0
 30
0.0
  3
_OBLIQUE
  1

  0
LINE
  5
54
330
51
100
AcDbEntity
  8
0
  6
ByBlock
 62
     0
370
    -2
100
AcDbLine
 10
-0.5
 20
-0.5
 30
0.0
 11
0.5
 21
0.5
 31
0.0
  0
ENDBLK
  5
53
330
51
100
AcDbEntity
  8
0
100
AcDbBlockEnd
  0
BLOCK
  5
56
330
55
100
AcDbEntity
  8
0
100
AcDbBlockBegin
  2
_DOT
 70
     0
 10
0.0
 20
0.0
 30
0.0
  3
_DOT
  1

  0
POLYLINE
  5
58
330
55
100
AcDbEntity
  8
0
  6
ByBlock
 62
     0
100
AcDb2dPolyline
 66
     1
 10
0.0
 20
0.0
 30
0.0
 70
     1
 40
0.5
 41
0.5
  0
VERTEX
  5
5A
330
58
100
AcDbEntity
  8
0
  6
ByBlock
 62
     0
100
AcDbVertex
100
AcDb2dVertex
 10
-0.25
 20
0.0
 30
0.0
 42
1.0
  0
VERTEX
  5
5B
330
58
100
AcDbEntity
  8
0
  6
ByBlock
 62
     0
100
AcDbVertex
100
AcDb2dVertex
 10
0.25
 20
0.0
 30
0.0
 42
1.0
  0
SEQEND
  5
5C
330
58
100
AcDbEntity
  8
0
  6
ByBlock
 62
     0
  0
LINE
  5
59
330
55
100
AcDbEntity
  8
0
  6
ByBlock
 62
     0
370
    -2
100
AcDbLine
 10
-0.5
 20
0.0
 30
0.0
 11
-1.0
 21
0.0
 31
0.0
  0
ENDBLK
  5
57
330
55
100
AcDbEntity
  8
0
100
AcDbBlockEnd
  0
BLOCK
  5
60
330
5D
100
AcDbEntity
  8
0
100
AcDbBlockBegin
  2
_SE_FILLED
 70
     0
 10
0.0
 20
0.0
 30
0.0
  3
_SE_FILLED
  1

  0
SOLID
  5
5E
330
5D
100
AcDbEntity
  8
0
 62
     0
100
AcDbTrace
 10
0.0
 20
0.0
 30
0.0
 11
-1.0
 21
-0.1665
 31
0.0
 12
-1.0
 22
0.1665
 32
0.0
 13
0.0
 23
0.0
 33
0.0
  0
LINE
  5
5F
330
5D
100
AcDbEntity
  8
0
 62
     0
100
AcDbLine
 10
0.0
 20
0.0
 30
0.0
 11
-1.0
 21
0.0
 31
0.0
  0
ENDBLK
  5
61
330
5D
100
AcDbEntity
  8
0
100
AcDbBlockEnd
  0
BLOCK
  5
6C
330
65
100
AcDbEntity
  8
0
100
AcDbBlockBegin
  2
DMBLK33
 70
     0
 10
0.0
 20
0.0
 30
0.0
  3
DMBLK33
  1

  0
HATCH
  5
66
330
65
100
AcDbEntity
  8
DV1_Vermassung
  6
Continuous
 62
     7
100
AcDbHatch
 10
0.0
 20
0.0
 30
0.0
210
0.0
220
0.0
230
1.0
  2
SOLID
 70
     1
 71
     0
 91
        1
 92
        1
 93
        3
 72
     1
 10
141.3385092527621
 20
84.66910534866743
 11
137.8385091447287
 21
84.08577199732852
 72
     1
 10
137.8385091447287
 20
84.08577199732852
 11
141.3385092527621
 21
83.50243864598961
 72
     1
 10
141.3385092527621
 20
83.50243864598961
 11
141.3385092527621
 21
84.66910534866743
 97
        0
 75
     0
 76
     1
 98
        0
  0
HATCH
  5
67
330
65
100
AcDbEntity
  8
DV1_Vermassung
  6
Continuous
 62
     7
100
AcDbHatch
 10
0.0
 20
0.0
 30
0.0
210
0.0
220
0.0
230
1.0
  2
SOLID
 70
     1
 71
     0
 91
        1
 92
        1
 93
        3
 72
     1
 10
234.3385105268114
 20
84.66910534866743
 11
234.3385105268114
 21
83.50243864598961
 72
     1
 10
234.3385105268114
 20
83.50243864598961
 11
237.8385106348448
 21
84.08577199732852
 72
     1
 10
237.8385106348448
 20
84.08577199732852
 11
234.3385105268114
 21
84.66910534866743
 97
        0
 75
     0
 76
     1
 98
        0
  0
LINE
  5
68
330
65
100
AcDbEntity
  8
DV1_Vermassung
  6
Continuous
 62
     7
100
AcDbLine
 10
137.8385091447
 20
63.8931113732
 30
0.0
 11
137.8385091447
 21
85.8357720513
 31
0.0
  0
LINE
  5
69
330
65
100
AcDbEntity
  8
DV1_Vermassung
  6
Continuous
 62
     7
100
AcDbLine
 10
237.8385091447
 20
98.8181113727
 30
0.0
 11
237.8385091447
 21
82.3357719433
 31
0.0
  0
LINE
  5
6A
330
65
100
AcDbEntity
  8
DV1_Vermassung
  6
Continuous
 62
     7
100
AcDbLine
 10
137.8385091447
 20
84.0857719973
 30
0.0
 11
237.8385106348
 21
84.0857719973
 31
0.0
  0
TEXT
  5
6B
330
65
100
AcDbEntity
  8
DV1_Vermassung
  6
Continuous
 62
     7
100
AcDbText
 10
185.0544189807
 20
84.9607719973
 30
0.0
 40
3.5
  1
100
  7
SEACAD_Solid_Edge_ISO
 11
185.0544189807
 21
88.4607719973
 31
0.0
100
AcDbText
 73
     3
  0
ENDBLK
  5
6D
330
65
100
AcDbEntity
  8
0
100
AcDbBlockEnd
  0
BLOCK
  5
14A
330
143
100
AcDbEntity
  8
0
100
AcDbBlockBegin
  2
DMBLK34
 70
     0
 10
0.0
 20
0.0
 30
0.0
  3
DMBLK34
  1

  0
HATCH
  5
144
330
143
100
AcDbEntity
  8
Default
  6
Continuous
 62
     7
100
AcDbHatch
 10
0.0
 20
0.0
 30
0.0
210
0.0
220
0.0
230
1.0
  2
SOLID
 70
     1
 71
     0
 91
        1
 92
        1
 93
        3
 72
     1
 10
234.3385090366953
 20
160.8248877080665
 11
234.3385090366953
 21
159.6582210053887
 72
     1
 10
234.3385090366953
 20
159.6582210053887
 11
237.8385091447287
 21
160.2415543567276
 72
     1
 10
237.8385091447287
 20
160.2415543567276
 11
234.3385090366953
 21
160.8248877080665
 97
        0
 75
     0
 76
     1
 98
        0
  0
HATCH
  5
145
330
143
100
AcDbEntity
  8
Default
  6
Continuous
 62
     7
100
AcDbHatch
 10
0.0
 20
0.0
 30
0.0
210
0.0
220
0.0
230
1.0
  2
SOLID
 70
     1
 71
     0
 91
        1
 92
        1
 93
        3
 72
     1
 10
179.8385075540297
 20
160.8248877080665
 11
176.3385074459963
 21
160.2415543567276
 72
     1
 10
176.3385074459963
 20
160.2415543567276
 11
179.8385075540297
 21
159.6582210053887
 72
     1
 10
179.8385075540297
 20
159.6582210053887
 11
179.8385075540297
 21
160.8248877080665
 97
        0
 75
     0
 76
     1
 98
        0
  0
LINE
  5
146
330
143
100
AcDbEntity
  8
Default
  6
Continuous
 62
     7
100
AcDbLine
 10
237.8385091447
 20
69.2323249351
 30
0.0
 11
237.8385091447
 21
161.9915544107
 31
0.0
  0
LINE
  5
147
330
143
100
AcDbEntity
  8
Default
  6
Continuous
 62
     7
100
AcDbLine
 10
176.3385091447
 20
137.3181113727
 30
0.0
 11
176.3385091447
 21
161.9915544107
 31
0.0
  0
LINE
  5
148
330
143
100
AcDbEntity
  8
Default
  6
Continuous
 62
     7
100
AcDbLine
 10
237.8385091447
 20
160.2415543567
 30
0.0
 11
176.338507446
 21
160.2415543567
 31
0.0
  0
TEXT
  5
149
330
143
100
AcDbEntity
  8
Default
  6
Continuous
 62
     7
100
AcDbText
 10
203.9862355681
 20
161.1165543567
 30
0.0
 40
3.5
  1
61,5
  7
SEACAD_Solid_Edge_ISO
 11
203.9862355681
 21
164.6165543567
 31
0.0
100
AcDbText
 73
     3
  0
ENDBLK
  5
14B
330
143
100
AcDbEntity
  8
0
100
AcDbBlockEnd
  0
BLOCK
  5
154
330
14D
100
AcDbEntity
  8
0
100
AcDbBlockBegin
  2
DMBLK35
 70
     0
 10
0.0
 20
0.0
 30
0.0
  3
DMBLK35
  1

  0
HATCH
  5
14E
330
14D
100
AcDbEntity
  8
Default
  6
Continuous
 62
     7
100
AcDbHatch
 10
0.0
 20
0.0
 30
0.0
210
0.0
220
0.0
230
1.0
  2
SOLID
 70
     1
 71
     0
 91
        1
 92
        1
 93
        3
 72
     1
 10
234.3385090366953
 20
169.2248883398757
 11
234.3385090366953
 21
168.0582216371979
 72
     1
 10
234.3385090366953
 20
168.0582216371979
 11
237.8385091447287
 21
168.6415549885368
 72
     1
 10
237.8385091447287
 20
168.6415549885368
 11
234.3385090366953
 21
169.2248883398757
 97
        0
 75
     0
 76
     1
 98
        0
  0
HATCH
  5
14F
330
14D
100
AcDbEntity
  8
Default
  6
Continuous
 62
     7
100
AcDbHatch
 10
0.0
 20
0.0
 30
0.0
210
0.0
220
0.0
230
1.0
  2
SOLID
 70
     1
 71
     0
 91
        1
 92
        1
 93
        3
 72
     1
 10
160.3885098607295
 20
169.2248883398757
 11
156.8885097526961
 21
168.6415549885368
 72
     1
 10
156.8885097526961
 20
168.6415549885368
 11
160.3885098607295
 21
168.0582216371979
 72
     1
 10
160.3885098607295
 20
168.0582216371979
 11
160.3885098607295
 21
169.2248883398757
 97
        0
 75
     0
 76
     1
 98
        0
  0
LINE
  5
150
330
14D
100
AcDbEntity
  8
Default
  6
Continuous
 62
     7
100
AcDbLine
 10
237.8385091447
 20
69.2323249351
 30
0.0
 11
237.8385091447
 21
170.3915550426
 31
0.0
  0
LINE
  5
151
330
14D
100
AcDbEntity
  8
Default
  6
Continuous
 62
     7
100
AcDbLine
 10
156.8885091447
 20
143.0681113727
 30
0.0
 11
156.8885091447
 21
170.3915550426
 31
0.0
  0
LINE
  5
152
330
14D
100
AcDbEntity
  8
Default
  6
Continuous
 62
     7
100
AcDbLine
 10
237.8385091447
 20
168.6415549885
 30
0.0
 11
156.8885097527
 21
168.6415549885
 31
0.0
  0
TEXT
  5
153
330
14D
100
AcDbEntity
  8
Default
  6
Continuous
 62
     7
100
AcDbText
 10
192.8294185396
 20
169.5165549885
 30
0.0
 40
3.5
  1
80,95
  7
SEACAD_Solid_Edge_ISO
 11
192.8294185396
 21
173.0165549885
 31
0.0
100
AcDbText
 73
     3
  0
ENDBLK
  5
155
330
14D
100
AcDbEntity
  8
0
100
AcDbBlockEnd
  0
BLOCK
  5
15E
330
157
100
AcDbEntity
  8
0
100
AcDbBlockBegin
  2
DMBLK36
 70
     0
 10
0.0
 20
0.0
 30
0.0
  3
DMBLK36
  1

  0
HATCH
  5
158
330
157
100
AcDbEntity
  8
Default
  6
Continuous
 62
     7
100
AcDbHatch
 10
0.0
 20
0.0
 30
0.0
210
0.0
220
0.0
230
1.0
  2
SOLID
 70
     1
 71
     0
 91
        1
 92
        1
 93
        3
 72
     1
 10
234.3385090366953
 20
177.624888971685
 11
234.3385090366953
 21
176.4582222690072
 72
     1
 10
234.3385090366953
 20
176.4582222690072
 11
237.8385091447287
 21
177.0415556203461
 72
     1
 10
237.8385091447287
 20
177.0415556203461
 11
234.3385090366953
 21
177.624888971685
 97
        0
 75
     0
 76
     1
 98
        0
  0
HATCH
  5
159
330
157
100
AcDbEntity
  8
Default
  6
Continuous
 62
     7
100
AcDbHatch
 10
0.0
 20
0.0
 30
0.0
210
0.0
220
0.0
230
1.0
  2
SOLID
 70
     1
 71
     0
 91
        1
 92
        1
 93
        3
 72
     1
 10
39.73850899050169
 20
177.624888971685
 11
36.23850888246827
 21
177.0415556203461
 72
     1
 10
36.23850888246827
 20
177.0415556203461
 11
39.73850899050169
 21
176.4582222690072
 72
     1
 10
39.73850899050169
 20
176.4582222690072
 11
39.73850899050169
 21
177.624888971685
 97
        0
 75
     0
 76
     1
 98
        0
  0
LINE
  5
15A
330
157
100
AcDbEntity
  8
Default
  6
Continuous
 62
     7
100
AcDbLine
 10
237.8385091447
 20
69.2323249351
 30
0.0
 11
237.8385091447
 21
178.7915556744
 31
0.0
  0
LINE
  5
15B
330
157
100
AcDbEntity
  8
Default
  6
Continuous
 62
     7
100
AcDbLine
 10
36.2385091447
 20
112.5681113727
 30
0.0
 11
36.2385091447
 21
178.7915556744
 31
0.0
  0
LINE
  5
15C
330
157
100
AcDbEntity
  8
Default
  6
Continuous
 62
     7
100
AcDbLine
 10
237.8385091447
 20
177.0415556203
 30
0.0
 11
36.2385088825
 21
177.0415556203
 31
0.0
  0
TEXT
  5
15D
330
157
100
AcDbEntity
  8
Default
  6
Continuous
 62
     7
100
AcDbText
 10
132.8225999227
 20
177.9165556203
 30
0.0
 40
3.5
  1
201,6
  7
SEACAD_Solid_Edge_ISO
 11
132.8225999227
 21
181.4165556203
 31
0.0
100
AcDbText
 73
     3
  0
ENDBLK
  5
15F
330
157
100
AcDbEntity
  8
0
100
AcDbBlockEnd
  0
BLOCK
  5
168
330
161
100
AcDbEntity
  8
0
100
AcDbBlockBegin
  2
DMBLK37
 70
     0
 10
0.0
 20
0.0
 30
0.0
  3
DMBLK37
  1

  0
HATCH
  5
162
330
161
100
AcDbEntity
  8
Default
  6
Continuous
 62
     7
100
AcDbHatch
 10
0.0
 20
0.0
 30
0.0
210
0.0
220
0.0
230
1.0
  2
SOLID
 70
     1
 71
     0
 91
        1
 92
        1
 93
        3
 72
     1
 10
141.3385092527621
 20
41.48628064893461
 11
141.3385092527621
 21
42.65294735161241
 72
     1
 10
141.3385092527621
 20
42.65294735161241
 11
137.8385091447287
 21
42.06961400027351
 72
     1
 10
137.8385091447287
 20
42.06961400027351
 11
141.3385092527621
 21
41.48628064893461
 97
        0
 75
     0
 76
     1
 98
        0
  0
HATCH
  5
163
330
161
100
AcDbEntity
  8
Default
  6
Continuous
 62
     7
100
AcDbHatch
 10
0.0
 20
0.0
 30
0.0
210
0.0
220
0.0
230
1.0
  2
SOLID
 70
     1
 71
     0
 91
        1
 92
        1
 93
        3
 72
     1
 10
234.3385105268114
 20
41.48628064893461
 11
237.8385106348448
 21
42.06961400027351
 72
     1
 10
237.8385106348448
 20
42.06961400027351
 11
234.3385105268114
 21
42.65294735161241
 72
     1
 10
234.3385105268114
 20
42.65294735161241
 11
234.3385105268114
 21
41.48628064893461
 97
        0
 75
     0
 76
     1
 98
        0
  0
LINE
  5
164
330
161
100
AcDbEntity
  8
Default
  6
Continuous
 62
     7
100
AcDbLine
 10
137.8385091447
 20
63.1912016046
 30
0.0
 11
137.8385091447
 21
40.3196139463
 31
0.0
  0
LINE
  5
165
330
161
100
AcDbEntity
  8
Default
  6
Continuous
 62
     7
100
AcDbLine
 10
237.8385091447
 20
69.2323249351
 30
0.0
 11
237.8385091447
 21
40.3196139463
 31
0.0
  0
LINE
  5
166
330
161
100
AcDbEntity
  8
Default
  6
Continuous
 62
     7
100
AcDbLine
 10
137.8385091447
 20
42.0696140003
 30
0.0
 11
237.8385106348
 21
42.0696140003
 31
0.0
  0
TEXT
  5
167
330
161
100
AcDbEntity
  8
Default
  6
Continuous
 62
     7
100
AcDbText
 10
185.0544189807
 20
42.9446140003
 30
0.0
 40
3.5
  1
100
  7
SEACAD_Solid_Edge_ISO
 11
185.0544189807
 21
46.4446140003
 31
0.0
100
AcDbText
 73
     3
  0
ENDBLK
  5
169
330
161
100
AcDbEntity
  8
0
100
AcDbBlockEnd
  0
BLOCK
  5
174
330
16A
100
AcDbEntity
  8
0
100
AcDbBlockBegin
  2
GDimGGroup
 70
     0
 10
0.0
 20
0.0
 30
0.0
  3
GDimGGroup
  1

  0
HATCH
  5
16C
330
16A
100
AcDbEntity
  8
Default
  6
Continuous
 62
     7
100
AcDbHatch
 10
0.0
 20
0.0
 30
0.0
210
0.0
220
0.0
230
1.0
  2
SOLID
 70
     1
 71
     0
 91
        1
 92
        1
 93
        3
 72
     1
 10
258.754529099137
 20
125.3181112647055
 11
258.171195747798
 21
128.8181113727389
 72
     1
 10
258.171195747798
 20
128.8181113727389
 11
257.5878623964591
 21
125.3181112647055
 72
     1
 10
257.5878623964591
 20
125.3181112647055
 11
258.754529099137
 21
125.3181112647055
 97
        0
 75
     0
 76
     1
 98
        0
  0
HATCH
  5
16D
330
16A
100
AcDbEntity
  8
Default
  6
Continuous
 62
     7
100
AcDbHatch
 10
0.0
 20
0.0
 30
0.0
210
0.0
220
0.0
230
1.0
  2
SOLID
 70
     1
 71
     0
 91
        1
 92
        1
 93
        3
 72
     1
 10
258.754529099137
 20
72.31811282187684
 11
257.5878623964591
 21
72.31811282187684
 72
     1
 10
257.5878623964591
 20
72.31811282187684
 11
258.171195747798
 21
68.81811271384342
 72
     1
 10
258.171195747798
 20
68.81811271384342
 11
258.754529099137
 21
72.31811282187684
 97
        0
 75
     0
 76
     1
 98
        0
  0
LINE
  5
16E
330
16A
100
AcDbEntity
  8
Default
  6
Continuous
 62
     7
100
AcDbLine
 10
237.8385091447
 20
128.8181113727
 30
0.0
 11
259.9211958018
 21
128.8181113727
 31
0.0
  0
LINE
  5
16F
330
16A
100
AcDbEntity
  8
Default
  6
Continuous
 62
     7
100
AcDbLine
 10
237.8385091447
 20
68.8181113727
 30
0.0
 11
259.9211958018
 21
68.8181113727
 31
0.0
  0
LINE
  5
170
330
16A
100
AcDbEntity
  8
Default
  6
Continuous
 62
     7
100
AcDbLine
 10
258.1711957478
 20
128.8181113727
 30
0.0
 11
258.1711957478
 21
68.8181127138
 31
0.0
  0
TEXT
  5
172
330
16A
100
AcDbEntity
  8
Default
  6
Continuous
 62
     7
100
AcDbText
 10
257.2961957478
 20
93.6645434627
 30
0.0
 40
3.5
  1
O
 50
90.0
  7
SEACAD_Solid_Edge_ISO1_Symbols
 11
253.7961957478
 21
93.6645434627
 31
0.0
100
AcDbText
 73
     3
  0
TEXT
  5
173
330
16A
100
AcDbEntity
  8
Default
  6
Continuous
 62
     7
100
AcDbText
 10
257.2961957478
 20
99.7557715329
 30
0.0
 40
3.5
  1
60
 50
90.0
  7
SEACAD_Solid_Edge_ISO
 11
253.7961957478
 21
99.7557715329
 31
0.0
100
AcDbText
 73
     3
  0
ENDBLK
  5
175
330
16A
100
AcDbEntity
  8
0
100
AcDbBlockEnd
  0
BLOCK
  5
17E
330
176
100
AcDbEntity
  8
0
100
AcDbBlockBegin
  2
GDimGGroup1
 70
     0
 10
0.0
 20
0.0
 30
0.0
  3
GDimGGroup1
  1

  0
HATCH
  5
178
330
176
100
AcDbEntity
  8
Default
  6
Continuous
 62
     7
100
AcDbHatch
 10
0.0
 20
0.0
 30
0.0
210
0.0
220
0.0
230
1.0
  2
SOLID
 70
     1
 71
     0
 91
        1
 92
        1
 93
        3
 72
     1
 10
162.8385090366946
 20
150.2069673075029
 11
162.8385090366946
 21
149.0403006048251
 72
     1
 10
162.8385090366946
 20
149.0403006048251
 11
166.338509144728
 21
149.623633956164
 72
     1
 10
166.338509144728
 20
149.623633956164
 11
162.8385090366946
 21
150.2069673075029
 97
        0
 75
     0
 76
     1
 98
        0
  0
HATCH
  5
179
330
176
100
AcDbEntity
  8
Default
  6
Continuous
 62
     7
100
AcDbHatch
 10
0.0
 20
0.0
 30
0.0
210
0.0
220
0.0
230
1.0
  2
SOLID
 70
     1
 71
     0
 91
        1
 92
        1
 93
        3
 72
     1
 10
189.8385092527614
 20
150.2069673075029
 11
186.338509144728
 21
149.623633956164
 72
     1
 10
186.338509144728
 20
149.623633956164
 11
189.8385092527614
 21
149.0403006048251
 72
     1
 10
189.8385092527614
 20
149.0403006048251
 11
189.8385092527614
 21
150.2069673075029
 97
        0
 75
     0
 76
     1
 98
        0
  0
LINE
  5
17A
330
176
100
AcDbEntity
  8
Default
  6
Continuous
 62
     7
100
AcDbLine
 10
166.3385091447
 20
135.8181113727
 30
0.0
 11
166.3385091447
 21
151.3736340102
 31
0.0
  0
LINE
  5
17B
330
176
100
AcDbEntity
  8
Default
  6
Continuous
 62
     7
100
AcDbLine
 10
186.3385091447
 20
135.8181113727
 30
0.0
 11
186.3385091447
 21
151.3736340102
 31
0.0
  0
LINE
  5
17C
330
176
100
AcDbEntity
  8
Default
  6
Continuous
 62
     7
100
AcDbLine
 10
159.3385089287
 20
149.6236339562
 30
0.0
 11
193.3385098451
 21
149.6236339562
 31
0.0
  0
TEXT
  5
17D
330
176
100
AcDbEntity
  8
Default
  6
Continuous
 62
     7
100
AcDbText
 10
170.6891139483
 20
150.4986339562
 30
0.0
 40
3.5
  1
M20 x 2
  7
SEACAD_Solid_Edge_ISO
 11
170.6891139483
 21
153.9986339562
 31
0.0
100
AcDbText
 73
     3
  0
ENDBLK
  5
17F
330
176
100
AcDbEntity
  8
0
100
AcDbBlockEnd
  0
BLOCK
  5
188
330
180
100
AcDbEntity
  8
0
100
AcDbBlockBegin
  2
GDimGGroup2
 70
     0
 10
0.0
 20
0.0
 30
0.0
  3
GDimGGroup2
  1

  0
HATCH
  5
182
330
180
100
AcDbEntity
  8
Default
  6
Continuous
 62
     7
100
AcDbHatch
 10
0.0
 20
0.0
 30
0.0
210
0.0
220
0.0
230
1.0
  2
SOLID
 70
     1
 71
     0
 91
        1
 92
        1
 93
        3
 72
     1
 10
206.3067880184271
 20
65.06231909383536
 11
205.5330899800134
 21
68.52521815392548
 72
     1
 10
205.5330899800134
 20
68.52521815392547
 11
205.14186410497
 21
64.99857373327362
 72
     1
 10
205.14186410497
 20
64.99857373327363
 11
206.3067880184271
 21
65.06231909383536
 97
        0
 75
     0
 76
     1
 98
        0
  0
HATCH
  5
183
330
180
100
AcDbEntity
  8
Default
  6
Continuous
 62
     7
100
AcDbHatch
 10
0.0
 20
0.0
 30
0.0
210
0.0
220
0.0
230
1.0
  2
SOLID
 70
     1
 71
     0
 91
        1
 92
        1
 93
        3
 72
     1
 10
212.1389890927624
 20
48.10601969012578
 11
214.9093417466578
 21
45.88894397466796
 72
     1
 10
214.9093417466578
 20
45.88894397466796
 11
213.0077894682565
 21
48.88467051217523
 72
     1
 10
213.0077894682566
 20
48.88467051217523
 11
212.1389890927624
 21
48.10601969012578
 97
        0
 75
     0
 76
     1
 98
        0
  0
LINE
  5
184
330
180
100
AcDbEntity
  8
Default
  6
Continuous
 62
     7
100
AcDbLine
 10
237.5456159259
 20
68.5252181539
 30
0.0
 11
203.7830901588
 21
68.5252181539
 31
0.0
  0
LINE
  5
185
330
180
100
AcDbEntity
  8
Default
  6
Continuous
 62
     7
100
AcDbLine
 10
230.6201287552
 20
61.5997309832
 30
0.0
 11
213.671905006
 21
44.651507234
 31
0.0
  0
ARC
  5
186
330
180
100
AcDbEntity
  8
Default
  6
Continuous
 62
     7
100
AcDbCircle
 10
237.5456159259
 20
68.5252181539
 30
0.0
 40
32.01252594590173
100
AcDbArc
 50
180.0
 51
225.0000012522
  0
TEXT
  5
187
330
180
100
AcDbEntity
  8
Default
  6
Continuous
 62
     7
100
AcDbText
 10
209.352867205
 20
55.0253765298
 30
0.0
 40
3.5
  1
45°
 50
300.6237781048
  7
SEACAD_Solid_Edge_ISO
 11
212.3647246464
 21
56.808271578
 31
0.0
100
AcDbText
 73
     3
  0
ENDBLK
  5
189
330
180
100
AcDbEntity
  8
0
100
AcDbBlockEnd
  0
BLOCK
  5
192
330
18B
100
AcDbEntity
  8
0
100
AcDbBlockBegin
  2
DMBLK38
 70
     0
 10
0.0
 20
0.0
 30
0.0
  3
DMBLK38
  1

  0
HATCH
  5
18C
330
18B
100
AcDbEntity
  8
Default
  6
Continuous
 62
     7
100
AcDbHatch
 10
0.0
 20
0.0
 30
0.0
210
0.0
220
0.0
230
1.0
  2
SOLID
 70
     1
 71
     0
 91
        1
 92
        1
 93
        3
 72
     1
 10
234.3385090366953
 20
152.4248870762572
 11
234.3385090366953
 21
151.2582203735795
 72
     1
 10
234.3385090366953
 20
151.2582203735795
 11
237.8385091447287
 21
151.8415537249184
 72
     1
 10
237.8385091447287
 20
151.8415537249184
 11
234.3385090366953
 21
152.4248870762572
 97
        0
 75
     0
 76
     1
 98
        0
  0
HATCH
  5
18D
330
18B
100
AcDbEntity
  8
Default
  6
Continuous
 62
     7
100
AcDbHatch
 10
0.0
 20
0.0
 30
0.0
210
0.0
220
0.0
230
1.0
  2
SOLID
 70
     1
 71
     0
 91
        1
 92
        1
 93
        3
 72
     1
 10
211.8385090739482
 20
152.4248870762572
 11
208.3385089659148
 21
151.8415537249184
 72
     1
 10
208.3385089659148
 20
151.8415537249184
 11
211.8385090739482
 21
151.2582203735795
 72
     1
 10
211.8385090739482
 20
151.2582203735795
 11
211.8385090739482
 21
152.4248870762572
 97
        0
 75
     0
 76
     1
 98
        0
  0
LINE
  5
18E
330
18B
100
AcDbEntity
  8
Default
  6
Continuous
 62
     7
100
AcDbLine
 10
237.8385091447
 20
69.2323249351
 30
0.0
 11
237.8385091447
 21
153.5915537789
 31
0.0
  0
LINE
  5
18F
330
18B
100
AcDbEntity
  8
Default
  6
Continuous
 62
     7
100
AcDbLine
 10
208.3385091447
 20
137.3181113727
 30
0.0
 11
208.3385091447
 21
153.5915537789
 31
0.0
  0
LINE
  5
190
330
18B
100
AcDbEntity
  8
Default
  6
Continuous
 62
     7
100
AcDbLine
 10
237.8385091447
 20
151.8415537249
 30
0.0
 11
208.3385089659
 21
151.8415537249
 31
0.0
  0
TEXT
  5
191
330
18B
100
AcDbEntity
  8
Default
  6
Continuous
 62
     7
100
AcDbText
 10
219.6282817826
 20
152.7165537249
 30
0.0
 40
3.5
  1
29,5
  7
SEACAD_Solid_Edge_ISO
 11
219.6282817826
 21
156.2165537249
 31
0.0
100
AcDbText
 73
     3
  0
ENDBLK
  5
193
330
18B
100
AcDbEntity
  8
0
100
AcDbBlockEnd
  0
BLOCK
  5
19C
330
194
100
AcDbEntity
  8
0
100
AcDbBlockBegin
  2
GDimGGroup3
 70
     0
 10
0.0
 20
0.0
 30
0.0
  3
GDimGGroup3
  1

  0
HATCH
  5
196
330
194
100
AcDbEntity
  8
Default
  6
Continuous
 62
     7
100
AcDbHatch
 10
0.0
 20
0.0
 30
0.0
210
0.0
220
0.0
230
1.0
  2
SOLID
 70
     1
 71
     0
 91
        1
 92
        1
 93
        3
 72
     1
 10
194.8385090366953
 20
144.0312490372606
 11
194.8385090366953
 21
142.8645823345828
 72
     1
 10
194.8385090366953
 20
142.8645823345828
 11
198.3385091447287
 21
143.4479156859217
 72
     1
 10
198.3385091447287
 20
143.4479156859217
 11
194.8385090366953
 21
144.0312490372606
 97
        0
 75
     0
 76
     1
 98
        0
  0
HATCH
  5
197
330
194
100
AcDbEntity
  8
Default
  6
Continuous
 62
     7
100
AcDbHatch
 10
0.0
 20
0.0
 30
0.0
210
0.0
220
0.0
230
1.0
  2
SOLID
 70
     1
 71
     0
 91
        1
 92
        1
 93
        3
 72
     1
 10
221.8385092527621
 20
144.0312490372606
 11
218.3385091447287
 21
143.4479156859217
 72
     1
 10
218.3385091447287
 20
143.4479156859217
 11
221.8385092527621
 21
142.8645823345828
 72
     1
 10
221.8385092527621
 20
142.8645823345828
 11
221.8385092527621
 21
144.0312490372606
 97
        0
 75
     0
 76
     1
 98
        0
  0
LINE
  5
198
330
194
100
AcDbEntity
  8
Default
  6
Continuous
 62
     7
100
AcDbLine
 10
198.3385091447
 20
135.8181113727
 30
0.0
 11
198.3385091447
 21
145.1979157399
 31
0.0
  0
LINE
  5
199
330
194
100
AcDbEntity
  8
Default
  6
Continuous
 62
     7
100
AcDbLine
 10
218.3385091447
 20
135.8181113727
 30
0.0
 11
218.3385091447
 21
145.1979157399
 31
0.0
  0
LINE
  5
19A
330
194
100
AcDbEntity
  8
Default
  6
Continuous
 62
     7
100
AcDbLine
 10
191.3385089287
 20
143.4479156859
 30
0.0
 11
225.3385098451
 21
143.4479156859
 31
0.0
  0
TEXT
  5
19B
330
194
100
AcDbEntity
  8
Default
  6
Continuous
 62
     7
100
AcDbText
 10
200.9725998303
 20
144.3229156859
 30
0.0
 40
3.5
  1
M20 x 2
  7
SEACAD_Solid_Edge_ISO
 11
200.9725998303
 21
147.8229156859
 31
0.0
100
AcDbText
 73
     3
  0
ENDBLK
  5
19D
330
194
100
AcDbEntity
  8
0
100
AcDbBlockEnd
  0
BLOCK
  5
1A5
330
19E
100
AcDbEntity
  8
0
100
AcDbBlockBegin
  2
GDimGGroup4
 70
     0
 10
0.0
 20
0.0
 30
0.0
  3
GDimGGroup4
  1

  0
HATCH
  5
1A0
330
19E
100
AcDbEntity
  8
Default
  6
Continuous
 62
     7
100
AcDbHatch
 10
0.0
 20
0.0
 30
0.0
210
0.0
220
0.0
230
1.0
  2
SOLID
 70
     1
 71
     0
 91
        1
 92
        1
 93
        3
 72
     1
 10
250.3545289709869
 20
115.3181112647055
 11
249.771195619648
 21
118.8181113727389
 72
     1
 10
249.771195619648
 20
118.8181113727389
 11
249.1878622683091
 21
115.3181112647055
 72
     1
 10
249.1878622683091
 20
115.3181112647055
 11
250.3545289709869
 21
115.3181112647055
 97
        0
 75
     0
 76
     1
 98
        0
  0
LINE
  5
1A1
330
19E
100
AcDbEntity
  8
Default
  6
Continuous
 62
     7
100
AcDbLine
 10
237.0385091447
 20
118.8181113727
 30
0.0
 11
251.5211956737
 21
118.8181113727
 31
0.0
  0
LINE
  5
1A2
330
19E
100
AcDbEntity
  8
Default
  6
Continuous
 62
     7
100
AcDbLine
 10
249.7711956196
 20
118.8181113727
 30
0.0
 11
249.7711956196
 21
98.8181118198
 31
0.0
  0
TEXT
  5
1A3
330
19E
100
AcDbEntity
  8
Default
  6
Continuous
 62
     7
100
AcDbText
 10
248.8961956196
 20
93.7043159665
 30
0.0
 40
3.5
  1
O
 50
90.0
  7
SEACAD_Solid_Edge_ISO1_Symbols
 11
245.3961956196
 21
93.7043159665
 31
0.0
100
AcDbText
 73
     3
  0
TEXT
  5
1A4
330
19E
100
AcDbEntity
  8
Default
  6
Continuous
 62
     7
100
AcDbText
 10
248.8961956196
 20
99.7955440367
 30
0.0
 40
3.5
  1
40
 50
90.0
  7
SEACAD_Solid_Edge_ISO
 11
245.3961956196
 21
99.7955440367
 31
0.0
100
AcDbText
 73
     3
  0
ENDBLK
  5
1A6
330
19E
100
AcDbEntity
  8
0
100
AcDbBlockEnd
  0
BLOCK
  5
1B0
330
1A7
100
AcDbEntity
  8
0
100
AcDbBlockBegin
  2
GDimGGroup5
 70
     0
 10
0.0
 20
0.0
 30
0.0
  3
GDimGGroup5
  1

  0
HATCH
  5
1A9
330
1A7
100
AcDbEntity
  8
Default
  6
Continuous
 62
     7
100
AcDbHatch
 10
0.0
 20
0.0
 30
0.0
210
0.0
220
0.0
230
1.0
  2
SOLID
 70
     1
 71
     0
 91
        1
 92
        1
 93
        3
 72
     1
 10
267.154528604057
 20
135.0681112647055
 11
266.5711952527181
 21
138.5681113727389
 72
     1
 10
266.5711952527181
 20
138.5681113727389
 11
265.9878619013792
 21
135.0681112647055
 72
     1
 10
265.9878619013792
 20
135.0681112647055
 11
267.154528604057
 21
135.0681112647055
 97
        0
 75
     0
 76
     1
 98
        0
  0
HATCH
  5
1AA
330
1A7
100
AcDbEntity
  8
Default
  6
Continuous
 62
     7
100
AcDbHatch
 10
0.0
 20
0.0
 30
0.0
210
0.0
220
0.0
230
1.0
  2
SOLID
 70
     1
 71
     0
 91
        1
 92
        1
 93
        3
 72
     1
 10
267.154528604057
 20
62.56811428219064
 11
265.9878619013792
 21
62.56811428219064
 72
     1
 10
265.9878619013792
 20
62.56811428219064
 11
266.5711952527181
 21
59.06811417415722
 72
     1
 10
266.5711952527181
 20
59.06811417415722
 11
267.154528604057
 21
62.56811428219064
 97
        0
 75
     0
 76
     1
 98
        0
  0
LINE
  5
1AB
330
1A7
100
AcDbEntity
  8
Default
  6
Continuous
 62
     7
100
AcDbLine
 10
227.6742955824
 20
138.5681113727
 30
0.0
 11
268.3211953067
 21
138.5681113727
 31
0.0
  0
LINE
  5
1AC
330
1A7
100
AcDbEntity
  8
Default
  6
Continuous
 62
     7
100
AcDbLine
 10
227.6742955824
 20
59.0681113727
 30
0.0
 11
268.3211953067
 21
59.0681113727
 31
0.0
  0
LINE
  5
1AD
330
1A7
100
AcDbEntity
  8
Default
  6
Continuous
 62
     7
100
AcDbLine
 10
266.5711952527
 20
138.5681113727
 30
0.0
 11
266.5711952527
 21
59.0681141742
 31
0.0
  0
TEXT
  5
1AE
330
1A7
100
AcDbEntity
  8
Default
  6
Continuous
 62
     7
100
AcDbText
 10
265.6961952527
 20
92.2724987384
 30
0.0
 40
3.5
  1
O
 50
90.0
  7
SEACAD_Solid_Edge_ISO1_Symbols
 11
262.1961952527
 21
92.2724987384
 31
0.0
100
AcDbText
 73
     3
  0
TEXT
  5
1AF
330
1A7
100
AcDbEntity
  8
Default
  6
Continuous
 62
     7
100
AcDbText
 10
265.6961952527
 20
98.3637268085
 30
0.0
 40
3.5
  1
79,5
 50
90.0
  7
SEACAD_Solid_Edge_ISO
 11
262.1961952527
 21
98.3637268085
 31
0.0
100
AcDbText
 73
     3
  0
ENDBLK
  5
1B1
330
1A7
100
AcDbEntity
  8
0
100
AcDbBlockEnd
  0
BLOCK
  5
1B5
330
1B2
100
AcDbEntity
  8
0
100
AcDbBlockBegin
  2
SEANNOT_GROUP
 70
     0
 10
0.0
 20
0.0
 30
0.0
  3
SEANNOT_GROUP
  1

  0
TEXT
  5
1B4
330
1B2
100
AcDbEntity
  8
Default
  6
Continuous
 62
     7
100
AcDbText
 10
243.1483969886
 20
25.7525109624
 30
0.0
 40
3.5
  1
225034060
  7
SEACAD_Solid_Edge_ANSIB
 11
243.1483969886
 21
29.2525109624
 31
0.0
100
AcDbText
 73
     3
  0
ENDBLK
  5
1B6
330
1B2
100
AcDbEntity
  8
0
100
AcDbBlockEnd
  0
BLOCK
  5
1BA
330
1B7
100
AcDbEntity
  8
0
100
AcDbBlockBegin
  2
SEANNOT_GROUP1
 70
     0
 10
0.0
 20
0.0
 30
0.0
  3
SEANNOT_GROUP1
  1

  0
TEXT
  5
1B9
330
1B7
100
AcDbEntity
  8
Default
  6
Continuous
 62
     7
100
AcDbText
 10
243.1477357349
 20
20.0537100543
 30
0.0
 40
3.5
  1
02.05.2016
  7
SEACAD_Solid_Edge_ANSI
 11
243.1477357349
 21
23.5537100543
 31
0.0
100
AcDbText
 73
     3
  0
ENDBLK
  5
1BB
330
1B7
100
AcDbEntity
  8
0
100
AcDbBlockEnd
  0
BLOCK
  5
1BE
330
1BC
100
AcDbEntity
  8
0
100
AcDbBlockBegin
  2
SEANNOT_GROUP2
 70
     0
 10
0.0
 20
0.0
 30
0.0
  3
SEANNOT_GROUP2
  1

  0
TEXT
  5
1BD
330
1BC
100
AcDbEntity
  8
Default
  6
Continuous
 62
     7
100
AcDbText
 10
243.1795282745
 20
31.5598894014
 30
0.0
 40
3.5
  1
SK50_WD40x100
  7
SEACAD_Solid_Edge_ANSIB
 11
243.1795282745
 21
35.0598894014
 31
0.0
100
AcDbText
 73
     3
  0
ENDBLK
  5
1BF
330
1BC
100
AcDbEntity
  8
0
100
AcDbBlockEnd
  0
BLOCK
  5
1C2
330
1C0
100
AcDbEntity
  8
0
100
AcDbBlockBegin
  2
SEANNOT_GROUP3
 70
     0
 10
0.0
 20
0.0
 30
0.0
  3
SEANNOT_GROUP3
  1

  0
TEXT
  5
1C1
330
1C0
100
AcDbEntity
  8
Default
  6
Continuous
 62
     7
100
AcDbText
 10
243.2357917511
 20
14.1955389783
 30
0.0
 40
3.5
  1
1:1
  7
SEACAD_Solid_Edge_ANSI
 11
243.2357917511
 21
17.6955389783
 31
0.0
100
AcDbText
 73
     3
  0
ENDBLK
  5
1C3
330
1C0
100
AcDbEntity
  8
0
100
AcDbBlockEnd
  0
BLOCK
  5
211
330
1C4
100
AcDbEntity
  8
0
100
AcDbBlockBegin
  2
RF-Massblatt_2016
 70
     0
 10
0.0
 20
0.0
 30
0.0
  3
RF-Massblatt_2016
  1

  0
MTEXT
  5
1C5
102
{ACAD_XDICTIONARY
360
21B
102
}
330
1C4
100
AcDbEntity
  8
Default
100
AcDbMText
 10
15.2206856049
 20
34.8070876502
 30
0.0
 40
2.5
 41
48.9706096033
 71
     1
 72
     1
  3
{\fVectora Com 45 Light|b1||i0||c0|p34;\C7;\H2.5;\W1.;REGO-FIX AG\P}{\fVectora Com 45 Light|b0||i0||c0|p34;\C7;\H2.5;\W1.;Obermattweg 60\P}{\fVectora Com 45 Light|b0||i0||c0|p34;\C7;\H2.5;\W1.;4456 Tenniken / Switzerland\P}{\fVectora Com 45 Light|b0
  3
||i0||c0|p34;\C7;\H2.5;\W1.;\P}{\fVectora Com 45 Light|b0||i0||c0|p34;\C7;\H2.5;\W1.;P +41 61 976 14 66\P}{\fVectora Com 45 Light|b0||i0||c0|p34;\C7;\H2.5;\W1.;F +41 61 976 14 14\P}{\fVectora Com 45 Light|b1||i0||c0|p34;\C7;\H2.5;\W1.;www.rego-fix.c
  1
om}
 73
     1
 44
1.0
1001
ACAD
1000
ACAD_MTEXT_DEFINED_HEIGHT_BEGIN
1070
    46
1040
31.3191355437
1000
ACAD_MTEXT_DEFINED_HEIGHT_END
  0
MTEXT
  5
1C6
102
{ACAD_XDICTIONARY
360
21D
102
}
330
1C4
100
AcDbEntity
  8
Default
100
AcDbMText
 10
90.3836341545
 20
34.4892285804
 30
0.0
 40
2.5
 41
104.0282149141
 71
     1
 72
     1
  3
{\fSolid Edge ISO|b0||i0||c0|p34;\C7;\H2.;\W1.;This is a non-controlled copy. All information given herein is subject to change without notice\P}{\fSolid Edge ISO|b0||i0||c0|p34;\C7;\H2.;\W1.;\P}{\fSolid Edge ISO|b0||i0||c0|p34;\C7;\H2.;\W1.;The inf
  3
ormation given herein has been carefully checked and is believed to be correct. REGO-FIX,\P}{\fSolid Edge ISO|b0||i0||c0|p34;\C7;\H2.;\W1.;however, assumes no responsibility or liability for any errors, inaccuracies or omissions that may appear\P}{\
  3
fSolid Edge ISO|b0||i0||c0|p34;\C7;\H2.;\W1.;in this drawing\P}{\fSolid Edge ISO|b0||i0||c0|p34;\C7;\H2.;\W1.;\P}{\fSolid Edge ISO|b0||i0||c0|p34;\C7;\H2.;\W1.;This document is subject to copyright laws. No part of this document may be reproduced or
  3
 transmitted\P}{\fSolid Edge ISO|b0||i0||c0|p34;\C7;\H2.;\W1.;in any form or any means, electronic or mechanic, for any purpose, without the express written permission\P}{\fSolid Edge ISO|b0||i0||c0|p34;\C7;\H2.;\W1.;of REGO-FIX\P}{\fSolid Edge ISO|
  1
b0||i0||c0|p34;\C7;\H1.5;\W1.;\P}
 73
     1
 44
1.0
1001
ACAD
1000
ACAD_MTEXT_DEFINED_HEIGHT_BEGIN
1070
    46
1040
38.4545554545
1000
ACAD_MTEXT_DEFINED_HEIGHT_END
  0
INSERT
  5
1C7
330
1C4
100
AcDbEntity
  8
Default
100
AcDbBlockReference
  2
SEANNOT_GROUP
 10
0.0
 20
0.0
 30
0.0
  0
INSERT
  5
1C8
330
1C4
100
AcDbEntity
  8
Default
100
AcDbBlockReference
  2
SEANNOT_GROUP1
 10
0.0
 20
0.0
 30
0.0
  0
MTEXT
  5
1C9
102
{ACAD_XDICTIONARY
360
21F
102
}
330
1C4
100
AcDbEntity
  8
Default
100
AcDbMText
 10
219.0323311835
 20
34.8066733186
 30
0.0
 40
2.5
 41
20.1335141444
 71
     1
 72
     1
  3
{\fVectora Com 45 Light|b0||i0||c0|p34;\C7;\H3.5;\W1.;Type :\P}{\fVectora Com 45 Light|b0||i0||c0|p34;\C7;\H3.5;\W1.;Part No. :\P}{\fVectora Com 45 Light|b0||i0||c0|p34;\C7;\H3.5;\W1.;Date : \P}{\fVectora Com 45 Light|b0||i0||c0|p34;\C7;\H3.5;\W1.;S
  1
cale :}
 73
     1
 44
1.0
1001
ACAD
1000
ACAD_MTEXT_DEFINED_HEIGHT_BEGIN
1070
    46
1040
23.6666666667
1000
ACAD_MTEXT_DEFINED_HEIGHT_END
  0
INSERT
  5
1CA
330
1C4
100
AcDbEntity
  8
Default
100
AcDbBlockReference
  2
SEANNOT_GROUP2
 10
0.0
 20
0.0
 30
0.0
  0
INSERT
  5
1CB
330
1C4
100
AcDbEntity
  8
Default
100
AcDbBlockReference
  2
SEANNOT_GROUP3
 10
0.0
 20
0.0
 30
0.0
  0
LINE
  5
1CC
330
1C4
100
AcDbEntity
  8
Default
  6
Continuous
 62
     7
100
AcDbLine
 10
269.3420202893
 20
189.711288453
 30
0.0
 11
267.226096305
 21
186.6436606679
 31
0.0
  0
LINE
  5
1CD
330
1C4
100
AcDbEntity
  8
Default
  6
Continuous
 62
     7
100
AcDbLine
 10
267.226096305
 20
186.6436606679
 30
0.0
 11
268.2886782185
 21
185.1144666968
 31
0.0
  0
LINE
  5
1CE
330
1C4
100
AcDbEntity
  8
Default
  6
Continuous
 62
     7
100
AcDbLine
 10
268.2886782185
 20
185.1144666968
 30
0.0
 11
267.2561257939
 21
183.6453317033
 31
0.0
  0
LINE
  5
1CF
330
1C4
100
AcDbEntity
  8
Default
  6
Continuous
 62
     7
100
AcDbLine
 10
267.2561257939
 20
183.6453317033
 30
0.0
 11
266.2235733692
 21
185.2646141411
 31
0.0
  0
LINE
  5
1D0
330
1C4
100
AcDbEntity
  8
Default
  6
Continuous
 62
     7
100
AcDbLine
 10
266.2235733692
 20
185.2646141411
 30
0.0
 11
264.7036192408
 21
183.1186606679
 31
0.0
  0
LINE
  5
1D1
330
1C4
100
AcDbEntity
  8
Default
  6
Continuous
 62
     7
100
AcDbLine
 10
264.7036192408
 20
183.1186606679
 30
0.0
 11
262.6269645881
 21
183.1186606679
 31
0.0
  0
LINE
  5
1D2
330
1C4
100
AcDbEntity
  8
Default
  6
Continuous
 62
     7
100
AcDbLine
 10
262.6269645881
 20
183.1186606679
 30
0.0
 11
265.20950063
 21
186.6436606679
 31
0.0
  0
LINE
  5
1D3
330
1C4
100
AcDbEntity
  8
Default
  6
Continuous
 62
     7
100
AcDbLine
 10
265.20950063
 20
186.6436606679
 30
0.0
 11
263.1051264492
 21
189.711288453
 31
0.0
  0
LINE
  5
1D4
330
1C4
100
AcDbEntity
  8
Default
  6
Continuous
 62
     7
100
AcDbLine
 10
263.1051264492
 20
189.711288453
 30
0.0
 11
265.20950063
 21
189.711288453
 31
0.0
  0
LINE
  5
1D5
330
1C4
100
AcDbEntity
  8
Default
  6
Continuous
 62
     7
100
AcDbLine
 10
265.20950063
 20
189.711288453
 30
0.0
 11
266.2235733692
 21
188.0042275094
 31
0.0
  0
LINE
  5
1D6
330
1C4
100
AcDbEntity
  8
Default
  6
Continuous
 62
     7
100
AcDbLine
 10
266.2235733692
 20
188.0042275094
 30
0.0
 11
267.226096305
 21
189.711288453
 31
0.0
  0
LINE
  5
1D7
330
1C4
100
AcDbEntity
  8
Default
  6
Continuous
 62
     7
100
AcDbLine
 10
267.226096305
 20
189.711288453
 30
0.0
 11
269.3420202893
 21
189.711288453
 31
0.0
  0
SPLINE
  5
1D8
330
1C4
100
AcDbEntity
  8
Default
  6
Continuous
 62
     7
100
AcDbSpline
210
0.0
220
0.0
230
1.0
 70
     8
 71
     3
 72
    13
 73
     9
 74
     0
 42
0.0000000012369638
 43
0.0000000001
 12
1.0
 22
0.0
 32
0.0
 13
1.0
 23
0.0
 33
0.0
 40
0.0
 40
0.0
 40
0.0
 40
0.0
 40
0.9091644120227717
 40
0.9091644120227717
 40
0.9091644120227717
 40
0.9554905618911577
 40
0.9554905618911577
 40
1.0
 40
1.0
 40
1.0
 40
1.0
 10
267.8844350992403
 20
183.5460033940301
 30
0.0
 10
269.2912011542862
 20
185.5418094228636
 30
0.0
 10
270.697967209332
 20
187.5376154516972
 30
0.0
 10
272.1047332643779
 20
189.5334214805307
 30
0.0
 10
272.1870447473536
 20
189.6501983627819
 30
0.0
 10
272.2849101975365
 20
189.7112884530078
 30
0.0
 10
272.5159062656886
 20
189.7112884530078
 30
0.0
 10
272.6198544963569
 20
189.6512294752883
 30
0.0
 10
272.7122529236178
 20
189.5334214805307
 30
0.0
  0
SPLINE
  5
1D9
330
1C4
100
AcDbEntity
  8
Default
  6
Continuous
 62
     7
100
AcDbSpline
210
0.0
220
0.0
230
1.0
 70
     8
 71
     3
 72
    16
 73
    12
 74
     0
 42
0.0000000006014133
 43
0.0000000001
 12
1.0
 22
0.0
 32
0.0
 13
1.0
 23
0.0
 33
0.0
 40
0.0
 40
0.0
 40
0.0
 40
0.0
 40
0.4418652593848311
 40
0.4418652593848311
 40
0.4418652593848311
 40
0.455090010411123
 40
0.455090010411123
 40
0.4811129075918901
 40
0.4811129075918901
 40
0.4811129075918901
 40
1.0
 40
1.0
 40
1.0
 40
1.0
 10
272.7122529236178
 20
189.5334214805307
 30
0.0
 10
274.1190189786636
 20
187.5376154516972
 30
0.0
 10
275.5257850337095
 20
185.5418094228636
 30
0.0
 10
276.9325510887554
 20
183.5460033940301
 30
0.0
 10
276.9849943017649
 20
183.4716012002038
 30
0.0
 10
277.0133997126086
 20
183.4004758710943
 30
0.0
 10
277.0133997126086
 20
183.1879594883945
 30
0.0
 10
276.9140714033032
 20
183.1186606679488
 30
0.0
 10
276.7154147846925
 20
183.1186606679488
 30
0.0
 10
273.8479835920319
 20
183.1186606679488
 30
0.0
 10
270.9805523993713
 20
183.1186606679488
 30
0.0
 10
268.1131212067108
 20
183.1186606679488
 30
0.0
  0
SPLINE
  5
1DA
330
1C4
100
AcDbEntity
  8
Default
  6
Continuous
 62
     7
100
AcDbSpline
210
0.0
220
0.0
230
1.0
 70
     8
 71
     3
 72
    11
 73
     7
 74
     0
 42
0.0000000141737466
 43
0.0000000001
 12
1.0
 22
0.0
 32
0.0
 13
1.0
 23
0.0
 33
0.0
 40
0.0
 40
0.0
 40
0.0
 40
0.0
 40
0.6560933575639865
 40
0.6560933575639865
 40
0.6560933575639865
 40
1.0
 40
1.0
 40
1.0
 40
1.0
 10
268.1131212067108
 20
183.1186606679488
 30
0.0
 10
267.9075347060556
 20
183.1186606679488
 30
0.0
 10
267.8058964360686
 20
183.1925794097575
 30
0.0
 10
267.8035864753871
 20
183.3381069326933
 30
0.0
 10
267.8027439506852
 20
183.3911859889177
 30
0.0
 10
267.8313060035653
 20
183.4605348488138
 30
0.0
 10
267.8844350992403
 20
183.5460033940301
 30
0.0
  0
LINE
  5
1DB
330
1C4
100
AcDbEntity
  8
Default
  6
Continuous
 62
     7
100
AcDbLine
 10
262.1857620979
 20
189.7274581778
 30
0.0
 11
262.1857620979
 21
183.1186606679
 31
0.0
  0
SPLINE
  5
1DC
330
1C4
100
AcDbEntity
  8
Default
  6
Continuous
 62
     7
100
AcDbSpline
210
0.0
220
0.0
230
1.0
 70
     8
 71
     3
 72
    14
 73
    10
 74
     0
 42
0.0000000052950889
 43
0.0000000001
 12
1.0
 22
0.0
 32
0.0
 13
1.0
 23
0.0
 33
0.0
 40
0.0
 40
0.0
 40
0.0
 40
0.0
 40
0.1210177131110554
 40
0.1210177131110554
 40
0.1210177131110554
 40
0.2419901306838391
 40
0.2419901306838391
 40
0.2419901306838391
 40
1.0
 40
1.0
 40
1.0
 40
1.0
 10
260.4740812329231
 20
189.4387130925884
 30
0.0
 10
260.4740812329231
 20
189.5195617164416
 30
0.0
 10
260.5018007611014
 20
189.5865505762057
 30
0.0
 10
260.5595497781394
 20
189.6419896325622
 30
0.0
 10
260.6172507110666
 20
189.6973825281723
 30
0.0
 10
260.68197769426
 20
189.7274581777785
 30
0.0
 10
260.7628263181132
 20
189.7274581777785
 30
0.0
 10
261.2371382447187
 20
189.7274581777785
 30
0.0
 10
261.7114501713242
 20
189.7274581777785
 30
0.0
 10
262.1857620979297
 20
189.7274581777785
 30
0.0
  0
LINE
  5
1DD
330
1C4
100
AcDbEntity
  8
Default
  6
Continuous
 62
     7
100
AcDbLine
 10
260.4740812329
 20
183.1186606679
 30
0.0
 11
260.4740812329
 21
189.4387130926
 31
0.0
  0
LINE
  5
1DE
330
1C4
100
AcDbEntity
  8
Default
  6
Continuous
 62
     7
100
AcDbLine
 10
262.1857620979
 20
183.1186606679
 30
0.0
 11
260.4740812329
 21
183.1186606679
 31
0.0
  0
SPLINE
  5
1DF
330
1C4
100
AcDbEntity
  8
Default
  6
Continuous
 62
     7
100
AcDbSpline
210
0.0
220
0.0
230
1.0
 70
     8
 71
     3
 72
    16
 73
    12
 74
     0
 42
0.0000000009758823
 43
0.0000000001
 12
1.0
 22
0.0
 32
0.0
 13
1.0
 23
0.0
 33
0.0
 40
0.0
 40
0.0
 40
0.0
 40
0.0
 40
0.6159054655977501
 40
0.6159054655977501
 40
0.6159054655977501
 40
0.6376683166669079
 40
0.6376683166669079
 40
0.6603379531972834
 40
0.6603379531972834
 40
0.6603379531972834
 40
1.0
 40
1.0
 40
1.0
 40
1.0
 10
255.8218204203412
 20
183.1186606679488
 30
0.0
 10
255.8218204203412
 20
185.2199549012385
 30
0.0
 10
255.8218204203412
 20
187.3212491345281
 30
0.0
 10
255.8218204203412
 20
189.4225433678178
 30
0.0
 10
255.8218204203412
 20
189.503391991671
 30
0.0
 10
255.8495399485194
 20
189.5703808514351
 30
0.0
 10
255.962728021914
 20
189.6835689248296
 30
0.0
 10
256.0297168816781
 20
189.7112884530078
 30
0.0
 10
256.1105655055312
 20
189.7112884530078
 30
0.0
 10
257.2693957807606
 20
189.7112884530078
 30
0.0
 10
258.42822605599
 20
189.7112884530078
 30
0.0
 10
259.5870563312193
 20
189.7112884530078
 30
0.0
  0
LINE
  5
1E0
330
1C4
100
AcDbEntity
  8
Default
  6
Continuous
 62
     7
100
AcDbLine
 10
257.5404311674
 20
183.1186606679
 30
0.0
 11
255.8218204203
 21
183.1186606679
 31
0.0
  0
LINE
  5
1E1
330
1C4
100
AcDbEntity
  8
Default
  6
Continuous
 62
     7
100
AcDbLine
 10
257.5404311674
 20
185.7035066706
 30
0.0
 11
257.5404311674
 21
183.1186606679
 31
0.0
  0
LINE
  5
1E2
330
1C4
100
AcDbEntity
  8
Default
  6
Continuous
 62
     7
100
AcDbLine
 10
259.4877280219
 20
185.7035066706
 30
0.0
 11
257.5404311674
 21
185.7035066706
 31
0.0
  0
LINE
  5
1E3
330
1C4
100
AcDbEntity
  8
Default
  6
Continuous
 62
     7
100
AcDbLine
 10
259.4877280219
 20
187.1610918606
 30
0.0
 11
259.4877280219
 21
185.7035066706
 31
0.0
  0
LINE
  5
1E4
330
1C4
100
AcDbEntity
  8
Default
  6
Continuous
 62
     7
100
AcDbLine
 10
257.5404311674
 20
187.1610918606
 30
0.0
 11
259.4877280219
 21
187.1610918606
 31
0.0
  0
LINE
  5
1E5
330
1C4
100
AcDbEntity
  8
Default
  6
Continuous
 62
     7
100
AcDbLine
 10
257.5404311674
 20
188.260633145
 30
0.0
 11
257.5404311674
 21
187.1610918606
 31
0.0
  0
LINE
  5
1E6
330
1C4
100
AcDbEntity
  8
Default
  6
Continuous
 62
     7
100
AcDbLine
 10
259.5870563312
 20
188.260633145
 30
0.0
 11
257.5404311674
 21
188.260633145
 31
0.0
  0
LINE
  5
1E7
330
1C4
100
AcDbEntity
  8
Default
  6
Continuous
 62
     7
100
AcDbLine
 10
259.5870563312
 20
189.711288453
 30
0.0
 11
259.5870563312
 21
188.260633145
 31
0.0
  0
LINE
  5
1E8
330
1C4
100
AcDbEntity
  8
Default
  6
Continuous
 62
     7
100
AcDbLine
 10
255.0710831988
 20
187.1610918606
 30
0.0
 11
255.0710831988
 21
185.7035066706
 31
0.0
  0
LINE
  5
1E9
330
1C4
100
AcDbEntity
  8
Default
  6
Continuous
 62
     7
100
AcDbLine
 10
252.9366795291
 20
187.1610918606
 30
0.0
 11
255.0710831988
 21
187.1610918606
 31
0.0
  0
LINE
  5
1EA
330
1C4
100
AcDbEntity
  8
Default
  6
Continuous
 62
     7
100
AcDbLine
 10
252.9366795291
 20
185.7035066706
 30
0.0
 11
252.9366795291
 21
187.1610918606
 31
0.0
  0
LINE
  5
1EB
330
1C4
100
AcDbEntity
  8
Default
  6
Continuous
 62
     7
100
AcDbLine
 10
255.0710831988
 20
185.7035066706
 30
0.0
 11
252.9366795291
 21
185.7035066706
 31
0.0
  0
SPLINE
  5
1EC
330
1C4
100
AcDbEntity
  8
Default
  6
Continuous
 62
     7
100
AcDbSpline
210
0.0
220
0.0
230
1.0
 70
    11
 71
     3
 72
    47
 73
    43
 74
     0
 42
0.0000000008494054
 43
0.0000000001
 12
1.0
 22
0.0
 32
0.0
 13
1.0
 23
0.0
 33
0.0
 40
0.0
 40
0.0
 40
0.0
 40
0.0
 40
0.0637917384076936
 40
0.0637917384076936
 40
0.0637917384076936
 40
0.1265834997779105
 40
0.1265834997779105
 40
0.1893752611481286
 40
0.1893752611481286
 40
0.1893752611481286
 40
0.2604081010642026
 40
0.2604081010642026
 40
0.3159741129340349
 40
0.3159741129340349
 40
0.3159741129340349
 40
0.3751091105868484
 40
0.3751091105868484
 40
0.3751091105868484
 40
0.435995169879425
 40
0.435995169879425
 40
0.435995169879425
 40
0.4997689343159713
 40
0.4997689343159713
 40
0.5635426987525196
 40
0.5635426987525196
 40
0.5635426987525196
 40
0.624232315369434
 40
0.624232315369434
 40
0.624232315369434
 40
0.6835869381889372
 40
0.6835869381889372
 40
0.6835869381889372
 40
0.7357943705008892
 40
0.7357943705008892
 40
0.8025337685079206
 40
0.8025337685079206
 40
0.8692731665149518
 40
0.8692731665149518
 40
0.9360125645219831
 40
0.9360125645219831
 40
0.9360125645219831
 40
1.0
 40
1.0
 40
1.0
 40
1.0
 10
248.4438060035654
 20
184.5693159759436
 30
0.0
 10
248.7025215998956
 20
184.5693159759436
 30
0.0
 10
248.9450674714552
 20
184.620135110937
 30
0.0
 10
249.1691336575627
 20
184.7194634202424
 30
0.0
 10
249.3951304192655
 20
184.8196475517189
 30
0.0
 10
249.5941664229625
 20
184.9550794097575
 30
0.0
 10
249.9314206824644
 20
185.3061934333486
 30
0.0
 10
250.0653984019926
 20
185.5140898946854
 30
0.0
 10
250.160106789935
 20
185.752015844882
 30
0.0
 10
250.2551311293749
 20
185.9907355268896
 30
0.0
 10
250.3056343128707
 20
186.2509673520904
 30
0.0
 10
250.3056343128707
 20
186.7614686627064
 30
0.0
 10
250.2571251385588
 20
186.9809149274508
 30
0.0
 10
250.160106789935
 20
187.1934313101507
 30
0.0
 10
250.0643595068875
 20
187.4031634539689
 30
0.0
 10
249.9314206824644
 20
187.5907445473721
 30
0.0
 10
249.7627935527134
 20
187.7547517557601
 30
0.0
 10
249.5953209577949
 20
187.9176360604069
 30
0.0
 10
249.3955098043517
 20
188.0458068016317
 30
0.0
 10
249.1691336575627
 20
188.140515189574
 30
0.0
 10
248.9439009259591
 20
188.2347452099388
 30
0.0
 10
248.7025215998956
 20
188.2860427125098
 30
0.0
 10
248.1850904072351
 20
188.2860427125098
 30
0.0
 10
247.9425445356754
 20
188.2375335381978
 30
0.0
 10
247.7161683888864
 20
188.140515189574
 30
0.0
 10
247.4925801256786
 20
188.0446916481992
 30
0.0
 10
247.2934455841682
 20
187.9164490034665
 30
0.0
 10
247.1248184544172
 20
187.7547517557601
 30
0.0
 10
246.9550373605366
 20
187.5919479671074
 30
0.0
 10
246.8222136051381
 20
187.403637732169
 30
0.0
 10
246.7228852958327
 20
187.1934313101507
 30
0.0
 10
246.622664698655
 20
186.9813365579839
 30
0.0
 10
246.5727378515339
 20
186.7614686627064
 30
0.0
 10
246.5727378515339
 20
186.2509673520904
 30
0.0
 10
246.6235569865273
 20
185.9899417950786
 30
0.0
 10
246.8222136051381
 20
185.5140898946854
 30
0.0
 10
246.9561913246663
 20
185.3061934333486
 30
0.0
 10
247.2934455841682
 20
184.9550794097575
 30
0.0
 10
247.492102202779
 20
184.8187917295478
 30
0.0
 10
247.7161683888864
 20
184.7194634202424
 30
0.0
 10
247.9421651505893
 20
184.6192792887659
 30
0.0
 10
248.1850904072351
 20
184.5693159759436
 30
0.0
 10
248.4438060035654
 20
184.5693159759436
 30
0.0
  0
SPLINE
  5
1ED
330
1C4
100
AcDbEntity
  8
Default
  6
Continuous
 62
     7
100
AcDbSpline
210
0.0
220
0.0
230
1.0
 70
    11
 71
     3
 72
    49
 73
    45
 74
     0
 42
0.0000000004385322
 43
0.0000000001
 12
1.0
 22
0.0
 32
0.0
 13
1.0
 23
0.0
 33
0.0
 40
0.0
 40
0.0
 40
0.0
 40
0.0
 40
0.0617996483207596
 40
0.0617996483207596
 40
0.0617996483207596
 40
0.1220737652654132
 40
0.1220737652654132
 40
0.1220737652654132
 40
0.1820249318660078
 40
0.1820249318660078
 40
0.1820249318660078
 40
0.2438982680995642
 40
0.2438982680995642
 40
0.3109516975991858
 40
0.3109516975991858
 40
0.3109516975991858
 40
0.3722543214771952
 40
0.3722543214771952
 40
0.3722543214771952
 40
0.4335172266527087
 40
0.4335172266527087
 40
0.4335172266527087
 40
0.4994898970728853
 40
0.4994898970728853
 40
0.5657506577569065
 40
0.5657506577569065
 40
0.5657506577569065
 40
0.626961718898901
 40
0.626961718898901
 40
0.6886100019061948
 40
0.6886100019061948
 40
0.6886100019061948
 40
0.7556907268882871
 40
0.7556907268882871
 40
0.8175892499404324
 40
0.8175892499404324
 40
0.8175892499404324
 40
0.8774725210786118
 40
0.8774725210786118
 40
0.8774725210786118
 40
0.9379094648157675
 40
0.9379094648157675
 40
0.9379094648157675
 40
1.0
 40
1.0
 40
1.0
 40
1.0
 10
248.4438060035654
 20
189.9492144032044
 30
0.0
 10
248.9196356399268
 20
189.9515130970999
 30
0.0
 10
249.3770301188996
 20
189.8637458579882
 30
0.0
 10
249.8136126877069
 20
189.6997386496002
 30
0.0
 10
250.2509557040483
 20
189.5354457704455
 30
0.0
 10
250.6382686510096
 20
189.3001154516972
 30
0.0
 10
250.9755229105116
 20
188.997510602418
 30
0.0
 10
251.3129086463213
 20
188.694787784671
 30
0.0
 10
251.585352530433
 20
188.3368618475032
 30
0.0
 10
251.7863191097253
 20
187.918758964148
 30
0.0
 10
251.9868172819147
 20
187.5016305829262
 30
0.0
 10
252.0889239590044
 20
187.0455938265333
 30
0.0
 10
252.0889239590044
 20
186.0107314412123
 30
0.0
 10
251.9988354924251
 20
185.52101977673
 30
0.0
 10
251.816348598585
 20
185.0775073258781
 30
0.0
 10
251.6330488643873
 20
184.6320193642835
 30
0.0
 10
251.3820759904592
 20
184.2482314412123
 30
0.0
 10
251.0609914557278
 20
183.9225269851179
 30
0.0
 10
250.7410617834882
 20
183.5979940082417
 30
0.0
 10
250.3564534478642
 20
183.3473467754193
 30
0.0
 10
249.9083210756492
 20
183.1671698422608
 30
0.0
 10
249.4629767181928
 20
182.9881138634896
 30
0.0
 10
248.9727869996335
 20
182.8992144032044
 30
0.0
 10
247.9125150468157
 20
182.8992144032044
 30
0.0
 10
247.4251133430149
 20
182.9893028697837
 30
0.0
 10
246.9792909314815
 20
183.1671698422608
 30
0.0
 10
246.530680710158
 20
183.3461490497318
 30
0.0
 10
246.1453951254526
 20
183.5991324897051
 30
0.0
 10
245.4962961739454
 20
184.2482314412123
 30
0.0
 10
245.2445104596597
 20
184.6316849143446
 30
0.0
 10
245.0620235658196
 20
185.0775073258781
 30
0.0
 10
244.8803465126443
 20
185.521351265914
 30
0.0
 10
244.7871382447187
 20
186.0107314412123
 30
0.0
 10
244.7871382447187
 20
187.0455938265333
 30
0.0
 10
244.8887765147056
 20
187.5029660414744
 30
0.0
 10
245.0920530546794
 20
187.918758964148
 30
0.0
 10
245.2957954536029
 20
188.335504780128
 30
0.0
 10
245.5632850337095
 20
188.6972157138204
 30
0.0
 10
245.9005392932115
 20
188.997510602418
 30
0.0
 10
246.2389407961124
 20
189.2988270091107
 30
0.0
 10
246.6281769078904
 20
189.5334214805307
 30
0.0
 10
247.0670694373792
 20
189.6997386496002
 30
0.0
 10
247.5072164315149
 20
189.8665311947464
 30
0.0
 10
247.9656441424906
 20
189.9469044425229
 30
0.0
 10
248.4438060035654
 20
189.9492144032044
 30
0.0
  0
LINE
  5
1EE
330
1C4
100
AcDbEntity
  8
Default
  6
Continuous
 62
     7
100
AcDbLine
 10
242.3339600009
 20
185.4332412708
 30
0.0
 11
240.8347955186
 21
185.4332412708
 31
0.0
  0
SPLINE
  5
1EF
330
1C4
100
AcDbEntity
  8
Default
  6
Continuous
 62
     7
100
AcDbSpline
210
0.0
220
0.0
230
1.0
 70
     8
 71
     3
 72
    43
 73
    39
 74
     0
 42
0.0000000009932047
 43
0.0000000001
 12
1.0
 22
0.0
 32
0.0
 13
1.0
 23
0.0
 33
0.0
 40
0.0
 40
0.0
 40
0.0
 40
0.0
 40
0.0949373847537602
 40
0.0949373847537602
 40
0.0949373847537602
 40
0.1911787086491429
 40
0.1911787086491429
 40
0.2677918678027036
 40
0.2677918678027036
 40
0.2677918678027036
 40
0.3406026976746725
 40
0.3406026976746725
 40
0.3406026976746725
 40
0.4151543081273698
 40
0.4151543081273698
 40
0.4151543081273698
 40
0.4895478942304584
 40
0.4895478942304584
 40
0.5659890102262922
 40
0.5659890102262922
 40
0.6424301262221261
 40
0.6424301262221261
 40
0.6424301262221261
 40
0.714798401889747
 40
0.714798401889747
 40
0.714798401889747
 40
0.7953127750919691
 40
0.7953127750919691
 40
0.8472575319966263
 40
0.8472575319966263
 40
0.8472575319966263
 40
0.898191982468852
 40
0.898191982468852
 40
0.898191982468852
 40
0.9471592991231073
 40
0.9471592991231073
 40
0.9471592991231073
 40
1.0
 40
1.0
 40
1.0
 40
1.0
 10
242.2554213377724
 20
187.3782281646723
 30
0.0
 10
242.1353033823333
 20
187.6970027387221
 30
0.0
 10
241.9551264491748
 20
187.9510984136893
 30
0.0
 10
241.7148905382967
 20
188.1428251502555
 30
0.0
 10
241.4721172585773
 20
188.3365769023392
 30
0.0
 10
241.1766696995024
 20
188.4315702354455
 30
0.0
 10
240.5460504334474
 20
188.4315702354455
 30
0.0
 10
240.3011946012062
 20
188.371511257726
 30
0.0
 10
240.0840582971433
 20
188.2490833416055
 30
0.0
 10
239.8686747464151
 20
188.1276436800246
 30
0.0
 10
239.6913649812849
 20
187.9649581777784
 30
0.0
 10
239.5481474190306
 20
187.7663015591677
 30
0.0
 10
239.4057198468884
 20
187.5687407332931
 30
0.0
 10
239.2986716654264
 20
187.345888715131
 30
0.0
 10
239.2270628842993
 20
187.0987229222083
 30
0.0
 10
239.1546578089098
 20
186.848808629735
 30
0.0
 10
239.1161847715863
 20
186.5997714149999
 30
0.0
 10
239.1161847715863
 20
186.089270104384
 30
0.0
 10
239.1554541031722
 20
185.8397943507798
 30
0.0
 10
239.3079115081525
 20
185.3500826862975
 30
0.0
 10
239.4187896208655
 20
185.1283264608715
 30
0.0
 10
239.5643171438012
 20
184.9342897636238
 30
0.0
 10
239.7109534478642
 20
184.7387746915399
 30
0.0
 10
239.8900215998956
 20
184.5808657793512
 30
0.0
 10
240.104847943277
 20
184.4630577845936
 30
0.0
 10
240.3206481660817
 20
184.3447157269266
 30
0.0
 10
240.5691500402626
 20
184.2851908121166
 30
0.0
 10
241.0403820192927
 20
184.2851908121166
 30
0.0
 10
241.2182489917698
 20
184.3082904189318
 30
0.0
 10
241.3914960428838
 20
184.3591095539252
 30
0.0
 10
241.5619922405099
 20
184.4091217718955
 30
0.0
 10
241.7148905382967
 20
184.4815374700458
 30
0.0
 10
241.8488682578248
 20
184.5762458579881
 30
0.0
 10
241.9813056983178
 20
184.6698654279918
 30
0.0
 10
242.089104168703
 20
184.7910722013695
 30
0.0
 10
242.1768826746007
 20
184.9342897636238
 30
0.0
 10
242.2630012238817
 20
185.0747989756085
 30
0.0
 10
242.315480315492
 20
185.241514534266
 30
0.0
 10
242.3339600009441
 20
185.4332412708322
 30
0.0
  0
LINE
  5
1F0
330
1C4
100
AcDbEntity
  8
Default
  6
Continuous
 62
     7
100
AcDbLine
 10
243.8839436182
 20
188.0642864871
 30
0.0
 11
242.2554213378
 21
187.3782281647
 31
0.0
  0
SPLINE
  5
1F1
330
1C4
100
AcDbEntity
  8
Default
  6
Continuous
 62
     7
100
AcDbSpline
210
0.0
220
0.0
230
1.0
 70
     8
 71
     3
 72
    51
 73
    47
 74
     0
 42
0.0000000004766382
 43
0.0000000001
 12
1.0
 22
0.0
 32
0.0
 13
1.0
 23
0.0
 33
0.0
 40
0.0
 40
0.0
 40
0.0
 40
0.0
 40
0.0095402040290222
 40
0.0095402040290222
 40
0.0095402040290222
 40
0.0400756007423482
 40
0.0400756007423482
 40
0.0400756007423482
 40
0.0693620114069116
 40
0.0693620114069116
 40
0.0986484220714753
 40
0.0986484220714753
 40
0.0986484220714753
 40
0.1302632519246672
 40
0.1302632519246672
 40
0.1302632519246672
 40
0.2055179711079718
 40
0.2055179711079718
 40
0.2055179711079718
 40
0.281182745691462
 40
0.281182745691462
 40
0.3511962093102096
 40
0.3511962093102096
 40
0.3511962093102096
 40
0.4149417185613706
 40
0.4149417185613706
 40
0.4149417185613706
 40
0.4786592191897758
 40
0.4786592191897758
 40
0.4786592191897758
 40
0.5478830793697405
 40
0.5478830793697405
 40
0.6199007276287178
 40
0.6199007276287178
 40
0.6199007276287178
 40
0.6846819262147057
 40
0.6846819262147057
 40
0.6846819262147057
 40
0.7494892886116509
 40
0.7494892886116509
 40
0.7494892886116509
 40
0.8193637744922013
 40
0.8193637744922013
 40
0.9096818872461009
 40
0.9096818872461009
 40
1.0
 40
1.0
 40
1.0
 40
1.0
 10
244.1426592145745
 20
186.777638387477
 30
0.0
 10
244.1426592145745
 20
186.7114195146068
 30
0.0
 10
244.1426592145745
 20
186.6452006417365
 30
0.0
 10
244.1426592145745
 20
186.5789817688662
 30
0.0
 10
244.1426592145745
 20
186.3618454648034
 30
0.0
 10
244.1287994504854
 20
186.1493290821035
 30
0.0
 10
244.1172496470778
 20
185.9437425814482
 30
0.0
 10
244.1057071113542
 20
185.738285445568
 30
0.0
 10
244.0849101975365
 20
185.5371895015006
 30
0.0
 10
244.0109914557279
 20
185.1398762642791
 30
0.0
 10
243.9578623600529
 20
184.9435296063499
 30
0.0
 10
243.8839436182442
 20
184.7518028697837
 30
0.0
 10
243.8103238022207
 20
184.5608514719727
 30
0.0
 10
243.7060766457672
 20
184.3683493966513
 30
0.0
 10
243.567479004876
 20
184.1766226600851
 30
0.0
 10
243.2385391943749
 20
183.7215892555586
 30
0.0
 10
242.8467712722416
 20
183.3866161070052
 30
0.0
 10
242.3801592145745
 20
183.1833395670314
 30
0.0
 10
241.9127013576763
 20
182.9796945600658
 30
0.0
 10
241.4007358856099
 20
182.8761147963892
 30
0.0
 10
240.3289141293845
 20
182.8761147963892
 30
0.0
 10
239.8530622289913
 20
182.9592733809239
 30
0.0
 10
239.4187896208655
 20
183.1279005106749
 30
0.0
 10
238.9865243210358
 20
183.2957482068854
 30
0.0
 10
238.6149233036964
 20
183.5344535906225
 30
0.0
 10
238.3076985330542
 20
183.8370584399017
 30
0.0
 10
237.9993189146371
 20
184.1408007708237
 30
0.0
 10
237.7625478122154
 20
184.5092569982241
 30
0.0
 10
237.5893007611014
 20
184.9412196456684
 30
0.0
 10
237.4171718734448
 20
185.3703943388921
 30
0.0
 10
237.3328951254526
 20
185.8444142721428
 30
0.0
 10
237.3328951254526
 20
186.8954463822346
 30
0.0
 10
237.4183636706689
 20
187.3828480860353
 30
0.0
 10
237.5893007611014
 20
187.8194306548426
 30
0.0
 10
237.760544896821
 20
188.2567974339103
 30
0.0
 10
238.005093683775
 20
188.6302268540563
 30
0.0
 10
238.3192483364618
 20
188.9420715460616
 30
0.0
 10
238.6322480402607
 20
189.2527697814501
 30
0.0
 10
239.0099265802364
 20
189.4918421882634
 30
0.0
 10
239.4488191097252
 20
189.6627792786959
 30
0.0
 10
239.8889361806183
 20
189.8341932957806
 30
0.0
 10
240.3751133430149
 20
189.9145649929816
 30
0.0
 10
241.587842700813
 20
189.9145649929816
 30
0.0
 10
242.1815025959638
 20
189.7621075880012
 30
0.0
 10
243.2025052171957
 20
189.1522779680799
 30
0.0
 10
243.5998184544173
 20
188.6879758710943
 30
0.0
 10
243.8839436182442
 20
188.0642864870838
 30
0.0
  0
LINE
  5
1F2
330
1C4
100
AcDbEntity
  8
Default
  6
Continuous
 62
     7
100
AcDbLine
 10
240.8347955186
 20
186.7776383875
 30
0.0
 11
244.1426592146
 21
186.7776383875
 31
0.0
  0
LINE
  5
1F3
330
1C4
100
AcDbEntity
  8
Default
  6
Continuous
 62
     7
100
AcDbLine
 10
240.8347955186
 20
185.4332412708
 30
0.0
 11
240.8347955186
 21
186.7776383875
 31
0.0
  0
SPLINE
  5
1F4
330
1C4
100
AcDbEntity
  8
Default
  6
Continuous
 62
     7
100
AcDbSpline
210
0.0
220
0.0
230
1.0
 70
     8
 71
     3
 72
    16
 73
    12
 74
     0
 42
0.000000000976763
 43
0.0000000001
 12
1.0
 22
0.0
 32
0.0
 13
1.0
 23
0.0
 33
0.0
 40
0.0
 40
0.0
 40
0.0
 40
0.0
 40
0.6164577788718584
 40
0.6164577788718584
 40
0.6164577788718584
 40
0.6381328433885463
 40
0.6381328433885463
 40
0.6607110355934293
 40
0.6607110355934293
 40
0.6607110355934293
 40
1.0
 40
1.0
 40
1.0
 40
1.0
 10
233.0225084937357
 20
183.1186606679488
 30
0.0
 10
233.0225084937357
 20
185.2199549012385
 30
0.0
 10
233.0225084937357
 20
187.3212491345281
 30
0.0
 10
233.0225084937357
 20
189.4225433678178
 30
0.0
 10
233.0225084937357
 20
189.503391991671
 30
0.0
 10
233.050228021914
 20
189.5703808514351
 30
0.0
 10
233.1634160953085
 20
189.6835689248296
 30
0.0
 10
233.2304049550725
 20
189.7112884530078
 30
0.0
 10
233.3089436182443
 20
189.7112884530078
 30
0.0
 10
234.4654639327921
 20
189.7112884530078
 30
0.0
 10
235.6219842473399
 20
189.7112884530078
 30
0.0
 10
236.7785045618878
 20
189.7112884530078
 30
0.0
  0
LINE
  5
1F5
330
1C4
100
AcDbEntity
  8
Default
  6
Continuous
 62
     7
100
AcDbLine
 10
236.7785045619
 20
183.1186606679
 30
0.0
 11
233.0225084937
 21
183.1186606679
 31
0.0
  0
LINE
  5
1F6
330
1C4
100
AcDbEntity
  8
Default
  6
Continuous
 62
     7
100
AcDbLine
 10
236.7785045619
 20
184.5693159759
 30
0.0
 11
236.7785045619
 21
183.1186606679
 31
0.0
  0
LINE
  5
1F7
330
1C4
100
AcDbEntity
  8
Default
  6
Continuous
 62
     7
100
AcDbLine
 10
234.7318793981
 20
184.5693159759
 30
0.0
 11
236.7785045619
 21
184.5693159759
 31
0.0
  0
LINE
  5
1F8
330
1C4
100
AcDbEntity
  8
Default
  6
Continuous
 62
     7
100
AcDbLine
 10
234.7318793981
 20
185.7035066706
 30
0.0
 11
234.7318793981
 21
184.5693159759
 31
0.0
  0
LINE
  5
1F9
330
1C4
100
AcDbEntity
  8
Default
  6
Continuous
 62
     7
100
AcDbLine
 10
236.6791762526
 20
185.7035066706
 30
0.0
 11
234.7318793981
 21
185.7035066706
 31
0.0
  0
LINE
  5
1FA
330
1C4
100
AcDbEntity
  8
Default
  6
Continuous
 62
     7
100
AcDbLine
 10
236.6791762526
 20
187.1610918606
 30
0.0
 11
236.6791762526
 21
185.7035066706
 31
0.0
  0
LINE
  5
1FB
330
1C4
100
AcDbEntity
  8
Default
  6
Continuous
 62
     7
100
AcDbLine
 10
234.7318793981
 20
187.1610918606
 30
0.0
 11
236.6791762526
 21
187.1610918606
 31
0.0
  0
LINE
  5
1FC
330
1C4
100
AcDbEntity
  8
Default
  6
Continuous
 62
     7
100
AcDbLine
 10
234.7318793981
 20
188.260633145
 30
0.0
 11
234.7318793981
 21
187.1610918606
 31
0.0
  0
LINE
  5
1FD
330
1C4
100
AcDbEntity
  8
Default
  6
Continuous
 62
     7
100
AcDbLine
 10
236.7785045619
 20
188.260633145
 30
0.0
 11
234.7318793981
 21
188.260633145
 31
0.0
  0
LINE
  5
1FE
330
1C4
100
AcDbEntity
  8
Default
  6
Continuous
 62
     7
100
AcDbLine
 10
236.7785045619
 20
189.711288453
 30
0.0
 11
236.7785045619
 21
188.260633145
 31
0.0
  0
LINE
  5
1FF
330
1C4
100
AcDbEntity
  8
Default
  6
Continuous
 62
     7
100
AcDbLine
 10
228.7098119013
 20
188.3992307859
 30
0.0
 11
228.7098119013
 21
186.7499188593
 31
0.0
  0
LINE
  5
200
330
1C4
100
AcDbEntity
  8
Default
  6
Continuous
 62
     7
100
AcDbLine
 10
228.7098119013
 20
186.7499188593
 30
0.0
 11
228.8807489918
 21
186.7499188593
 31
0.0
  0
SPLINE
  5
201
330
1C4
100
AcDbEntity
  8
Default
  6
Continuous
 62
     7
100
AcDbSpline
210
0.0
220
0.0
230
1.0
 70
     8
 71
     3
 72
    29
 73
    25
 74
     0
 42
0.0000000028633018
 43
0.0000000001
 12
1.0
 22
0.0
 32
0.0
 13
1.0
 23
0.0
 33
0.0
 40
0.0
 40
0.0
 40
0.0
 40
0.0
 40
0.1203556671631279
 40
0.1203556671631279
 40
0.1203556671631279
 40
0.2363519504887718
 40
0.2363519504887718
 40
0.2363519504887718
 40
0.3551316836966588
 40
0.3551316836966588
 40
0.4739114169045465
 40
0.4739114169045465
 40
0.5942337440501996
 40
0.5942337440501996
 40
0.7145560711958533
 40
0.7145560711958533
 40
0.7145560711958533
 40
0.8303426976884648
 40
0.8303426976884648
 40
0.8303426976884648
 40
0.9506957818555967
 40
0.9506957818555967
 40
0.9506957818555967
 40
1.0
 40
1.0
 40
1.0
 40
1.0
 10
228.8807489917698
 20
186.7499188592988
 30
0.0
 10
229.019346632661
 20
186.7499188592988
 30
0.0
 10
229.1579442735522
 20
186.7591587020248
 30
0.0
 10
229.2965419144435
 20
186.7799483481585
 30
0.0
 10
229.4373986855855
 20
186.8010768638298
 30
0.0
 10
229.5644973534998
 20
186.8376973651965
 30
0.0
 10
229.6799953875758
 20
186.8954463822346
 30
0.0
 10
229.7964174059245
 20
186.9536573914089
 30
0.0
 10
229.8902018095942
 20
187.0340440231258
 30
0.0
 10
230.0287994504854
 20
187.2511803271887
 30
0.0
 10
230.0634488607082
 20
187.3967078501244
 30
0.0
 10
230.0634488607082
 20
187.7547517557601
 30
0.0
 10
230.0287994504854
 20
187.8979693180144
 30
0.0
 10
229.8902018095942
 20
188.1151056220773
 30
0.0
 10
229.7978033823333
 20
188.198264206612
 30
0.0
 10
229.6799953875758
 20
188.25601322365
 30
0.0
 10
229.5649627826514
 20
188.3124017554757
 30
0.0
 10
229.4374495160162
 20
188.3484116509108
 30
0.0
 10
229.2965419144435
 20
188.3692012970445
 30
0.0
 10
229.1578950608181
 20
188.3896573902023
 30
0.0
 10
229.019346632661
 20
188.3992307859043
 30
0.0
 10
228.8807489917698
 20
188.3992307859043
 30
0.0
 10
228.8237699616256
 20
188.3992307859043
 30
0.0
 10
228.7667909314815
 20
188.3992307859043
 30
0.0
 10
228.7098119013373
 20
188.3992307859043
 30
0.0
  0
LINE
  5
202
330
1C4
100
AcDbEntity
  8
Default
  6
Continuous
 62
     7
100
AcDbLine
 10
228.7098119013
 20
183.1186606679
 30
0.0
 11
227.000440997
 21
183.1186606679
 31
0.0
  0
LINE
  5
203
330
1C4
100
AcDbEntity
  8
Default
  6
Continuous
 62
     7
100
AcDbLine
 10
228.7098119013
 20
185.6526875356
 30
0.0
 11
228.7098119013
 21
183.1186606679
 31
0.0
  0
LINE
  5
204
330
1C4
100
AcDbEntity
  8
Default
  6
Continuous
 62
     7
100
AcDbLine
 10
230.3406441425
 20
183.1186606679
 30
0.0
 11
228.7098119013
 21
185.6526875356
 31
0.0
  0
LINE
  5
205
330
1C4
100
AcDbEntity
  8
Default
  6
Continuous
 62
     7
100
AcDbLine
 10
232.4773577729
 20
183.1186606679
 30
0.0
 11
230.3406441425
 21
183.1186606679
 31
0.0
  0
LINE
  5
206
330
1C4
100
AcDbEntity
  8
Default
  6
Continuous
 62
     7
100
AcDbLine
 10
230.4007031202
 20
185.8190047046
 30
0.0
 11
232.4773577729
 21
183.1186606679
 31
0.0
  0
SPLINE
  5
207
330
1C4
100
AcDbEntity
  8
Default
  6
Continuous
 62
     7
100
AcDbSpline
210
0.0
220
0.0
230
1.0
 70
     8
 71
     3
 72
    39
 73
    35
 74
     0
 42
0.0000000006617465
 43
0.0000000001
 12
1.0
 22
0.0
 32
0.0
 13
1.0
 23
0.0
 33
0.0
 40
0.0
 40
0.0
 40
0.0
 40
0.0
 40
0.4184837171182216
 40
0.4184837171182216
 40
0.4184837171182216
 40
0.4329116956232541
 40
0.4329116956232541
 40
0.447940839899329
 40
0.447940839899329
 40
0.447940839899329
 40
0.5989875461512338
 40
0.5989875461512338
 40
0.5989875461512338
 40
0.65983019696195
 40
0.65983019696195
 40
0.65983019696195
 40
0.7141636694202442
 40
0.7141636694202442
 40
0.7141636694202442
 40
0.7672492360561214
 40
0.7672492360561214
 40
0.7672492360561214
 40
0.8311842098663922
 40
0.8311842098663922
 40
0.8732466926363075
 40
0.8732466926363075
 40
0.8732466926363075
 40
0.9147241024096695
 40
0.9147241024096695
 40
0.9147241024096695
 40
0.9560702513872078
 40
0.9560702513872078
 40
0.9560702513872078
 40
1.0
 40
1.0
 40
1.0
 40
1.0
 10
227.0004409970123
 20
183.1186606679488
 30
0.0
 10
227.0004409970123
 20
185.2199549012385
 30
0.0
 10
227.0004409970123
 20
187.3212491345281
 30
0.0
 10
227.0004409970123
 20
189.4225433678178
 30
0.0
 10
227.0004409970123
 20
189.503391991671
 30
0.0
 10
227.0281605251905
 20
189.5703808514351
 30
0.0
 10
227.141348598585
 20
189.6835689248296
 30
0.0
 10
227.2060274976676
 20
189.7112884530078
 30
0.0
 10
227.2776362787947
 20
189.7112884530078
 30
0.0
 10
228.0360733692272
 20
189.7112884530078
 30
0.0
 10
228.7945104596597
 20
189.7112884530078
 30
0.0
 10
229.5529475500922
 20
189.7112884530078
 30
0.0
 10
229.8786520061866
 20
189.7112884530078
 30
0.0
 10
230.1812568554658
 20
189.672019121422
 30
0.0
 10
230.4584521372482
 20
189.5911704975687
 30
0.0
 10
230.7371553613635
 20
189.5098820572018
 30
0.0
 10
230.9781932905902
 20
189.3902039182765
 30
0.0
 10
231.1837797912455
 20
189.223886749207
 30
0.0
 10
231.3882367819392
 20
189.0584833410054
 30
0.0
 10
231.5510635396073
 20
188.8496731188007
 30
0.0
 10
231.6665615736833
 20
188.5955774438335
 30
0.0
 10
231.782929798427
 20
188.3395673493973
 30
0.0
 10
231.8398086247973
 20
188.0365669589056
 30
0.0
 10
231.8398086247973
 20
187.4544568671624
 30
0.0
 10
231.8097791359376
 20
187.235010602418
 30
0.0
 10
231.745100236855
 20
187.0317340624443
 30
0.0
 10
231.679966279852
 20
186.827027340435
 30
0.0
 10
231.5903328711931
 20
186.6390407465858
 30
0.0
 10
231.4679049550726
 20
186.4750335381978
 30
0.0
 10
231.3443697291374
 20
186.3095429525111
 30
0.0
 10
231.1953295946532
 20
186.1678087675556
 30
0.0
 10
231.0151526614946
 20
186.0523107334796
 30
0.0
 10
230.8366129371881
 20
185.9378621922575
 30
0.0
 10
230.6316991883622
 20
185.8582740362319
 30
0.0
 10
230.4007031202102
 20
185.8190047046461
 30
0.0
  0
HATCH
  5
208
330
1C4
100
AcDbEntity
  8
Default
  6
Continuous
 62
     7
100
AcDbHatch
 10
0.0
 20
0.0
 30
0.0
210
0.0
220
0.0
230
1.0
  2
SOLID
 70
     1
 71
     0
 91
        2
 92
        1
 93
        6
 72
     4
 94
        3
 73
     0
 74
     0
 95
       39
 96
       35
 40
0.0
 40
0.0
 40
0.0
 40
0.0
 40
0.0439297486127922
 40
0.0439297486127922
 40
0.0439297486127922
 40
0.0852758975903305
 40
0.0852758975903305
 40
0.0852758975903305
 40
0.1267533073636925
 40
0.1267533073636925
 40
0.1267533073636925
 40
0.1688157901336078
 40
0.1688157901336078
 40
0.2327507639438786
 40
0.2327507639438786
 40
0.2327507639438786
 40
0.2858363305797558
 40
0.2858363305797558
 40
0.2858363305797558
 40
0.34016980303805
 40
0.34016980303805
 40
0.34016980303805
 40
0.4010124538487662
 40
0.4010124538487662
 40
0.4010124538487662
 40
0.552059160100671
 40
0.552059160100671
 40
0.552059160100671
 40
0.5670883043767458
 40
0.5670883043767458
 40
0.5815162828817784
 40
0.5815162828817784
 40
0.5815162828817784
 40
1.0
 40
1.0
 40
1.0
 40
1.0
 10
230.4007031202102
 20
185.8190047046461
 10
230.6316991883622
 20
185.8582740362319
 10
230.8366129371881
 20
185.9378621922575
 10
231.0151526614946
 20
186.0523107334796
 10
231.1953295946532
 20
186.1678087675556
 10
231.3443697291374
 20
186.3095429525111
 10
231.4679049550726
 20
186.4750335381978
 10
231.5903328711931
 20
186.6390407465858
 10
231.679966279852
 20
186.827027340435
 10
231.745100236855
 20
187.0317340624443
 10
231.8097791359376
 20
187.235010602418
 10
231.8398086247973
 20
187.4544568671624
 10
231.8398086247973
 20
188.0365669589056
 10
231.782929798427
 20
188.3395673493973
 10
231.6665615736833
 20
188.5955774438335
 10
231.5510635396073
 20
188.8496731188007
 10
231.3882367819392
 20
189.0584833410054
 10
231.1837797912455
 20
189.223886749207
 10
230.9781932905902
 20
189.3902039182765
 10
230.7371553613635
 20
189.5098820572018
 10
230.4584521372482
 20
189.5911704975687
 10
230.1812568554658
 20
189.672019121422
 10
229.8786520061866
 20
189.7112884530078
 10
229.5529475500922
 20
189.7112884530078
 10
228.7945104596597
 20
189.7112884530078
 10
228.0360733692272
 20
189.7112884530078
 10
227.2776362787947
 20
189.7112884530078
 10
227.2060274976676
 20
189.7112884530078
 10
227.141348598585
 20
189.6835689248296
 10
227.0281605251905
 20
189.5703808514351
 10
227.0004409970123
 20
189.503391991671
 10
227.0004409970123
 20
189.4225433678178
 10
227.0004409970123
 20
187.3212491345281
 10
227.0004409970123
 20
185.2199549012385
 10
227.0004409970123
 20
183.1186606679488
 72
     1
 10
227.0004409970123
 20
183.1186606679488
 11
228.7098119013373
 21
183.1186606679488
 72
     1
 10
228.7098119013373
 20
183.1186606679488
 11
228.7098119013373
 21
185.6526875355766
 72
     1
 10
228.7098119013373
 20
185.6526875355766
 11
230.3406441424906
 21
183.1186606679488
 72
     1
 10
230.3406441424906
 20
183.1186606679488
 11
232.4773577728969
 21
183.1186606679488
 72
     1
 10
232.4773577728969
 20
183.1186606679488
 11
230.4007031202102
 21
185.8190047046461
 97
        0
 92
        1
 93
        3
 72
     1
 10
228.7098119013373
 20
188.3992307859043
 11
228.7098119013373
 21
186.7499188592988
 72
     1
 10
228.7098119013373
 20
186.7499188592988
 11
228.8807489917698
 21
186.7499188592988
 72
     4
 94
        3
 73
     0
 74
     0
 95
       29
 96
       25
 40
0.0
 40
0.0
 40
0.0
 40
0.0
 40
0.120355667163128
 40
0.120355667163128
 40
0.120355667163128
 40
0.2363519504887718
 40
0.2363519504887718
 40
0.2363519504887718
 40
0.3551316836966587
 40
0.3551316836966587
 40
0.4739114169045465
 40
0.4739114169045465
 40
0.5942337440501996
 40
0.5942337440501996
 40
0.7145560711958533
 40
0.7145560711958533
 40
0.7145560711958533
 40
0.8303426976884648
 40
0.8303426976884648
 40
0.8303426976884648
 40
0.9506957818555967
 40
0.9506957818555967
 40
0.9506957818555967
 40
1.0
 40
1.0
 40
1.0
 40
1.0
 10
228.8807489917698
 20
186.7499188592988
 10
229.019346632661
 20
186.7499188592988
 10
229.1579442735522
 20
186.7591587020248
 10
229.2965419144435
 20
186.7799483481585
 10
229.4373986855855
 20
186.8010768638298
 10
229.5644973534998
 20
186.8376973651965
 10
229.6799953875758
 20
186.8954463822346
 10
229.7964174059245
 20
186.9536573914089
 10
229.8902018095942
 20
187.0340440231258
 10
230.0287994504854
 20
187.2511803271887
 10
230.0634488607082
 20
187.3967078501244
 10
230.0634488607082
 20
187.7547517557601
 10
230.0287994504854
 20
187.8979693180144
 10
229.8902018095942
 20
188.1151056220773
 10
229.7978033823333
 20
188.198264206612
 10
229.6799953875758
 20
188.25601322365
 10
229.5649627826514
 20
188.3124017554757
 10
229.4374495160162
 20
188.3484116509108
 10
229.2965419144435
 20
188.3692012970445
 10
229.1578950608181
 20
188.3896573902023
 10
229.019346632661
 20
188.3992307859043
 10
228.8807489917698
 20
188.3992307859043
 10
228.8237699616256
 20
188.3992307859043
 10
228.7667909314815
 20
188.3992307859043
 10
228.7098119013373
 20
188.3992307859043
 97
        0
 75
     0
 76
     1
 98
        0
  0
HATCH
  5
209
330
1C4
100
AcDbEntity
  8
Default
  6
Continuous
 62
     7
100
AcDbHatch
 10
0.0
 20
0.0
 30
0.0
210
0.0
220
0.0
230
1.0
  2
SOLID
 70
     1
 71
     0
 91
        1
 92
        1
 93
       11
 72
     4
 94
        3
 73
     0
 74
     0
 95
       16
 96
       12
 40
0.0
 40
0.0
 40
0.0
 40
0.0
 40
0.3392889644065707
 40
0.3392889644065707
 40
0.3392889644065707
 40
0.3618671566114537
 40
0.3618671566114537
 40
0.3835422211281416
 40
0.3835422211281416
 40
0.3835422211281416
 40
1.0
 40
1.0
 40
1.0
 40
1.0
 10
236.7785045618878
 20
189.7112884530078
 10
235.6219842473399
 20
189.7112884530078
 10
234.4654639327921
 20
189.7112884530078
 10
233.3089436182443
 20
189.7112884530078
 10
233.2304049550725
 20
189.7112884530078
 10
233.1634160953085
 20
189.6835689248296
 10
233.050228021914
 20
189.5703808514351
 10
233.0225084937357
 20
189.503391991671
 10
233.0225084937357
 20
189.4225433678178
 10
233.0225084937357
 20
187.3212491345281
 10
233.0225084937357
 20
185.2199549012385
 10
233.0225084937357
 20
183.1186606679488
 72
     1
 10
233.0225084937357
 20
183.1186606679488
 11
236.7785045618878
 21
183.1186606679488
 72
     1
 10
236.7785045618878
 20
183.1186606679488
 11
236.7785045618878
 21
184.5693159759436
 72
     1
 10
236.7785045618878
 20
184.5693159759436
 11
234.7318793980608
 21
184.5693159759436
 72
     1
 10
234.7318793980608
 20
184.5693159759436
 11
234.7318793980608
 21
185.7035066705701
 72
     1
 10
234.7318793980608
 20
185.7035066705701
 11
236.6791762525824
 21
185.7035066705701
 72
     1
 10
236.6791762525824
 20
185.7035066705701
 11
236.6791762525824
 21
187.1610918606094
 72
     1
 10
236.6791762525824
 20
187.1610918606094
 11
234.7318793980608
 21
187.1610918606094
 72
     1
 10
234.7318793980608
 20
187.1610918606094
 11
234.7318793980608
 21
188.260633145013
 72
     1
 10
234.7318793980608
 20
188.260633145013
 11
236.7785045618878
 21
188.260633145013
 72
     1
 10
236.7785045618878
 20
188.260633145013
 11
236.7785045618878
 21
189.7112884530078
 97
        0
 75
     0
 76
     1
 98
        0
  0
HATCH
  5
20A
330
1C4
100
AcDbEntity
  8
Default
  6
Continuous
 62
     7
100
AcDbHatch
 10
0.0
 20
0.0
 30
0.0
210
0.0
220
0.0
230
1.0
  2
SOLID
 70
     1
 71
     0
 91
        1
 92
        1
 93
        6
 72
     4
 94
        3
 73
     0
 74
     0
 95
       51
 96
       47
 40
0.0
 40
0.0
 40
0.0
 40
0.0
 40
0.0903181127538991
 40
0.0903181127538991
 40
0.1806362255077987
 40
0.1806362255077987
 40
0.2505107113883491
 40
0.2505107113883491
 40
0.2505107113883491
 40
0.3153180737852943
 40
0.3153180737852943
 40
0.3153180737852943
 40
0.3800992723712822
 40
0.3800992723712822
 40
0.3800992723712822
 40
0.4521169206302595
 40
0.4521169206302595
 40
0.5213407808102242
 40
0.5213407808102242
 40
0.5213407808102242
 40
0.5850582814386294
 40
0.5850582814386294
 40
0.5850582814386294
 40
0.6488037906897904
 40
0.6488037906897904
 40
0.6488037906897904
 40
0.718817254308538
 40
0.718817254308538
 40
0.7944820288920282
 40
0.7944820288920282
 40
0.7944820288920282
 40
0.8697367480753329
 40
0.8697367480753329
 40
0.8697367480753329
 40
0.9013515779285247
 40
0.9013515779285247
 40
0.9013515779285247
 40
0.9306379885930884
 40
0.9306379885930884
 40
0.9599243992576518
 40
0.9599243992576518
 40
0.9599243992576518
 40
0.9904597959709778
 40
0.9904597959709778
 40
0.9904597959709778
 40
1.0
 40
1.0
 40
1.0
 40
1.0
 10
243.8839436182442
 20
188.0642864870838
 10
243.5998184544173
 20
188.6879758710943
 10
243.2025052171957
 20
189.1522779680799
 10
242.1815025959638
 20
189.7621075880012
 10
241.587842700813
 20
189.9145649929816
 10
240.3751133430149
 20
189.9145649929816
 10
239.8889361806183
 20
189.8341932957806
 10
239.4488191097252
 20
189.6627792786959
 10
239.0099265802364
 20
189.4918421882634
 10
238.6322480402607
 20
189.2527697814501
 10
238.3192483364618
 20
188.9420715460616
 10
238.005093683775
 20
188.6302268540563
 10
237.760544896821
 20
188.2567974339103
 10
237.5893007611014
 20
187.8194306548426
 10
237.4183636706689
 20
187.3828480860353
 10
237.3328951254526
 20
186.8954463822346
 10
237.3328951254526
 20
185.8444142721428
 10
237.4171718734448
 20
185.3703943388921
 10
237.5893007611014
 20
184.9412196456684
 10
237.7625478122154
 20
184.5092569982241
 10
237.9993189146371
 20
184.1408007708237
 10
238.3076985330542
 20
183.8370584399017
 10
238.6149233036964
 20
183.5344535906225
 10
238.9865243210358
 20
183.2957482068854
 10
239.4187896208655
 20
183.1279005106749
 10
239.8530622289913
 20
182.9592733809239
 10
240.3289141293845
 20
182.8761147963892
 10
241.4007358856099
 20
182.8761147963892
 10
241.9127013576763
 20
182.9796945600658
 10
242.3801592145745
 20
183.1833395670314
 10
242.8467712722416
 20
183.3866161070052
 10
243.2385391943749
 20
183.7215892555586
 10
243.567479004876
 20
184.1766226600851
 10
243.7060766457672
 20
184.3683493966513
 10
243.8103238022207
 20
184.5608514719727
 10
243.8839436182442
 20
184.7518028697837
 10
243.9578623600529
 20
184.9435296063499
 10
244.0109914557279
 20
185.1398762642791
 10
244.0849101975365
 20
185.5371895015006
 10
244.1057071113542
 20
185.738285445568
 10
244.1172496470778
 20
185.9437425814482
 10
244.1287994504854
 20
186.1493290821035
 10
244.1426592145745
 20
186.3618454648034
 10
244.1426592145745
 20
186.5789817688662
 10
244.1426592145745
 20
186.6452006417365
 10
244.1426592145745
 20
186.7114195146068
 10
244.1426592145745
 20
186.777638387477
 72
     1
 10
244.1426592145745
 20
186.777638387477
 11
240.8347955186374
 21
186.777638387477
 72
     1
 10
240.8347955186374
 20
186.777638387477
 11
240.8347955186374
 21
185.4332412708322
 72
     1
 10
240.8347955186374
 20
185.4332412708322
 11
242.3339600009441
 21
185.4332412708322
 72
     4
 94
        3
 73
     0
 74
     0
 95
       43
 96
       39
 40
0.0
 40
0.0
 40
0.0
 40
0.0
 40
0.0528407008768927
 40
0.0528407008768927
 40
0.0528407008768927
 40
0.101808017531148
 40
0.101808017531148
 40
0.101808017531148
 40
0.1527424680033737
 40
0.1527424680033737
 40
0.1527424680033737
 40
0.2046872249080309
 40
0.2046872249080309
 40
0.285201598110253
 40
0.285201598110253
 40
0.285201598110253
 40
0.3575698737778739
 40
0.3575698737778739
 40
0.3575698737778739
 40
0.4340109897737078
 40
0.4340109897737078
 40
0.5104521057695417
 40
0.5104521057695417
 40
0.5848456918726302
 40
0.5848456918726302
 40
0.5848456918726302
 40
0.6593973023253275
 40
0.6593973023253275
 40
0.6593973023253275
 40
0.7322081321972964
 40
0.7322081321972964
 40
0.7322081321972964
 40
0.808821291350857
 40
0.808821291350857
 40
0.9050626152462398
 40
0.9050626152462398
 40
0.9050626152462398
 40
1.0
 40
1.0
 40
1.0
 40
1.0
 10
242.3339600009441
 20
185.4332412708322
 10
242.315480315492
 20
185.241514534266
 10
242.2630012238817
 20
185.0747989756085
 10
242.1768826746007
 20
184.9342897636238
 10
242.089104168703
 20
184.7910722013695
 10
241.9813056983178
 20
184.6698654279918
 10
241.8488682578248
 20
184.5762458579881
 10
241.7148905382967
 20
184.4815374700458
 10
241.5619922405099
 20
184.4091217718955
 10
241.3914960428838
 20
184.3591095539252
 10
241.2182489917698
 20
184.3082904189318
 10
241.0403820192927
 20
184.2851908121166
 10
240.5691500402626
 20
184.2851908121166
 10
240.3206481660817
 20
184.3447157269266
 10
240.104847943277
 20
184.4630577845936
 10
239.8900215998956
 20
184.5808657793512
 10
239.7109534478642
 20
184.7387746915399
 10
239.5643171438012
 20
184.9342897636238
 10
239.4187896208655
 20
185.1283264608715
 10
239.3079115081525
 20
185.3500826862975
 10
239.1554541031722
 20
185.8397943507798
 10
239.1161847715863
 20
186.089270104384
 10
239.1161847715863
 20
186.5997714149999
 10
239.1546578089098
 20
186.848808629735
 10
239.2270628842993
 20
187.0987229222083
 10
239.2986716654264
 20
187.345888715131
 10
239.4057198468884
 20
187.5687407332931
 10
239.5481474190306
 20
187.7663015591677
 10
239.6913649812849
 20
187.9649581777784
 10
239.8686747464151
 20
188.1276436800246
 10
240.0840582971433
 20
188.2490833416055
 10
240.3011946012062
 20
188.371511257726
 10
240.5460504334474
 20
188.4315702354455
 10
241.1766696995024
 20
188.4315702354455
 10
241.4721172585773
 20
188.3365769023392
 10
241.7148905382967
 20
188.1428251502555
 10
241.9551264491748
 20
187.9510984136893
 10
242.1353033823333
 20
187.6970027387221
 10
242.2554213377724
 20
187.3782281646723
 72
     1
 10
242.2554213377724
 20
187.3782281646723
 11
243.8839436182442
 21
188.0642864870838
 97
        0
 75
     0
 76
     1
 98
        0
  0
HATCH
  5
20B
330
1C4
100
AcDbEntity
  8
Default
  6
Continuous
 62
     7
100
AcDbHatch
 10
0.0
 20
0.0
 30
0.0
210
0.0
220
0.0
230
1.0
  2
SOLID
 70
     1
 71
     0
 91
        2
 92
        1
 93
        1
 72
     4
 94
        3
 73
     0
 74
     0
 95
       49
 96
       45
 40
0.0
 40
0.0
 40
0.0
 40
0.0
 40
0.0620905351842325
 40
0.0620905351842325
 40
0.0620905351842325
 40
0.1225274789213882
 40
0.1225274789213882
 40
0.1225274789213882
 40
0.1824107500595676
 40
0.1824107500595676
 40
0.1824107500595676
 40
0.2443092731117129
 40
0.2443092731117129
 40
0.3113899980938052
 40
0.3113899980938052
 40
0.3113899980938052
 40
0.373038281101099
 40
0.373038281101099
 40
0.4342493422430935
 40
0.4342493422430935
 40
0.4342493422430935
 40
0.5005101029271146
 40
0.5005101029271146
 40
0.5664827733472912
 40
0.5664827733472912
 40
0.5664827733472912
 40
0.6277456785228048
 40
0.6277456785228048
 40
0.6277456785228048
 40
0.6890483024008142
 40
0.6890483024008142
 40
0.6890483024008142
 40
0.7561017319004357
 40
0.7561017319004357
 40
0.8179750681339922
 40
0.8179750681339922
 40
0.8179750681339922
 40
0.8779262347345869
 40
0.8779262347345869
 40
0.8779262347345869
 40
0.9382003516792404
 40
0.9382003516792404
 40
0.9382003516792404
 40
1.0
 40
1.0
 40
1.0
 40
1.0
 10
248.4438060035654
 20
189.9492144032044
 10
247.9656441424906
 20
189.9469044425229
 10
247.5072164315149
 20
189.8665311947464
 10
247.0670694373792
 20
189.6997386496002
 10
246.6281769078904
 20
189.5334214805307
 10
246.2389407961124
 20
189.2988270091107
 10
245.9005392932115
 20
188.997510602418
 10
245.5632850337095
 20
188.6972157138204
 10
245.2957954536029
 20
188.335504780128
 10
245.0920530546794
 20
187.918758964148
 10
244.8887765147056
 20
187.5029660414744
 10
244.7871382447187
 20
187.0455938265333
 10
244.7871382447187
 20
186.0107314412123
 10
244.8803465126443
 20
185.521351265914
 10
245.0620235658196
 20
185.0775073258781
 10
245.2445104596597
 20
184.6316849143446
 10
245.4962961739454
 20
184.2482314412123
 10
246.1453951254526
 20
183.5991324897051
 10
246.530680710158
 20
183.3461490497318
 10
246.9792909314815
 20
183.1671698422608
 10
247.4251133430149
 20
182.9893028697837
 10
247.9125150468157
 20
182.8992144032044
 10
248.9727869996335
 20
182.8992144032044
 10
249.4629767181928
 20
182.9881138634896
 10
249.9083210756492
 20
183.1671698422608
 10
250.3564534478642
 20
183.3473467754193
 10
250.7410617834882
 20
183.5979940082417
 10
251.0609914557278
 20
183.9225269851179
 10
251.3820759904592
 20
184.2482314412123
 10
251.6330488643873
 20
184.6320193642835
 10
251.816348598585
 20
185.0775073258781
 10
251.9988354924251
 20
185.52101977673
 10
252.0889239590044
 20
186.0107314412123
 10
252.0889239590044
 20
187.0455938265333
 10
251.9868172819147
 20
187.5016305829262
 10
251.7863191097253
 20
187.918758964148
 10
251.585352530433
 20
188.3368618475032
 10
251.3129086463213
 20
188.694787784671
 10
250.9755229105116
 20
188.997510602418
 10
250.6382686510096
 20
189.3001154516972
 10
250.2509557040483
 20
189.5354457704455
 10
249.8136126877069
 20
189.6997386496002
 10
249.3770301188996
 20
189.8637458579882
 10
248.9196356399268
 20
189.9515130970999
 10
248.4438060035654
 20
189.9492144032044
 97
        0
 92
        1
 93
        1
 72
     4
 94
        3
 73
     0
 74
     0
 95
       47
 96
       43
 40
0.0
 40
0.0
 40
0.0
 40
0.0
 40
0.0637917384076936
 40
0.0637917384076936
 40
0.0637917384076936
 40
0.1265834997779105
 40
0.1265834997779105
 40
0.1893752611481285
 40
0.1893752611481285
 40
0.1893752611481285
 40
0.2604081010642026
 40
0.2604081010642026
 40
0.3159741129340349
 40
0.3159741129340349
 40
0.3159741129340349
 40
0.3751091105868485
 40
0.3751091105868485
 40
0.3751091105868485
 40
0.435995169879425
 40
0.435995169879425
 40
0.435995169879425
 40
0.4997689343159712
 40
0.4997689343159712
 40
0.5635426987525196
 40
0.5635426987525196
 40
0.5635426987525196
 40
0.624232315369434
 40
0.624232315369434
 40
0.624232315369434
 40
0.6835869381889372
 40
0.6835869381889372
 40
0.6835869381889372
 40
0.7357943705008892
 40
0.7357943705008892
 40
0.8025337685079206
 40
0.8025337685079206
 40
0.8692731665149518
 40
0.8692731665149518
 40
0.9360125645219831
 40
0.9360125645219831
 40
0.9360125645219831
 40
1.0
 40
1.0
 40
1.0
 40
1.0
 10
248.4438060035654
 20
184.5693159759436
 10
248.7025215998956
 20
184.5693159759436
 10
248.9450674714552
 20
184.620135110937
 10
249.1691336575627
 20
184.7194634202424
 10
249.3951304192655
 20
184.8196475517189
 10
249.5941664229625
 20
184.9550794097575
 10
249.9314206824644
 20
185.3061934333486
 10
250.0653984019926
 20
185.5140898946854
 10
250.160106789935
 20
185.752015844882
 10
250.2551311293749
 20
185.9907355268896
 10
250.3056343128707
 20
186.2509673520904
 10
250.3056343128707
 20
186.7614686627064
 10
250.2571251385588
 20
186.9809149274508
 10
250.160106789935
 20
187.1934313101507
 10
250.0643595068875
 20
187.4031634539689
 10
249.9314206824644
 20
187.5907445473721
 10
249.7627935527134
 20
187.7547517557601
 10
249.5953209577949
 20
187.9176360604069
 10
249.3955098043517
 20
188.0458068016317
 10
249.1691336575627
 20
188.140515189574
 10
248.9439009259591
 20
188.2347452099388
 10
248.7025215998956
 20
188.2860427125098
 10
248.1850904072351
 20
188.2860427125098
 10
247.9425445356754
 20
188.2375335381978
 10
247.7161683888864
 20
188.140515189574
 10
247.4925801256786
 20
188.0446916481992
 10
247.2934455841682
 20
187.9164490034665
 10
247.1248184544172
 20
187.7547517557601
 10
246.9550373605366
 20
187.5919479671074
 10
246.8222136051381
 20
187.403637732169
 10
246.7228852958327
 20
187.1934313101507
 10
246.622664698655
 20
186.9813365579839
 10
246.5727378515339
 20
186.7614686627064
 10
246.5727378515339
 20
186.2509673520904
 10
246.6235569865273
 20
185.9899417950786
 10
246.8222136051381
 20
185.5140898946854
 10
246.9561913246663
 20
185.3061934333486
 10
247.2934455841682
 20
184.9550794097575
 10
247.492102202779
 20
184.8187917295478
 10
247.7161683888864
 20
184.7194634202424
 10
247.9421651505893
 20
184.6192792887659
 10
248.1850904072351
 20
184.5693159759436
 10
248.4438060035654
 20
184.5693159759436
 97
        0
 75
     0
 76
     1
 98
        0
  0
HATCH
  5
20C
330
1C4
100
AcDbEntity
  8
Default
  6
Continuous
 62
     7
100
AcDbHatch
 10
0.0
 20
0.0
 30
0.0
210
0.0
220
0.0
230
1.0
  2
SOLID
 70
     1
 71
     0
 91
        1
 92
        1
 93
        4
 72
     1
 10
255.0710831988471
 20
185.7035066705701
 11
255.0710831988471
 21
187.1610918606094
 72
     1
 10
255.0710831988471
 20
187.1610918606094
 11
252.9366795291224
 21
187.1610918606094
 72
     1
 10
252.9366795291224
 20
187.1610918606094
 11
252.9366795291224
 21
185.70350667057
 72
     1
 10
252.9366795291224
 20
185.70350667057
 11
255.0710831988471
 21
185.7035066705701
 97
        0
 75
     0
 76
     1
 98
        0
  0
HATCH
  5
20D
330
1C4
100
AcDbEntity
  8
Default
  6
Continuous
 62
     7
100
AcDbHatch
 10
0.0
 20
0.0
 30
0.0
210
0.0
220
0.0
230
1.0
  2
SOLID
 70
     1
 71
     0
 91
        1
 92
        1
 93
        9
 72
     4
 94
        3
 73
     0
 74
     0
 95
       16
 96
       12
 40
0.0
 40
0.0
 40
0.0
 40
0.0
 40
0.3396620468027166
 40
0.3396620468027166
 40
0.3396620468027166
 40
0.3623316833330921
 40
0.3623316833330921
 40
0.3840945344022499
 40
0.3840945344022499
 40
0.3840945344022499
 40
1.0
 40
1.0
 40
1.0
 40
1.0
 10
259.5870563312193
 20
189.7112884530078
 10
258.42822605599
 20
189.7112884530078
 10
257.2693957807606
 20
189.7112884530078
 10
256.1105655055312
 20
189.7112884530078
 10
256.0297168816781
 20
189.7112884530078
 10
255.962728021914
 20
189.6835689248296
 10
255.8495399485194
 20
189.5703808514351
 10
255.8218204203412
 20
189.503391991671
 10
255.8218204203412
 20
189.4225433678178
 10
255.8218204203412
 20
187.3212491345281
 10
255.8218204203412
 20
185.2199549012385
 10
255.8218204203412
 20
183.1186606679488
 72
     1
 10
255.8218204203412
 20
183.1186606679488
 11
257.5404311673923
 21
183.1186606679488
 72
     1
 10
257.5404311673923
 20
183.1186606679488
 11
257.5404311673923
 21
185.7035066705701
 72
     1
 10
257.5404311673923
 20
185.7035066705701
 11
259.4877280219139
 21
185.7035066705701
 72
     1
 10
259.4877280219139
 20
185.7035066705701
 11
259.4877280219139
 21
187.1610918606094
 72
     1
 10
259.4877280219139
 20
187.1610918606094
 11
257.5404311673923
 21
187.1610918606094
 72
     1
 10
257.5404311673923
 20
187.1610918606094
 11
257.5404311673923
 21
188.260633145013
 72
     1
 10
257.5404311673923
 20
188.260633145013
 11
259.5870563312194
 21
188.260633145013
 72
     1
 10
259.5870563312193
 20
188.260633145013
 11
259.5870563312193
 21
189.7112884530078
 97
        0
 75
     0
 76
     1
 98
        0
  0
HATCH
  5
20E
330
1C4
100
AcDbEntity
  8
Default
  6
Continuous
 62
     7
100
AcDbHatch
 10
0.0
 20
0.0
 30
0.0
210
0.0
220
0.0
230
1.0
  2
SOLID
 70
     1
 71
     0
 91
        1
 92
        1
 93
        4
 72
     4
 94
        3
 73
     0
 74
     0
 95
       14
 96
       10
 40
0.0
 40
0.0
 40
0.0
 40
0.0
 40
0.7580098693161609
 40
0.7580098693161609
 40
0.7580098693161609
 40
0.8789822868889446
 40
0.8789822868889446
 40
0.8789822868889446
 40
1.0
 40
1.0
 40
1.0
 40
1.0
 10
262.1857620979297
 20
189.7274581777785
 10
261.7114501713242
 20
189.7274581777785
 10
261.2371382447187
 20
189.7274581777785
 10
260.7628263181132
 20
189.7274581777785
 10
260.68197769426
 20
189.7274581777785
 10
260.6172507110666
 20
189.6973825281723
 10
260.5595497781394
 20
189.6419896325622
 10
260.5018007611014
 20
189.5865505762057
 10
260.4740812329231
 20
189.5195617164416
 10
260.4740812329231
 20
189.4387130925884
 72
     1
 10
260.4740812329231
 20
189.4387130925884
 11
260.4740812329231
 21
183.1186606679488
 72
     1
 10
260.4740812329231
 20
183.1186606679488
 11
262.1857620979297
 21
183.1186606679488
 72
     1
 10
262.1857620979297
 20
183.1186606679488
 11
262.1857620979297
 21
189.7274581777785
 97
        0
 75
     0
 76
     1
 98
        0
  0
HATCH
  5
20F
330
1C4
100
AcDbEntity
  8
Default
  6
Continuous
 62
     7
100
AcDbHatch
 10
0.0
 20
0.0
 30
0.0
210
0.0
220
0.0
230
1.0
  2
SOLID
 70
     1
 71
     0
 91
        1
 92
        1
 93
       12
 72
     1
 10
266.2235733692272
 20
188.0042275093643
 11
265.2095006300398
 21
189.7112884530078
 72
     1
 10
265.2095006300398
 20
189.7112884530078
 11
263.1051264491747
 21
189.7112884530078
 72
     1
 10
263.1051264491747
 20
189.7112884530078
 11
265.2095006300398
 21
186.6436606679488
 72
     1
 10
265.2095006300398
 20
186.6436606679488
 11
262.6269645881001
 21
183.1186606679488
 72
     1
 10
262.6269645881001
 20
183.1186606679488
 11
264.7036192407868
 21
183.1186606679488
 72
     1
 10
264.7036192407868
 20
183.1186606679488
 11
266.2235733692272
 21
185.2646141410812
 72
     1
 10
266.2235733692272
 20
185.2646141410812
 11
267.2561257938668
 21
183.6453317033355
 72
     1
 10
267.2561257938668
 20
183.6453317033355
 11
268.2886782185064
 21
185.1144666967824
 72
     1
 10
268.2886782185064
 20
185.1144666967824
 11
267.226096305007
 21
186.6436606679488
 72
     1
 10
267.226096305007
 20
186.6436606679488
 11
269.3420202892797
 21
189.7112884530078
 72
     1
 10
269.3420202892797
 20
189.7112884530078
 11
267.226096305007
 21
189.7112884530078
 72
     1
 10
267.226096305007
 20
189.7112884530078
 11
266.2235733692272
 21
188.0042275093643
 97
        0
 75
     0
 76
     1
 98
        0
  0
HATCH
  5
210
330
1C4
100
AcDbEntity
  8
Default
  6
Continuous
 62
     7
100
AcDbHatch
 10
0.0
 20
0.0
 30
0.0
210
0.0
220
0.0
230
1.0
  2
SOLID
 70
     1
 71
     0
 91
        1
 92
        1
 93
        3
 72
     4
 94
        3
 73
     0
 74
     0
 95
       13
 96
        9
 40
0.0
 40
0.0
 40
0.0
 40
0.0
 40
0.0445094381088423
 40
0.0445094381088423
 40
0.0908355879772283
 40
0.0908355879772283
 40
0.0908355879772283
 40
1.0
 40
1.0
 40
1.0
 40
1.0
 10
272.7122529236178
 20
189.5334214805307
 10
272.6198544963569
 20
189.6512294752883
 10
272.5159062656886
 20
189.7112884530078
 10
272.2849101975365
 20
189.7112884530078
 10
272.1870447473536
 20
189.6501983627819
 10
272.1047332643779
 20
189.5334214805307
 10
270.697967209332
 20
187.5376154516972
 10
269.2912011542862
 20
185.5418094228636
 10
267.8844350992403
 20
183.5460033940301
 72
     4
 94
        3
 73
     0
 74
     0
 95
       11
 96
        7
 40
0.0
 40
0.0
 40
0.0
 40
0.0
 40
0.3439066424360135
 40
0.3439066424360135
 40
0.3439066424360135
 40
1.0
 40
1.0
 40
1.0
 40
1.0
 10
267.8844350992403
 20
183.5460033940301
 10
267.8313060035653
 20
183.4605348488138
 10
267.8027439506852
 20
183.3911859889177
 10
267.8035864753871
 20
183.3381069326933
 10
267.8058964360686
 20
183.1925794097575
 10
267.9075347060556
 20
183.1186606679488
 10
268.1131212067108
 20
183.1186606679488
 72
     4
 94
        3
 73
     0
 74
     0
 95
       16
 96
       12
 40
0.0
 40
0.0
 40
0.0
 40
0.0
 40
0.5188870924081099
 40
0.5188870924081099
 40
0.5188870924081099
 40
0.544909989588877
 40
0.544909989588877
 40
0.5581347406151689
 40
0.5581347406151689
 40
0.5581347406151689
 40
1.0
 40
1.0
 40
1.0
 40
1.0
 10
268.1131212067108
 20
183.1186606679488
 10
270.9805523993713
 20
183.1186606679488
 10
273.8479835920319
 20
183.1186606679488
 10
276.7154147846925
 20
183.1186606679488
 10
276.9140714033032
 20
183.1186606679488
 10
277.0133997126086
 20
183.1879594883945
 10
277.0133997126086
 20
183.4004758710943
 10
276.9849943017649
 20
183.4716012002038
 10
276.9325510887554
 20
183.5460033940301
 10
275.5257850337095
 20
185.5418094228636
 10
274.1190189786636
 20
187.5376154516972
 10
272.7122529236178
 20
189.5334214805307
 97
        0
 75
     0
 76
     1
 98
        0
  0
ENDBLK
  5
212
330
1C4
100
AcDbEntity
  8
0
100
AcDbBlockEnd
  0
ENDSEC
  0
SECTION
  2
ENTITIES
  0
INSERT
  5
41
330
1F
100
AcDbEntity
  8
Default
100
AcDbBlockReference
  2
SE
 10
0.0
 20
0.0
 30
0.0
  0
DIMENSION
  5
142
330
1F
100
AcDbEntity
  8
Default
  6
Continuous
 62
     7
100
AcDbDimension
  2
DMBLK34
 10
176.3385091447
 20
160.2415543567
 30
0.0
 11
207.0885082954
 21
160.2415543567
 31
0.0
 70
   160
  1
\A1;<>
 71
     5
 42
-1.0
  3
DIN
100
AcDbAlignedDimension
 13
237.8385091447
 23
69.2323249351
 33
0.0
 14
176.3385091447
 24
137.3181113727
 34
0.0
100
AcDbRotatedDimension
  0
DIMENSION
  5
14C
330
1F
100
AcDbEntity
  8
Default
  6
Continuous
 62
     7
100
AcDbDimension
  2
DMBLK35
 10
156.8885091447
 20
168.6415549885
 30
0.0
 11
197.3635094487
 21
168.6415549885
 31
0.0
 70
   160
  1
\A1;<>
 71
     5
 42
-1.0
  3
DIN
100
AcDbAlignedDimension
 13
237.8385091447
 23
69.2323249351
 33
0.0
 14
156.8885091447
 24
143.0681113727
 34
0.0
100
AcDbRotatedDimension
  0
DIMENSION
  5
156
330
1F
100
AcDbEntity
  8
Default
  6
Continuous
 62
     7
100
AcDbDimension
  2
DMBLK36
 10
36.2385091447
 20
177.0415556203
 30
0.0
 11
137.0385090136
 21
177.0415556203
 31
0.0
 70
   160
  1
\A1;<>
 71
     5
 42
-1.0
  3
DIN
100
AcDbAlignedDimension
 13
237.8385091447
 23
69.2323249351
 33
0.0
 14
36.2385091447
 24
112.5681113727
 34
0.0
100
AcDbRotatedDimension
  0
DIMENSION
  5
160
330
1F
100
AcDbEntity
  8
Default
  6
Continuous
 62
     7
100
AcDbDimension
  2
DMBLK37
 10
237.8385091447
 20
42.0696140003
 30
0.0
 11
187.8385098898
 21
42.0696140003
 31
0.0
 70
   160
  1
\A1;<>
 71
     5
 42
-1.0
  3
DIN
100
AcDbAlignedDimension
 13
137.8385091447
 23
63.1912016046
 33
0.0
 14
237.8385091447
 24
69.2323249351
 34
0.0
100
AcDbRotatedDimension
1001
ACAD
1000
DSTYLE
1002
{
1070
   271
1070
     1
1070
   272
1070
     1
1070
     0
1002
}
  0
INSERT
  5
16B
330
1F
100
AcDbEntity
  8
Default
100
AcDbBlockReference
  2
GDimGGroup
 10
0.0
 20
0.0
 30
0.0
  0
INSERT
  5
177
330
1F
100
AcDbEntity
  8
Default
100
AcDbBlockReference
  2
GDimGGroup1
 10
0.0
 20
0.0
 30
0.0
  0
INSERT
  5
181
330
1F
100
AcDbEntity
  8
Default
100
AcDbBlockReference
  2
GDimGGroup2
 10
0.0
 20
0.0
 30
0.0
  0
DIMENSION
  5
18A
330
1F
100
AcDbEntity
  8
Default
  6
Continuous
 62
     7
100
AcDbDimension
  2
DMBLK38
 10
208.3385091447
 20
151.8415537249
 30
0.0
 11
223.0885090553
 21
151.8415537249
 31
0.0
 70
   160
  1
\A1;<>
 71
     5
 42
-1.0
  3
DIN
100
AcDbAlignedDimension
 13
237.8385091447
 23
69.2323249351
 33
0.0
 14
208.3385091447
 24
137.3181113727
 34
0.0
100
AcDbRotatedDimension
  0
INSERT
  5
195
330
1F
100
AcDbEntity
  8
Default
100
AcDbBlockReference
  2
GDimGGroup3
 10
0.0
 20
0.0
 30
0.0
  0
INSERT
  5
19F
330
1F
100
AcDbEntity
  8
Default
100
AcDbBlockReference
  2
GDimGGroup4
 10
0.0
 20
0.0
 30
0.0
  0
INSERT
  5
1A8
330
1F
100
AcDbEntity
  8
Default
100
AcDbBlockReference
  2
GDimGGroup5
 10
0.0
 20
0.0
 30
0.0
  0
INSERT
  5
213
330
1F
100
AcDbEntity
  8
Default
 62
     7
100
AcDbBlockReference
  2
RF-Massblatt_2016
 10
0.0
 20
0.0
 30
0.0
  0
ENDSEC
  0
SECTION
  2
OBJECTS
  0
DICTIONARY
  5
C
330
0
100
AcDbDictionary
281
     1
  3
ACAD_GROUP
350
D
  3
ACAD_LAYOUT
350
1A
  3
ACAD_MATERIAL
350
3B
  3
ACAD_MLEADERSTYLE
350
216
  3
ACAD_MLINESTYLE
350
17
  3
ACAD_PLOTSETTINGS
350
19
  3
ACAD_PLOTSTYLENAME
350
E
  3
ACAD_VISUALSTYLE
350
2A
  3
AcDbVariableDictionary
350
214
  0
DICTIONARY
  5
21B
330
1C5
100
AcDbDictionary
280
     1
281
     1
  3
ACAD_MTEXT_RT
360
21C
  0
DICTIONARY
  5
21D
330
1C6
100
AcDbDictionary
280
     1
281
     1
  3
ACAD_MTEXT_RT
360
21E
  0
DICTIONARY
  5
21F
330
1C9
100
AcDbDictionary
280
     1
281
     1
  3
ACAD_MTEXT_RT
360
220
  0
DICTIONARY
  5
D
102
{ACAD_REACTORS
330
C
102
}
330
C
100
AcDbDictionary
281
     1
  0
DICTIONARY
  5
1A
102
{ACAD_REACTORS
330
C
102
}
330
C
100
AcDbDictionary
281
     1
  3
Layout1
350
1E
  3
Model
350
22
  0
DICTIONARY
  5
3B
102
{ACAD_REACTORS
330
C
102
}
330
C
100
AcDbDictionary
281
     1
  3
ByBlock
350
3D
  3
ByLayer
350
3C
  3
Global
350
3E
  0
DICTIONARY
  5
216
102
{ACAD_REACTORS
330
C
102
}
330
C
100
AcDbDictionary
281
     1
  0
DICTIONARY
  5
17
102
{ACAD_REACTORS
330
C
102
}
330
C
100
AcDbDictionary
281
     1
  3
Standard
350
18
  0
DICTIONARY
  5
19
102
{ACAD_REACTORS
330
C
102
}
330
C
100
AcDbDictionary
281
     1
  0
ACDBDICTIONARYWDFLT
  5
E
102
{ACAD_REACTORS
330
C
102
}
330
C
100
AcDbDictionary
281
     1
  3
Normal
350
F
100
AcDbDictionaryWithDefault
340
F
  0
DICTIONARY
  5
2A
102
{ACAD_REACTORS
330
C
102
}
330
C
100
AcDbDictionary
281
     1
  3
2dWireframe
350
2F
  3
3D Hidden
350
31
  3
3dWireframe
350
30
  3
Basic
350
32
  3
Brighten
350
36
  3
ColorChange
350
3A
  3
Conceptual
350
34
  3
Dim
350
35
  3
Facepattern
350
39
  3
Flat
350
2B
  3
FlatWithEdges
350
2C
  3
Gouraud
350
2D
  3
GouraudWithEdges
350
2E
  3
Linepattern
350
38
  3
Realistic
350
33
  3
Thicken
350
37
  0
DICTIONARY
  5
214
102
{ACAD_REACTORS
330
C
102
}
330
C
100
AcDbDictionary
281
     1
  3
DIMASSOC
350
219
  3
HIDETEXT
350
21A
  3
PSOLHEIGHT
350
218
  3
PSOLWIDTH
350
217
  0
XRECORD
  5
21C
102
{ACAD_REACTORS
330
21B
102
}
330
21B
100
AcDbXrecord
280
     1
 40
10118767.0
  1
\pxsm1.;{\fVectora Com 45 Light|b1||i0||c0|p34;\C7;\H2.5;\W1.;REGO-FIX AG\P}{\fVectora Com 45 Light|b0||i0||c0|p34;\C7;\H2.5;\W1.;Obermattweg 60\P}{\fVectora Com 45 Light|b0||i0||c0|p34;\C7;\H2.5;\W1.;4456 Tenniken / Switzerland\P}{\fVectora Com 45 L
  1
ight|b0||i0||c0|p34;\C7;\H2.5;\W1.;\P}{\fVectora Com 45 Light|b0||i0||c0|p34;\C7;\H2.5;\W1.;P +41 61 976 14 66\P}{\fVectora Com 45 Light|b0||i0||c0|p34;\C7;\H2.5;\W1.;F +41 61 976 14 14\P}{\fVectora Com 45 Light|b1||i0||c0|p34;\C7;\H2.5;\W1.;www.rego
  1
-fix.com}
  0
XRECORD
  5
21E
102
{ACAD_REACTORS
330
21D
102
}
330
21D
100
AcDbXrecord
280
     1
 40
47111022.0
  1
\pxsm1.;{\fSolid Edge ISO|b0||i0||c0|p34;\C7;\H2.;\W1.;This is a non-controlled copy. All information given herein is subject to change without notice\P}{\fSolid Edge ISO|b0||i0||c0|p34;\C7;\H2.;\W1.;\P}{\fSolid Edge ISO|b0||i0||c0|p34;\C7;\H2.;\W1.;
  1
The information given herein has been carefully checked and is believed to be correct. REGO-FIX,\P}{\fSolid Edge ISO|b0||i0||c0|p34;\C7;\H2.;\W1.;however, assumes no responsibility or liability for any errors, inaccuracies or omissions that may appea
  1
r\P}{\fSolid Edge ISO|b0||i0||c0|p34;\C7;\H2.;\W1.;in this drawing\P}{\fSolid Edge ISO|b0||i0||c0|p34;\C7;\H2.;\W1.;\P}{\fSolid Edge ISO|b0||i0||c0|p34;\C7;\H2.;\W1.;This document is subject to copyright laws. No part of this document may be reproduc
  1
ed or transmitted\P}{\fSolid Edge ISO|b0||i0||c0|p34;\C7;\H2.;\W1.;in any form or any means, electronic or mechanic, for any purpose, without the express written permission\P}{\fSolid Edge ISO|b0||i0||c0|p34;\C7;\H2.;\W1.;of REGO-FIX\P}{\fSolid Edge 
  1
ISO|b0||i0||c0|p34;\C7;\H1.5;\W1.;\P}
  0
XRECORD
  5
220
102
{ACAD_REACTORS
330
21F
102
}
330
21F
100
AcDbXrecord
280
     1
 40
2697483.0
  1
\pxsm1.;{\fVectora Com 45 Light|b0||i0||c0|p34;\C7;\H3.5;\W1.;Type :\P}{\fVectora Com 45 Light|b0||i0||c0|p34;\C7;\H3.5;\W1.;Part No. :\P}{\fVectora Com 45 Light|b0||i0||c0|p34;\C7;\H3.5;\W1.;Date : \P}{\fVectora Com 45 Light|b0||i0||c0|p34;\C7;\H3.5
  1
;\W1.;Scale :}
  0
LAYOUT
  5
1E
102
{ACAD_REACTORS
330
1A
102
}
330
1A
100
AcDbPlotSettings
  1

  2
none_device
  4

  6

 40
0.0
 41
0.0
 42
0.0
 43
0.0
 44
0.0
 45
0.0
 46
0.0
 47
0.0
 48
0.0
 49
0.0
140
0.0
141
0.0
142
1.0
143
1.0
 70
   688
 72
     0
 73
     0
 74
     5
  7

 75
    16
147
1.0
148
0.0
149
0.0
100
AcDbLayout
  1
Layout1
 70
     1
 71
     1
 10
0.0
 20
0.0
 11
297.0
 21
210.0
 12
0.0
 22
0.0
 32
0.0
 14
0.0
 24
0.0
 34
0.0
 15
297.0
 25
210.0
 35
0.0
146
0.0
 13
0.0
 23
0.0
 33
0.0
 16
1.0
 26
0.0
 36
0.0
 17
0.0
 27
1.0
 37
0.0
 76
     0
330
1B
  0
LAYOUT
  5
22
102
{ACAD_REACTORS
330
1A
102
}
330
1A
100
AcDbPlotSettings
  1

  2
none_device
  4

  6

 40
0.0
 41
0.0
 42
0.0
 43
0.0
 44
0.0
 45
0.0
 46
0.0
 47
0.0
 48
0.0
 49
0.0
140
0.0
141
0.0
142
1.0
143
1.0
 70
  1712
 72
     0
 73
     0
 74
     0
  7

 75
     0
147
1.0
148
0.0
149
0.0
100
AcDbLayout
  1
Model
 70
     1
 71
     0
 10
0.0
 20
0.0
 11
297.0
 21
210.0
 12
0.0
 22
0.0
 32
0.0
 14
0.0
 24
0.0
 34
0.0
 15
297.0
 25
210.0
 35
0.0
146
0.0
 13
0.0
 23
0.0
 33
0.0
 16
1.0
 26
0.0
 36
0.0
 17
0.0
 27
1.0
 37
0.0
 76
     0
330
1F
331
29
  0
MATERIAL
  5
3D
102
{ACAD_REACTORS
330
3B
102
}
102
{ACAD_XDICTIONARY
360
243
102
}
330
3B
100
AcDbMaterial
  1
ByBlock
  0
MATERIAL
  5
3C
102
{ACAD_REACTORS
330
3B
102
}
102
{ACAD_XDICTIONARY
360
241
102
}
330
3B
100
AcDbMaterial
  1
ByLayer
  0
MATERIAL
  5
3E
102
{ACAD_REACTORS
330
3B
102
}
102
{ACAD_XDICTIONARY
360
245
102
}
330
3B
100
AcDbMaterial
  1
Global
  0
MLINESTYLE
  5
18
102
{ACAD_REACTORS
330
17
102
}
330
17
100
AcDbMlineStyle
  2
Standard
 70
     0
  3

 62
   256
 51
90.0
 52
90.0
 71
     2
 49
0.5
 62
   256
  6
BYLAYER
 49
-0.5
 62
   256
  6
BYLAYER
  0
ACDBPLACEHOLDER
  5
F
102
{ACAD_REACTORS
330
E
102
}
330
E
  0
VISUALSTYLE
  5
2F
102
{ACAD_REACTORS
330
2A
102
}
102
{ACAD_XDICTIONARY
360
229
102
}
330
2A
100
AcDbVisualStyle
  2
2dWireframe
 70
     4
 71
     0
 72
     2
 73
     0
 90
        0
 40
-0.6
 41
-30.0
 62
     5
 63
     7
 74
     1
 91
        4
 64
     7
 65
   257
 75
     1
175
     1
 42
1.0
 92
        0
 66
   257
 43
1.0
 76
     1
 77
     6
 78
     2
 67
     7
 79
     5
170
     0
171
     0
290
     0
174
     0
 93
        1
 44
0.0
173
     0
291
     0
 45
0.0
1001
ACAD
1000
AcDbSavedByObjectVersion
1070
     0
  0
VISUALSTYLE
  5
31
102
{ACAD_REACTORS
330
2A
102
}
102
{ACAD_XDICTIONARY
360
22D
102
}
330
2A
100
AcDbVisualStyle
  2
3D Hidden
 70
     6
 71
     1
 72
     2
 73
     2
 90
        0
 40
-0.6
 41
-30.0
 62
     5
 63
     7
 74
     2
 91
        2
 64
     7
 65
   257
 75
     2
175
     1
 42
40.0
 92
        0
 66
   257
 43
1.0
 76
     1
 77
     6
 78
     2
 67
     7
 79
     3
170
     0
171
     0
290
     0
174
     0
 93
        1
 44
0.0
173
     0
291
     0
 45
0.0
1001
ACAD
1000
AcDbSavedByObjectVersion
1070
     0
  0
VISUALSTYLE
  5
30
102
{ACAD_REACTORS
330
2A
102
}
102
{ACAD_XDICTIONARY
360
22B
102
}
330
2A
100
AcDbVisualStyle
  2
3dWireframe
 70
     5
 71
     0
 72
     2
 73
     0
 90
        0
 40
-0.6
 41
-30.0
 62
     5
 63
     7
 74
     1
 91
        4
 64
     7
 65
   257
 75
     1
175
     1
 42
1.0
 92
        0
 66
   257
 43
1.0
 76
     1
 77
     6
 78
     2
 67
     7
 79
     5
170
     0
171
     0
290
     0
174
     0
 93
        1
 44
0.0
173
     0
291
     0
 45
0.0
1001
ACAD
1000
AcDbSavedByObjectVersion
1070
     0
  0
VISUALSTYLE
  5
32
102
{ACAD_REACTORS
330
2A
102
}
102
{ACAD_XDICTIONARY
360
22F
102
}
330
2A
100
AcDbVisualStyle
  2
Basic
 70
     7
 71
     1
 72
     0
 73
     1
 90
        0
 40
-0.6
 41
-30.0
 62
     5
 63
     7
 74
     0
 91
        4
 64
     7
 65
   257
 75
     1
175
     1
 42
1.0
 92
        8
 66
     7
 43
1.0
 76
     1
 77
     6
 78
     2
 67
     7
 79
     5
170
     0
171
     0
290
     0
174
     0
 93
        1
 44
0.0
173
     0
291
     1
 45
0.0
1001
ACAD
1000
AcDbSavedByObjectVersion
1070
     0
  0
VISUALSTYLE
  5
36
102
{ACAD_REACTORS
330
2A
102
}
102
{ACAD_XDICTIONARY
360
237
102
}
330
2A
100
AcDbVisualStyle
  2
Brighten
 70
    12
 71
     2
 72
     2
 73
     0
 90
        0
 40
-0.6
 41
-30.0
 62
     5
 63
     7
 74
     1
 91
        4
 64
     7
 65
   257
 75
     1
175
     1
 42
1.0
 92
        8
 66
     7
 43
1.0
 76
     1
 77
     6
 78
     2
 67
     7
 79
     5
170
     0
171
     0
290
     0
174
     0
 93
        1
 44
50.0
173
     0
291
     1
 45
0.0
1001
ACAD
1000
AcDbSavedByObjectVersion
1070
     0
  0
VISUALSTYLE
  5
3A
102
{ACAD_REACTORS
330
2A
102
}
102
{ACAD_XDICTIONARY
360
23F
102
}
330
2A
100
AcDbVisualStyle
  2
ColorChange
 70
    16
 71
     2
 72
     2
 73
     3
 90
        0
 40
-0.6
 41
-30.0
 62
     5
 63
     8
 74
     1
 91
        4
 64
     7
 65
   257
 75
     1
175
     1
 42
1.0
 92
        8
 66
     8
 43
1.0
 76
     1
 77
     6
 78
     2
 67
     7
 79
     5
170
     0
171
     0
290
     0
174
     0
 93
        1
 44
0.0
173
     0
291
     1
 45
0.0
1001
ACAD
1000
AcDbSavedByObjectVersion
1070
     0
  0
VISUALSTYLE
  5
34
102
{ACAD_REACTORS
330
2A
102
}
102
{ACAD_XDICTIONARY
360
233
102
}
330
2A
100
AcDbVisualStyle
  2
Conceptual
 70
     9
 71
     3
 72
     2
 73
     0
 90
        0
 40
-0.6
 41
-30.0
 62
     5
 63
     7
 74
     2
 91
        2
 64
     7
 65
   257
 75
     1
175
     1
 42
40.0
 92
        8
 66
     7
 43
1.0
 76
     1
 77
     6
 78
     2
 67
     7
 79
     3
170
     0
171
     0
290
     0
174
     0
 93
        1
 44
0.0
173
     0
291
     0
 45
0.0
1001
ACAD
1000
AcDbSavedByObjectVersion
1070
     0
  0
VISUALSTYLE
  5
35
102
{ACAD_REACTORS
330
2A
102
}
102
{ACAD_XDICTIONARY
360
235
102
}
330
2A
100
AcDbVisualStyle
  2
Dim
 70
    11
 71
     2
 72
     2
 73
     0
 90
        0
 40
-0.6
 41
-30.0
 62
     5
 63
     7
 74
     1
 91
        4
 64
     7
 65
   257
 75
     1
175
     1
 42
1.0
 92
        8
 66
     7
 43
1.0
 76
     1
 77
     6
 78
     2
 67
     7
 79
     5
170
     0
171
     0
290
     0
174
     0
 93
        1
 44
-50.0
173
     0
291
     1
 45
0.0
1001
ACAD
1000
AcDbSavedByObjectVersion
1070
     0
  0
VISUALSTYLE
  5
39
102
{ACAD_REACTORS
330
2A
102
}
102
{ACAD_XDICTIONARY
360
23D
102
}
330
2A
100
AcDbVisualStyle
  2
Facepattern
 70
    15
 71
     2
 72
     2
 73
     0
 90
        0
 40
-0.6
 41
-30.0
 62
     5
 63
     7
 74
     1
 91
        4
 64
     7
 65
   257
 75
     1
175
     1
 42
1.0
 92
        8
 66
     7
 43
1.0
 76
     1
 77
     6
 78
     2
 67
     7
 79
     5
170
     0
171
     0
290
     0
174
     0
 93
        1
 44
0.0
173
     0
291
     1
 45
0.0
1001
ACAD
1000
AcDbSavedByObjectVersion
1070
     0
  0
VISUALSTYLE
  5
2B
102
{ACAD_REACTORS
330
2A
102
}
102
{ACAD_XDICTIONARY
360
221
102
}
330
2A
100
AcDbVisualStyle
  2
Flat
 70
     0
 71
     2
 72
     1
 73
     1
 90
        2
 40
-0.6
 41
30.0
 62
     5
 63
     7
 74
     0
 91
        4
 64
     7
 65
   257
 75
     1
175
     1
 42
1.0
 92
        8
 66
     7
 43
1.0
 76
     1
 77
     6
 78
     2
 67
     7
 79
     5
170
     0
171
     0
290
     0
174
     0
 93
       13
 44
0.0
173
     0
291
     1
 45
0.0
1001
ACAD
1000
AcDbSavedByObjectVersion
1070
     0
  0
VISUALSTYLE
  5
2C
102
{ACAD_REACTORS
330
2A
102
}
102
{ACAD_XDICTIONARY
360
223
102
}
330
2A
100
AcDbVisualStyle
  2
FlatWithEdges
 70
     1
 71
     2
 72
     1
 73
     1
 90
        2
 40
-0.6
 41
30.0
 62
     5
 63
     7
 74
     1
 91
        4
 64
     7
 65
   257
 75
     1
175
     1
 42
1.0
 92
        0
 66
   257
 43
1.0
 76
     1
 77
     6
 78
     2
 67
     7
 79
     5
170
     0
171
     0
290
     0
174
     0
 93
       13
 44
0.0
173
     0
291
     1
 45
0.0
1001
ACAD
1000
AcDbSavedByObjectVersion
1070
     0
  0
VISUALSTYLE
  5
2D
102
{ACAD_REACTORS
330
2A
102
}
102
{ACAD_XDICTIONARY
360
225
102
}
330
2A
100
AcDbVisualStyle
  2
Gouraud
 70
     2
 71
     2
 72
     2
 73
     1
 90
        2
 40
-0.6
 41
30.0
 62
     5
 63
     7
 74
     0
 91
        4
 64
     7
 65
   257
 75
     1
175
     1
 42
1.0
 92
        0
 66
     7
 43
1.0
 76
     1
 77
     6
 78
     2
 67
     7
 79
     5
170
     0
171
     0
290
     0
174
     0
 93
       13
 44
0.0
173
     0
291
     1
 45
0.0
1001
ACAD
1000
AcDbSavedByObjectVersion
1070
     0
  0
VISUALSTYLE
  5
2E
102
{ACAD_REACTORS
330
2A
102
}
102
{ACAD_XDICTIONARY
360
227
102
}
330
2A
100
AcDbVisualStyle
  2
GouraudWithEdges
 70
     3
 71
     2
 72
     2
 73
     1
 90
        2
 40
-0.6
 41
30.0
 62
     5
 63
     7
 74
     1
 91
        4
 64
     7
 65
   257
 75
     1
175
     1
 42
1.0
 92
        0
 66
   257
 43
1.0
 76
     1
 77
     6
 78
     2
 67
     7
 79
     5
170
     0
171
     0
290
     0
174
     0
 93
       13
 44
0.0
173
     0
291
     1
 45
0.0
1001
ACAD
1000
AcDbSavedByObjectVersion
1070
     0
  0
VISUALSTYLE
  5
38
102
{ACAD_REACTORS
330
2A
102
}
102
{ACAD_XDICTIONARY
360
23B
102
}
330
2A
100
AcDbVisualStyle
  2
Linepattern
 70
    14
 71
     2
 72
     2
 73
     0
 90
        0
 40
-0.6
 41
-30.0
 62
     5
 63
     7
 74
     1
 91
        4
 64
     7
 65
   257
 75
     7
175
     7
 42
1.0
 92
        8
 66
     7
 43
1.0
 76
     1
 77
     6
 78
     2
 67
     7
 79
     5
170
     0
171
     0
290
     0
174
     0
 93
        1
 44
0.0
173
     0
291
     1
 45
0.0
1001
ACAD
1000
AcDbSavedByObjectVersion
1070
     0
  0
VISUALSTYLE
  5
33
102
{ACAD_REACTORS
330
2A
102
}
102
{ACAD_XDICTIONARY
360
231
102
}
330
2A
100
AcDbVisualStyle
  2
Realistic
 70
     8
 71
     2
 72
     2
 73
     0
 90
        0
 40
-0.6
 41
-30.0
 62
     5
 63
     7
 74
     1
 91
        0
 64
     7
 65
   257
 75
     1
175
     1
 42
1.0
 92
        8
 66
     8
 43
1.0
 76
     1
 77
     6
 78
     2
 67
     7
 79
     5
170
     0
171
     0
290
     0
174
     0
 93
       13
 44
0.0
173
     0
291
     0
 45
0.0
1001
ACAD
1000
AcDbSavedByObjectVersion
1070
     0
  0
VISUALSTYLE
  5
37
102
{ACAD_REACTORS
330
2A
102
}
102
{ACAD_XDICTIONARY
360
239
102
}
330
2A
100
AcDbVisualStyle
  2
Thicken
 70
    13
 71
     2
 72
     2
 73
     0
 90
        0
 40
-0.6
 41
-30.0
 62
     5
 63
     7
 74
     1
 91
        4
 64
     7
 65
   257
 75
     1
175
     1
 42
1.0
 92
       12
 66
     7
 43
1.0
 76
     1
 77
     6
 78
     2
 67
     7
 79
     5
170
     0
171
     0
290
     0
174
     0
 93
        1
 44
0.0
173
     0
291
     1
 45
0.0
1001
ACAD
1000
AcDbSavedByObjectVersion
1070
     0
  0
DICTIONARYVAR
  5
219
102
{ACAD_REACTORS
330
214
102
}
330
214
100
DictionaryVariables
280
     0
  1
2
  0
DICTIONARYVAR
  5
21A
102
{ACAD_REACTORS
330
214
102
}
330
214
100
DictionaryVariables
280
     0
  1
1
  0
DICTIONARYVAR
  5
218
102
{ACAD_REACTORS
330
214
102
}
330
214
100
DictionaryVariables
280
     0
  1
80.000000
  0
DICTIONARYVAR
  5
217
102
{ACAD_REACTORS
330
214
102
}
330
214
100
DictionaryVariables
280
     0
  1
5.000000
  0
DICTIONARY
  5
243
330
3D
100
AcDbDictionary
280
     1
281
     1
  3
ACAD_XREC_ROUNDTRIP
360
244
  0
DICTIONARY
  5
241
330
3C
100
AcDbDictionary
280
     1
281
     1
  3
ACAD_XREC_ROUNDTRIP
360
242
  0
DICTIONARY
  5
245
330
3E
100
AcDbDictionary
280
     1
281
     1
  3
ACAD_XREC_ROUNDTRIP
360
246
  0
DICTIONARY
  5
229
330
2F
100
AcDbDictionary
280
     1
281
     1
  3
ACAD_XREC_ROUNDTRIP
360
22A
  0
DICTIONARY
  5
22D
330
31
100
AcDbDictionary
280
     1
281
     1
  3
ACAD_XREC_ROUNDTRIP
360
22E
  0
DICTIONARY
  5
22B
330
30
100
AcDbDictionary
280
     1
281
     1
  3
ACAD_XREC_ROUNDTRIP
360
22C
  0
DICTIONARY
  5
22F
330
32
100
AcDbDictionary
280
     1
281
     1
  3
ACAD_XREC_ROUNDTRIP
360
230
  0
DICTIONARY
  5
237
330
36
100
AcDbDictionary
280
     1
281
     1
  3
ACAD_XREC_ROUNDTRIP
360
238
  0
DICTIONARY
  5
23F
330
3A
100
AcDbDictionary
280
     1
281
     1
  3
ACAD_XREC_ROUNDTRIP
360
240
  0
DICTIONARY
  5
233
330
34
100
AcDbDictionary
280
     1
281
     1
  3
ACAD_XREC_ROUNDTRIP
360
234
  0
DICTIONARY
  5
235
330
35
100
AcDbDictionary
280
     1
281
     1
  3
ACAD_XREC_ROUNDTRIP
360
236
  0
DICTIONARY
  5
23D
330
39
100
AcDbDictionary
280
     1
281
     1
  3
ACAD_XREC_ROUNDTRIP
360
23E
  0
DICTIONARY
  5
221
330
2B
100
AcDbDictionary
280
     1
281
     1
  3
ACAD_XREC_ROUNDTRIP
360
222
  0
DICTIONARY
  5
223
330
2C
100
AcDbDictionary
280
     1
281
     1
  3
ACAD_XREC_ROUNDTRIP
360
224
  0
DICTIONARY
  5
225
330
2D
100
AcDbDictionary
280
     1
281
     1
  3
ACAD_XREC_ROUNDTRIP
360
226
  0
DICTIONARY
  5
227
330
2E
100
AcDbDictionary
280
     1
281
     1
  3
ACAD_XREC_ROUNDTRIP
360
228
  0
DICTIONARY
  5
23B
330
38
100
AcDbDictionary
280
     1
281
     1
  3
ACAD_XREC_ROUNDTRIP
360
23C
  0
DICTIONARY
  5
231
330
33
100
AcDbDictionary
280
     1
281
     1
  3
ACAD_XREC_ROUNDTRIP
360
232
  0
DICTIONARY
  5
239
330
37
100
AcDbDictionary
280
     1
281
     1
  3
ACAD_XREC_ROUNDTRIP
360
23A
  0
XRECORD
  5
244
102
{ACAD_REACTORS
330
243
102
}
330
243
100
AcDbXrecord
280
     1
102
MATERIAL
148
0.0
149
0.0
149
0.0
 93
        0
 94
      127
282
     0
 72
     1
 77
     1
171
     1
175
     1
179
     1
273
     0
  0
XRECORD
  5
242
102
{ACAD_REACTORS
330
241
102
}
330
241
100
AcDbXrecord
280
     1
102
MATERIAL
148
0.0
149
0.0
149
0.0
 93
        0
 94
      127
282
     0
 72
     1
 77
     1
171
     1
175
     1
179
     1
273
     0
  0
XRECORD
  5
246
102
{ACAD_REACTORS
330
245
102
}
330
245
100
AcDbXrecord
280
     1
102
MATERIAL
148
0.0
149
0.0
149
0.0
 93
        0
 94
      127
282
     0
 72
     1
 77
     1
171
     1
175
     1
179
     1
273
     0
  0
XRECORD
  5
22A
102
{ACAD_REACTORS
330
229
102
}
330
229
100
AcDbXrecord
280
     1
102
RTVSPropertyOp0
 70
     1
102
RTVSPropertyOp1
 70
     1
102
RTVSPropertyOp2
 70
     1
102
RTVSPropertyOp3
 70
     1
102
RTVSPropertyOp4
 70
     1
102
RTVSPropertyOp5
 70
     1
102
RTVSPropertyOp6
 70
     1
102
RTVSPropertyOp7
 70
     1
102
RTVSPropertyOp8
 70
     1
102
RTVSPropertyOp9
 70
     1
102
RTVSPropertyOp10
 70
     1
102
RTVSPropertyOp11
 70
     1
102
RTVSPropertyOp12
 70
     1
102
RTVSPropertyOp13
 70
     1
102
RTVSPropertyOp14
 70
     1
102
RTVSPropertyOp15
 70
     1
102
RTVSPropertyOp16
 70
     1
102
RTVSPropertyOp17
 70
     1
102
RTVSPropertyOp18
 70
     1
102
RTVSPropertyOp19
 70
     1
102
RTVSPropertyOp20
 70
     1
102
RTVSPropertyOp21
 70
     1
102
RTVSPropertyOp22
 70
     1
102
RTVSPropertyOp23
 70
     1
102
RTVSPropertyOp24
 70
     1
102
RTVSPropertyOp25
 70
     1
102
RTVSPropertyOp26
 70
     1
102
RTVSPropertyOp27
 70
     1
102
RTVSPropertyOp28
 70
     1
102
RTVSPropertyOp29
 70
     1
102
RTVSPropertyOp30
 70
     1
102
RTVSPropertyOp31
 70
     1
102
RTVSPropertyOp32
 70
     1
  0
XRECORD
  5
22E
102
{ACAD_REACTORS
330
22D
102
}
330
22D
100
AcDbXrecord
280
     1
102
RTVSPropertyOp0
 70
     1
102
RTVSPropertyOp1
 70
     1
102
RTVSPropertyOp2
 70
     1
102
RTVSPropertyOp3
 70
     1
102
RTVSPropertyOp4
 70
     1
102
RTVSPropertyOp5
 70
     1
102
RTVSPropertyOp6
 70
     1
102
RTVSPropertyOp7
 70
     1
102
RTVSPropertyOp8
 70
     1
102
RTVSPropertyOp9
 70
     1
102
RTVSPropertyOp10
 70
     1
102
RTVSPropertyOp11
 70
     1
102
RTVSPropertyOp12
 70
     1
102
RTVSPropertyOp13
 70
     1
102
RTVSPropertyOp14
 70
     1
102
RTVSPropertyOp15
 70
     1
102
RTVSPropertyOp16
 70
     1
102
RTVSPropertyOp17
 70
     1
102
RTVSPropertyOp18
 70
     1
102
RTVSPropertyOp19
 70
     1
102
RTVSPropertyOp20
 70
     1
102
RTVSPropertyOp21
 70
     1
102
RTVSPropertyOp22
 70
     1
102
RTVSPropertyOp23
 70
     1
102
RTVSPropertyOp24
 70
     1
102
RTVSPropertyOp25
 70
     1
102
RTVSPropertyOp26
 70
     1
102
RTVSPropertyOp27
 70
     1
102
RTVSPropertyOp28
 70
     1
102
RTVSPropertyOp29
 70
     1
102
RTVSPropertyOp30
 70
     1
102
RTVSPropertyOp31
 70
     1
102
RTVSPropertyOp32
 70
     1
  0
XRECORD
  5
22C
102
{ACAD_REACTORS
330
22B
102
}
330
22B
100
AcDbXrecord
280
     1
102
RTVSPropertyOp0
 70
     1
102
RTVSPropertyOp1
 70
     1
102
RTVSPropertyOp2
 70
     1
102
RTVSPropertyOp3
 70
     1
102
RTVSPropertyOp4
 70
     1
102
RTVSPropertyOp5
 70
     1
102
RTVSPropertyOp6
 70
     1
102
RTVSPropertyOp7
 70
     1
102
RTVSPropertyOp8
 70
     1
102
RTVSPropertyOp9
 70
     1
102
RTVSPropertyOp10
 70
     1
102
RTVSPropertyOp11
 70
     1
102
RTVSPropertyOp12
 70
     1
102
RTVSPropertyOp13
 70
     1
102
RTVSPropertyOp14
 70
     1
102
RTVSPropertyOp15
 70
     1
102
RTVSPropertyOp16
 70
     1
102
RTVSPropertyOp17
 70
     1
102
RTVSPropertyOp18
 70
     1
102
RTVSPropertyOp19
 70
     1
102
RTVSPropertyOp20
 70
     1
102
RTVSPropertyOp21
 70
     1
102
RTVSPropertyOp22
 70
     1
102
RTVSPropertyOp23
 70
     1
102
RTVSPropertyOp24
 70
     1
102
RTVSPropertyOp25
 70
     1
102
RTVSPropertyOp26
 70
     1
102
RTVSPropertyOp27
 70
     1
102
RTVSPropertyOp28
 70
     1
102
RTVSPropertyOp29
 70
     1
102
RTVSPropertyOp30
 70
     1
102
RTVSPropertyOp31
 70
     1
102
RTVSPropertyOp32
 70
     1
  0
XRECORD
  5
230
102
{ACAD_REACTORS
330
22F
102
}
330
22F
100
AcDbXrecord
280
     1
102
RTVSPropertyOp0
 70
     1
102
RTVSPropertyOp1
 70
     1
102
RTVSPropertyOp2
 70
     1
102
RTVSPropertyOp3
 70
     1
102
RTVSPropertyOp4
 70
     1
102
RTVSPropertyOp5
 70
     1
102
RTVSPropertyOp6
 70
     1
102
RTVSPropertyOp7
 70
     1
102
RTVSPropertyOp8
 70
     1
102
RTVSPropertyOp9
 70
     1
102
RTVSPropertyOp10
 70
     1
102
RTVSPropertyOp11
 70
     1
102
RTVSPropertyOp12
 70
     1
102
RTVSPropertyOp13
 70
     1
102
RTVSPropertyOp14
 70
     1
102
RTVSPropertyOp15
 70
     1
102
RTVSPropertyOp16
 70
     1
102
RTVSPropertyOp17
 70
     1
102
RTVSPropertyOp18
 70
     1
102
RTVSPropertyOp19
 70
     1
102
RTVSPropertyOp20
 70
     1
102
RTVSPropertyOp21
 70
     1
102
RTVSPropertyOp22
 70
     1
102
RTVSPropertyOp23
 70
     1
102
RTVSPropertyOp24
 70
     1
102
RTVSPropertyOp25
 70
     1
102
RTVSPropertyOp26
 70
     1
102
RTVSPropertyOp27
 70
     1
102
RTVSPropertyOp28
 70
     1
102
RTVSPropertyOp29
 70
     1
102
RTVSPropertyOp30
 70
     1
102
RTVSPropertyOp31
 70
     1
102
RTVSPropertyOp32
 70
     1
  0
XRECORD
  5
238
102
{ACAD_REACTORS
330
237
102
}
330
237
100
AcDbXrecord
280
     1
102
RTVSPropertyOp0
 70
     1
102
RTVSPropertyOp1
 70
     1
102
RTVSPropertyOp2
 70
     1
102
RTVSPropertyOp3
 70
     1
102
RTVSPropertyOp4
 70
     1
102
RTVSPropertyOp5
 70
     1
102
RTVSPropertyOp6
 70
     1
102
RTVSPropertyOp7
 70
     1
102
RTVSPropertyOp8
 70
     1
102
RTVSPropertyOp9
 70
     1
102
RTVSPropertyOp10
 70
     1
102
RTVSPropertyOp11
 70
     1
102
RTVSPropertyOp12
 70
     1
102
RTVSPropertyOp13
 70
     1
102
RTVSPropertyOp14
 70
     1
102
RTVSPropertyOp15
 70
     1
102
RTVSPropertyOp16
 70
     1
102
RTVSPropertyOp17
 70
     1
102
RTVSPropertyOp18
 70
     1
102
RTVSPropertyOp19
 70
     1
102
RTVSPropertyOp20
 70
     1
102
RTVSPropertyOp21
 70
     1
102
RTVSPropertyOp22
 70
     1
102
RTVSPropertyOp23
 70
     1
102
RTVSPropertyOp24
 70
     1
102
RTVSPropertyOp25
 70
     1
102
RTVSPropertyOp26
 70
     1
102
RTVSPropertyOp27
 70
     1
102
RTVSPropertyOp28
 70
     1
102
RTVSPropertyOp29
 70
     1
102
RTVSPropertyOp30
 70
     1
102
RTVSPropertyOp31
 70
     1
102
RTVSPropertyOp32
 70
     1
  0
XRECORD
  5
240
102
{ACAD_REACTORS
330
23F
102
}
330
23F
100
AcDbXrecord
280
     1
102
RTVSPropertyOp0
 70
     1
102
RTVSPropertyOp1
 70
     1
102
RTVSPropertyOp2
 70
     1
102
RTVSPropertyOp3
 70
     1
102
RTVSPropertyOp4
 70
     1
102
RTVSPropertyOp5
 70
     1
102
RTVSPropertyOp6
 70
     1
102
RTVSPropertyOp7
 70
     1
102
RTVSPropertyOp8
 70
     1
102
RTVSPropertyOp9
 70
     1
102
RTVSPropertyOp10
 70
     1
102
RTVSPropertyOp11
 70
     1
102
RTVSPropertyOp12
 70
     1
102
RTVSPropertyOp13
 70
     1
102
RTVSPropertyOp14
 70
     1
102
RTVSPropertyOp15
 70
     1
102
RTVSPropertyOp16
 70
     1
102
RTVSPropertyOp17
 70
     1
102
RTVSPropertyOp18
 70
     1
102
RTVSPropertyOp19
 70
     1
102
RTVSPropertyOp20
 70
     1
102
RTVSPropertyOp21
 70
     1
102
RTVSPropertyOp22
 70
     1
102
RTVSPropertyOp23
 70
     1
102
RTVSPropertyOp24
 70
     1
102
RTVSPropertyOp25
 70
     1
102
RTVSPropertyOp26
 70
     1
102
RTVSPropertyOp27
 70
     1
102
RTVSPropertyOp28
 70
     1
102
RTVSPropertyOp29
 70
     1
102
RTVSPropertyOp30
 70
     1
102
RTVSPropertyOp31
 70
     1
102
RTVSPropertyOp32
 70
     1
  0
XRECORD
  5
234
102
{ACAD_REACTORS
330
233
102
}
330
233
100
AcDbXrecord
280
     1
102
RTVSPropertyOp0
 70
     1
102
RTVSPropertyOp1
 70
     1
102
RTVSPropertyOp2
 70
     1
102
RTVSPropertyOp3
 70
     1
102
RTVSPropertyOp4
 70
     1
102
RTVSPropertyOp5
 70
     1
102
RTVSPropertyOp6
 70
     1
102
RTVSPropertyOp7
 70
     1
102
RTVSPropertyOp8
 70
     1
102
RTVSPropertyOp9
 70
     1
102
RTVSPropertyOp10
 70
     1
102
RTVSPropertyOp11
 70
     1
102
RTVSPropertyOp12
 70
     1
102
RTVSPropertyOp13
 70
     1
102
RTVSPropertyOp14
 70
     1
102
RTVSPropertyOp15
 70
     1
102
RTVSPropertyOp16
 70
     1
102
RTVSPropertyOp17
 70
     1
102
RTVSPropertyOp18
 70
     1
102
RTVSPropertyOp19
 70
     1
102
RTVSPropertyOp20
 70
     1
102
RTVSPropertyOp21
 70
     1
102
RTVSPropertyOp22
 70
     1
102
RTVSPropertyOp23
 70
     1
102
RTVSPropertyOp24
 70
     1
102
RTVSPropertyOp25
 70
     1
102
RTVSPropertyOp26
 70
     1
102
RTVSPropertyOp27
 70
     1
102
RTVSPropertyOp28
 70
     1
102
RTVSPropertyOp29
 70
     1
102
RTVSPropertyOp30
 70
     1
102
RTVSPropertyOp31
 70
     1
102
RTVSPropertyOp32
 70
     1
  0
XRECORD
  5
236
102
{ACAD_REACTORS
330
235
102
}
330
235
100
AcDbXrecord
280
     1
102
RTVSPropertyOp0
 70
     1
102
RTVSPropertyOp1
 70
     1
102
RTVSPropertyOp2
 70
     1
102
RTVSPropertyOp3
 70
     1
102
RTVSPropertyOp4
 70
     1
102
RTVSPropertyOp5
 70
     1
102
RTVSPropertyOp6
 70
     1
102
RTVSPropertyOp7
 70
     1
102
RTVSPropertyOp8
 70
     1
102
RTVSPropertyOp9
 70
     1
102
RTVSPropertyOp10
 70
     1
102
RTVSPropertyOp11
 70
     1
102
RTVSPropertyOp12
 70
     1
102
RTVSPropertyOp13
 70
     1
102
RTVSPropertyOp14
 70
     1
102
RTVSPropertyOp15
 70
     1
102
RTVSPropertyOp16
 70
     1
102
RTVSPropertyOp17
 70
     1
102
RTVSPropertyOp18
 70
     1
102
RTVSPropertyOp19
 70
     1
102
RTVSPropertyOp20
 70
     1
102
RTVSPropertyOp21
 70
     1
102
RTVSPropertyOp22
 70
     1
102
RTVSPropertyOp23
 70
     1
102
RTVSPropertyOp24
 70
     1
102
RTVSPropertyOp25
 70
     1
102
RTVSPropertyOp26
 70
     1
102
RTVSPropertyOp27
 70
     1
102
RTVSPropertyOp28
 70
     1
102
RTVSPropertyOp29
 70
     1
102
RTVSPropertyOp30
 70
     1
102
RTVSPropertyOp31
 70
     1
102
RTVSPropertyOp32
 70
     1
  0
XRECORD
  5
23E
102
{ACAD_REACTORS
330
23D
102
}
330
23D
100
AcDbXrecord
280
     1
102
RTVSPropertyOp0
 70
     1
102
RTVSPropertyOp1
 70
     1
102
RTVSPropertyOp2
 70
     1
102
RTVSPropertyOp3
 70
     1
102
RTVSPropertyOp4
 70
     1
102
RTVSPropertyOp5
 70
     1
102
RTVSPropertyOp6
 70
     1
102
RTVSPropertyOp7
 70
     1
102
RTVSPropertyOp8
 70
     1
102
RTVSPropertyOp9
 70
     1
102
RTVSPropertyOp10
 70
     1
102
RTVSPropertyOp11
 70
     1
102
RTVSPropertyOp12
 70
     1
102
RTVSPropertyOp13
 70
     1
102
RTVSPropertyOp14
 70
     1
102
RTVSPropertyOp15
 70
     1
102
RTVSPropertyOp16
 70
     1
102
RTVSPropertyOp17
 70
     1
102
RTVSPropertyOp18
 70
     1
102
RTVSPropertyOp19
 70
     1
102
RTVSPropertyOp20
 70
     1
102
RTVSPropertyOp21
 70
     1
102
RTVSPropertyOp22
 70
     1
102
RTVSPropertyOp23
 70
     1
102
RTVSPropertyOp24
 70
     1
102
RTVSPropertyOp25
 70
     1
102
RTVSPropertyOp26
 70
     1
102
RTVSPropertyOp27
 70
     1
102
RTVSPropertyOp28
 70
     1
102
RTVSPropertyOp29
 70
     1
102
RTVSPropertyOp30
 70
     1
102
RTVSPropertyOp31
 70
     1
102
RTVSPropertyOp32
 70
     1
  0
XRECORD
  5
222
102
{ACAD_REACTORS
330
221
102
}
330
221
100
AcDbXrecord
280
     1
102
RTVSPropertyOp0
 70
     1
102
RTVSPropertyOp1
 70
     1
102
RTVSPropertyOp2
 70
     1
102
RTVSPropertyOp3
 70
     1
102
RTVSPropertyOp4
 70
     1
102
RTVSPropertyOp5
 70
     1
102
RTVSPropertyOp6
 70
     1
102
RTVSPropertyOp7
 70
     1
102
RTVSPropertyOp8
 70
     1
102
RTVSPropertyOp9
 70
     1
102
RTVSPropertyOp10
 70
     1
102
RTVSPropertyOp11
 70
     1
102
RTVSPropertyOp12
 70
     1
102
RTVSPropertyOp13
 70
     1
102
RTVSPropertyOp14
 70
     1
102
RTVSPropertyOp15
 70
     1
102
RTVSPropertyOp16
 70
     1
102
RTVSPropertyOp17
 70
     1
102
RTVSPropertyOp18
 70
     1
102
RTVSPropertyOp19
 70
     1
102
RTVSPropertyOp20
 70
     1
102
RTVSPropertyOp21
 70
     1
102
RTVSPropertyOp22
 70
     1
102
RTVSPropertyOp23
 70
     1
102
RTVSPropertyOp24
 70
     1
102
RTVSPropertyOp25
 70
     1
102
RTVSPropertyOp26
 70
     1
102
RTVSPropertyOp27
 70
     1
102
RTVSPropertyOp28
 70
     1
102
RTVSPropertyOp29
 70
     1
102
RTVSPropertyOp30
 70
     1
102
RTVSPropertyOp31
 70
     1
102
RTVSPropertyOp32
 70
     1
  0
XRECORD
  5
224
102
{ACAD_REACTORS
330
223
102
}
330
223
100
AcDbXrecord
280
     1
102
RTVSPropertyOp0
 70
     1
102
RTVSPropertyOp1
 70
     1
102
RTVSPropertyOp2
 70
     1
102
RTVSPropertyOp3
 70
     1
102
RTVSPropertyOp4
 70
     1
102
RTVSPropertyOp5
 70
     1
102
RTVSPropertyOp6
 70
     1
102
RTVSPropertyOp7
 70
     1
102
RTVSPropertyOp8
 70
     1
102
RTVSPropertyOp9
 70
     1
102
RTVSPropertyOp10
 70
     1
102
RTVSPropertyOp11
 70
     1
102
RTVSPropertyOp12
 70
     1
102
RTVSPropertyOp13
 70
     1
102
RTVSPropertyOp14
 70
     1
102
RTVSPropertyOp15
 70
     1
102
RTVSPropertyOp16
 70
     1
102
RTVSPropertyOp17
 70
     1
102
RTVSPropertyOp18
 70
     1
102
RTVSPropertyOp19
 70
     1
102
RTVSPropertyOp20
 70
     1
102
RTVSPropertyOp21
 70
     1
102
RTVSPropertyOp22
 70
     1
102
RTVSPropertyOp23
 70
     1
102
RTVSPropertyOp24
 70
     1
102
RTVSPropertyOp25
 70
     1
102
RTVSPropertyOp26
 70
     1
102
RTVSPropertyOp27
 70
     1
102
RTVSPropertyOp28
 70
     1
102
RTVSPropertyOp29
 70
     1
102
RTVSPropertyOp30
 70
     1
102
RTVSPropertyOp31
 70
     1
102
RTVSPropertyOp32
 70
     1
  0
XRECORD
  5
226
102
{ACAD_REACTORS
330
225
102
}
330
225
100
AcDbXrecord
280
     1
102
RTVSPropertyOp0
 70
     1
102
RTVSPropertyOp1
 70
     1
102
RTVSPropertyOp2
 70
     1
102
RTVSPropertyOp3
 70
     1
102
RTVSPropertyOp4
 70
     1
102
RTVSPropertyOp5
 70
     1
102
RTVSPropertyOp6
 70
     1
102
RTVSPropertyOp7
 70
     1
102
RTVSPropertyOp8
 70
     1
102
RTVSPropertyOp9
 70
     1
102
RTVSPropertyOp10
 70
     1
102
RTVSPropertyOp11
 70
     1
102
RTVSPropertyOp12
 70
     1
102
RTVSPropertyOp13
 70
     1
102
RTVSPropertyOp14
 70
     1
102
RTVSPropertyOp15
 70
     1
102
RTVSPropertyOp16
 70
     1
102
RTVSPropertyOp17
 70
     1
102
RTVSPropertyOp18
 70
     1
102
RTVSPropertyOp19
 70
     1
102
RTVSPropertyOp20
 70
     1
102
RTVSPropertyOp21
 70
     1
102
RTVSPropertyOp22
 70
     1
102
RTVSPropertyOp23
 70
     1
102
RTVSPropertyOp24
 70
     1
102
RTVSPropertyOp25
 70
     1
102
RTVSPropertyOp26
 70
     1
102
RTVSPropertyOp27
 70
     1
102
RTVSPropertyOp28
 70
     1
102
RTVSPropertyOp29
 70
     1
102
RTVSPropertyOp30
 70
     1
102
RTVSPropertyOp31
 70
     1
102
RTVSPropertyOp32
 70
     1
  0
XRECORD
  5
228
102
{ACAD_REACTORS
330
227
102
}
330
227
100
AcDbXrecord
280
     1
102
RTVSPropertyOp0
 70
     1
102
RTVSPropertyOp1
 70
     1
102
RTVSPropertyOp2
 70
     1
102
RTVSPropertyOp3
 70
     1
102
RTVSPropertyOp4
 70
     1
102
RTVSPropertyOp5
 70
     1
102
RTVSPropertyOp6
 70
     1
102
RTVSPropertyOp7
 70
     1
102
RTVSPropertyOp8
 70
     1
102
RTVSPropertyOp9
 70
     1
102
RTVSPropertyOp10
 70
     1
102
RTVSPropertyOp11
 70
     1
102
RTVSPropertyOp12
 70
     1
102
RTVSPropertyOp13
 70
     1
102
RTVSPropertyOp14
 70
     1
102
RTVSPropertyOp15
 70
     1
102
RTVSPropertyOp16
 70
     1
102
RTVSPropertyOp17
 70
     1
102
RTVSPropertyOp18
 70
     1
102
RTVSPropertyOp19
 70
     1
102
RTVSPropertyOp20
 70
     1
102
RTVSPropertyOp21
 70
     1
102
RTVSPropertyOp22
 70
     1
102
RTVSPropertyOp23
 70
     1
102
RTVSPropertyOp24
 70
     1
102
RTVSPropertyOp25
 70
     1
102
RTVSPropertyOp26
 70
     1
102
RTVSPropertyOp27
 70
     1
102
RTVSPropertyOp28
 70
     1
102
RTVSPropertyOp29
 70
     1
102
RTVSPropertyOp30
 70
     1
102
RTVSPropertyOp31
 70
     1
102
RTVSPropertyOp32
 70
     1
  0
XRECORD
  5
23C
102
{ACAD_REACTORS
330
23B
102
}
330
23B
100
AcDbXrecord
280
     1
102
RTVSPropertyOp0
 70
     1
102
RTVSPropertyOp1
 70
     1
102
RTVSPropertyOp2
 70
     1
102
RTVSPropertyOp3
 70
     1
102
RTVSPropertyOp4
 70
     1
102
RTVSPropertyOp5
 70
     1
102
RTVSPropertyOp6
 70
     1
102
RTVSPropertyOp7
 70
     1
102
RTVSPropertyOp8
 70
     1
102
RTVSPropertyOp9
 70
     1
102
RTVSPropertyOp10
 70
     1
102
RTVSPropertyOp11
 70
     1
102
RTVSPropertyOp12
 70
     1
102
RTVSPropertyOp13
 70
     1
102
RTVSPropertyOp14
 70
     1
102
RTVSPropertyOp15
 70
     1
102
RTVSPropertyOp16
 70
     1
102
RTVSPropertyOp17
 70
     1
102
RTVSPropertyOp18
 70
     1
102
RTVSPropertyOp19
 70
     1
102
RTVSPropertyOp20
 70
     1
102
RTVSPropertyOp21
 70
     1
102
RTVSPropertyOp22
 70
     1
102
RTVSPropertyOp23
 70
     1
102
RTVSPropertyOp24
 70
     1
102
RTVSPropertyOp25
 70
     1
102
RTVSPropertyOp26
 70
     1
102
RTVSPropertyOp27
 70
     1
102
RTVSPropertyOp28
 70
     1
102
RTVSPropertyOp29
 70
     1
102
RTVSPropertyOp30
 70
     1
102
RTVSPropertyOp31
 70
     1
102
RTVSPropertyOp32
 70
     1
  0
XRECORD
  5
232
102
{ACAD_REACTORS
330
231
102
}
330
231
100
AcDbXrecord
280
     1
102
RTVSPropertyOp0
 70
     1
102
RTVSPropertyOp1
 70
     1
102
RTVSPropertyOp2
 70
     1
102
RTVSPropertyOp3
 70
     1
102
RTVSPropertyOp4
 70
     1
102
RTVSPropertyOp5
 70
     1
102
RTVSPropertyOp6
 70
     1
102
RTVSPropertyOp7
 70
     1
102
RTVSPropertyOp8
 70
     1
102
RTVSPropertyOp9
 70
     1
102
RTVSPropertyOp10
 70
     1
102
RTVSPropertyOp11
 70
     1
102
RTVSPropertyOp12
 70
     1
102
RTVSPropertyOp13
 70
     1
102
RTVSPropertyOp14
 70
     1
102
RTVSPropertyOp15
 70
     1
102
RTVSPropertyOp16
 70
     1
102
RTVSPropertyOp17
 70
     1
102
RTVSPropertyOp18
 70
     1
102
RTVSPropertyOp19
 70
     1
102
RTVSPropertyOp20
 70
     1
102
RTVSPropertyOp21
 70
     1
102
RTVSPropertyOp22
 70
     1
102
RTVSPropertyOp23
 70
     1
102
RTVSPropertyOp24
 70
     1
102
RTVSPropertyOp25
 70
     1
102
RTVSPropertyOp26
 70
     1
102
RTVSPropertyOp27
 70
     1
102
RTVSPropertyOp28
 70
     1
102
RTVSPropertyOp29
 70
     1
102
RTVSPropertyOp30
 70
     1
102
RTVSPropertyOp31
 70
     1
102
RTVSPropertyOp32
 70
     1
  0
XRECORD
  5
23A
102
{ACAD_REACTORS
330
239
102
}
330
239
100
AcDbXrecord
280
     1
102
RTVSPropertyOp0
 70
     1
102
RTVSPropertyOp1
 70
     1
102
RTVSPropertyOp2
 70
     1
102
RTVSPropertyOp3
 70
     1
102
RTVSPropertyOp4
 70
     1
102
RTVSPropertyOp5
 70
     1
102
RTVSPropertyOp6
 70
     1
102
RTVSPropertyOp7
 70
     1
102
RTVSPropertyOp8
 70
     1
102
RTVSPropertyOp9
 70
     1
102
RTVSPropertyOp10
 70
     1
102
RTVSPropertyOp11
 70
     1
102
RTVSPropertyOp12
 70
     1
102
RTVSPropertyOp13
 70
     1
102
RTVSPropertyOp14
 70
     1
102
RTVSPropertyOp15
 70
     1
102
RTVSPropertyOp16
 70
     1
102
RTVSPropertyOp17
 70
     1
102
RTVSPropertyOp18
 70
     1
102
RTVSPropertyOp19
 70
     1
102
RTVSPropertyOp20
 70
     1
102
RTVSPropertyOp21
 70
     1
102
RTVSPropertyOp22
 70
     1
102
RTVSPropertyOp23
 70
     1
102
RTVSPropertyOp24
 70
     1
102
RTVSPropertyOp25
 70
     1
102
RTVSPropertyOp26
 70
     1
102
RTVSPropertyOp27
 70
     1
102
RTVSPropertyOp28
 70
     1
102
RTVSPropertyOp29
 70
     1
102
RTVSPropertyOp30
 70
     1
102
RTVSPropertyOp31
 70
     1
102
RTVSPropertyOp32
 70
     1
  0
ENDSEC
  0
EOF
