  0
SECTION
  2
HEADER
  9
$ACADVER
  1
AC1015
  9
$ACADMAINTVER
 70
     6
  9
$DWGCODEPAGE
  3
ANSI_1252
  9
$INSBASE
 10
0.0
 20
0.0
 30
0.0
  9
$EXTMIN
 10
0.0
 20
0.0
 30
0.0
  9
$EXTMAX
 10
297.0
 20
210.0
 30
0.0
  9
$LIMMIN
 10
0.0
 20
0.0
  9
$LIMMAX
 10
297.0
 20
210.0
  9
$ORTHOMODE
 70
     0
  9
$REGENMODE
 70
     1
  9
$FILLMODE
 70
     1
  9
$QTEXTMODE
 70
     0
  9
$MIRRTEXT
 70
     1
  9
$LTSCALE
 40
1.0
  9
$ATTMODE
 70
     1
  9
$TEXTSIZE
 40
2.5
  9
$TRACEWID
 40
1.0
  9
$TEXTSTYLE
  7
Standard
  9
$CLAYER
  8
0
  9
$CELTYPE
  6
ByLayer
  9
$CECOLOR
 62
   256
  9
$CELTSCALE
 40
1.0
  9
$DISPSILH
 70
     0
  9
$DIMSCALE
 40
1.0
  9
$DIMASZ
 40
2.5
  9
$DIMEXO
 40
0.625
  9
$DIMDLI
 40
3.75
  9
$DIMRND
 40
0.0
  9
$DIMDLE
 40
0.0
  9
$DIMEXE
 40
1.25
  9
$DIMTP
 40
0.0
  9
$DIMTM
 40
0.0
  9
$DIMTXT
 40
2.5
  9
$DIMCEN
 40
2.5
  9
$DIMTSZ
 40
0.0
  9
$DIMTOL
 70
     0
  9
$DIMLIM
 70
     0
  9
$DIMTIH
 70
     0
  9
$DIMTOH
 70
     0
  9
$DIMSE1
 70
     0
  9
$DIMSE2
 70
     0
  9
$DIMTAD
 70
     1
  9
$DIMZIN
 70
     8
  9
$DIMBLK
  1

  9
$DIMASO
 70
     1
  9
$DIMSHO
 70
     1
  9
$DIMPOST
  1

  9
$DIMAPOST
  1

  9
$DIMALT
 70
     0
  9
$DIMALTD
 70
     3
  9
$DIMALTF
 40
0.0393700787
  9
$DIMLFAC
 40
1.0
  9
$DIMTOFL
 70
     1
  9
$DIMTVP
 40
0.0
  9
$DIMTIX
 70
     0
  9
$DIMSOXD
 70
     0
  9
$DIMSAH
 70
     0
  9
$DIMBLK1
  1

  9
$DIMBLK2
  1

  9
$DIMSTYLE
  2
ISO-25
  9
$DIMCLRD
 70
     0
  9
$DIMCLRE
 70
     0
  9
$DIMCLRT
 70
     0
  9
$DIMTFAC
 40
1.0
  9
$DIMGAP
 40
0.625
  9
$DIMJUST
 70
     0
  9
$DIMSD1
 70
     0
  9
$DIMSD2
 70
     0
  9
$DIMTOLJ
 70
     0
  9
$DIMTZIN
 70
     8
  9
$DIMALTZ
 70
     0
  9
$DIMALTTZ
 70
     0
  9
$DIMUPT
 70
     0
  9
$DIMDEC
 70
     2
  9
$DIMTDEC
 70
     2
  9
$DIMALTU
 70
     2
  9
$DIMALTTD
 70
     3
  9
$DIMTXSTY
  7
Standard
  9
$DIMAUNIT
 70
     0
  9
$DIMADEC
 70
     0
  9
$DIMALTRND
 40
0.0
  9
$DIMAZIN
 70
     0
  9
$DIMDSEP
 70
    44
  9
$DIMATFIT
 70
     3
  9
$DIMFRAC
 70
     0
  9
$DIMLDRBLK
  1

  9
$DIMLUNIT
 70
     2
  9
$DIMLWD
 70
    -2
  9
$DIMLWE
 70
    -2
  9
$DIMTMOVE
 70
     0
  9
$LUNITS
 70
     2
  9
$LUPREC
 70
     4
  9
$SKETCHINC
 40
1.0
  9
$FILLETRAD
 40
10.0
  9
$AUNITS
 70
     0
  9
$AUPREC
 70
     0
  9
$MENU
  1
.
  9
$ELEVATION
 40
0.0
  9
$PELEVATION
 40
0.0
  9
$THICKNESS
 40
0.0
  9
$LIMCHECK
 70
     0
  9
$CHAMFERA
 40
10.0
  9
$CHAMFERB
 40
10.0
  9
$CHAMFERC
 40
20.0
  9
$CHAMFERD
 40
0.0
  9
$SKPOLY
 70
     0
  9
$TDCREATE
 40
2457409.607034306
  9
$TDUCREATE
 40
2457409.565367639
  9
$TDUPDATE
 40
2457409.607036504
  9
$TDUUPDATE
 40
2457409.565369838
  9
$TDINDWG
 40
0.0000000116
  9
$TDUSRTIMER
 40
0.0000000116
  9
$USRTIMER
 70
     1
  9
$ANGBASE
 50
0.0
  9
$ANGDIR
 70
     0
  9
$PDMODE
 70
     0
  9
$PDSIZE
 40
0.0
  9
$PLINEWID
 40
0.0
  9
$SPLFRAME
 70
     0
  9
$SPLINETYPE
 70
     6
  9
$SPLINESEGS
 70
     8
  9
$HANDSEED
  5
268
  9
$SURFTAB1
 70
     6
  9
$SURFTAB2
 70
     6
  9
$SURFTYPE
 70
     6
  9
$SURFU
 70
     6
  9
$SURFV
 70
     6
  9
$UCSBASE
  2

  9
$UCSNAME
  2

  9
$UCSORG
 10
0.0
 20
0.0
 30
0.0
  9
$UCSXDIR
 10
1.0
 20
0.0
 30
0.0
  9
$UCSYDIR
 10
0.0
 20
1.0
 30
0.0
  9
$UCSORTHOREF
  2

  9
$UCSORTHOVIEW
 70
     0
  9
$UCSORGTOP
 10
0.0
 20
0.0
 30
0.0
  9
$UCSORGBOTTOM
 10
0.0
 20
0.0
 30
0.0
  9
$UCSORGLEFT
 10
0.0
 20
0.0
 30
0.0
  9
$UCSORGRIGHT
 10
0.0
 20
0.0
 30
0.0
  9
$UCSORGFRONT
 10
0.0
 20
0.0
 30
0.0
  9
$UCSORGBACK
 10
0.0
 20
0.0
 30
0.0
  9
$PUCSBASE
  2

  9
$PUCSNAME
  2

  9
$PUCSORG
 10
0.0
 20
0.0
 30
0.0
  9
$PUCSXDIR
 10
1.0
 20
0.0
 30
0.0
  9
$PUCSYDIR
 10
0.0
 20
1.0
 30
0.0
  9
$PUCSORTHOREF
  2

  9
$PUCSORTHOVIEW
 70
     0
  9
$PUCSORGTOP
 10
0.0
 20
0.0
 30
0.0
  9
$PUCSORGBOTTOM
 10
0.0
 20
0.0
 30
0.0
  9
$PUCSORGLEFT
 10
0.0
 20
0.0
 30
0.0
  9
$PUCSORGRIGHT
 10
0.0
 20
0.0
 30
0.0
  9
$PUCSORGFRONT
 10
0.0
 20
0.0
 30
0.0
  9
$PUCSORGBACK
 10
0.0
 20
0.0
 30
0.0
  9
$USERI1
 70
     0
  9
$USERI2
 70
     0
  9
$USERI3
 70
     0
  9
$USERI4
 70
     0
  9
$USERI5
 70
     0
  9
$USERR1
 40
0.0
  9
$USERR2
 40
0.0
  9
$USERR3
 40
0.0
  9
$USERR4
 40
0.0
  9
$USERR5
 40
0.0
  9
$WORLDVIEW
 70
     1
  9
$SHADEDGE
 70
     3
  9
$SHADEDIF
 70
    70
  9
$TILEMODE
 70
     1
  9
$MAXACTVP
 70
    64
  9
$PINSBASE
 10
0.0
 20
0.0
 30
0.0
  9
$PLIMCHECK
 70
     0
  9
$PEXTMIN
 10
0.0
 20
0.0
 30
0.0
  9
$PEXTMAX
 10
297.0
 20
210.0
 30
0.0
  9
$PLIMMIN
 10
0.0
 20
0.0
  9
$PLIMMAX
 10
297.0
 20
210.0
  9
$UNITMODE
 70
     0
  9
$VISRETAIN
 70
     1
  9
$PLINEGEN
 70
     0
  9
$PSLTSCALE
 70
     1
  9
$TREEDEPTH
 70
  3020
  9
$CMLSTYLE
  2
Standard
  9
$CMLJUST
 70
     0
  9
$CMLSCALE
 40
20.0
  9
$PROXYGRAPHICS
 70
     1
  9
$MEASUREMENT
 70
     1
  9
$CELWEIGHT
370
    -1
  9
$ENDCAPS
280
     0
  9
$JOINSTYLE
280
     0
  9
$LWDISPLAY
290
     0
  9
$INSUNITS
 70
     4
  9
$HYPERLINKBASE
  1

  9
$STYLESHEET
  1

  9
$XEDIT
290
     1
  9
$CEPSNTYPE
380
     0
  9
$PSTYLEMODE
290
     1
  9
$FINGERPRINTGUID
  2
{BA65AAC2-362D-49CF-88E5-E7791316F56B}
  9
$VERSIONGUID
  2
{FAEB1C32-E019-11D5-929B-00C0DF256EC4}
  9
$EXTNAMES
290
     1
  9
$PSVPSCALE
 40
0.0
  9
$OLESTARTUP
290
     0
  0
ENDSEC
  0
SECTION
  2
CLASSES
  0
CLASS
  1
ACDBDICTIONARYWDFLT
  2
AcDbDictionaryWithDefault
  3
ObjectDBX Classes
 90
        0
280
     0
281
     0
  0
CLASS
  1
VISUALSTYLE
  2
AcDbVisualStyle
  3
ObjectDBX Classes
 90
     4095
280
     0
281
     0
  0
CLASS
  1
MATERIAL
  2
AcDbMaterial
  3
ObjectDBX Classes
 90
     1153
280
     0
281
     0
  0
CLASS
  1
DICTIONARYVAR
  2
AcDbDictionaryVar
  3
ObjectDBX Classes
 90
        0
280
     0
281
     0
  0
CLASS
  1
ACDBPLACEHOLDER
  2
AcDbPlaceHolder
  3
ObjectDBX Classes
 90
        0
280
     0
281
     0
  0
CLASS
  1
LAYOUT
  2
AcDbLayout
  3
ObjectDBX Classes
 90
        0
280
     0
281
     0
  0
ENDSEC
  0
SECTION
  2
TABLES
  0
TABLE
  2
VPORT
  5
8
330
0
100
AcDbSymbolTable
 70
     1
  0
VPORT
  5
29
330
8
100
AcDbSymbolTableRecord
100
AcDbViewportTableRecord
  2
*Active
 70
     0
 10
0.0
 20
0.0
 11
1.0
 21
1.0
 12
344.1869158879
 22
148.5
 13
0.0
 23
0.0
 14
10.0
 24
10.0
 15
10.0
 25
10.0
 16
0.0
 26
0.0
 36
1.0
 17
0.0
 27
0.0
 37
0.0
 40
297.0
 41
1.9729729729
 42
50.0
 43
0.0
 44
0.0
 50
0.0
 51
0.0
 71
     0
 72
   100
 73
     1
 74
     3
 75
     0
 76
     0
 77
     0
 78
     0
281
     0
 65
     1
110
0.0
120
0.0
130
0.0
111
1.0
121
0.0
131
0.0
112
0.0
122
1.0
132
0.0
 79
     0
146
0.0
  0
ENDTAB
  0
TABLE
  2
LTYPE
  5
5
330
0
100
AcDbSymbolTable
 70
     4
  0
LTYPE
  5
14
330
5
100
AcDbSymbolTableRecord
100
AcDbLinetypeTableRecord
  2
ByBlock
 70
     0
  3

 72
    65
 73
     0
 40
0.0
  0
LTYPE
  5
15
330
5
100
AcDbSymbolTableRecord
100
AcDbLinetypeTableRecord
  2
ByLayer
 70
     0
  3

 72
    65
 73
     0
 40
0.0
  0
LTYPE
  5
16
330
5
100
AcDbSymbolTableRecord
100
AcDbLinetypeTableRecord
  2
Continuous
 70
     0
  3
Solid line
 72
    65
 73
     0
 40
0.0
  0
LTYPE
  5
43
330
5
100
AcDbSymbolTableRecord
100
AcDbLinetypeTableRecord
  2
CENTER2
 70
     0
  3
Center (.5x) ___ _ ___ _ ___ _ ___ _ ___ _ ___
 72
    65
 73
     4
 40
28.575
 49
19.05
 74
     4
 75
     0
340
0
 46
0.0
 50
0.0
 44
0.0
 45
0.0
 49
-3.175
 74
     4
 75
     0
340
0
 46
0.0
 50
0.0
 44
0.0
 45
0.0
 49
3.175
 74
     4
 75
     0
340
0
 46
0.0
 50
0.0
 44
0.0
 45
0.0
 49
-3.175
 74
     4
 75
     0
340
0
 46
0.0
 50
0.0
 44
0.0
 45
0.0
  0
LTYPE
  5
58
330
5
100
AcDbSymbolTableRecord
100
AcDbLinetypeTableRecord
  2
DOT2
 70
     0
  3
Dot (.5x) ........................................
 72
    65
 73
     2
 40
3.175
 49
0.0
 74
     4
 75
     0
340
0
 46
0.0
 50
0.0
 44
0.0
 45
0.0
 49
-3.175
 74
     4
 75
     0
340
0
 46
0.0
 50
0.0
 44
0.0
 45
0.0
  0
LTYPE
  5
115
330
5
100
AcDbSymbolTableRecord
100
AcDbLinetypeTableRecord
  2
HIDDEN2
 70
     0
  3
Hidden (.5x) _ _ _ _ _ _ _ _ _ _ _ _ _ _ _ _ _ 
 72
    65
 73
     2
 40
4.7625
 49
3.175
 74
     4
 75
     0
340
0
 46
0.0
 50
0.0
 44
0.0
 45
0.0
 49
-1.5875
 74
     4
 75
     0
340
0
 46
0.0
 50
0.0
 44
0.0
 45
0.0
  0
ENDTAB
  0
TABLE
  2
LAYER
  5
2
330
0
100
AcDbSymbolTable
 70
     4
  0
LAYER
  5
10
330
2
100
AcDbSymbolTableRecord
100
AcDbLayerTableRecord
  2
0
 70
     0
 62
     7
  6
Continuous
370
    -3
390
F
  0
LAYER
  5
3F
330
2
100
AcDbSymbolTableRecord
100
AcDbLayerTableRecord
  2
Default
 70
     0
 62
     7
  6
Continuous
370
    -3
390
F
  0
LAYER
  5
42
330
2
100
AcDbSymbolTableRecord
100
AcDbLayerTableRecord
  2
DV1_Default
 70
     0
 62
     7
  6
Continuous
370
    -3
390
F
  0
LAYER
  5
5B
330
2
100
AcDbSymbolTableRecord
100
AcDbLayerTableRecord
  2
0011903
 70
     0
 62
     7
  6
Continuous
370
    -3
390
F
  0
ENDTAB
  0
TABLE
  2
STYLE
  5
3
330
0
100
AcDbSymbolTable
 70
     5
  0
STYLE
  5
11
330
3
100
AcDbSymbolTableRecord
100
AcDbTextStyleTableRecord
  2
Standard
 70
     0
 40
0.0
 41
1.0
 50
0.0
 71
     0
 42
2.5
  3
txt
  4

  0
STYLE
  5
156
330
3
100
AcDbSymbolTableRecord
100
AcDbTextStyleTableRecord
  2
SEACAD_Solid_Edge_ISO
 70
     0
 40
0.0
 41
1.0
 50
0.0
 71
     0
 42
0.2
  3
seiso.ttf
  4

1001
ACAD
1000
Solid Edge ISO
1071
        0
  0
STYLE
  5
192
330
3
100
AcDbSymbolTableRecord
100
AcDbTextStyleTableRecord
  2
SEACAD_Solid_Edge_ISO1_Symbols
 70
     0
 40
0.0
 41
1.0
 50
0.0
 71
     0
 42
0.2
  3
semeci1.ttf
  4

1001
ACAD
1000
Solid Edge ISO1 Symbols
1071
        0
  0
STYLE
  5
1D4
330
3
100
AcDbSymbolTableRecord
100
AcDbTextStyleTableRecord
  2
SEACAD_Solid_Edge_ANSIB
 70
     0
 40
0.0
 41
1.0
 50
0.0
 71
     0
 42
0.2
  3
seansbd.ttf
  4

1001
ACAD
1000
Solid Edge ANSI
1071
 33554432
  0
STYLE
  5
1D9
330
3
100
AcDbSymbolTableRecord
100
AcDbTextStyleTableRecord
  2
SEACAD_Solid_Edge_ANSI
 70
     0
 40
0.0
 41
1.0
 50
0.0
 71
     0
 42
0.2
  3
seans.ttf
  4

1001
ACAD
1000
Solid Edge ANSI
1071
        0
  0
ENDTAB
  0
TABLE
  2
VIEW
  5
6
330
0
100
AcDbSymbolTable
 70
     0
  0
ENDTAB
  0
TABLE
  2
UCS
  5
7
330
0
100
AcDbSymbolTable
 70
     0
  0
ENDTAB
  0
TABLE
  2
APPID
  5
9
330
0
100
AcDbSymbolTable
 70
     1
  0
APPID
  5
12
330
9
100
AcDbSymbolTableRecord
100
AcDbRegAppTableRecord
  2
ACAD
 70
     0
  0
ENDTAB
  0
TABLE
  2
DIMSTYLE
  5
A
330
0
100
AcDbSymbolTable
 70
     3
100
AcDbDimStyleTable
  0
DIMSTYLE
105
27
330
A
100
AcDbSymbolTableRecord
100
AcDbDimStyleTableRecord
  2
ISO-25
 70
     0
 41
2.5
 42
0.625
 43
3.75
 44
1.25
 73
     0
 74
     0
 77
     1
 78
     8
140
2.5
141
2.5
143
0.0393700787
147
0.625
171
     3
172
     1
178
     0
271
     2
272
     2
274
     3
278
    44
283
     0
284
     8
340
11
  0
DIMSTYLE
105
144
330
A
100
AcDbSymbolTableRecord
100
AcDbDimStyleTableRecord
  2
Standard
 70
     0
178
     0
340
11
  0
DIMSTYLE
105
157
102
{ACAD_REACTORS
330
158
330
162
330
16C
330
176
330
1B5
330
1BF
102
}
330
A
100
AcDbSymbolTableRecord
100
AcDbDimStyleTableRecord
  2
DIN
 70
     0
 41
3.5
 42
0.0
 44
1.75
 73
     0
 74
     0
 77
     1
 78
     8
140
3.5
141
1.75
147
1.75
172
     1
173
     1
178
     0
179
     3
271
     3
272
     3
278
    44
284
     8
340
156
343
151
344
151
  0
ENDTAB
  0
TABLE
  2
BLOCK_RECORD
  5
1
330
0
100
AcDbSymbolTable
 70
    22
  0
BLOCK_RECORD
  5
1F
330
1
100
AcDbSymbolTableRecord
100
AcDbBlockTableRecord
  2
*Model_Space
340
22
  0
BLOCK_RECORD
  5
1B
330
1
100
AcDbSymbolTableRecord
100
AcDbBlockTableRecord
  2
*Paper_Space
340
1E
  0
BLOCK_RECORD
  5
40
330
1
100
AcDbSymbolTableRecord
100
AcDbBlockTableRecord
  2
SE
340
0
102
{BLKREFS
331
41
102
}
  0
BLOCK_RECORD
  5
145
330
1
100
AcDbSymbolTableRecord
100
AcDbBlockTableRecord
  2
_OBLIQUE
340
0
  0
BLOCK_RECORD
  5
149
330
1
100
AcDbSymbolTableRecord
100
AcDbBlockTableRecord
  2
_DOT
340
0
  0
BLOCK_RECORD
  5
151
330
1
100
AcDbSymbolTableRecord
100
AcDbBlockTableRecord
  2
_SE_FILLED
340
0
  0
BLOCK_RECORD
  5
159
330
1
100
AcDbSymbolTableRecord
100
AcDbBlockTableRecord
  2
DMBLK127
340
0
  0
BLOCK_RECORD
  5
163
330
1
100
AcDbSymbolTableRecord
100
AcDbBlockTableRecord
  2
DMBLK128
340
0
  0
BLOCK_RECORD
  5
16D
330
1
100
AcDbSymbolTableRecord
100
AcDbBlockTableRecord
  2
DMBLK129
340
0
  0
BLOCK_RECORD
  5
177
330
1
100
AcDbSymbolTableRecord
100
AcDbBlockTableRecord
  2
DMBLK130
340
0
  0
BLOCK_RECORD
  5
180
330
1
100
AcDbSymbolTableRecord
100
AcDbBlockTableRecord
  2
GDimGGroup
340
0
102
{BLKREFS
331
181
102
}
  0
BLOCK_RECORD
  5
18B
330
1
100
AcDbSymbolTableRecord
100
AcDbBlockTableRecord
  2
GDimGGroup1
340
0
102
{BLKREFS
331
18C
102
}
  0
BLOCK_RECORD
  5
197
330
1
100
AcDbSymbolTableRecord
100
AcDbBlockTableRecord
  2
GDimGGroup2
340
0
102
{BLKREFS
331
198
102
}
  0
BLOCK_RECORD
  5
1A1
330
1
100
AcDbSymbolTableRecord
100
AcDbBlockTableRecord
  2
GDimGGroup3
340
0
102
{BLKREFS
331
1A2
102
}
  0
BLOCK_RECORD
  5
1AA
330
1
100
AcDbSymbolTableRecord
100
AcDbBlockTableRecord
  2
GDimGGroup4
340
0
102
{BLKREFS
331
1AB
102
}
  0
BLOCK_RECORD
  5
1B6
330
1
100
AcDbSymbolTableRecord
100
AcDbBlockTableRecord
  2
DMBLK131
340
0
  0
BLOCK_RECORD
  5
1C0
330
1
100
AcDbSymbolTableRecord
100
AcDbBlockTableRecord
  2
DMBLK132
340
0
  0
BLOCK_RECORD
  5
1C9
330
1
100
AcDbSymbolTableRecord
100
AcDbBlockTableRecord
  2
GDimGGroup5
340
0
102
{BLKREFS
331
1CA
102
}
  0
BLOCK_RECORD
  5
1D3
330
1
100
AcDbSymbolTableRecord
100
AcDbBlockTableRecord
  2
SEANNOT_GROUP
340
0
102
{BLKREFS
331
1E8
102
}
  0
BLOCK_RECORD
  5
1D8
330
1
100
AcDbSymbolTableRecord
100
AcDbBlockTableRecord
  2
SEANNOT_GROUP1
340
0
102
{BLKREFS
331
1E9
102
}
  0
BLOCK_RECORD
  5
1DD
330
1
100
AcDbSymbolTableRecord
100
AcDbBlockTableRecord
  2
SEANNOT_GROUP2
340
0
102
{BLKREFS
331
1EB
102
}
  0
BLOCK_RECORD
  5
1E1
330
1
100
AcDbSymbolTableRecord
100
AcDbBlockTableRecord
  2
SEANNOT_GROUP3
340
0
102
{BLKREFS
331
1EC
102
}
  0
BLOCK_RECORD
  5
1E5
330
1
100
AcDbSymbolTableRecord
100
AcDbBlockTableRecord
  2
RF-Massblatt_2016
340
0
102
{BLKREFS
331
234
102
}
  0
ENDTAB
  0
ENDSEC
  0
SECTION
  2
BLOCKS
  0
BLOCK
  5
20
330
1F
100
AcDbEntity
  8
0
100
AcDbBlockBegin
  2
*Model_Space
 70
     0
 10
0.0
 20
0.0
 30
0.0
  3
*Model_Space
  1

  0
ENDBLK
  5
21
330
1F
100
AcDbEntity
  8
0
100
AcDbBlockEnd
  0
BLOCK
  5
1C
330
1B
100
AcDbEntity
 67
     1
  8
0
100
AcDbBlockBegin
  2
*Paper_Space
 70
     0
 10
0.0
 20
0.0
 30
0.0
  3
*Paper_Space
  1

  0
ENDBLK
  5
1D
330
1B
100
AcDbEntity
 67
     1
  8
0
100
AcDbBlockEnd
  0
BLOCK
  5
142
330
40
100
AcDbEntity
  8
0
100
AcDbBlockBegin
  2
SE
 70
     0
 10
0.0
 20
0.0
 30
0.0
  3
SE
  1

  0
LINE
  5
44
330
40
100
AcDbEntity
  8
DV1_Default
  6
CENTER2
 62
     7
100
AcDbLine
 10
161.454446378
 20
124.6465221107
 30
0.0
 11
161.454446378
 21
100.6465221107
 31
0.0
  0
LINE
  5
45
330
40
100
AcDbEntity
  8
DV1_Default
  6
CENTER2
 62
     7
100
AcDbLine
 10
71.954446378
 20
91.1465221107
 30
0.0
 11
211.954446378
 21
91.1465221107
 31
0.0
  0
LINE
  5
46
330
40
100
AcDbEntity
  8
DV1_Default
  6
CENTER2
 62
     7
100
AcDbLine
 10
106.954446378
 20
124.2475236224
 30
0.0
 11
106.954446378
 21
115.6465221107
 31
0.0
  0
LINE
  5
47
330
40
100
AcDbEntity
  8
DV1_Default
  6
CENTER2
 62
     7
100
AcDbLine
 10
92.704446432
 20
91.1465221107
 30
0.0
 11
89.204446324
 21
91.1465221107
 31
0.0
  0
LINE
  5
48
330
40
100
AcDbEntity
  8
DV1_Default
  6
CENTER2
 62
     7
100
AcDbLine
 10
90.954446378
 20
92.8965221647
 30
0.0
 11
90.954446378
 21
89.3965220567
 31
0.0
  0
LINE
  5
49
330
40
100
AcDbEntity
  8
DV1_Default
  6
CENTER2
 62
     7
100
AcDbLine
 10
94.4544464861
 20
91.1465221107
 30
0.0
 11
96.704446378
 21
91.1465221107
 31
0.0
  0
LINE
  5
4A
330
40
100
AcDbEntity
  8
DV1_Default
  6
CENTER2
 62
     7
100
AcDbLine
 10
90.954446378
 20
94.6465222187
 30
0.0
 11
90.954446378
 21
96.8965221107
 31
0.0
  0
LINE
  5
4B
330
40
100
AcDbEntity
  8
DV1_Default
  6
CENTER2
 62
     7
100
AcDbLine
 10
87.45444627
 20
91.1465221107
 30
0.0
 11
85.204446378
 21
91.1465221107
 31
0.0
  0
LINE
  5
4C
330
40
100
AcDbEntity
  8
DV1_Default
  6
CENTER2
 62
     7
100
AcDbLine
 10
90.954446378
 20
87.6465220026
 30
0.0
 11
90.954446378
 21
85.3965221107
 31
0.0
  0
LINE
  5
4D
330
40
100
AcDbEntity
  8
DV1_Default
  6
CENTER2
 62
     7
100
AcDbLine
 10
114.704446432
 20
91.1465221107
 30
0.0
 11
111.204446324
 21
91.1465221107
 31
0.0
  0
LINE
  5
4E
330
40
100
AcDbEntity
  8
DV1_Default
  6
CENTER2
 62
     7
100
AcDbLine
 10
112.954446378
 20
92.8965221647
 30
0.0
 11
112.954446378
 21
89.3965220567
 31
0.0
  0
LINE
  5
4F
330
40
100
AcDbEntity
  8
DV1_Default
  6
CENTER2
 62
     7
100
AcDbLine
 10
116.4544464861
 20
91.1465221107
 30
0.0
 11
122.954446378
 21
91.1465221107
 31
0.0
  0
LINE
  5
50
330
40
100
AcDbEntity
  8
DV1_Default
  6
CENTER2
 62
     7
100
AcDbLine
 10
112.954446378
 20
94.6465222187
 30
0.0
 11
112.954446378
 21
101.1465221107
 31
0.0
  0
LINE
  5
51
330
40
100
AcDbEntity
  8
DV1_Default
  6
CENTER2
 62
     7
100
AcDbLine
 10
109.45444627
 20
91.1465221107
 30
0.0
 11
102.954446378
 21
91.1465221107
 31
0.0
  0
LINE
  5
52
330
40
100
AcDbEntity
  8
DV1_Default
  6
CENTER2
 62
     7
100
AcDbLine
 10
112.954446378
 20
87.6465220026
 30
0.0
 11
112.954446378
 21
81.1465221107
 31
0.0
  0
LINE
  5
53
330
40
100
AcDbEntity
  8
DV1_Default
  6
CENTER2
 62
     7
100
AcDbLine
 10
186.454446378
 20
124.6465221107
 30
0.0
 11
186.454446378
 21
100.6465221107
 31
0.0
  0
HATCH
  5
54
330
40
100
AcDbEntity
  8
DV1_Default
  6
Continuous
 62
     7
100
AcDbHatch
 10
0.0
 20
0.0
 30
0.0
210
0.0
220
0.0
230
1.0
  2
LINE
 70
     0
 71
     0
 91
        1
 92
        1
 93
       52
 72
     2
 10
121.5544463780252
 20
100.746522110675
 40
0.400000000000001
 50
270.0
 51
360.0
 73
     0
 72
     1
 10
121.9544463780252
 20
100.746522110675
 11
121.9544463780252
 21
95.34652211067495
 72
     1
 10
121.9544463780252
 20
95.34652211067495
 11
144.0181015764539
 21
95.34652211067497
 72
     1
 10
144.0181015764539
 20
95.34652211067497
 11
148.9544463780252
 21
103.896522110675
 72
     1
 10
148.9544463780252
 20
103.896522110675
 11
152.7044463780252
 21
103.896522110675
 72
     1
 10
152.7044463780252
 20
103.896522110675
 11
152.4544463780252
 21
104.146522110675
 72
     1
 10
152.4544463780252
 20
104.146522110675
 11
152.4544463780252
 21
121.146522110675
 72
     1
 10
152.4544463780252
 20
121.146522110675
 11
152.5794463780252
 21
121.271522110675
 72
     1
 10
152.5794463780253
 20
121.271522110675
 11
150.4544463780253
 21
123.396522110675
 72
     1
 10
150.4544463780253
 20
123.396522110675
 11
149.2044463780252
 21
123.396522110675
 72
     1
 10
149.2044463780252
 20
123.396522110675
 11
141.9544463780252
 21
116.146522110675
 72
     1
 10
141.9544463780252
 20
116.146522110675
 11
126.9544463780253
 21
116.146522110675
 72
     2
 10
126.9544463780253
 20
117.146522110675
 40
1.000000000000001
 50
90.0
 51
180.0
 73
     0
 72
     1
 10
125.9544463780253
 20
117.146522110675
 11
125.9544463780253
 21
122.146522110675
 72
     1
 10
125.9544463780253
 20
122.146522110675
 11
125.4544463780253
 21
122.646522110675
 72
     1
 10
125.4544463780253
 20
122.646522110675
 11
121.3319454527846
 21
122.646522110675
 72
     1
 10
121.3319454527846
 20
122.646522110675
 11
119.8294463780253
 21
120.0441173748666
 72
     1
 10
119.8294463780253
 20
120.0441173748666
 11
119.8294463780253
 21
119.146522110675
 72
     2
 10
119.3294463780253
 20
119.146522110675
 40
0.5000000000000004
 50
0.0
 51
90.00000000000651
 73
     0
 72
     1
 10
119.3294463780252
 20
118.646522110675
 11
116.5794463780252
 21
118.646522110675
 72
     2
 10
116.5794463780253
 20
119.146522110675
 40
0.5000000000000004
 50
90.0
 51
180.0
 73
     0
 72
     1
 10
116.0794463780253
 20
119.146522110675
 11
116.0794463780253
 21
120.0441173748666
 72
     1
 10
116.0794463780253
 20
120.0441173748666
 11
114.5769473032659
 21
122.646522110675
 72
     1
 10
114.5769473032659
 20
122.646522110675
 11
111.9544463780253
 21
122.646522110675
 72
     1
 10
111.9544463780253
 20
122.646522110675
 11
111.9544463780253
 21
117.9465221106749
 72
     2
 10
111.6544463780252
 20
117.946522110675
 40
0.3000000000000017
 50
0.0000000000026971
 51
90.0
 73
     0
 72
     1
 10
111.6544463780252
 20
117.646522110675
 11
102.2544463780252
 21
117.646522110675
 72
     2
 10
102.2544463780252
 20
117.946522110675
 40
0.3000000000000017
 50
90.0
 51
179.9999999999973
 73
     0
 72
     1
 10
101.9544463780253
 20
117.9465221106749
 11
101.9544463780253
 21
122.646522110675
 72
     1
 10
101.9544463780253
 20
122.646522110675
 11
100.4544463780253
 21
122.646522110675
 72
     1
 10
100.4544463780253
 20
122.646522110675
 11
99.95444637802525
 21
122.146522110675
 72
     1
 10
99.95444637802525
 20
122.146522110675
 11
99.95444637802525
 21
116.5645256946042
 72
     1
 10
99.95444637802525
 20
116.5645256946042
 11
100.0486072192702
 21
115.8945364957757
 72
     2
 10
99.45444637802525
 20
115.8110326351997
 40
0.6000000000000011
 50
351.9999999999995
 51
450.0
 73
     0
 72
     1
 10
99.45444637802525
 20
115.2110326351997
 11
98.71947751551586
 21
115.2110326351997
 72
     1
 10
98.71947751551586
 20
115.2110326351997
 11
98.12585741254706
 21
115.370092662401
 72
     1
 10
98.12585741254706
 20
115.3700926624011
 11
69.09452123769258
 21
113.9185258536583
 72
     2
 10
69.15444637802524
 20
112.7200230470049
 40
1.199999999999998
 50
92.8624052261115
 51
180.0
 73
     1
 72
     1
 10
67.95444637802525
 20
112.7200230470049
 11
67.95444637802525
 21
109.346522110675
 72
     2
 10
69.15444637802524
 20
109.346522110675
 40
1.2
 50
180.0
 51
270.0
 73
     1
 72
     1
 10
69.15444637802524
 20
108.146522110675
 11
80.9584209742408
 21
108.146522110675
 72
     1
 10
80.95842097424081
 20
108.146522110675
 11
82.5172667010528
 21
110.846522110675
 72
     2
 10
83.03688194332345
 20
110.546522110675
 40
0.5999999999999999
 50
209.9999999999999
 51
270.0
 73
     0
 72
     1
 10
83.03688194332345
 20
111.146522110675
 11
93.70942837962684
 21
111.146522110675
 72
     2
 10
93.70942837962684
 20
103.146522110675
 40
8.000000000000004
 50
270.0
 51
321.3178125465106
 73
     0
 72
     1
 10
99.95442637802525
 20
108.146522110675
 11
107.6252901804364
 21
108.146522110675
 72
     2
 10
108.4544463780253
 20
106.896522110675
 40
1.5
 50
236.442690238079
 51
360.0
 73
     0
 72
     1
 10
109.9544463780253
 20
106.896522110675
 11
109.9544463780253
 21
100.205022110675
 72
     1
 10
109.9544463780253
 20
100.205022110675
 11
110.0129463780253
 21
100.146522110675
 72
     1
 10
110.0129463780252
 20
100.146522110675
 11
118.4544463780253
 21
100.146522110675
 72
     1
 10
118.4544463780253
 20
100.146522110675
 11
119.4544463780252
 21
101.146522110675
 72
     1
 10
119.4544463780252
 20
101.146522110675
 11
121.5544463780253
 21
101.146522110675
 97
        0
 75
     0
 76
     1
 52
45.0
 41
1.0
 77
     0
 78
     1
 53
45.0
 43
0.0
 44
0.0
 45
-2.245064030267288
 46
2.245064030267288
 79
     0
 98
        0
  0
HATCH
  5
55
330
40
100
AcDbEntity
  8
DV1_Default
  6
Continuous
 62
     7
100
AcDbHatch
 10
0.0
 20
0.0
 30
0.0
210
0.0
220
0.0
230
1.0
  2
LINE
 70
     0
 71
     0
 91
        1
 92
        1
 93
        4
 72
     1
 10
118.4544463780253
 20
100.146522110675
 11
110.0129463780252
 21
100.146522110675
 72
     1
 10
110.0129463780252
 20
100.146522110675
 11
110.5544463780252
 21
99.60502211067497
 72
     1
 10
110.5544463780252
 20
99.60502211067497
 11
117.9129463780253
 21
99.60502211067495
 72
     1
 10
117.9129463780253
 20
99.60502211067495
 11
118.4544463780253
 21
100.146522110675
 97
        0
 75
     0
 76
     1
 52
45.0
 41
1.0
 77
     0
 78
     1
 53
45.0
 43
0.0
 44
0.0
 45
-2.245064030267288
 46
2.245064030267288
 79
     0
 98
        0
  0
HATCH
  5
56
330
40
100
AcDbEntity
  8
DV1_Default
  6
Continuous
 62
     7
100
AcDbHatch
 10
0.0
 20
0.0
 30
0.0
210
0.0
220
0.0
230
1.0
  2
LINE
 70
     0
 71
     0
 91
        1
 92
        1
 93
       10
 72
     1
 10
177.4544463780253
 20
104.146522110675
 11
177.4544463780253
 21
121.146522110675
 72
     1
 10
177.4544463780253
 20
121.146522110675
 11
177.5794463780253
 21
121.271522110675
 72
     1
 10
177.5794463780252
 20
121.271522110675
 11
175.4544463780252
 21
123.396522110675
 72
     1
 10
175.4544463780253
 20
123.396522110675
 11
172.4544463780252
 21
123.396522110675
 72
     1
 10
172.4544463780252
 20
123.396522110675
 11
170.3294463780252
 21
121.271522110675
 72
     1
 10
170.3294463780252
 20
121.271522110675
 11
170.4544463780252
 21
121.146522110675
 72
     1
 10
170.4544463780253
 20
121.146522110675
 11
170.4544463780253
 21
104.146522110675
 72
     1
 10
170.4544463780253
 20
104.146522110675
 11
169.9544463780253
 21
103.646522110675
 72
     1
 10
169.9544463780253
 20
103.646522110675
 11
177.9544463780253
 21
103.646522110675
 72
     1
 10
177.9544463780253
 20
103.646522110675
 11
177.4544463780253
 21
104.146522110675
 97
        0
 75
     0
 76
     1
 52
45.0
 41
1.0
 77
     0
 78
     1
 53
45.0
 43
0.0
 44
0.0
 45
-2.245064030267288
 46
2.245064030267288
 79
     0
 98
        0
  0
HATCH
  5
57
330
40
100
AcDbEntity
  8
DV1_Default
  6
Continuous
 62
     7
100
AcDbHatch
 10
0.0
 20
0.0
 30
0.0
210
0.0
220
0.0
230
1.0
  2
LINE
 70
     0
 71
     0
 91
        1
 92
        1
 93
       12
 72
     1
 10
194.9544463780253
 20
103.646522110675
 11
209.1544463780253
 21
103.646522110675
 72
     2
 10
209.1544463780253
 20
104.446522110675
 40
0.7999999999999952
 50
269.999999999998
 51
360.0
 73
     1
 72
     1
 10
209.9544463780253
 20
104.446522110675
 11
209.9544463780252
 21
113.2323085483019
 72
     2
 10
208.9544463780252
 20
113.2323085483019
 40
0.999999999999994
 50
0.0
 51
44.9999999999977
 73
     1
 72
     1
 10
209.6615531592118
 20
113.9394153294884
 11
202.8143496532813
 21
120.786618835419
 72
     1
 10
202.8143496532812
 20
120.786618835419
 11
200.4973395968387
 21
123.1036288918615
 72
     2
 10
199.7902328156522
 20
122.396522110675
 40
1.000000000000001
 50
45.0
 51
90.0
 73
     1
 72
     1
 10
199.7902328156522
 20
123.396522110675
 11
197.4544463780253
 21
123.396522110675
 72
     1
 10
197.4544463780253
 20
123.396522110675
 11
195.3294463780252
 21
121.271522110675
 72
     1
 10
195.3294463780252
 20
121.271522110675
 11
195.4544463780252
 21
121.146522110675
 72
     1
 10
195.4544463780252
 20
121.146522110675
 11
195.4544463780253
 21
104.146522110675
 72
     1
 10
195.4544463780253
 20
104.146522110675
 11
194.9544463780253
 21
103.646522110675
 97
        0
 75
     0
 76
     1
 52
45.0
 41
1.0
 77
     0
 78
     1
 53
45.0
 43
0.0
 44
0.0
 45
-2.245064030267288
 46
2.245064030267288
 79
     0
 98
        0
  0
LINE
  5
59
330
40
100
AcDbEntity
  8
DV1_Default
  6
DOT2
 62
     7
100
AcDbLine
 10
209.954446378
 20
98.0094518499
 30
0.0
 11
209.954446378
 21
113.6465221107
 31
0.0
  0
LINE
  5
5A
330
40
100
AcDbEntity
  8
DV1_Default
  6
DOT2
 62
     7
100
AcDbLine
 10
202.8143496533
 20
120.7866188354
 30
0.0
 11
209.954446378
 21
113.6465221107
 31
0.0
  0
ARC
  5
5C
330
40
100
AcDbEntity
  8
0011903
  6
Continuous
 62
     7
100
AcDbCircle
 10
126.954446378
 20
117.1465221107
 30
0.0
 40
1.000000000000001
100
AcDbArc
 50
180.0
 51
270.0
  0
LINE
  5
5D
330
40
100
AcDbEntity
  8
0011903
  6
Continuous
 62
     7
100
AcDbLine
 10
155.704446378
 20
102.3993303713
 30
0.0
 11
155.5513920591
 21
102.6465221107
 31
0.0
  0
SPLINE
  5
5E
330
40
100
AcDbEntity
  8
0011903
  6
Continuous
 62
     7
100
AcDbSpline
210
0.0
220
0.0
230
1.0
 70
     8
 71
     3
 72
    14
 73
    10
 74
     0
 42
0.0000000005732786
 43
0.0000000001
 12
1.0
 22
0.0
 32
0.0
 13
1.0
 23
0.0
 33
0.0
 40
0.2764960255458577
 40
0.2764960255458577
 40
0.2764960255458577
 40
0.2764960255458577
 40
0.4999999999999962
 40
0.4999999999999962
 40
0.6249999999999971
 40
0.6249999999999971
 40
0.7499999999999981
 40
0.7499999999999981
 40
1.0
 40
1.0
 40
1.0
 40
1.0
 10
167.682796671043
 20
102.6507330464888
 30
0.0
 10
166.8339985311293
 20
102.1893526268524
 30
0.0
 10
165.7145376668126
 20
101.6431751523029
 30
0.0
 10
163.6959955084884
 20
101.0515003377312
 30
0.0
 10
162.9015575073273
 20
100.8942308382245
 30
0.0
 10
161.298625033704
 20
100.7874751293315
 30
0.0
 10
160.4711714693193
 20
100.8389607046247
 30
0.0
 10
158.1355603971229
 20
101.2574848892539
 30
0.0
 10
156.7658153772801
 20
101.856988263928
 30
0.0
 10
155.7044463780252
 20
102.3993303712826
 30
0.0
  0
LINE
  5
5F
330
40
100
AcDbEntity
  8
0011903
  6
Continuous
 62
     7
100
AcDbLine
 10
98.1258574125
 20
66.9229515589
 30
0.0
 11
98.1258574125
 21
91.1465221107
 31
0.0
  0
LINE
  5
60
330
40
100
AcDbEntity
  8
0011903
  6
Continuous
 62
     7
100
AcDbLine
 10
68.954446378
 20
97.4165221107
 30
0.0
 11
67.954446378
 21
98.4165221107
 31
0.0
  0
LINE
  5
61
330
40
100
AcDbEntity
  8
0011903
  6
Continuous
 62
     7
100
AcDbLine
 10
109.954446378
 20
100.2050221107
 30
0.0
 11
109.954446378
 21
91.1465221107
 31
0.0
  0
SPLINE
  5
62
330
40
100
AcDbEntity
  8
0011903
  6
Continuous
 62
     7
100
AcDbSpline
210
0.0
220
0.0
230
1.0
 70
     8
 71
     3
 72
     8
 73
     4
 74
     0
 42
0.0000000026394244
 43
0.0000000001
 12
1.0
 22
0.0
 32
0.0
 13
1.0
 23
0.0
 33
0.0
 40
0.0
 40
0.0
 40
0.0
 40
0.0
 40
1.0
 40
1.0
 40
1.0
 40
1.0
 10
114.5769473032659
 20
66.81033506339905
 30
0.0
 10
115.0914788560354
 20
67.9638697513732
 30
0.0
 10
115.5937979624982
 20
69.12279510934337
 30
0.0
 10
116.0794463780253
 20
70.28816618186237
 30
0.0
  0
SPLINE
  5
63
330
40
100
AcDbEntity
  8
0011903
  6
Continuous
 62
     7
100
AcDbSpline
210
0.0
220
0.0
230
1.0
 70
     8
 71
     3
 72
     8
 73
     4
 74
     0
 42
0.0000000026394244
 43
0.0000000001
 12
1.0
 22
0.0
 32
0.0
 13
1.0
 23
0.0
 33
0.0
 40
0.0
 40
0.0
 40
0.0
 40
0.0
 40
1.0
 40
1.0
 40
1.0
 40
1.0
 10
119.8294463780253
 20
70.28816618186237
 30
0.0
 10
120.3150947935523
 20
69.12279510934337
 30
0.0
 10
120.8174139000151
 20
67.9638697513732
 30
0.0
 10
121.3319454527846
 20
66.81033506339905
 30
0.0
  0
LINE
  5
64
330
40
100
AcDbEntity
  8
0011903
  6
Continuous
 62
     7
100
AcDbLine
 10
121.3319454528
 20
66.8103350634
 30
0.0
 11
125.454446378
 21
66.8103350634
 31
0.0
  0
SPLINE
  5
65
330
40
100
AcDbEntity
  8
0011903
  6
Continuous
 62
     7
100
AcDbSpline
210
0.0
220
0.0
230
1.0
 70
     8
 71
     3
 72
     8
 73
     4
 74
     0
 42
0.0000000121853687
 43
0.0000000001
 12
1.0
 22
0.0
 32
0.0
 13
1.0
 23
0.0
 33
0.0
 40
0.0
 40
0.0
 40
0.0
 40
0.0
 40
1.0
 40
1.0
 40
1.0
 40
1.0
 10
125.4544463780253
 20
66.81033506339905
 30
0.0
 10
125.6216843958154
 20
67.0268027273826
 30
0.0
 10
125.7883753634708
 20
67.24372631038707
 30
0.0
 10
125.9544463780253
 20
67.46108354602094
 30
0.0
  0
LINE
  5
66
330
40
100
AcDbEntity
  8
0011903
  6
Continuous
 62
     7
100
AcDbLine
 10
110.554446378
 20
99.6050221107
 30
0.0
 11
110.554446378
 21
91.1465221107
 31
0.0
  0
SPLINE
  5
67
330
40
100
AcDbEntity
  8
0011903
  6
Continuous
 62
     7
100
AcDbSpline
210
0.0
220
0.0
230
1.0
 70
     8
 71
     3
 72
    16
 73
    12
 74
     0
 42
0.00000000048285
 43
0.0000000001
 12
1.0
 22
0.0
 32
0.0
 13
1.0
 23
0.0
 33
0.0
 40
0.0
 40
0.0
 40
0.0
 40
0.0
 40
0.1250000000000001
 40
0.1250000000000001
 40
0.2500000000000001
 40
0.2500000000000001
 40
0.3750000000000001
 40
0.3750000000000001
 40
0.5
 40
0.5
 40
0.5001944972431661
 40
0.5001944972431661
 40
0.5001944972431661
 40
0.5001944972431661
 10
93.70942837962687
 20
94.81752714812419
 30
0.0
 10
93.10357911246108
 20
95.41067271811757
 30
0.0
 10
92.31907970642247
 20
95.83200462146662
 30
0.0
 10
90.64268656370925
 20
96.07646992174956
 30
0.0
 10
89.75054079268371
 20
95.88309026629054
 30
0.0
 10
88.29080088292184
 20
95.01834687483172
 30
0.0
 10
87.69900887161754
 20
94.35858843138116
 30
0.0
 10
86.91149689629368
 20
92.85874573735117
 30
0.0
 10
86.70508453049483
 20
92.00849565680063
 30
0.0
 10
86.70444687328518
 20
91.14919191144796
 30
0.0
 10
86.70444638455812
 20
91.14785694064169
 30
0.0
 10
86.70444639765931
 20
91.14652197988778
 30
0.0
  0
LINE
  5
68
330
40
100
AcDbEntity
  8
0011903
  6
Continuous
 62
     7
100
AcDbLine
 10
72.454446378
 20
84.8765221107
 30
0.0
 11
68.954446378
 21
84.8765221107
 31
0.0
  0
ARC
  5
69
330
40
100
AcDbEntity
  8
0011903
  6
Continuous
 62
     7
100
AcDbCircle
 10
72.454446378
 20
86.3765221107
 30
0.0
 40
1.500000000000001
100
AcDbArc
 50
270.0
 51
0.0
  0
ARC
  5
6A
330
40
100
AcDbEntity
  8
0011903
  6
Continuous
 62
     7
100
AcDbCircle
 10
90.4717251915
 20
91.1465221107
 30
0.0
 40
4.894793143699917
100
AcDbArc
 50
0.0000054879
 51
48.5887883669
  0
ARC
  5
6B
330
40
100
AcDbEntity
  8
0011903
  6
Continuous
 62
     7
100
AcDbCircle
 10
90.954446378
 20
91.1465221107
 30
0.0
 40
3.749999999999971
100
AcDbArc
 50
0.0
 51
180.0
  0
ARC
  5
6C
330
40
100
AcDbEntity
  8
0011903
  6
Continuous
 62
     7
100
AcDbCircle
 10
90.954446378
 20
91.1465221107
 30
0.0
 40
3.749999999999998
100
AcDbArc
 50
180.0
 51
0.0
  0
LINE
  5
6D
330
40
100
AcDbEntity
  8
0011903
  6
Continuous
 62
     7
100
AcDbLine
 10
68.954446378
 20
84.8765221107
 30
0.0
 11
68.954446378
 21
82.0717089019
 31
0.0
  0
LINE
  5
6E
330
40
100
AcDbEntity
  8
0011903
  6
Continuous
 62
     7
100
AcDbLine
 10
67.954446378
 20
83.8765221107
 30
0.0
 11
67.954446378
 21
82.5498975743
 31
0.0
  0
LINE
  5
6F
330
40
100
AcDbEntity
  8
0011903
  6
Continuous
 62
     7
100
AcDbLine
 10
68.954446378
 20
84.8765221107
 30
0.0
 11
67.954446378
 21
83.8765221107
 31
0.0
  0
LINE
  5
70
330
40
100
AcDbEntity
  8
0011903
  6
Continuous
 62
     7
100
AcDbLine
 10
119.454446378
 20
101.1465221107
 30
0.0
 11
119.454446378
 21
91.1465221107
 31
0.0
  0
LINE
  5
71
330
40
100
AcDbEntity
  8
0011903
  6
Continuous
 62
     7
100
AcDbLine
 10
117.912946378
 20
99.6050221107
 30
0.0
 11
117.912946378
 21
91.1465221107
 31
0.0
  0
LINE
  5
72
330
40
100
AcDbEntity
  8
0011903
  6
Continuous
 62
     7
100
AcDbLine
 10
116.1942451389
 20
83.1465221107
 30
0.0
 11
116.079446378
 21
83.1465221107
 31
0.0
  0
LINE
  5
73
330
40
100
AcDbEntity
  8
0011903
  6
Continuous
 62
     7
100
AcDbLine
 10
119.829446378
 20
83.1465221107
 30
0.0
 11
119.7146476172
 21
83.1465221107
 31
0.0
  0
SPLINE
  5
74
330
40
100
AcDbEntity
  8
0011903
  6
Continuous
 62
     7
100
AcDbSpline
210
0.0
220
0.0
230
1.0
 70
     8
 71
     3
 72
    14
 73
    10
 74
     0
 42
0.0000000125137312
 43
0.0000000001
 12
1.0
 22
0.0
 32
0.0
 13
1.0
 23
0.0
 33
0.0
 40
0.0
 40
0.0
 40
0.0
 40
0.0
 40
0.124999999999997
 40
0.124999999999997
 40
0.249999999999994
 40
0.249999999999994
 40
0.499999999999996
 40
0.499999999999996
 40
1.0
 40
1.0
 40
1.0
 40
1.0
 10
116.5794463780253
 20
83.79805288232544
 30
0.0
 10
116.5457623731403
 20
83.79805288232544
 30
0.0
 10
116.5134346227578
 20
83.78457267794091
 30
0.0
 10
116.4588553571108
 20
83.74593756224056
 30
0.0
 10
116.4357951878888
 20
83.72132608913839
 30
0.0
 10
116.3744110631119
 20
83.64252927926738
 30
0.0
 10
116.3433736996166
 20
83.58328077643444
 30
0.0
 10
116.262707311782
 20
83.4028595521892
 30
0.0
 10
116.2248813403062
 20
83.27461594968548
 30
0.0
 10
116.1942451388825
 20
83.14652211067495
 30
0.0
  0
LINE
  5
75
330
40
100
AcDbEntity
  8
0011903
  6
Continuous
 62
     7
100
AcDbLine
 10
119.329446378
 20
83.7980528824
 30
0.0
 11
116.579446378
 21
83.7980528823
 31
0.0
  0
SPLINE
  5
76
330
40
100
AcDbEntity
  8
0011903
  6
Continuous
 62
     7
100
AcDbSpline
210
0.0
220
0.0
230
1.0
 70
     8
 71
     3
 72
    14
 73
    10
 74
     0
 42
0.0000000125142491
 43
0.0000000001
 12
1.0
 22
0.0
 32
0.0
 13
1.0
 23
0.0
 33
0.0
 40
0.0
 40
0.0
 40
0.0
 40
0.0
 40
0.5000000000000013
 40
0.5000000000000013
 40
0.750000000000002
 40
0.750000000000002
 40
0.875000000000001
 40
0.875000000000001
 40
1.0
 40
1.0
 40
1.0
 40
1.0
 10
119.7146476171689
 20
83.14652211067495
 30
0.0
 10
119.6841797454409
 20
83.27391214190008
 30
0.0
 10
119.6467028573002
 20
83.40161689037244
 30
0.0
 10
119.5654721323801
 20
83.58342826063318
 30
0.0
 10
119.5342604857576
 20
83.64292536621167
 30
0.0
 10
119.4727272449351
 20
83.72174473588609
 30
0.0
 10
119.4497184036086
 20
83.74619402459902
 30
0.0
 10
119.3954863715403
 20
83.78452186948729
 30
0.0
 10
119.3626686411036
 20
83.79805288232733
 30
0.0
 10
119.3294463780182
 20
83.79805288241619
 30
0.0
  0
LINE
  5
77
330
40
100
AcDbEntity
  8
0011903
  6
Continuous
 62
     7
100
AcDbLine
 10
125.954446378
 20
91.1465221107
 30
0.0
 11
125.954446378
 21
83.1465221107
 31
0.0
  0
SPLINE
  5
78
330
40
100
AcDbEntity
  8
0011903
  6
Continuous
 62
     7
100
AcDbSpline
210
0.0
220
0.0
230
1.0
 70
     8
 71
     3
 72
    10
 73
     6
 74
     0
 42
0.0000000055479369
 43
0.0000000001
 12
1.0
 22
0.0
 32
0.0
 13
1.0
 23
0.0
 33
0.0
 40
0.4356957918904278
 40
0.4356957918904278
 40
0.4356957918904278
 40
0.4356957918904278
 40
0.499999999999997
 40
0.499999999999997
 40
1.0
 40
1.0
 40
1.0
 40
1.0
 10
116.1957406448768
 20
83.15343148482138
 30
0.0
 10
116.1867355863158
 20
83.1158195430157
 30
0.0
 10
116.1784182128009
 20
83.0780326506062
 30
0.0
 10
116.1099866235374
 20
82.74578301400253
 30
0.0
 10
116.082197241235
 20
82.44486129956088
 30
0.0
 10
116.0796258647094
 20
82.14652211067497
 30
0.0
  0
LINE
  5
79
330
40
100
AcDbEntity
  8
0011903
  6
Continuous
 62
     7
100
AcDbLine
 10
116.079446378
 20
71.1465221107
 30
0.0
 11
116.079446378
 21
70.2881661819
 31
0.0
  0
LINE
  5
7A
330
40
100
AcDbEntity
  8
0011903
  6
Continuous
 62
     7
100
AcDbLine
 10
119.829446378
 20
70.2881661819
 30
0.0
 11
119.829446378
 21
71.1465221107
 31
0.0
  0
LINE
  5
7B
330
40
100
AcDbEntity
  8
0011903
  6
Continuous
 62
     7
100
AcDbLine
 10
125.954446378
 20
71.1465221107
 30
0.0
 11
125.954446378
 21
67.461083546
 31
0.0
  0
LINE
  5
7C
330
40
100
AcDbEntity
  8
0011903
  6
Continuous
 62
     7
100
AcDbLine
 10
121.954446378
 20
91.1465221107
 30
0.0
 11
121.954446378
 21
95.3465221107
 31
0.0
  0
LINE
  5
7D
330
40
100
AcDbEntity
  8
0011903
  6
Continuous
 62
     7
100
AcDbLine
 10
114.5769473033
 20
83.1465221107
 30
0.0
 11
116.079446378
 21
83.1465221107
 31
0.0
  0
LINE
  5
7E
330
40
100
AcDbEntity
  8
0011903
  6
Continuous
 62
     7
100
AcDbLine
 10
116.079446378
 20
71.1465221107
 30
0.0
 11
114.5769473033
 21
71.1465221107
 31
0.0
  0
LINE
  5
7F
330
40
100
AcDbEntity
  8
0011903
  6
Continuous
 62
     7
100
AcDbLine
 10
119.829446378
 20
83.1465221107
 30
0.0
 11
121.3319454528
 21
83.1465221107
 31
0.0
  0
LINE
  5
80
330
40
100
AcDbEntity
  8
0011903
  6
Continuous
 62
     7
100
AcDbLine
 10
121.3319454528
 20
71.1465221107
 30
0.0
 11
119.829446378
 21
71.1465221107
 31
0.0
  0
LINE
  5
81
330
40
100
AcDbEntity
  8
0011903
  6
Continuous
 62
     7
100
AcDbLine
 10
121.3319454528
 20
83.1465221107
 30
0.0
 11
125.454446378
 21
83.1465221107
 31
0.0
  0
LINE
  5
82
330
40
100
AcDbEntity
  8
0011903
  6
Continuous
 62
     7
100
AcDbLine
 10
125.454446378
 20
71.1465221107
 30
0.0
 11
121.3319454528
 21
71.1465221107
 31
0.0
  0
LINE
  5
83
330
40
100
AcDbEntity
  8
0011903
  6
Continuous
 62
     7
100
AcDbLine
 10
125.454446378
 20
83.1465221107
 30
0.0
 11
125.954446378
 21
83.1465221107
 31
0.0
  0
LINE
  5
84
330
40
100
AcDbEntity
  8
0011903
  6
Continuous
 62
     7
100
AcDbLine
 10
125.954446378
 20
71.1465221107
 30
0.0
 11
125.454446378
 21
71.1465221107
 31
0.0
  0
ARC
  5
85
330
40
100
AcDbEntity
  8
0011903
  6
Continuous
 62
     7
100
AcDbCircle
 10
112.954446378
 20
91.1465221107
 30
0.0
 40
7.999999999999969
100
AcDbArc
 50
180.0
 51
270.0
  0
LINE
  5
86
330
40
100
AcDbEntity
  8
0011903
  6
Continuous
 62
     7
100
AcDbLine
 10
112.954446378
 20
83.1465221107
 30
0.0
 11
114.5769473033
 21
83.1465221107
 31
0.0
  0
LINE
  5
87
330
40
100
AcDbEntity
  8
0011903
  6
Continuous
 62
     7
100
AcDbLine
 10
114.5769473033
 20
71.1465221107
 30
0.0
 11
112.0661602817
 21
71.1465221107
 31
0.0
  0
ARC
  5
88
330
40
100
AcDbEntity
  8
0011903
  6
Continuous
 62
     7
100
AcDbCircle
 10
112.0661602817
 20
63.1465221107
 30
0.0
 40
8.000000000000004
100
AcDbArc
 50
90.0
 51
152.7433806908
  0
LINE
  5
89
330
40
100
AcDbEntity
  8
0011903
  6
Continuous
 62
     7
100
AcDbLine
 10
104.954446378
 20
66.8103350634
 30
0.0
 11
114.5769473033
 21
66.8103350634
 31
0.0
  0
ARC
  5
8A
330
40
100
AcDbEntity
  8
0011903
  6
Continuous
 62
     7
100
AcDbCircle
 10
106.954446378
 20
153.775462369
 30
0.0
 40
31.52793874659562
100
AcDbArc
 50
260.8749648374
 51
279.1250351626
  0
SPLINE
  5
8B
330
40
100
AcDbEntity
  8
0011903
  6
Continuous
 62
     7
100
AcDbSpline
210
0.0
220
0.0
230
1.0
 70
    11
 71
     3
 72
    22
 73
    18
 74
     0
 42
0.0000000005626468
 43
0.0000000001
 12
1.0
 22
0.0
 32
0.0
 13
1.0
 23
0.0
 33
0.0
 40
0.0
 40
0.0
 40
0.0
 40
0.0
 40
0.125
 40
0.125
 40
0.25
 40
0.25
 40
0.375
 40
0.375
 40
0.5
 40
0.5
 40
0.625
 40
0.625
 40
0.75
 40
0.75
 40
0.875
 40
0.875
 40
1.0
 40
1.0
 40
1.0
 40
1.0
 10
106.9544463780252
 20
59.64712344439273
 30
0.0
 10
108.0789220232338
 20
59.64712344439275
 30
0.0
 10
109.1769096343355
 20
59.63787375633888
 30
0.0
 10
110.7430362320742
 20
59.690763320866
 30
0.0
 10
111.2038249276609
 20
59.76568548868717
 30
0.0
 10
111.2050664992477
 20
60.05146345469105
 30
0.0
 10
110.7531019027841
 20
60.26071575788369
 30
0.0
 10
109.1683833917435
 20
60.61563839960905
 30
0.0
 10
108.0660944357988
 20
60.74177492857132
 30
0.0
 10
105.84602019796
 20
60.74199694093591
 30
0.0
 10
104.736399367582
 20
60.61435412270465
 30
0.0
 10
103.1678112845318
 20
60.26376987024558
 30
0.0
 10
102.705440196001
 20
60.05425924212938
 30
0.0
 10
102.7034558716887
 20
59.76446857033385
 30
0.0
 10
103.1645310196523
 20
59.69089339386382
 30
0.0
 10
104.7293118819755
 20
59.6378788746419
 30
0.0
 10
105.8299707328167
 20
59.64712344439272
 30
0.0
 10
106.9544463780252
 20
59.64712344439273
 30
0.0
  0
LINE
  5
8C
330
40
100
AcDbEntity
  8
0011903
  6
Continuous
 62
     7
100
AcDbLine
 10
98.7194775155
 20
91.1465221107
 30
0.0
 11
98.7194775155
 21
67.0820115862
 31
0.0
  0
LINE
  5
8D
330
40
100
AcDbEntity
  8
0011903
  6
Continuous
 62
     7
100
AcDbLine
 10
99.954446378
 20
116.5645256946
 30
0.0
 11
99.954446378
 21
115.4793701562
 31
0.0
  0
LINE
  5
8E
330
40
100
AcDbEntity
  8
0011903
  6
Continuous
 62
     7
100
AcDbLine
 10
99.954446378
 20
91.1465221107
 30
0.0
 11
99.954446378
 21
60.1465221107
 31
0.0
  0
LINE
  5
8F
330
40
100
AcDbEntity
  8
0011903
  6
Continuous
 62
     7
100
AcDbLine
 10
100.454446378
 20
91.1465221107
 30
0.0
 11
100.454446378
 21
59.6465221107
 31
0.0
  0
LINE
  5
90
330
40
100
AcDbEntity
  8
0011903
  6
Continuous
 62
     7
100
AcDbLine
 10
114.5769473033
 20
66.8103350634
 30
0.0
 11
114.5769473033
 21
59.6465221107
 31
0.0
  0
LINE
  5
91
330
40
100
AcDbEntity
  8
0011903
  6
Continuous
 62
     7
100
AcDbLine
 10
114.5769473033
 20
71.1465221107
 30
0.0
 11
114.5769473033
 21
83.1465221107
 31
0.0
  0
LINE
  5
92
330
40
100
AcDbEntity
  8
0011903
  6
Continuous
 62
     7
100
AcDbLine
 10
116.079446378
 20
70.2881661819
 30
0.0
 11
116.079446378
 21
62.2489268465
 31
0.0
  0
LINE
  5
93
330
40
100
AcDbEntity
  8
0011903
  6
Continuous
 62
     7
100
AcDbLine
 10
116.079446378
 20
71.1465221107
 30
0.0
 11
116.079446378
 21
83.1465221107
 31
0.0
  0
LINE
  5
94
330
40
100
AcDbEntity
  8
0011903
  6
Continuous
 62
     7
100
AcDbLine
 10
119.829446378
 20
70.2881661819
 30
0.0
 11
119.829446378
 21
62.2489268465
 31
0.0
  0
LINE
  5
95
330
40
100
AcDbEntity
  8
0011903
  6
Continuous
 62
     7
100
AcDbLine
 10
119.829446378
 20
71.1465221107
 30
0.0
 11
119.829446378
 21
83.1465221107
 31
0.0
  0
LINE
  5
96
330
40
100
AcDbEntity
  8
0011903
  6
Continuous
 62
     7
100
AcDbLine
 10
121.3319454528
 20
66.8103350634
 30
0.0
 11
121.3319454528
 21
59.6465221107
 31
0.0
  0
LINE
  5
97
330
40
100
AcDbEntity
  8
0011903
  6
Continuous
 62
     7
100
AcDbLine
 10
121.3319454528
 20
71.1465221107
 30
0.0
 11
121.3319454528
 21
83.1465221107
 31
0.0
  0
LINE
  5
98
330
40
100
AcDbEntity
  8
0011903
  6
Continuous
 62
     7
100
AcDbLine
 10
125.454446378
 20
66.8103350634
 30
0.0
 11
125.454446378
 21
59.6465221107
 31
0.0
  0
LINE
  5
99
330
40
100
AcDbEntity
  8
0011903
  6
Continuous
 62
     7
100
AcDbLine
 10
125.454446378
 20
71.1465221107
 30
0.0
 11
125.454446378
 21
83.1465221107
 31
0.0
  0
LINE
  5
9A
330
40
100
AcDbEntity
  8
0011903
  6
Continuous
 62
     7
100
AcDbLine
 10
125.954446378
 20
67.461083546
 30
0.0
 11
125.954446378
 21
60.1465221107
 31
0.0
  0
LINE
  5
9B
330
40
100
AcDbEntity
  8
0011903
  6
Continuous
 62
     7
100
AcDbLine
 10
125.954446378
 20
71.1465221107
 30
0.0
 11
125.954446378
 21
83.1465221107
 31
0.0
  0
LINE
  5
9C
330
40
100
AcDbEntity
  8
0011903
  6
Continuous
 62
     7
100
AcDbLine
 10
99.954426378
 20
108.1465221107
 30
0.0
 11
99.954426378
 21
91.1465221107
 31
0.0
  0
LINE
  5
9D
330
40
100
AcDbEntity
  8
0011903
  6
Continuous
 62
     7
100
AcDbLine
 10
107.6252901804
 20
108.1465221107
 30
0.0
 11
107.6252901804
 21
91.1465221107
 31
0.0
  0
LINE
  5
9E
330
40
100
AcDbEntity
  8
0011903
  6
Continuous
 62
     7
100
AcDbLine
 10
69.154446378
 20
97.4165221107
 30
0.0
 11
76.454446378
 21
97.4165221107
 31
0.0
  0
ARC
  5
9F
330
40
100
AcDbEntity
  8
0011903
  6
Continuous
 62
     7
100
AcDbCircle
 10
76.454446378
 20
95.9165221107
 30
0.0
 40
1.499999999999633
100
AcDbArc
 50
0.0
 51
90.0
  0
LINE
  5
A0
330
40
100
AcDbEntity
  8
0011903
  6
Continuous
 62
     7
100
AcDbLine
 10
77.954446378
 20
95.9165221107
 30
0.0
 11
77.954446378
 21
91.1465221107
 31
0.0
  0
LINE
  5
A1
330
40
100
AcDbEntity
  8
0011903
  6
Continuous
 62
     7
100
AcDbLine
 10
68.954446378
 20
97.4165221107
 30
0.0
 11
69.154446378
 21
97.4165221107
 31
0.0
  0
LINE
  5
A2
330
40
100
AcDbEntity
  8
0011903
  6
Continuous
 62
     7
100
AcDbLine
 10
67.954446378
 20
109.3465221107
 30
0.0
 11
67.954446378
 21
98.4165221107
 31
0.0
  0
LINE
  5
A3
330
40
100
AcDbEntity
  8
0011903
  6
Continuous
 62
     7
100
AcDbLine
 10
80.9584209742
 20
108.1465221107
 30
0.0
 11
80.9584209742
 21
91.1465221107
 31
0.0
  0
LINE
  5
A4
330
40
100
AcDbEntity
  8
0011903
  6
Continuous
 62
     7
100
AcDbLine
 10
69.0945212377
 20
82.0350985795
 30
0.0
 11
68.954446378
 21
82.0717089019
 31
0.0
  0
SPLINE
  5
A5
330
40
100
AcDbEntity
  8
0011903
  6
Continuous
 62
     7
100
AcDbSpline
210
0.0
220
0.0
230
1.0
 70
     8
 71
     3
 72
    14
 73
    10
 74
     0
 42
0.000000007882378
 43
0.0000000001
 12
1.0
 22
0.0
 32
0.0
 13
1.0
 23
0.0
 33
0.0
 40
0.0
 40
0.0
 40
0.0
 40
0.0
 40
0.1249999999999992
 40
0.1249999999999992
 40
0.2499999999999983
 40
0.2499999999999983
 40
0.4999999999999967
 40
0.4999999999999967
 40
1.0
 40
1.0
 40
1.0
 40
1.0
 10
68.38837516427374
 20
80.94602042464736
 30
0.0
 10
68.3881356235843
 20
81.00231735395091
 30
0.0
 10
68.40241713855023
 20
81.05235168800556
 30
0.0
 10
68.43819877169793
 20
81.14508372858349
 30
0.0
 10
68.45994344494828
 20
81.18943634954934
 30
0.0
 10
68.52804332979274
 20
81.32223263111258
 30
0.0
 10
68.57795568115243
 20
81.41047732277723
 30
0.0
 10
68.73205662946178
 20
81.68233207925971
 30
0.0
 10
68.84194868934335
 20
81.87255909331003
 30
0.0
 10
68.95444637803574
 20
82.07170890190585
 30
0.0
  0
SPLINE
  5
A6
330
40
100
AcDbEntity
  8
0011903
  6
Continuous
 62
     7
100
AcDbSpline
210
0.0
220
0.0
230
1.0
 70
     8
 71
     3
 72
    14
 73
    10
 74
     0
 42
0.0000000063912222
 43
0.0000000001
 12
1.0
 22
0.0
 32
0.0
 13
1.0
 23
0.0
 33
0.0
 40
0.0
 40
0.0
 40
0.0
 40
0.0
 40
0.5000000000000002
 40
0.5000000000000002
 40
0.7500000000000003
 40
0.7500000000000003
 40
0.8750000000000001
 40
0.8750000000000001
 40
1.0
 40
1.0
 40
1.0
 40
1.0
 10
67.95444637802524
 20
82.54989757427128
 30
0.0
 10
67.95444637802524
 20
82.29529314024528
 30
0.0
 10
67.9913672623473
 20
82.04085744521424
 30
0.0
 10
68.0782163647237
 20
81.65414616532236
 30
0.0
 10
68.11238879652015
 20
81.52634744484281
 30
0.0
 10
68.1656693286928
 20
81.3356013263559
 30
0.0
 10
68.18392341908992
 20
81.27217587789053
 30
0.0
 10
68.21632050474213
 20
81.1444099101188
 30
0.0
 10
68.23100868100784
 20
81.07788733336751
 30
0.0
 10
68.230793523216
 20
81.01756099260338
 30
0.0
  0
SPLINE
  5
A7
330
40
100
AcDbEntity
  8
0011903
  6
Continuous
 62
     7
100
AcDbSpline
210
0.0
220
0.0
230
1.0
 70
     8
 71
     3
 72
    44
 73
    40
 74
     0
 42
0.0000000092321899
 43
0.0000000001
 12
1.0
 22
0.0
 32
0.0
 13
1.0
 23
0.0
 33
0.0
 40
0.0
 40
0.0
 40
0.0
 40
0.0
 40
0.1663761473870095
 40
0.1663761473870095
 40
0.1663761473870095
 40
0.3461940810136948
 40
0.3461940810136948
 40
0.3461940810136948
 40
0.4362743831522573
 40
0.4362743831522573
 40
0.4362743831522573
 40
0.4652027233186583
 40
0.4652027233186583
 40
0.4652027233186583
 40
0.4760526126235203
 40
0.4760526126235203
 40
0.4760526126235203
 40
0.4870617491754616
 40
0.4870617491754616
 40
0.4870617491754616
 40
0.4934126732062645
 40
0.4934126732062645
 40
0.4934126732062645
 40
0.4998148777165099
 40
0.4998148777165099
 40
0.4998148777165099
 40
0.5057358198672225
 40
0.5057358198672225
 40
0.5057358198672225
 40
0.5164101130686967
 40
0.5164101130686967
 40
0.5164101130686967
 40
0.5444161393291572
 40
0.5444161393291572
 40
0.5444161393291572
 40
0.64738667883135
 40
0.64738667883135
 40
0.64738667883135
 40
1.0
 40
1.0
 40
1.0
 40
1.0
 10
68.230793523216
 20
81.01756099260338
 30
0.0
 10
68.23057589231449
 20
80.95654123627602
 30
0.0
 10
68.23183564259293
 20
80.8948016514566
 30
0.0
 10
68.23487302046341
 20
80.8324234890833
 30
0.0
 10
68.23815768091409
 20
80.76496692237671
 30
0.0
 10
68.24322083385317
 20
80.69661164653321
 30
0.0
 10
68.25292432201066
 20
80.62725208334129
 30
0.0
 10
68.25778350687268
 20
80.5925191157703
 30
0.0
 10
68.26356689386348
 20
80.55723641236214
 30
0.0
 10
68.2733497976832
 20
80.52207808420103
 30
0.0
 10
68.27650195590464
 20
80.51074968772413
 30
0.0
 10
68.280112880201
 20
80.4993264861366
 30
0.0
 10
68.2848257511651
 20
80.48832870911552
 30
0.0
 10
68.28660103198966
 20
80.48418598108263
 30
0.0
 10
68.28855215883135
 20
80.48008396031791
 30
0.0
 10
68.29075811925972
 20
80.4761822101582
 30
0.0
 10
68.29298181474459
 20
80.47224909145775
 30
0.0
 10
68.29552207206362
 20
80.46842629462328
 30
0.0
 10
68.29838658165957
 20
80.46529002139118
 30
0.0
 10
68.30004929300142
 20
80.46346956420666
 30
0.0
 10
68.30185655886173
 20
80.46186020391991
 30
0.0
 10
68.30370018598099
 20
80.46066503457122
 30
0.0
 10
68.30555344374426
 20
80.45946362195869
 30
0.0
 10
68.30748874703922
 20
80.45866335170368
 30
0.0
 10
68.3093232393374
 20
80.45831991265813
 30
0.0
 10
68.31102923762005
 20
80.45800052923936
 30
0.0
 10
68.31268768776008
 20
80.4580534062076
 30
0.0
 10
68.31422986990042
 20
80.45837894310876
 30
0.0
 10
68.31699415756347
 20
80.45896245242079
 30
0.0
 10
68.31946705025942
 20
80.46040047777011
 30
0.0
 10
68.32166609069048
 20
80.4622011544975
 30
0.0
 10
68.32739053310044
 20
80.46688859456428
 30
0.0
 10
68.33166818437684
 20
80.47398334406876
 30
0.0
 10
68.33537277274068
 20
80.48143000673814
 30
0.0
 10
68.3489116109369
 20
80.5086446797546
 30
0.0
 10
68.3561454835388
 20
80.54249622666697
 30
0.0
 10
68.36238868408635
 20
80.57629684803767
 30
0.0
 10
68.38365603517062
 20
80.69143806063872
 30
0.0
 10
68.38891931502364
 20
80.81813395602418
 30
0.0
 10
68.38837516427374
 20
80.94602042464736
 30
0.0
  0
ARC
  5
A8
330
40
100
AcDbEntity
  8
0011903
  6
Continuous
 62
     7
100
AcDbCircle
 10
62.1065791407
 20
22.2005728278
 30
0.0
 40
60.24119692271412
100
AcDbArc
 50
80.1090247756
 51
83.3387283195
  0
SPLINE
  5
A9
330
40
100
AcDbEntity
  8
0011903
  6
Continuous
 62
     7
100
AcDbSpline
210
0.0
220
0.0
230
1.0
 70
     8
 71
     3
 72
    14
 73
    10
 74
     0
 42
0.0000000031852821
 43
0.0000000001
 12
1.0
 22
0.0
 32
0.0
 13
1.0
 23
0.0
 33
0.0
 40
0.0
 40
0.0
 40
0.0
 40
0.0
 40
0.4999999999999991
 40
0.4999999999999991
 40
0.749999999999998
 40
0.749999999999998
 40
0.874999999999999
 40
0.874999999999999
 40
1.0
 40
1.0
 40
1.0
 40
1.0
 10
73.95444637802524
 20
84.00902587096658
 30
0.0
 10
73.95444637802524
 20
83.48587761233101
 30
0.0
 10
73.80471341107005
 20
82.98062365587539
 30
0.0
 10
73.44778009421869
 20
82.30713962477873
 30
0.0
 10
73.30655920868034
 20
82.09210476750468
 30
0.0
 10
73.04635084736874
 20
81.80305141753207
 30
0.0
 10
72.95201591375796
 20
81.71188605371928
 30
0.0
 10
72.7299144268973
 20
81.5690943944304
 30
0.0
 10
72.59138865026016
 20
81.52144850405705
 30
0.0
 10
72.45444637802379
 20
81.54636838506121
 30
0.0
  0
LINE
  5
AA
330
40
100
AcDbEntity
  8
0011903
  6
Continuous
 62
     7
100
AcDbLine
 10
73.954446378
 20
91.1465221107
 30
0.0
 11
73.954446378
 21
84.009025871
 31
0.0
  0
SPLINE
  5
AB
330
40
100
AcDbEntity
  8
0011903
  6
Continuous
 62
     7
100
AcDbSpline
210
0.0
220
0.0
230
1.0
 70
     8
 71
     3
 72
    14
 73
    10
 74
     0
 42
0.0000000006928027
 43
0.0000000001
 12
1.0
 22
0.0
 32
0.0
 13
1.0
 23
0.0
 33
0.0
 40
0.0
 40
0.0
 40
0.0
 40
0.0
 40
0.2500000000000001
 40
0.2500000000000001
 40
0.5000000000000002
 40
0.5000000000000002
 40
0.7500000000000001
 40
0.7500000000000001
 40
1.0
 40
1.0
 40
1.0
 40
1.0
 10
86.51157363061219
 20
91.146522110675
 30
0.0
 10
86.5115736306122
 20
89.97520448270394
 30
0.0
 10
87.08076159508832
 20
88.81164015652433
 30
0.0
 10
88.84862521389473
 20
87.26911800357436
 30
0.0
 10
90.03312438121702
 20
86.85581662610011
 30
0.0
 10
92.3788333538122
 20
86.87132099184835
 30
0.0
 10
93.54120261097681
 20
87.2911033596947
 30
0.0
 10
95.29899473447797
 20
88.83271413288034
 30
0.0
 10
95.86498994095547
 20
89.9677896055354
 30
0.0
 10
95.86498994095544
 20
91.146522110675
 30
0.0
  0
LINE
  5
AC
330
40
100
AcDbEntity
  8
0011903
  6
Continuous
 62
     7
100
AcDbLine
 10
67.954446378
 20
69.5730211743
 30
0.0
 11
67.954446378
 21
82.5498975743
 31
0.0
  0
LINE
  5
AD
330
40
100
AcDbEntity
  8
0011903
  6
Continuous
 62
     7
100
AcDbLine
 10
141.954446378
 20
91.1465221107
 30
0.0
 11
141.954446378
 21
66.1465221107
 31
0.0
  0
ARC
  5
AE
330
40
100
AcDbEntity
  8
0011903
  6
Continuous
 62
     7
100
AcDbCircle
 10
161.454446378
 20
164.5765214039
 30
0.0
 40
42.62384710222792
100
AcDbArc
 50
280.1555713669
 51
284.9556622734
  0
ARC
  5
AF
330
40
100
AcDbEntity
  8
0011903
  6
Continuous
 62
     7
100
AcDbCircle
 10
161.454446378
 20
164.5765214039
 30
0.0
 40
42.62384710222792
100
AcDbArc
 50
255.0443377266
 51
259.84255103
  0
ARC
  5
B0
330
40
100
AcDbEntity
  8
0011903
  6
Continuous
 62
     7
100
AcDbCircle
 10
186.454446378
 20
164.5765214039
 30
0.0
 40
42.62384710222792
100
AcDbArc
 50
280.1555713669
 51
284.9556622734
  0
ARC
  5
B1
330
40
100
AcDbEntity
  8
0011903
  6
Continuous
 62
     7
100
AcDbCircle
 10
186.454446378
 20
164.5765214039
 30
0.0
 40
42.62384710222792
100
AcDbArc
 50
255.0443377266
 51
259.84255103
  0
LINE
  5
B2
330
40
100
AcDbEntity
  8
0011903
  6
Continuous
 62
     7
100
AcDbLine
 10
186.454446378
 20
63.9465221107
 30
0.0
 11
161.454446378
 21
63.9465221107
 31
0.0
  0
LINE
  5
B3
330
40
100
AcDbEntity
  8
0011903
  6
Continuous
 62
     7
100
AcDbLine
 10
161.454446378
 20
63.9465221107
 30
0.0
 11
156.404446378
 21
58.8965221107
 31
0.0
  0
LINE
  5
B4
330
40
100
AcDbEntity
  8
0011903
  6
Continuous
 62
     7
100
AcDbLine
 10
186.454446378
 20
63.9465221107
 30
0.0
 11
191.504446378
 21
58.8965221107
 31
0.0
  0
LINE
  5
B5
330
40
100
AcDbEntity
  8
0011903
  6
Continuous
 62
     7
100
AcDbLine
 10
209.954446378
 20
91.1465221107
 30
0.0
 11
209.954446378
 21
69.060735673
 31
0.0
  0
SPLINE
  5
B6
330
40
100
AcDbEntity
  8
0011903
  6
Continuous
 62
     7
100
AcDbSpline
210
0.0
220
0.0
230
1.0
 70
     8
 71
     3
 72
    18
 73
    14
 74
     0
 42
0.0000000004405229
 43
0.0000000001
 12
1.0
 22
0.0
 32
0.0
 13
1.0
 23
0.0
 33
0.0
 40
0.2107963998738042
 40
0.2107963998738042
 40
0.2107963998738042
 40
0.2107963998738042
 40
0.25
 40
0.25
 40
0.375
 40
0.375
 40
0.5
 40
0.5
 40
0.625
 40
0.625
 40
0.75
 40
0.75
 40
0.7894491216083217
 40
0.7894491216083217
 40
0.7894491216083217
 40
0.7894491216083217
 10
192.6744322734039
 20
102.6462205679178
 30
0.0
 10
192.4773639220001
 20
102.5397648142563
 30
0.0
 10
192.2658065644143
 20
102.4291310039955
 30
0.0
 10
191.3249381714731
 20
101.9585622422888
 30
0.0
 10
190.4912116470295
 20
101.5882952407654
 30
0.0
 10
188.5811422960611
 20
101.0084685610989
 30
0.0
 10
187.5213588324644
 20
100.8198898995873
 30
0.0
 10
185.3977281028518
 20
100.8187708516459
 30
0.0
 10
184.335213405831
 20
101.0069487791088
 30
0.0
 10
182.4276170093305
 20
101.5845401436978
 30
0.0
 10
181.5801175776095
 20
101.9604583266563
 30
0.0
 10
180.6422586699043
 20
102.4295521419004
 30
0.0
 10
180.4299741182312
 20
102.5406093400828
 30
0.0
 10
180.2321015137755
 20
102.6475454960986
 30
0.0
  0
LINE
  5
B7
330
40
100
AcDbEntity
  8
0011903
  6
Continuous
 62
     7
100
AcDbLine
 10
148.954446378
 20
103.8965221107
 30
0.0
 11
148.954446378
 21
91.1465221107
 31
0.0
  0
LINE
  5
B8
330
40
100
AcDbEntity
  8
0011903
  6
Continuous
 62
     7
100
AcDbLine
 10
155.454446378
 20
102.6465221107
 30
0.0
 11
155.454446378
 21
91.1465221107
 31
0.0
  0
LINE
  5
B9
330
40
100
AcDbEntity
  8
0011903
  6
Continuous
 62
     7
100
AcDbLine
 10
155.704446378
 20
102.3993303713
 30
0.0
 11
155.704446378
 21
91.1465221107
 31
0.0
  0
LINE
  5
BA
330
40
100
AcDbEntity
  8
0011903
  6
Continuous
 62
     7
100
AcDbLine
 10
209.954446378
 20
104.4465221107
 30
0.0
 11
209.954446378
 21
91.1465221107
 31
0.0
  0
LINE
  5
BB
330
40
100
AcDbEntity
  8
0011903
  6
Continuous
 62
     7
100
AcDbLine
 10
149.204446378
 20
91.1465221107
 30
0.0
 11
149.204446378
 21
58.8965221107
 31
0.0
  0
LINE
  5
BC
330
40
100
AcDbEntity
  8
0011903
  6
Continuous
 62
     7
100
AcDbLine
 10
144.0181015765
 20
91.1465221107
 30
0.0
 11
144.0181015765
 21
95.3465221107
 31
0.0
  0
LINE
  5
BD
330
40
100
AcDbEntity
  8
0011903
  6
Continuous
 62
     7
100
AcDbLine
 10
209.954446378
 20
113.2323085483
 30
0.0
 11
209.954446378
 21
104.4465221107
 31
0.0
  0
ARC
  5
BE
330
40
100
AcDbEntity
  8
0011903
  6
Continuous
 62
     7
100
AcDbCircle
 10
209.154446378
 20
104.4465221107
 30
0.0
 40
0.7999999999999952
100
AcDbArc
 50
270.0
 51
0.0
  0
ARC
  5
BF
330
40
100
AcDbEntity
  8
0011903
  6
Continuous
 62
     7
100
AcDbCircle
 10
208.954446378
 20
113.2323085483
 30
0.0
 40
0.999999999999994
100
AcDbArc
 50
0.0
 51
45.0
  0
LINE
  5
C0
330
40
100
AcDbEntity
  8
0011903
  6
Continuous
 62
     7
100
AcDbLine
 10
209.154446378
 20
103.6465221107
 30
0.0
 11
194.954446378
 21
103.6465221107
 31
0.0
  0
LINE
  5
C1
330
40
100
AcDbEntity
  8
0011903
  6
Continuous
 62
     7
100
AcDbLine
 10
200.4973395968
 20
123.1036288919
 30
0.0
 11
209.6615531592
 21
113.9394153295
 31
0.0
  0
ARC
  5
C2
330
40
100
AcDbEntity
  8
0011903
  6
Continuous
 62
     7
100
AcDbCircle
 10
199.7902328157
 20
122.3965221107
 30
0.0
 40
1.000000000000001
100
AcDbArc
 50
45.0
 51
90.0
  0
LINE
  5
C3
330
40
100
AcDbEntity
  8
0011903
  6
Continuous
 62
     7
100
AcDbLine
 10
195.329446378
 20
121.2715221107
 30
0.0
 11
197.454446378
 21
123.3965221107
 31
0.0
  0
LINE
  5
C4
330
40
100
AcDbEntity
  8
0011903
  6
Continuous
 62
     7
100
AcDbLine
 10
199.7902328157
 20
123.3965221107
 30
0.0
 11
197.454446378
 21
123.3965221107
 31
0.0
  0
LINE
  5
C5
330
40
100
AcDbEntity
  8
0011903
  6
Continuous
 62
     7
100
AcDbLine
 10
177.954446378
 20
103.6465221107
 30
0.0
 11
169.954446378
 21
103.6465221107
 31
0.0
  0
LINE
  5
C6
330
40
100
AcDbEntity
  8
0011903
  6
Continuous
 62
     7
100
AcDbLine
 10
170.329446378
 20
121.2715221107
 30
0.0
 11
172.454446378
 21
123.3965221107
 31
0.0
  0
LINE
  5
C7
330
40
100
AcDbEntity
  8
0011903
  6
Continuous
 62
     7
100
AcDbLine
 10
175.454446378
 20
123.3965221107
 30
0.0
 11
177.579446378
 21
121.2715221107
 31
0.0
  0
LINE
  5
C8
330
40
100
AcDbEntity
  8
0011903
  6
Continuous
 62
     7
100
AcDbLine
 10
175.454446378
 20
123.3965221107
 30
0.0
 11
172.454446378
 21
123.3965221107
 31
0.0
  0
ARC
  5
C9
330
40
100
AcDbEntity
  8
0011903
  6
Continuous
 62
     7
100
AcDbCircle
 10
69.154446378
 20
109.3465221107
 30
0.0
 40
1.2
100
AcDbArc
 50
180.0
 51
270.0
  0
LINE
  5
CA
330
40
100
AcDbEntity
  8
0011903
  6
Continuous
 62
     7
100
AcDbLine
 10
67.954446378
 20
112.720023047
 30
0.0
 11
67.954446378
 21
109.3465221107
 31
0.0
  0
LINE
  5
CB
330
40
100
AcDbEntity
  8
0011903
  6
Continuous
 62
     7
100
AcDbLine
 10
80.9584209742
 20
108.1465221107
 30
0.0
 11
69.154446378
 21
108.1465221107
 31
0.0
  0
LINE
  5
CC
330
40
100
AcDbEntity
  8
0011903
  6
Continuous
 62
     7
100
AcDbLine
 10
82.5172667011
 20
110.8465221107
 30
0.0
 11
80.9584209742
 21
108.1465221107
 31
0.0
  0
ARC
  5
CD
330
40
100
AcDbEntity
  8
0011903
  6
Continuous
 62
     7
100
AcDbCircle
 10
83.0368819433
 20
110.5465221107
 30
0.0
 40
0.5999999999999999
100
AcDbArc
 50
90.0
 51
150.0
  0
ARC
  5
CE
330
40
100
AcDbEntity
  8
0011903
  6
Continuous
 62
     7
100
AcDbCircle
 10
69.154446378
 20
112.720023047
 30
0.0
 40
1.199999999999998
100
AcDbArc
 50
92.8624052261
 51
180.0
  0
LINE
  5
CF
330
40
100
AcDbEntity
  8
0011903
  6
Continuous
 62
     7
100
AcDbLine
 10
98.1258574125
 20
115.3700926624
 30
0.0
 11
69.0945212377
 21
113.9185258537
 31
0.0
  0
LINE
  5
D0
330
40
100
AcDbEntity
  8
0011903
  6
Continuous
 62
     7
100
AcDbLine
 10
98.7194775155
 20
115.2110326352
 30
0.0
 11
98.1258574125
 21
115.3700926624
 31
0.0
  0
LINE
  5
D1
330
40
100
AcDbEntity
  8
0011903
  6
Continuous
 62
     7
100
AcDbLine
 10
93.7094283796
 20
111.1465221107
 30
0.0
 11
83.0368819433
 21
111.1465221107
 31
0.0
  0
LINE
  5
D2
330
40
100
AcDbEntity
  8
0011903
  6
Continuous
 62
     7
100
AcDbLine
 10
99.454446378
 20
115.2110326352
 30
0.0
 11
98.7194775155
 21
115.2110326352
 31
0.0
  0
ARC
  5
D3
330
40
100
AcDbEntity
  8
0011903
  6
Continuous
 62
     7
100
AcDbCircle
 10
93.7094283796
 20
103.1465221107
 30
0.0
 40
8.000000000000004
100
AcDbArc
 50
38.6821874535
 51
90.0
  0
ARC
  5
D4
330
40
100
AcDbEntity
  8
0011903
  6
Continuous
 62
     7
100
AcDbCircle
 10
99.454446378
 20
115.8110326352
 30
0.0
 40
0.6000000000000011
100
AcDbArc
 50
270.0
 51
8.0
  0
LINE
  5
D5
330
40
100
AcDbEntity
  8
0011903
  6
Continuous
 62
     7
100
AcDbLine
 10
99.954426378
 20
108.1465221107
 30
0.0
 11
107.6252901804
 21
108.1465221107
 31
0.0
  0
ARC
  5
D6
330
40
100
AcDbEntity
  8
0011903
  6
Continuous
 62
     7
100
AcDbCircle
 10
108.454446378
 20
106.8965221107
 30
0.0
 40
1.5
100
AcDbArc
 50
0.0
 51
123.5573097619
  0
LINE
  5
D7
330
40
100
AcDbEntity
  8
0011903
  6
Continuous
 62
     7
100
AcDbLine
 10
99.954446378
 20
116.5645256946
 30
0.0
 11
100.0486072193
 21
115.8945364958
 31
0.0
  0
LINE
  5
D8
330
40
100
AcDbEntity
  8
0011903
  6
Continuous
 62
     7
100
AcDbLine
 10
99.954446378
 20
122.1465221107
 30
0.0
 11
99.954446378
 21
116.5645256946
 31
0.0
  0
LINE
  5
D9
330
40
100
AcDbEntity
  8
0011903
  6
Continuous
 62
     7
100
AcDbLine
 10
100.454446378
 20
122.6465221107
 30
0.0
 11
99.954446378
 21
122.1465221107
 31
0.0
  0
LINE
  5
DA
330
40
100
AcDbEntity
  8
0011903
  6
Continuous
 62
     7
100
AcDbLine
 10
101.954446378
 20
122.6465221107
 30
0.0
 11
100.454446378
 21
122.6465221107
 31
0.0
  0
LINE
  5
DB
330
40
100
AcDbEntity
  8
0011903
  6
Continuous
 62
     7
100
AcDbLine
 10
101.954446378
 20
122.6465221107
 30
0.0
 11
101.954446378
 21
117.9465221107
 31
0.0
  0
LINE
  5
DC
330
40
100
AcDbEntity
  8
0011903
  6
Continuous
 62
     7
100
AcDbLine
 10
109.954446378
 20
106.8965221107
 30
0.0
 11
109.954446378
 21
100.2050221107
 31
0.0
  0
LINE
  5
DD
330
40
100
AcDbEntity
  8
0011903
  6
Continuous
 62
     7
100
AcDbLine
 10
109.954446378
 20
100.2050221107
 30
0.0
 11
110.554446378
 21
99.6050221107
 31
0.0
  0
LINE
  5
DE
330
40
100
AcDbEntity
  8
0011903
  6
Continuous
 62
     7
100
AcDbLine
 10
117.912946378
 20
99.6050221107
 30
0.0
 11
110.554446378
 21
99.6050221107
 31
0.0
  0
LINE
  5
DF
330
40
100
AcDbEntity
  8
0011903
  6
Continuous
 62
     7
100
AcDbLine
 10
119.454446378
 20
101.1465221107
 30
0.0
 11
117.912946378
 21
99.6050221107
 31
0.0
  0
ARC
  5
E0
330
40
100
AcDbEntity
  8
0011903
  6
Continuous
 62
     7
100
AcDbCircle
 10
102.254446378
 20
117.9465221107
 30
0.0
 40
0.3000000000000017
100
AcDbArc
 50
180.0
 51
270.0
  0
LINE
  5
E1
330
40
100
AcDbEntity
  8
0011903
  6
Continuous
 62
     7
100
AcDbLine
 10
121.554446378
 20
101.1465221107
 30
0.0
 11
119.454446378
 21
101.1465221107
 31
0.0
  0
LINE
  5
E2
330
40
100
AcDbEntity
  8
0011903
  6
Continuous
 62
     7
100
AcDbLine
 10
111.654446378
 20
117.6465221107
 30
0.0
 11
102.254446378
 21
117.6465221107
 31
0.0
  0
ARC
  5
E3
330
40
100
AcDbEntity
  8
0011903
  6
Continuous
 62
     7
100
AcDbCircle
 10
111.654446378
 20
117.9465221107
 30
0.0
 40
0.3000000000000017
100
AcDbArc
 50
270.0
 51
360.0
  0
LINE
  5
E4
330
40
100
AcDbEntity
  8
0011903
  6
Continuous
 62
     7
100
AcDbLine
 10
111.954446378
 20
117.9465221107
 30
0.0
 11
111.954446378
 21
122.6465221107
 31
0.0
  0
ARC
  5
E5
330
40
100
AcDbEntity
  8
0011903
  6
Continuous
 62
     7
100
AcDbCircle
 10
121.554446378
 20
100.7465221107
 30
0.0
 40
0.400000000000001
100
AcDbArc
 50
0.0
 51
90.0
  0
LINE
  5
E6
330
40
100
AcDbEntity
  8
0011903
  6
Continuous
 62
     7
100
AcDbLine
 10
114.5769473033
 20
122.6465221107
 30
0.0
 11
111.954446378
 21
122.6465221107
 31
0.0
  0
LINE
  5
E7
330
40
100
AcDbEntity
  8
0011903
  6
Continuous
 62
     7
100
AcDbLine
 10
116.079446378
 20
120.0441173749
 30
0.0
 11
114.5769473033
 21
122.6465221107
 31
0.0
  0
LINE
  5
E8
330
40
100
AcDbEntity
  8
0011903
  6
Continuous
 62
     7
100
AcDbLine
 10
116.079446378
 20
119.1465221107
 30
0.0
 11
116.079446378
 21
120.0441173749
 31
0.0
  0
ARC
  5
E9
330
40
100
AcDbEntity
  8
0011903
  6
Continuous
 62
     7
100
AcDbCircle
 10
116.579446378
 20
119.1465221107
 30
0.0
 40
0.5000000000000004
100
AcDbArc
 50
180.0
 51
270.0
  0
LINE
  5
EA
330
40
100
AcDbEntity
  8
0011903
  6
Continuous
 62
     7
100
AcDbLine
 10
121.954446378
 20
95.3465221107
 30
0.0
 11
121.954446378
 21
100.7465221107
 31
0.0
  0
LINE
  5
EB
330
40
100
AcDbEntity
  8
0011903
  6
Continuous
 62
     7
100
AcDbLine
 10
144.0181015765
 20
95.3465221107
 30
0.0
 11
121.954446378
 21
95.3465221107
 31
0.0
  0
LINE
  5
EC
330
40
100
AcDbEntity
  8
0011903
  6
Continuous
 62
     7
100
AcDbLine
 10
148.954446378
 20
103.8965221107
 30
0.0
 11
144.0181015765
 21
95.3465221107
 31
0.0
  0
LINE
  5
ED
330
40
100
AcDbEntity
  8
0011903
  6
Continuous
 62
     7
100
AcDbLine
 10
119.329446378
 20
118.6465221107
 30
0.0
 11
116.579446378
 21
118.6465221107
 31
0.0
  0
ARC
  5
EE
330
40
100
AcDbEntity
  8
0011903
  6
Continuous
 62
     7
100
AcDbCircle
 10
119.329446378
 20
119.1465221107
 30
0.0
 40
0.5000000000000004
100
AcDbArc
 50
270.0
 51
0.0
  0
LINE
  5
EF
330
40
100
AcDbEntity
  8
0011903
  6
Continuous
 62
     7
100
AcDbLine
 10
152.704446378
 20
103.8965221107
 30
0.0
 11
148.954446378
 21
103.8965221107
 31
0.0
  0
LINE
  5
F0
330
40
100
AcDbEntity
  8
0011903
  6
Continuous
 62
     7
100
AcDbLine
 10
150.454446378
 20
123.3965221107
 30
0.0
 11
152.579446378
 21
121.2715221107
 31
0.0
  0
LINE
  5
F1
330
40
100
AcDbEntity
  8
0011903
  6
Continuous
 62
     7
100
AcDbLine
 10
150.454446378
 20
123.3965221107
 30
0.0
 11
149.204446378
 21
123.3965221107
 31
0.0
  0
LINE
  5
F2
330
40
100
AcDbEntity
  8
0011903
  6
Continuous
 62
     7
100
AcDbLine
 10
119.829446378
 20
120.0441173749
 30
0.0
 11
119.829446378
 21
119.1465221107
 31
0.0
  0
LINE
  5
F3
330
40
100
AcDbEntity
  8
0011903
  6
Continuous
 62
     7
100
AcDbLine
 10
121.3319454528
 20
122.6465221107
 30
0.0
 11
119.829446378
 21
120.0441173749
 31
0.0
  0
LINE
  5
F4
330
40
100
AcDbEntity
  8
0011903
  6
Continuous
 62
     7
100
AcDbLine
 10
125.454446378
 20
122.6465221107
 30
0.0
 11
121.3319454528
 21
122.6465221107
 31
0.0
  0
LINE
  5
F5
330
40
100
AcDbEntity
  8
0011903
  6
Continuous
 62
     7
100
AcDbLine
 10
125.954446378
 20
122.1465221107
 30
0.0
 11
125.454446378
 21
122.6465221107
 31
0.0
  0
LINE
  5
F6
330
40
100
AcDbEntity
  8
0011903
  6
Continuous
 62
     7
100
AcDbLine
 10
149.204446378
 20
123.3965221107
 30
0.0
 11
141.954446378
 21
116.1465221107
 31
0.0
  0
LINE
  5
F7
330
40
100
AcDbEntity
  8
0011903
  6
Continuous
 62
     7
100
AcDbLine
 10
125.954446378
 20
117.1465221107
 30
0.0
 11
125.954446378
 21
122.1465221107
 31
0.0
  0
LINE
  5
F8
330
40
100
AcDbEntity
  8
0011903
  6
Continuous
 62
     7
100
AcDbLine
 10
141.954446378
 20
116.1465221107
 30
0.0
 11
126.954446378
 21
116.1465221107
 31
0.0
  0
LINE
  5
F9
330
40
100
AcDbEntity
  8
0011903
  6
Continuous
 62
     7
100
AcDbLine
 10
98.1258574125
 20
66.9229515589
 30
0.0
 11
98.7194775155
 21
67.0820115862
 31
0.0
  0
LINE
  5
FA
330
40
100
AcDbEntity
  8
0011903
  6
Continuous
 62
     7
100
AcDbLine
 10
99.954446378
 20
60.1465221107
 30
0.0
 11
100.454446378
 21
59.6465221107
 31
0.0
  0
LINE
  5
FB
330
40
100
AcDbEntity
  8
0011903
  6
Continuous
 62
     7
100
AcDbLine
 10
108.1816490508
 20
59.6465221107
 30
0.0
 11
114.5769473033
 21
59.6465221107
 31
0.0
  0
LINE
  5
FC
330
40
100
AcDbEntity
  8
0011903
  6
Continuous
 62
     7
100
AcDbLine
 10
100.454446378
 20
59.6465221107
 30
0.0
 11
105.7375517039
 21
59.6465221107
 31
0.0
  0
ARC
  5
FD
330
40
100
AcDbEntity
  8
0011903
  6
Continuous
 62
     7
100
AcDbCircle
 10
99.454446378
 20
66.4820115862
 30
0.0
 40
0.5999999999999963
100
AcDbArc
 50
33.5573097619
 51
90.0
  0
LINE
  5
FE
330
40
100
AcDbEntity
  8
0011903
  6
Continuous
 62
     7
100
AcDbLine
 10
98.7194775155
 20
67.0820115862
 30
0.0
 11
99.454446378
 21
67.0820115862
 31
0.0
  0
LINE
  5
FF
330
40
100
AcDbEntity
  8
0011903
  6
Continuous
 62
     7
100
AcDbLine
 10
69.0945212377
 20
68.3745183677
 30
0.0
 11
98.1258574125
 21
66.9229515589
 31
0.0
  0
LINE
  5
100
330
40
100
AcDbEntity
  8
0011903
  6
Continuous
 62
     7
100
AcDbLine
 10
126.954446378
 20
66.1465221107
 30
0.0
 11
141.954446378
 21
66.1465221107
 31
0.0
  0
LINE
  5
101
330
40
100
AcDbEntity
  8
0011903
  6
Continuous
 62
     7
100
AcDbLine
 10
141.954446378
 20
66.1465221107
 30
0.0
 11
149.204446378
 21
58.8965221107
 31
0.0
  0
ARC
  5
102
330
40
100
AcDbEntity
  8
0011903
  6
Continuous
 62
     7
100
AcDbCircle
 10
208.954446378
 20
69.060735673
 30
0.0
 40
0.9999999999999989
100
AcDbArc
 50
315.0
 51
0.0
  0
LINE
  5
103
330
40
100
AcDbEntity
  8
0011903
  6
Continuous
 62
     7
100
AcDbLine
 10
200.4973395968
 20
59.1894153295
 30
0.0
 11
209.6615531592
 21
68.3536288919
 31
0.0
  0
ARC
  5
104
330
40
100
AcDbEntity
  8
0011903
  6
Continuous
 62
     7
100
AcDbCircle
 10
199.7902328157
 20
59.8965221107
 30
0.0
 40
1.000000000000001
100
AcDbArc
 50
270.0
 51
315.0
  0
ARC
  5
105
330
40
100
AcDbEntity
  8
0011903
  6
Continuous
 62
     7
100
AcDbCircle
 10
126.954446378
 20
65.1465221107
 30
0.0
 40
1.000000000000001
100
AcDbArc
 50
90.0
 51
180.0
  0
ARC
  5
106
330
40
100
AcDbEntity
  8
0011903
  6
Continuous
 62
     7
100
AcDbCircle
 10
116.579446378
 20
63.1465221107
 30
0.0
 40
0.5000000000000004
100
AcDbArc
 50
90.0
 51
180.0
  0
ARC
  5
107
330
40
100
AcDbEntity
  8
0011903
  6
Continuous
 62
     7
100
AcDbCircle
 10
119.329446378
 20
63.1465221107
 30
0.0
 40
0.5000000000000004
100
AcDbArc
 50
0.0
 51
90.0
  0
LINE
  5
108
330
40
100
AcDbEntity
  8
0011903
  6
Continuous
 62
     7
100
AcDbLine
 10
116.579446378
 20
63.6465221107
 30
0.0
 11
119.329446378
 21
63.6465221107
 31
0.0
  0
LINE
  5
109
330
40
100
AcDbEntity
  8
0011903
  6
Continuous
 62
     7
100
AcDbLine
 10
114.5769473033
 20
59.6465221107
 30
0.0
 11
116.079446378
 21
62.2489268465
 31
0.0
  0
LINE
  5
10A
330
40
100
AcDbEntity
  8
0011903
  6
Continuous
 62
     7
100
AcDbLine
 10
125.454446378
 20
59.6465221107
 30
0.0
 11
125.954446378
 21
60.1465221107
 31
0.0
  0
LINE
  5
10B
330
40
100
AcDbEntity
  8
0011903
  6
Continuous
 62
     7
100
AcDbLine
 10
121.3319454528
 20
59.6465221107
 30
0.0
 11
125.454446378
 21
59.6465221107
 31
0.0
  0
LINE
  5
10C
330
40
100
AcDbEntity
  8
0011903
  6
Continuous
 62
     7
100
AcDbLine
 10
119.829446378
 20
62.2489268465
 30
0.0
 11
121.3319454528
 21
59.6465221107
 31
0.0
  0
ARC
  5
10D
330
40
100
AcDbEntity
  8
0011903
  6
Continuous
 62
     7
100
AcDbCircle
 10
69.154446378
 20
69.5730211743
 30
0.0
 40
1.2
100
AcDbArc
 50
180.0
 51
267.1375947739
  0
LINE
  5
10E
330
40
100
AcDbEntity
  8
0011903
  6
Continuous
 62
     7
100
AcDbLine
 10
191.504446378
 20
58.8965221107
 30
0.0
 11
199.7902328157
 21
58.8965221107
 31
0.0
  0
LINE
  5
10F
330
40
100
AcDbEntity
  8
0011903
  6
Continuous
 62
     7
100
AcDbLine
 10
149.204446378
 20
58.8965221107
 30
0.0
 11
156.404446378
 21
58.8965221107
 31
0.0
  0
LINE
  5
110
330
40
100
AcDbEntity
  8
0011903
  6
Continuous
 62
     7
100
AcDbLine
 10
110.012946378
 20
100.1465221107
 30
0.0
 11
118.454446378
 21
100.1465221107
 31
0.0
  0
LINE
  5
111
330
40
100
AcDbEntity
  8
0011903
  6
Continuous
 62
     7
100
AcDbLine
 10
153.954446378
 20
102.6465221107
 30
0.0
 11
168.954446378
 21
102.6465221107
 31
0.0
  0
LINE
  5
112
330
40
100
AcDbEntity
  8
0011903
  6
Continuous
 62
     7
100
AcDbLine
 10
152.454446378
 20
121.1465221107
 30
0.0
 11
170.454446378
 21
121.1465221107
 31
0.0
  0
LINE
  5
113
330
40
100
AcDbEntity
  8
0011903
  6
Continuous
 62
     7
100
AcDbLine
 10
152.454446378
 20
104.1465221107
 30
0.0
 11
170.454446378
 21
104.1465221107
 31
0.0
  0
LINE
  5
114
330
40
100
AcDbEntity
  8
0011903
  6
Continuous
 62
     7
100
AcDbLine
 10
153.954446378
 20
122.6465221107
 30
0.0
 11
168.954446378
 21
122.6465221107
 31
0.0
  0
LINE
  5
116
330
40
100
AcDbEntity
  8
0011903
  6
HIDDEN2
 62
     7
100
AcDbLine
 10
155.6809436861
 20
111.6465221107
 30
0.0
 11
155.6809436861
 21
122.6465221107
 31
0.0
  0
LINE
  5
117
330
40
100
AcDbEntity
  8
0011903
  6
HIDDEN2
 62
     7
100
AcDbLine
 10
155.6809436861
 20
111.6465221107
 30
0.0
 11
157.1243193591
 21
111.6465221107
 31
0.0
  0
LINE
  5
118
330
40
100
AcDbEntity
  8
0011903
  6
HIDDEN2
 62
     7
100
AcDbLine
 10
158.5676950321
 20
111.6465221107
 30
0.0
 11
158.5676950321
 21
122.6465221107
 31
0.0
  0
LINE
  5
119
330
40
100
AcDbEntity
  8
0011903
  6
HIDDEN2
 62
     7
100
AcDbLine
 10
158.5676950321
 20
111.6465221107
 30
0.0
 11
161.454446378
 21
111.6465221107
 31
0.0
  0
LINE
  5
11A
330
40
100
AcDbEntity
  8
0011903
  6
HIDDEN2
 62
     7
100
AcDbLine
 10
164.341197724
 20
111.6465221107
 30
0.0
 11
164.341197724
 21
122.6465221107
 31
0.0
  0
LINE
  5
11B
330
40
100
AcDbEntity
  8
0011903
  6
HIDDEN2
 62
     7
100
AcDbLine
 10
164.341197724
 20
111.6465221107
 30
0.0
 11
165.7845733969
 21
111.6465221107
 31
0.0
  0
LINE
  5
11C
330
40
100
AcDbEntity
  8
0011903
  6
HIDDEN2
 62
     7
100
AcDbLine
 10
167.2279490699
 20
111.6465221107
 30
0.0
 11
167.2279490699
 21
122.6465221107
 31
0.0
  0
LINE
  5
11D
330
40
100
AcDbEntity
  8
0011903
  6
HIDDEN2
 62
     7
100
AcDbLine
 10
157.1243193591
 20
111.6465221107
 30
0.0
 11
158.5676950321
 21
111.6465221107
 31
0.0
  0
LINE
  5
11E
330
40
100
AcDbEntity
  8
0011903
  6
HIDDEN2
 62
     7
100
AcDbLine
 10
161.454446378
 20
111.6465221107
 30
0.0
 11
164.341197724
 21
111.6465221107
 31
0.0
  0
LINE
  5
11F
330
40
100
AcDbEntity
  8
0011903
  6
HIDDEN2
 62
     7
100
AcDbLine
 10
165.7845733969
 20
111.6465221107
 30
0.0
 11
167.2279490699
 21
111.6465221107
 31
0.0
  0
LINE
  5
120
330
40
100
AcDbEntity
  8
0011903
  6
Continuous
 62
     7
100
AcDbLine
 10
170.454446378
 20
104.1465221107
 30
0.0
 11
170.454446378
 21
121.1465221107
 31
0.0
  0
LINE
  5
121
330
40
100
AcDbEntity
  8
0011903
  6
Continuous
 62
     7
100
AcDbLine
 10
152.454446378
 20
121.1465221107
 30
0.0
 11
152.454446378
 21
104.1465221107
 31
0.0
  0
LINE
  5
122
330
40
100
AcDbEntity
  8
0011903
  6
Continuous
 62
     7
100
AcDbLine
 10
152.454446378
 20
104.1465221107
 30
0.0
 11
153.954446378
 21
102.6465221107
 31
0.0
  0
LINE
  5
123
330
40
100
AcDbEntity
  8
0011903
  6
Continuous
 62
     7
100
AcDbLine
 10
168.954446378
 20
102.6465221107
 30
0.0
 11
170.454446378
 21
104.1465221107
 31
0.0
  0
LINE
  5
124
330
40
100
AcDbEntity
  8
0011903
  6
Continuous
 62
     7
100
AcDbLine
 10
170.454446378
 20
121.1465221107
 30
0.0
 11
168.954446378
 21
122.6465221107
 31
0.0
  0
LINE
  5
125
330
40
100
AcDbEntity
  8
0011903
  6
Continuous
 62
     7
100
AcDbLine
 10
153.954446378
 20
122.6465221107
 30
0.0
 11
152.454446378
 21
121.1465221107
 31
0.0
  0
LINE
  5
126
330
40
100
AcDbEntity
  8
0011903
  6
HIDDEN2
 62
     7
100
AcDbLine
 10
156.454446378
 20
111.6465221107
 30
0.0
 11
161.454446378
 21
108.6422190155
 31
0.0
  0
LINE
  5
127
330
40
100
AcDbEntity
  8
0011903
  6
HIDDEN2
 62
     7
100
AcDbLine
 10
161.454446378
 20
108.6422190155
 30
0.0
 11
166.454446378
 21
111.6465221107
 31
0.0
  0
LINE
  5
128
330
40
100
AcDbEntity
  8
0011903
  6
Continuous
 62
     7
100
AcDbLine
 10
169.840946378
 20
121.7600221107
 30
0.0
 11
169.840946378
 21
103.5330221107
 31
0.0
  0
LINE
  5
129
330
40
100
AcDbEntity
  8
0011903
  6
Continuous
 62
     7
100
AcDbLine
 10
153.067946378
 20
121.7600221107
 30
0.0
 11
153.067946378
 21
103.5330221107
 31
0.0
  0
LINE
  5
12A
330
40
100
AcDbEntity
  8
0011903
  6
Continuous
 62
     7
100
AcDbLine
 10
178.954446378
 20
102.6465221107
 30
0.0
 11
193.954446378
 21
102.6465221107
 31
0.0
  0
LINE
  5
12B
330
40
100
AcDbEntity
  8
0011903
  6
Continuous
 62
     7
100
AcDbLine
 10
177.454446378
 20
121.1465221107
 30
0.0
 11
195.454446378
 21
121.1465221107
 31
0.0
  0
LINE
  5
12C
330
40
100
AcDbEntity
  8
0011903
  6
Continuous
 62
     7
100
AcDbLine
 10
177.454446378
 20
104.1465221107
 30
0.0
 11
195.454446378
 21
104.1465221107
 31
0.0
  0
LINE
  5
12D
330
40
100
AcDbEntity
  8
0011903
  6
Continuous
 62
     7
100
AcDbLine
 10
178.954446378
 20
122.6465221107
 30
0.0
 11
193.954446378
 21
122.6465221107
 31
0.0
  0
LINE
  5
12E
330
40
100
AcDbEntity
  8
0011903
  6
HIDDEN2
 62
     7
100
AcDbLine
 10
180.6809436861
 20
111.6465221107
 30
0.0
 11
180.6809436861
 21
122.6465221107
 31
0.0
  0
LINE
  5
12F
330
40
100
AcDbEntity
  8
0011903
  6
HIDDEN2
 62
     7
100
AcDbLine
 10
180.6809436861
 20
111.6465221107
 30
0.0
 11
182.1243193591
 21
111.6465221107
 31
0.0
  0
LINE
  5
130
330
40
100
AcDbEntity
  8
0011903
  6
HIDDEN2
 62
     7
100
AcDbLine
 10
183.5676950321
 20
111.6465221107
 30
0.0
 11
183.5676950321
 21
122.6465221107
 31
0.0
  0
LINE
  5
131
330
40
100
AcDbEntity
  8
0011903
  6
HIDDEN2
 62
     7
100
AcDbLine
 10
183.5676950321
 20
111.6465221107
 30
0.0
 11
186.454446378
 21
111.6465221107
 31
0.0
  0
LINE
  5
132
330
40
100
AcDbEntity
  8
0011903
  6
HIDDEN2
 62
     7
100
AcDbLine
 10
189.341197724
 20
111.6465221107
 30
0.0
 11
189.341197724
 21
122.6465221107
 31
0.0
  0
LINE
  5
133
330
40
100
AcDbEntity
  8
0011903
  6
HIDDEN2
 62
     7
100
AcDbLine
 10
189.341197724
 20
111.6465221107
 30
0.0
 11
190.7845733969
 21
111.6465221107
 31
0.0
  0
LINE
  5
134
330
40
100
AcDbEntity
  8
0011903
  6
HIDDEN2
 62
     7
100
AcDbLine
 10
192.2279490699
 20
111.6465221107
 30
0.0
 11
192.2279490699
 21
122.6465221107
 31
0.0
  0
LINE
  5
135
330
40
100
AcDbEntity
  8
0011903
  6
HIDDEN2
 62
     7
100
AcDbLine
 10
182.1243193591
 20
111.6465221107
 30
0.0
 11
183.5676950321
 21
111.6465221107
 31
0.0
  0
LINE
  5
136
330
40
100
AcDbEntity
  8
0011903
  6
HIDDEN2
 62
     7
100
AcDbLine
 10
186.454446378
 20
111.6465221107
 30
0.0
 11
189.341197724
 21
111.6465221107
 31
0.0
  0
LINE
  5
137
330
40
100
AcDbEntity
  8
0011903
  6
HIDDEN2
 62
     7
100
AcDbLine
 10
190.7845733969
 20
111.6465221107
 30
0.0
 11
192.2279490699
 21
111.6465221107
 31
0.0
  0
LINE
  5
138
330
40
100
AcDbEntity
  8
0011903
  6
Continuous
 62
     7
100
AcDbLine
 10
195.454446378
 20
104.1465221107
 30
0.0
 11
195.454446378
 21
121.1465221107
 31
0.0
  0
LINE
  5
139
330
40
100
AcDbEntity
  8
0011903
  6
Continuous
 62
     7
100
AcDbLine
 10
177.454446378
 20
121.1465221107
 30
0.0
 11
177.454446378
 21
104.1465221107
 31
0.0
  0
LINE
  5
13A
330
40
100
AcDbEntity
  8
0011903
  6
Continuous
 62
     7
100
AcDbLine
 10
177.454446378
 20
104.1465221107
 30
0.0
 11
178.954446378
 21
102.6465221107
 31
0.0
  0
LINE
  5
13B
330
40
100
AcDbEntity
  8
0011903
  6
Continuous
 62
     7
100
AcDbLine
 10
193.954446378
 20
102.6465221107
 30
0.0
 11
195.454446378
 21
104.1465221107
 31
0.0
  0
LINE
  5
13C
330
40
100
AcDbEntity
  8
0011903
  6
Continuous
 62
     7
100
AcDbLine
 10
195.454446378
 20
121.1465221107
 30
0.0
 11
193.954446378
 21
122.6465221107
 31
0.0
  0
LINE
  5
13D
330
40
100
AcDbEntity
  8
0011903
  6
Continuous
 62
     7
100
AcDbLine
 10
178.954446378
 20
122.6465221107
 30
0.0
 11
177.454446378
 21
121.1465221107
 31
0.0
  0
LINE
  5
13E
330
40
100
AcDbEntity
  8
0011903
  6
HIDDEN2
 62
     7
100
AcDbLine
 10
181.454446378
 20
111.6465221107
 30
0.0
 11
186.454446378
 21
108.6422190155
 31
0.0
  0
LINE
  5
13F
330
40
100
AcDbEntity
  8
0011903
  6
HIDDEN2
 62
     7
100
AcDbLine
 10
186.454446378
 20
108.6422190155
 30
0.0
 11
191.454446378
 21
111.6465221107
 31
0.0
  0
LINE
  5
140
330
40
100
AcDbEntity
  8
0011903
  6
Continuous
 62
     7
100
AcDbLine
 10
194.840946378
 20
121.7600221107
 30
0.0
 11
194.840946378
 21
103.5330221107
 31
0.0
  0
LINE
  5
141
330
40
100
AcDbEntity
  8
0011903
  6
Continuous
 62
     7
100
AcDbLine
 10
178.067946378
 20
121.7600221107
 30
0.0
 11
178.067946378
 21
103.5330221107
 31
0.0
  0
ENDBLK
  5
143
330
40
100
AcDbEntity
  8
0
100
AcDbBlockEnd
  0
BLOCK
  5
146
330
145
100
AcDbEntity
  8
0
100
AcDbBlockBegin
  2
_OBLIQUE
 70
     0
 10
0.0
 20
0.0
 30
0.0
  3
_OBLIQUE
  1

  0
LINE
  5
148
330
145
100
AcDbEntity
  8
0
  6
ByBlock
 62
     0
370
    -2
100
AcDbLine
 10
-0.5
 20
-0.5
 30
0.0
 11
0.5
 21
0.5
 31
0.0
  0
ENDBLK
  5
147
330
145
100
AcDbEntity
  8
0
100
AcDbBlockEnd
  0
BLOCK
  5
14A
330
149
100
AcDbEntity
  8
0
100
AcDbBlockBegin
  2
_DOT
 70
     0
 10
0.0
 20
0.0
 30
0.0
  3
_DOT
  1

  0
POLYLINE
  5
14C
330
149
100
AcDbEntity
  8
0
  6
ByBlock
 62
     0
100
AcDb2dPolyline
 66
     1
 10
0.0
 20
0.0
 30
0.0
 70
     1
 40
0.5
 41
0.5
  0
VERTEX
  5
14E
330
14C
100
AcDbEntity
  8
0
  6
ByBlock
 62
     0
100
AcDbVertex
100
AcDb2dVertex
 10
-0.25
 20
0.0
 30
0.0
 42
1.0
  0
VERTEX
  5
14F
330
14C
100
AcDbEntity
  8
0
  6
ByBlock
 62
     0
100
AcDbVertex
100
AcDb2dVertex
 10
0.25
 20
0.0
 30
0.0
 42
1.0
  0
SEQEND
  5
150
330
14C
100
AcDbEntity
  8
0
  6
ByBlock
 62
     0
  0
LINE
  5
14D
330
149
100
AcDbEntity
  8
0
  6
ByBlock
 62
     0
370
    -2
100
AcDbLine
 10
-0.5
 20
0.0
 30
0.0
 11
-1.0
 21
0.0
 31
0.0
  0
ENDBLK
  5
14B
330
149
100
AcDbEntity
  8
0
100
AcDbBlockEnd
  0
BLOCK
  5
154
330
151
100
AcDbEntity
  8
0
100
AcDbBlockBegin
  2
_SE_FILLED
 70
     0
 10
0.0
 20
0.0
 30
0.0
  3
_SE_FILLED
  1

  0
SOLID
  5
152
330
151
100
AcDbEntity
  8
0
 62
     0
100
AcDbTrace
 10
0.0
 20
0.0
 30
0.0
 11
-1.0
 21
-0.1665
 31
0.0
 12
-1.0
 22
0.1665
 32
0.0
 13
0.0
 23
0.0
 33
0.0
  0
LINE
  5
153
330
151
100
AcDbEntity
  8
0
 62
     0
100
AcDbLine
 10
0.0
 20
0.0
 30
0.0
 11
-1.0
 21
0.0
 31
0.0
  0
ENDBLK
  5
155
330
151
100
AcDbEntity
  8
0
100
AcDbBlockEnd
  0
BLOCK
  5
160
330
159
100
AcDbEntity
  8
0
100
AcDbBlockBegin
  2
DMBLK127
 70
     0
 10
0.0
 20
0.0
 30
0.0
  3
DMBLK127
  1

  0
HATCH
  5
15A
330
159
100
AcDbEntity
  8
Default
  6
Continuous
 62
     7
100
AcDbHatch
 10
0.0
 20
0.0
 30
0.0
210
0.0
220
0.0
230
1.0
  2
SOLID
 70
     1
 71
     0
 91
        1
 92
        1
 93
        3
 72
     1
 10
206.4544462699918
 20
149.8228737199932
 11
206.4544462699918
 21
148.6562070173154
 72
     1
 10
206.4544462699918
 20
148.6562070173154
 11
209.9544463780252
 21
149.2395403686543
 72
     1
 10
209.9544463780252
 20
149.2395403686543
 11
206.4544462699918
 21
149.8228737199932
 97
        0
 75
     0
 76
     1
 98
        0
  0
HATCH
  5
15B
330
159
100
AcDbEntity
  8
Default
  6
Continuous
 62
     7
100
AcDbHatch
 10
0.0
 20
0.0
 30
0.0
210
0.0
220
0.0
230
1.0
  2
SOLID
 70
     1
 71
     0
 91
        1
 92
        1
 93
        3
 72
     1
 10
164.9544450555472
 20
149.8228737199932
 11
161.4544449475138
 21
149.2395403686543
 72
     1
 10
161.4544449475138
 20
149.2395403686543
 11
164.9544450555472
 21
148.6562070173154
 72
     1
 10
164.9544450555472
 20
148.6562070173154
 11
164.9544450555472
 21
149.8228737199932
 97
        0
 75
     0
 76
     1
 98
        0
  0
LINE
  5
15C
330
159
100
AcDbEntity
  8
Default
  6
Continuous
 62
     7
100
AcDbLine
 10
209.954446378
 20
69.060735673
 30
0.0
 11
209.954446378
 21
150.9895404227
 31
0.0
  0
LINE
  5
15D
330
159
100
AcDbEntity
  8
Default
  6
Continuous
 62
     7
100
AcDbLine
 10
161.454446378
 20
121.1465221107
 30
0.0
 11
161.454446378
 21
150.9895404227
 31
0.0
  0
LINE
  5
15E
330
159
100
AcDbEntity
  8
Default
  6
Continuous
 62
     7
100
AcDbLine
 10
209.954446378
 20
149.2395403687
 30
0.0
 11
161.4544449475
 21
149.2395403687
 31
0.0
  0
TEXT
  5
15F
330
159
100
AcDbEntity
  8
Default
  6
Continuous
 62
     7
100
AcDbText
 10
182.24421839
 20
150.1145403687
 30
0.0
 40
3.5
  1
48,5
  7
SEACAD_Solid_Edge_ISO
 11
182.24421839
 21
153.6145403687
 31
0.0
100
AcDbText
 73
     3
  0
ENDBLK
  5
161
330
159
100
AcDbEntity
  8
0
100
AcDbBlockEnd
  0
BLOCK
  5
16A
330
163
100
AcDbEntity
  8
0
100
AcDbBlockBegin
  2
DMBLK128
 70
     0
 10
0.0
 20
0.0
 30
0.0
  3
DMBLK128
  1

  0
HATCH
  5
164
330
163
100
AcDbEntity
  8
Default
  6
Continuous
 62
     7
100
AcDbHatch
 10
0.0
 20
0.0
 30
0.0
210
0.0
220
0.0
230
1.0
  2
SOLID
 70
     1
 71
     0
 91
        1
 92
        1
 93
        3
 72
     1
 10
206.4544462699918
 20
166.6228749836116
 11
206.4544462699918
 21
165.4562082809339
 72
     1
 10
206.4544462699918
 20
165.4562082809339
 11
209.9544463780252
 21
166.0395416322727
 72
     1
 10
209.9544463780252
 20
166.0395416322727
 11
206.4544462699918
 21
166.6228749836116
 97
        0
 75
     0
 76
     1
 98
        0
  0
HATCH
  5
165
330
163
100
AcDbEntity
  8
Default
  6
Continuous
 62
     7
100
AcDbHatch
 10
0.0
 20
0.0
 30
0.0
210
0.0
220
0.0
230
1.0
  2
SOLID
 70
     1
 71
     0
 91
        1
 92
        1
 93
        3
 72
     1
 10
129.4544476185469
 20
166.6228749836116
 11
125.9544475105135
 21
166.0395416322727
 72
     1
 10
125.9544475105135
 20
166.0395416322727
 11
129.4544476185469
 21
165.4562082809339
 72
     1
 10
129.4544476185469
 20
165.4562082809339
 11
129.4544476185469
 21
166.6228749836116
 97
        0
 75
     0
 76
     1
 98
        0
  0
LINE
  5
166
330
163
100
AcDbEntity
  8
Default
  6
Continuous
 62
     7
100
AcDbLine
 10
209.954446378
 20
69.060735673
 30
0.0
 11
209.954446378
 21
167.7895416863
 31
0.0
  0
LINE
  5
167
330
163
100
AcDbEntity
  8
Default
  6
Continuous
 62
     7
100
AcDbLine
 10
125.954446378
 20
122.1465221107
 30
0.0
 11
125.954446378
 21
167.7895416863
 31
0.0
  0
LINE
  5
168
330
163
100
AcDbEntity
  8
Default
  6
Continuous
 62
     7
100
AcDbLine
 10
209.954446378
 20
166.0395416323
 30
0.0
 11
125.9544475105
 21
166.0395416323
 31
0.0
  0
TEXT
  5
169
330
163
100
AcDbEntity
  8
Default
  6
Continuous
 62
     7
100
AcDbText
 10
165.8067196715
 20
166.9145416323
 30
0.0
 40
3.5
  1
84
  7
SEACAD_Solid_Edge_ISO
 11
165.8067196715
 21
170.4145416323
 31
0.0
100
AcDbText
 73
     3
  0
ENDBLK
  5
16B
330
163
100
AcDbEntity
  8
0
100
AcDbBlockEnd
  0
BLOCK
  5
174
330
16D
100
AcDbEntity
  8
0
100
AcDbBlockBegin
  2
DMBLK129
 70
     0
 10
0.0
 20
0.0
 30
0.0
  3
DMBLK129
  1

  0
HATCH
  5
16E
330
16D
100
AcDbEntity
  8
Default
  6
Continuous
 62
     7
100
AcDbHatch
 10
0.0
 20
0.0
 30
0.0
210
0.0
220
0.0
230
1.0
  2
SOLID
 70
     1
 71
     0
 91
        1
 92
        1
 93
        3
 72
     1
 10
206.4544462699918
 20
175.0228756154209
 11
206.4544462699918
 21
173.8562089127431
 72
     1
 10
206.4544462699918
 20
173.8562089127431
 11
209.9544463780252
 21
174.439542264082
 72
     1
 10
209.9544463780252
 20
174.439542264082
 11
206.4544462699918
 21
175.0228756154209
 97
        0
 75
     0
 76
     1
 98
        0
  0
HATCH
  5
16F
330
16D
100
AcDbEntity
  8
Default
  6
Continuous
 62
     7
100
AcDbHatch
 10
0.0
 20
0.0
 30
0.0
210
0.0
220
0.0
230
1.0
  2
SOLID
 70
     1
 71
     0
 91
        1
 92
        1
 93
        3
 72
     1
 10
71.45444183689636
 20
175.0228756154209
 11
67.95444172886295
 21
174.439542264082
 72
     1
 10
67.95444172886295
 20
174.439542264082
 11
71.45444183689636
 21
173.8562089127431
 72
     1
 10
71.45444183689636
 20
173.8562089127431
 11
71.45444183689636
 21
175.0228756154209
 97
        0
 75
     0
 76
     1
 98
        0
  0
LINE
  5
170
330
16D
100
AcDbEntity
  8
Default
  6
Continuous
 62
     7
100
AcDbLine
 10
209.954446378
 20
69.060735673
 30
0.0
 11
209.954446378
 21
176.1895423181
 31
0.0
  0
LINE
  5
171
330
16D
100
AcDbEntity
  8
Default
  6
Continuous
 62
     7
100
AcDbLine
 10
67.954446378
 20
109.3465221107
 30
0.0
 11
67.954446378
 21
176.1895423181
 31
0.0
  0
LINE
  5
172
330
16D
100
AcDbEntity
  8
Default
  6
Continuous
 62
     7
100
AcDbLine
 10
209.954446378
 20
174.4395422641
 30
0.0
 11
67.9544417289
 21
174.4395422641
 31
0.0
  0
TEXT
  5
173
330
16D
100
AcDbEntity
  8
Default
  6
Continuous
 62
     7
100
AcDbText
 10
136.1305804171
 20
175.3145422641
 30
0.0
 40
3.5
  1
142
  7
SEACAD_Solid_Edge_ISO
 11
136.1305804171
 21
178.8145422641
 31
0.0
100
AcDbText
 73
     3
  0
ENDBLK
  5
175
330
16D
100
AcDbEntity
  8
0
100
AcDbBlockEnd
  0
BLOCK
  5
17E
330
177
100
AcDbEntity
  8
0
100
AcDbBlockBegin
  2
DMBLK130
 70
     0
 10
0.0
 20
0.0
 30
0.0
  3
DMBLK130
  1

  0
HATCH
  5
178
330
177
100
AcDbEntity
  8
Default
  6
Continuous
 62
     7
100
AcDbHatch
 10
0.0
 20
0.0
 30
0.0
210
0.0
220
0.0
230
1.0
  2
SOLID
 70
     1
 71
     0
 91
        1
 92
        1
 93
        3
 72
     1
 10
103.4544464860587
 20
47.89845919395406
 11
103.4544464860587
 21
49.06512589663186
 72
     1
 10
103.4544464860587
 20
49.06512589663186
 11
99.95444637802525
 21
48.48179254529296
 72
     1
 10
99.95444637802525
 20
48.48179254529296
 11
103.4544464860587
 21
47.89845919395406
 97
        0
 75
     0
 76
     1
 98
        0
  0
HATCH
  5
179
330
177
100
AcDbEntity
  8
Default
  6
Continuous
 62
     7
100
AcDbHatch
 10
0.0
 20
0.0
 30
0.0
210
0.0
220
0.0
230
1.0
  2
SOLID
 70
     1
 71
     0
 91
        1
 92
        1
 93
        3
 72
     1
 10
206.4544456739454
 20
47.89845919395406
 11
209.9544457819788
 21
48.48179254529296
 72
     1
 10
209.9544457819788
 20
48.48179254529296
 11
206.4544456739454
 21
49.06512589663186
 72
     1
 10
206.4544456739454
 20
49.06512589663186
 11
206.4544456739454
 21
47.89845919395406
 97
        0
 75
     0
 76
     1
 98
        0
  0
LINE
  5
17A
330
177
100
AcDbEntity
  8
Default
  6
Continuous
 62
     7
100
AcDbLine
 10
99.954446378
 20
60.1465221107
 30
0.0
 11
99.954446378
 21
46.7317924913
 31
0.0
  0
LINE
  5
17B
330
177
100
AcDbEntity
  8
Default
  6
Continuous
 62
     7
100
AcDbLine
 10
209.954446378
 20
69.060735673
 30
0.0
 11
209.954446378
 21
46.7317924913
 31
0.0
  0
LINE
  5
17C
330
177
100
AcDbEntity
  8
Default
  6
Continuous
 62
     7
100
AcDbLine
 10
99.954446378
 20
48.4817925453
 30
0.0
 11
209.954445782
 21
48.4817925453
 31
0.0
  0
TEXT
  5
17D
330
177
100
AcDbEntity
  8
Default
  6
Continuous
 62
     7
100
AcDbText
 10
152.4885369891
 20
49.3567925453
 30
0.0
 40
3.5
  1
110
  7
SEACAD_Solid_Edge_ISO
 11
152.4885369891
 21
52.8567925453
 31
0.0
100
AcDbText
 73
     3
  0
ENDBLK
  5
17F
330
177
100
AcDbEntity
  8
0
100
AcDbBlockEnd
  0
BLOCK
  5
189
330
180
100
AcDbEntity
  8
0
100
AcDbBlockBegin
  2
GDimGGroup
 70
     0
 10
0.0
 20
0.0
 30
0.0
  3
GDimGGroup
  1

  0
HATCH
  5
182
330
180
100
AcDbEntity
  8
Default
  6
Continuous
 62
     7
100
AcDbHatch
 10
0.0
 20
0.0
 30
0.0
210
0.0
220
0.0
230
1.0
  2
SOLID
 70
     1
 71
     0
 91
        1
 92
        1
 93
        3
 72
     1
 10
195.6400241842866
 20
71.89919602035147
 11
195.7787047250615
 21
68.3536288918615
 72
     1
 10
195.7787047250616
 20
68.3536288918615
 11
196.797434093028
 21
71.75252121581957
 72
     1
 10
196.797434093028
 20
71.75252121581957
 11
195.6400241842866
 21
71.89919602035147
 97
        0
 75
     0
 76
     1
 98
        0
  0
HATCH
  5
183
330
180
100
AcDbEntity
  8
Default
  6
Continuous
 62
     7
100
AcDbHatch
 10
0.0
 20
0.0
 30
0.0
210
0.0
220
0.0
230
1.0
  2
SOLID
 70
     1
 71
     0
 91
        1
 92
        1
 93
        3
 72
     1
 10
202.9686271443157
 20
56.85394325537812
 11
199.8448968892391
 21
58.53697262188884
 72
     1
 10
199.8448968892391
 20
58.53697262188884
 11
202.2539294981459
 21
55.93181611138089
 72
     1
 10
202.2539294981459
 20
55.93181611138089
 11
202.9686271443157
 21
56.85394325537811
 97
        0
 75
     0
 76
     1
 98
        0
  0
LINE
  5
184
330
180
100
AcDbEntity
  8
Default
  6
Continuous
 62
     7
100
AcDbLine
 10
209.6615531592
 20
68.3536288919
 30
0.0
 11
194.0287039726
 21
68.3536288919
 31
0.0
  0
LINE
  5
185
330
180
100
AcDbEntity
  8
Default
  6
Continuous
 62
     7
100
AcDbLine
 10
202.0180463504
 20
60.710122083
 30
0.0
 11
198.6074594901
 21
57.2995352227
 31
0.0
  0
ARC
  5
186
330
180
100
AcDbEntity
  8
Default
  6
Continuous
 62
     7
100
AcDbCircle
 10
209.6615531592
 20
68.3536288919
 30
0.0
 40
13.88284843415022
100
AcDbArc
 50
129.0958500405
 51
225.0000012522
  0
ARC
  5
187
330
180
100
AcDbEntity
  8
Default
  6
Continuous
 62
     7
100
AcDbCircle
 10
209.6615531592
 20
68.3536288919
 30
0.0
 40
13.88284843415042
100
AcDbArc
 50
225.0
 51
253.889637472
  0
TEXT
  5
188
330
180
100
AcDbEntity
  8
Default
  6
Continuous
 62
     7
100
AcDbText
 10
196.0922775121
 20
74.7723617186
 30
0.0
 40
3.5
  1
45°
 50
54.1500445939
  7
SEACAD_Solid_Edge_ISO
 11
193.2553402825
 21
76.8221878466
 31
0.0
100
AcDbText
 73
     3
  0
ENDBLK
  5
18A
330
180
100
AcDbEntity
  8
0
100
AcDbBlockEnd
  0
BLOCK
  5
195
330
18B
100
AcDbEntity
  8
0
100
AcDbBlockBegin
  2
GDimGGroup1
 70
     0
 10
0.0
 20
0.0
 30
0.0
  3
GDimGGroup1
  1

  0
HATCH
  5
18D
330
18B
100
AcDbEntity
  8
Default
  6
Continuous
 62
     7
100
AcDbHatch
 10
0.0
 20
0.0
 30
0.0
210
0.0
220
0.0
230
1.0
  2
SOLID
 70
     1
 71
     0
 91
        1
 92
        1
 93
        3
 72
     1
 10
232.9785820353009
 20
110.1465220026415
 11
232.3952486839621
 21
113.6465221106749
 72
     1
 10
232.3952486839621
 20
113.6465221106749
 11
231.8119153326232
 21
110.1465220026415
 72
     1
 10
231.8119153326232
 20
110.1465220026415
 11
232.9785820353009
 21
110.1465220026415
 97
        0
 75
     0
 76
     1
 98
        0
  0
HATCH
  5
18E
330
18B
100
AcDbEntity
  8
Default
  6
Continuous
 62
     7
100
AcDbHatch
 10
0.0
 20
0.0
 30
0.0
210
0.0
220
0.0
230
1.0
  2
SOLID
 70
     1
 71
     0
 91
        1
 92
        1
 93
        3
 72
     1
 10
232.9785820353009
 20
72.14652043056901
 11
231.8119153326232
 21
72.14652043056901
 72
     1
 10
231.8119153326232
 20
72.14652043056901
 11
232.3952486839621
 21
68.6465203225356
 72
     1
 10
232.3952486839621
 20
68.6465203225356
 11
232.9785820353009
 21
72.14652043056901
 97
        0
 75
     0
 76
     1
 98
        0
  0
LINE
  5
18F
330
18B
100
AcDbEntity
  8
Default
  6
Continuous
 62
     7
100
AcDbLine
 10
209.954446378
 20
113.6465221107
 30
0.0
 11
234.145248738
 21
113.6465221107
 31
0.0
  0
LINE
  5
190
330
18B
100
AcDbEntity
  8
Default
  6
Continuous
 62
     7
100
AcDbLine
 10
209.954446378
 20
68.6465221107
 30
0.0
 11
234.145248738
 21
68.6465221107
 31
0.0
  0
LINE
  5
191
330
18B
100
AcDbEntity
  8
Default
  6
Continuous
 62
     7
100
AcDbLine
 10
232.395248684
 20
113.6465221107
 30
0.0
 11
232.395248684
 21
68.6465203225
 31
0.0
  0
TEXT
  5
193
330
18B
100
AcDbEntity
  8
Default
  6
Continuous
 62
     7
100
AcDbText
 10
231.520248684
 20
86.0724980906
 30
0.0
 40
3.5
  1
O
 50
90.0
  7
SEACAD_Solid_Edge_ISO1_Symbols
 11
228.020248684
 21
86.0724980906
 31
0.0
100
AcDbText
 73
     3
  0
TEXT
  5
194
330
18B
100
AcDbEntity
  8
Default
  6
Continuous
 62
     7
100
AcDbText
 10
231.520248684
 20
92.1637261608
 30
0.0
 40
3.5
  1
45
 50
90.0
  7
SEACAD_Solid_Edge_ISO
 11
228.020248684
 21
92.1637261608
 31
0.0
100
AcDbText
 73
     3
  0
ENDBLK
  5
196
330
18B
100
AcDbEntity
  8
0
100
AcDbBlockEnd
  0
BLOCK
  5
19F
330
197
100
AcDbEntity
  8
0
100
AcDbBlockBegin
  2
GDimGGroup2
 70
     0
 10
0.0
 20
0.0
 30
0.0
  3
GDimGGroup2
  1

  0
HATCH
  5
199
330
197
100
AcDbEntity
  8
Default
  6
Continuous
 62
     7
100
AcDbHatch
 10
0.0
 20
0.0
 30
0.0
210
0.0
220
0.0
230
1.0
  2
SOLID
 70
     1
 71
     0
 91
        1
 92
        1
 93
        3
 72
     1
 10
155.9544464860587
 20
130.5704051992289
 11
152.4544463780252
 21
129.98707184789
 72
     1
 10
152.4544463780252
 20
129.98707184789
 11
155.9544464860587
 21
129.4037384965511
 72
     1
 10
155.9544464860587
 20
129.4037384965511
 11
155.9544464860587
 21
130.5704051992289
 97
        0
 75
     0
 76
     1
 98
        0
  0
HATCH
  5
19A
330
197
100
AcDbEntity
  8
Default
  6
Continuous
 62
     7
100
AcDbHatch
 10
0.0
 20
0.0
 30
0.0
210
0.0
220
0.0
230
1.0
  2
SOLID
 70
     1
 71
     0
 91
        1
 92
        1
 93
        3
 72
     1
 10
166.9544454951314
 20
130.5704051992289
 11
166.9544454951314
 21
129.4037384965511
 72
     1
 10
166.9544454951314
 20
129.4037384965511
 11
170.4544456031649
 21
129.98707184789
 72
     1
 10
170.4544456031649
 20
129.98707184789
 11
166.9544454951314
 21
130.5704051992289
 97
        0
 75
     0
 76
     1
 98
        0
  0
LINE
  5
19B
330
197
100
AcDbEntity
  8
Default
  6
Continuous
 62
     7
100
AcDbLine
 10
152.454446378
 20
121.1465221107
 30
0.0
 11
152.454446378
 21
131.7370719019
 31
0.0
  0
LINE
  5
19C
330
197
100
AcDbEntity
  8
Default
  6
Continuous
 62
     7
100
AcDbLine
 10
170.454446378
 20
121.1465221107
 30
0.0
 11
170.454446378
 21
131.7370719019
 31
0.0
  0
LINE
  5
19D
330
197
100
AcDbEntity
  8
Default
  6
Continuous
 62
     7
100
AcDbLine
 10
152.454446378
 20
129.9870718479
 30
0.0
 11
170.4544456032
 21
129.9870718479
 31
0.0
  0
TEXT
  5
19E
330
197
100
AcDbEntity
  8
Default
  6
Continuous
 62
     7
100
AcDbText
 10
154.724900536
 20
130.8620718479
 30
0.0
 40
3.5
  1
M18 x 1
  7
SEACAD_Solid_Edge_ISO
 11
154.724900536
 21
134.3620718479
 31
0.0
100
AcDbText
 73
     3
  0
ENDBLK
  5
1A0
330
197
100
AcDbEntity
  8
0
100
AcDbBlockEnd
  0
BLOCK
  5
1A8
330
1A1
100
AcDbEntity
  8
0
100
AcDbBlockBegin
  2
GDimGGroup3
 70
     0
 10
0.0
 20
0.0
 30
0.0
  3
GDimGGroup3
  1

  0
HATCH
  5
1A3
330
1A1
100
AcDbEntity
  8
Default
  6
Continuous
 62
     7
100
AcDbHatch
 10
0.0
 20
0.0
 30
0.0
210
0.0
220
0.0
230
1.0
  2
SOLID
 70
     1
 71
     0
 91
        1
 92
        1
 93
        3
 72
     1
 10
224.5785828384736
 20
100.1465220026415
 11
223.9952494871347
 21
103.646522110675
 72
     1
 10
223.9952494871347
 20
103.646522110675
 11
223.4119161357958
 21
100.1465220026415
 72
     1
 10
223.4119161357958
 20
100.1465220026415
 11
224.5785828384736
 21
100.1465220026415
 97
        0
 75
     0
 76
     1
 98
        0
  0
LINE
  5
1A4
330
1A1
100
AcDbEntity
  8
Default
  6
Continuous
 62
     7
100
AcDbLine
 10
209.154446378
 20
103.6465221107
 30
0.0
 11
225.7452495412
 21
103.6465221107
 31
0.0
  0
LINE
  5
1A5
330
1A1
100
AcDbEntity
  8
Default
  6
Continuous
 62
     7
100
AcDbLine
 10
223.9952494871
 20
103.6465221107
 30
0.0
 11
223.9952494871
 21
91.1465219244
 31
0.0
  0
TEXT
  5
1A6
330
1A1
100
AcDbEntity
  8
Default
  6
Continuous
 62
     7
100
AcDbText
 10
223.1202494871
 20
86.0327260711
 30
0.0
 40
3.5
  1
O
 50
90.0
  7
SEACAD_Solid_Edge_ISO1_Symbols
 11
219.6202494871
 21
86.0327260711
 31
0.0
100
AcDbText
 73
     3
  0
TEXT
  5
1A7
330
1A1
100
AcDbEntity
  8
Default
  6
Continuous
 62
     7
100
AcDbText
 10
223.1202494871
 20
92.1239541413
 30
0.0
 40
3.5
  1
25
 50
90.0
  7
SEACAD_Solid_Edge_ISO
 11
219.6202494871
 21
92.1239541413
 31
0.0
100
AcDbText
 73
     3
  0
ENDBLK
  5
1A9
330
1A1
100
AcDbEntity
  8
0
100
AcDbBlockEnd
  0
BLOCK
  5
1B3
330
1AA
100
AcDbEntity
  8
0
100
AcDbBlockBegin
  2
GDimGGroup4
 70
     0
 10
0.0
 20
0.0
 30
0.0
  3
GDimGGroup4
  1

  0
HATCH
  5
1AC
330
1AA
100
AcDbEntity
  8
Default
  6
Continuous
 62
     7
100
AcDbHatch
 10
0.0
 20
0.0
 30
0.0
210
0.0
220
0.0
230
1.0
  2
SOLID
 70
     1
 71
     0
 91
        1
 92
        1
 93
        3
 72
     1
 10
241.3785817311366
 20
119.8965220026416
 11
240.7952483797977
 21
123.396522110675
 72
     1
 10
240.7952483797977
 20
123.396522110675
 11
240.2119150284588
 21
119.8965220026416
 72
     1
 10
240.2119150284588
 20
119.8965220026416
 11
241.3785817311366
 21
119.8965220026416
 97
        0
 75
     0
 76
     1
 98
        0
  0
HATCH
  5
1AD
330
1AA
100
AcDbEntity
  8
Default
  6
Continuous
 62
     7
100
AcDbHatch
 10
0.0
 20
0.0
 30
0.0
210
0.0
220
0.0
230
1.0
  2
SOLID
 70
     1
 71
     0
 91
        1
 92
        1
 93
        3
 72
     1
 10
241.3785817311366
 20
62.39652561617315
 11
240.2119150284588
 21
62.39652561617315
 72
     1
 10
240.2119150284588
 20
62.39652561617315
 11
240.7952483797977
 21
58.89652550813973
 72
     1
 10
240.7952483797977
 20
58.89652550813973
 11
241.3785817311366
 21
62.39652561617315
 97
        0
 75
     0
 76
     1
 98
        0
  0
LINE
  5
1AE
330
1AA
100
AcDbEntity
  8
Default
  6
Continuous
 62
     7
100
AcDbLine
 10
198.6223395968
 20
123.3965221107
 30
0.0
 11
242.5452484338
 21
123.3965221107
 31
0.0
  0
LINE
  5
1AF
330
1AA
100
AcDbEntity
  8
Default
  6
Continuous
 62
     7
100
AcDbLine
 10
198.6223395968
 20
58.8965221107
 30
0.0
 11
242.5452484338
 21
58.8965221107
 31
0.0
  0
LINE
  5
1B0
330
1AA
100
AcDbEntity
  8
Default
  6
Continuous
 62
     7
100
AcDbLine
 10
240.7952483798
 20
123.3965221107
 30
0.0
 11
240.7952483798
 21
58.8965255081
 31
0.0
  0
TEXT
  5
1B1
330
1AA
100
AcDbEntity
  8
Default
  6
Continuous
 62
     7
100
AcDbText
 10
239.9202483798
 20
84.6804552289
 30
0.0
 40
3.5
  1
O
 50
90.0
  7
SEACAD_Solid_Edge_ISO1_Symbols
 11
236.4202483798
 21
84.6804552289
 31
0.0
100
AcDbText
 73
     3
  0
TEXT
  5
1B2
330
1AA
100
AcDbEntity
  8
Default
  6
Continuous
 62
     7
100
AcDbText
 10
239.9202483798
 20
90.771683299
 30
0.0
 40
3.5
  1
64,5
 50
90.0
  7
SEACAD_Solid_Edge_ISO
 11
236.4202483798
 21
90.771683299
 31
0.0
100
AcDbText
 73
     3
  0
ENDBLK
  5
1B4
330
1AA
100
AcDbEntity
  8
0
100
AcDbBlockEnd
  0
BLOCK
  5
1BD
330
1B6
100
AcDbEntity
  8
0
100
AcDbBlockBegin
  2
DMBLK131
 70
     0
 10
0.0
 20
0.0
 30
0.0
  3
DMBLK131
  1

  0
HATCH
  5
1B7
330
1B6
100
AcDbEntity
  8
Default
  6
Continuous
 62
     7
100
AcDbHatch
 10
0.0
 20
0.0
 30
0.0
210
0.0
220
0.0
230
1.0
  2
SOLID
 70
     1
 71
     0
 91
        1
 92
        1
 93
        3
 72
     1
 10
206.4544462699918
 20
141.4228730881839
 11
206.4544462699918
 21
140.2562063855061
 72
     1
 10
206.4544462699918
 20
140.2562063855061
 11
209.9544463780252
 21
140.839539736845
 72
     1
 10
209.9544463780252
 20
140.839539736845
 11
206.4544462699918
 21
141.4228730881839
 97
        0
 75
     0
 76
     1
 98
        0
  0
HATCH
  5
1B8
330
1B6
100
AcDbEntity
  8
Default
  6
Continuous
 62
     7
100
AcDbHatch
 10
0.0
 20
0.0
 30
0.0
210
0.0
220
0.0
230
1.0
  2
SOLID
 70
     1
 71
     0
 91
        1
 92
        1
 93
        3
 72
     1
 10
189.9544472907214
 20
141.4228730881839
 11
186.4544471826879
 21
140.839539736845
 72
     1
 10
186.4544471826879
 20
140.839539736845
 11
189.9544472907214
 21
140.2562063855061
 72
     1
 10
189.9544472907214
 20
140.2562063855061
 11
189.9544472907214
 21
141.4228730881839
 97
        0
 75
     0
 76
     1
 98
        0
  0
LINE
  5
1B9
330
1B6
100
AcDbEntity
  8
Default
  6
Continuous
 62
     7
100
AcDbLine
 10
209.954446378
 20
69.060735673
 30
0.0
 11
209.954446378
 21
142.5895397909
 31
0.0
  0
LINE
  5
1BA
330
1B6
100
AcDbEntity
  8
Default
  6
Continuous
 62
     7
100
AcDbLine
 10
186.454446378
 20
121.1465221107
 30
0.0
 11
186.454446378
 21
142.5895397909
 31
0.0
  0
LINE
  5
1BB
330
1B6
100
AcDbEntity
  8
Default
  6
Continuous
 62
     7
100
AcDbLine
 10
209.954446378
 20
140.8395397368
 30
0.0
 11
186.4544471827
 21
140.8395397368
 31
0.0
  0
TEXT
  5
1BC
330
1B6
100
AcDbEntity
  8
Default
  6
Continuous
 62
     7
100
AcDbText
 10
194.9033104167
 20
141.7145397368
 30
0.0
 40
3.5
  1
23,5
  7
SEACAD_Solid_Edge_ISO
 11
194.9033104167
 21
145.2145397368
 31
0.0
100
AcDbText
 73
     3
  0
ENDBLK
  5
1BE
330
1B6
100
AcDbEntity
  8
0
100
AcDbBlockEnd
  0
BLOCK
  5
1C7
330
1C0
100
AcDbEntity
  8
0
100
AcDbBlockBegin
  2
DMBLK132
 70
     0
 10
0.0
 20
0.0
 30
0.0
  3
DMBLK132
  1

  0
HATCH
  5
1C1
330
1C0
100
AcDbEntity
  8
Default
  6
Continuous
 62
     7
100
AcDbHatch
 10
0.0
 20
0.0
 30
0.0
210
0.0
220
0.0
230
1.0
  2
SOLID
 70
     1
 71
     0
 91
        1
 92
        1
 93
        3
 72
     1
 10
206.4544462699918
 20
158.2228743518024
 11
206.4544462699918
 21
157.0562076491246
 72
     1
 10
206.4544462699918
 20
157.0562076491246
 11
209.9544463780252
 21
157.6395410004635
 72
     1
 10
209.9544463780252
 20
157.6395410004635
 11
206.4544462699918
 21
158.2228743518024
 97
        0
 75
     0
 76
     1
 98
        0
  0
HATCH
  5
1C2
330
1C0
100
AcDbEntity
  8
Default
  6
Continuous
 62
     7
100
AcDbHatch
 10
0.0
 20
0.0
 30
0.0
210
0.0
220
0.0
230
1.0
  2
SOLID
 70
     1
 71
     0
 91
        1
 92
        1
 93
        3
 72
     1
 10
145.4544427905707
 20
158.2228743518024
 11
141.9544426825373
 21
157.6395410004635
 72
     1
 10
141.9544426825373
 20
157.6395410004635
 11
145.4544427905707
 21
157.0562076491246
 72
     1
 10
145.4544427905707
 20
157.0562076491246
 11
145.4544427905707
 21
158.2228743518024
 97
        0
 75
     0
 76
     1
 98
        0
  0
LINE
  5
1C3
330
1C0
100
AcDbEntity
  8
Default
  6
Continuous
 62
     7
100
AcDbLine
 10
209.954446378
 20
69.060735673
 30
0.0
 11
209.954446378
 21
159.3895410545
 31
0.0
  0
LINE
  5
1C4
330
1C0
100
AcDbEntity
  8
Default
  6
Continuous
 62
     7
100
AcDbLine
 10
141.954446378
 20
116.1465221107
 30
0.0
 11
141.954446378
 21
159.3895410545
 31
0.0
  0
LINE
  5
1C5
330
1C0
100
AcDbEntity
  8
Default
  6
Continuous
 62
     7
100
AcDbLine
 10
209.954446378
 20
157.6395410005
 30
0.0
 11
141.9544426825
 21
157.6395410005
 31
0.0
  0
TEXT
  5
1C6
330
1C0
100
AcDbEntity
  8
Default
  6
Continuous
 62
     7
100
AcDbText
 10
173.7669445303
 20
158.5145410005
 30
0.0
 40
3.5
  1
68
  7
SEACAD_Solid_Edge_ISO
 11
173.7669445303
 21
162.0145410005
 31
0.0
100
AcDbText
 73
     3
  0
ENDBLK
  5
1C8
330
1C0
100
AcDbEntity
  8
0
100
AcDbBlockEnd
  0
BLOCK
  5
1D1
330
1C9
100
AcDbEntity
  8
0
100
AcDbBlockBegin
  2
GDimGGroup5
 70
     0
 10
0.0
 20
0.0
 30
0.0
  3
GDimGGroup5
  1

  0
HATCH
  5
1CB
330
1C9
100
AcDbEntity
  8
Default
  6
Continuous
 62
     7
100
AcDbHatch
 10
0.0
 20
0.0
 30
0.0
210
0.0
220
0.0
230
1.0
  2
SOLID
 70
     1
 71
     0
 91
        1
 92
        1
 93
        3
 72
     1
 10
180.9544464860587
 20
130.5014910539976
 11
177.4544463780253
 21
129.9181577026587
 72
     1
 10
177.4544463780253
 20
129.9181577026587
 11
180.9544464860587
 21
129.3348243513198
 72
     1
 10
180.9544464860587
 20
129.3348243513198
 11
180.9544464860587
 21
130.5014910539976
 97
        0
 75
     0
 76
     1
 98
        0
  0
HATCH
  5
1CC
330
1C9
100
AcDbEntity
  8
Default
  6
Continuous
 62
     7
100
AcDbHatch
 10
0.0
 20
0.0
 30
0.0
210
0.0
220
0.0
230
1.0
  2
SOLID
 70
     1
 71
     0
 91
        1
 92
        1
 93
        3
 72
     1
 10
191.9544454951315
 20
130.5014910539976
 11
191.9544454951315
 21
129.3348243513198
 72
     1
 10
191.9544454951315
 20
129.3348243513198
 11
195.4544456031649
 21
129.9181577026587
 72
     1
 10
195.4544456031649
 20
129.9181577026587
 11
191.9544454951315
 21
130.5014910539976
 97
        0
 75
     0
 76
     1
 98
        0
  0
LINE
  5
1CD
330
1C9
100
AcDbEntity
  8
Default
  6
Continuous
 62
     7
100
AcDbLine
 10
177.454446378
 20
121.1465221107
 30
0.0
 11
177.454446378
 21
131.6681577567
 31
0.0
  0
LINE
  5
1CE
330
1C9
100
AcDbEntity
  8
Default
  6
Continuous
 62
     7
100
AcDbLine
 10
195.454446378
 20
121.1465221107
 30
0.0
 11
195.454446378
 21
131.6681577567
 31
0.0
  0
LINE
  5
1CF
330
1C9
100
AcDbEntity
  8
Default
  6
Continuous
 62
     7
100
AcDbLine
 10
177.454446378
 20
129.9181577027
 30
0.0
 11
195.4544456032
 21
129.9181577027
 31
0.0
  0
TEXT
  5
1D0
330
1C9
100
AcDbEntity
  8
Default
  6
Continuous
 62
     7
100
AcDbText
 10
179.724900536
 20
130.7931577027
 30
0.0
 40
3.5
  1
M18 x 1
  7
SEACAD_Solid_Edge_ISO
 11
179.724900536
 21
134.2931577027
 31
0.0
100
AcDbText
 73
     3
  0
ENDBLK
  5
1D2
330
1C9
100
AcDbEntity
  8
0
100
AcDbBlockEnd
  0
BLOCK
  5
1D6
330
1D3
100
AcDbEntity
  8
0
100
AcDbBlockBegin
  2
SEANNOT_GROUP
 70
     0
 10
0.0
 20
0.0
 30
0.0
  3
SEANNOT_GROUP
  1

  0
TEXT
  5
1D5
330
1D3
100
AcDbEntity
  8
Default
  6
Continuous
 62
     7
100
AcDbText
 10
243.1483969886
 20
25.7525109624
 30
0.0
 40
3.5
  1
256332560
  7
SEACAD_Solid_Edge_ANSIB
 11
243.1483969886
 21
29.2525109624
 31
0.0
100
AcDbText
 73
     3
  0
ENDBLK
  5
1D7
330
1D3
100
AcDbEntity
  8
0
100
AcDbBlockEnd
  0
BLOCK
  5
1DB
330
1D8
100
AcDbEntity
  8
0
100
AcDbBlockBegin
  2
SEANNOT_GROUP1
 70
     0
 10
0.0
 20
0.0
 30
0.0
  3
SEANNOT_GROUP1
  1

  0
TEXT
  5
1DA
330
1D8
100
AcDbEntity
  8
Default
  6
Continuous
 62
     7
100
AcDbText
 10
243.1477357349
 20
20.0537100543
 30
0.0
 40
3.5
  1
21.01.2016
  7
SEACAD_Solid_Edge_ANSI
 11
243.1477357349
 21
23.5537100543
 31
0.0
100
AcDbText
 73
     3
  0
ENDBLK
  5
1DC
330
1D8
100
AcDbEntity
  8
0
100
AcDbBlockEnd
  0
BLOCK
  5
1DF
330
1DD
100
AcDbEntity
  8
0
100
AcDbBlockBegin
  2
SEANNOT_GROUP2
 70
     0
 10
0.0
 20
0.0
 30
0.0
  3
SEANNOT_GROUP2
  1

  0
TEXT
  5
1DE
330
1DD
100
AcDbEntity
  8
Default
  6
Continuous
 62
     7
100
AcDbText
 10
243.1795282745
 20
31.5598894014
 30
0.0
 40
3.5
  1
HSK-A63_WD25x110
 41
0.926
  7
SEACAD_Solid_Edge_ANSIB
 11
243.1795282745
 21
35.0598894014
 31
0.0
100
AcDbText
 73
     3
  0
ENDBLK
  5
1E0
330
1DD
100
AcDbEntity
  8
0
100
AcDbBlockEnd
  0
BLOCK
  5
1E3
330
1E1
100
AcDbEntity
  8
0
100
AcDbBlockBegin
  2
SEANNOT_GROUP3
 70
     0
 10
0.0
 20
0.0
 30
0.0
  3
SEANNOT_GROUP3
  1

  0
TEXT
  5
1E2
330
1E1
100
AcDbEntity
  8
Default
  6
Continuous
 62
     7
100
AcDbText
 10
243.2357917511
 20
14.1955389783
 30
0.0
 40
3.5
  1
1:1
  7
SEACAD_Solid_Edge_ANSI
 11
243.2357917511
 21
17.6955389783
 31
0.0
100
AcDbText
 73
     3
  0
ENDBLK
  5
1E4
330
1E1
100
AcDbEntity
  8
0
100
AcDbBlockEnd
  0
BLOCK
  5
232
330
1E5
100
AcDbEntity
  8
0
100
AcDbBlockBegin
  2
RF-Massblatt_2016
 70
     0
 10
0.0
 20
0.0
 30
0.0
  3
RF-Massblatt_2016
  1

  0
MTEXT
  5
1E6
102
{ACAD_XDICTIONARY
360
23C
102
}
330
1E5
100
AcDbEntity
  8
Default
100
AcDbMText
 10
15.2206856049
 20
34.8070876502
 30
0.0
 40
2.5
 41
48.9706096033
 71
     1
 72
     1
  3
{\fVectora Com 45 Light|b1||i0||c0|p34;\C7;\H2.5;\W1.;REGO-FIX AG\P}{\fVectora Com 45 Light|b0||i0||c0|p34;\C7;\H2.5;\W1.;Obermattweg 60\P}{\fVectora Com 45 Light|b0||i0||c0|p34;\C7;\H2.5;\W1.;4456 Tenniken / Switzerland\P}{\fVectora Com 45 Light|b0
  3
||i0||c0|p34;\C7;\H2.5;\W1.;\P}{\fVectora Com 45 Light|b0||i0||c0|p34;\C7;\H2.5;\W1.;P +41 61 976 14 66\P}{\fVectora Com 45 Light|b0||i0||c0|p34;\C7;\H2.5;\W1.;F +41 61 976 14 14\P}{\fVectora Com 45 Light|b1||i0||c0|p34;\C7;\H2.5;\W1.;www.rego-fix.c
  1
om}
 73
     1
 44
1.0
1001
ACAD
1000
ACAD_MTEXT_DEFINED_HEIGHT_BEGIN
1070
    46
1040
31.3191355437
1000
ACAD_MTEXT_DEFINED_HEIGHT_END
  0
MTEXT
  5
1E7
102
{ACAD_XDICTIONARY
360
23E
102
}
330
1E5
100
AcDbEntity
  8
Default
100
AcDbMText
 10
90.3836341545
 20
34.4892285804
 30
0.0
 40
2.5
 41
104.0282149141
 71
     1
 72
     1
  3
{\fSolid Edge ISO|b0||i0||c0|p34;\C7;\H2.;\W1.;This is a non-controlled copy. All information given herein is subject to change without notice\P}{\fSolid Edge ISO|b0||i0||c0|p34;\C7;\H2.;\W1.;\P}{\fSolid Edge ISO|b0||i0||c0|p34;\C7;\H2.;\W1.;The inf
  3
ormation given herein has been carefully checked and is believed to be correct. REGO-FIX,\P}{\fSolid Edge ISO|b0||i0||c0|p34;\C7;\H2.;\W1.;however, assumes no responsibility or liability for any errors, inaccuracies or omissions that may appear\P}{\
  3
fSolid Edge ISO|b0||i0||c0|p34;\C7;\H2.;\W1.;in this drawing\P}{\fSolid Edge ISO|b0||i0||c0|p34;\C7;\H2.;\W1.;\P}{\fSolid Edge ISO|b0||i0||c0|p34;\C7;\H2.;\W1.;This document is subject to copyright laws. No part of this document may be reproduced or
  3
 transmitted\P}{\fSolid Edge ISO|b0||i0||c0|p34;\C7;\H2.;\W1.;in any form or any means, electronic or mechanic, for any purpose, without the express written permission\P}{\fSolid Edge ISO|b0||i0||c0|p34;\C7;\H2.;\W1.;of REGO-FIX\P}{\fSolid Edge ISO|
  1
b0||i0||c0|p34;\C7;\H1.5;\W1.;\P}
 73
     1
 44
1.0
1001
ACAD
1000
ACAD_MTEXT_DEFINED_HEIGHT_BEGIN
1070
    46
1040
38.4545554545
1000
ACAD_MTEXT_DEFINED_HEIGHT_END
  0
INSERT
  5
1E8
330
1E5
100
AcDbEntity
  8
Default
100
AcDbBlockReference
  2
SEANNOT_GROUP
 10
0.0
 20
0.0
 30
0.0
  0
INSERT
  5
1E9
330
1E5
100
AcDbEntity
  8
Default
100
AcDbBlockReference
  2
SEANNOT_GROUP1
 10
0.0
 20
0.0
 30
0.0
  0
MTEXT
  5
1EA
102
{ACAD_XDICTIONARY
360
240
102
}
330
1E5
100
AcDbEntity
  8
Default
100
AcDbMText
 10
219.0323311835
 20
34.8066733186
 30
0.0
 40
2.5
 41
20.1335141444
 71
     1
 72
     1
  3
{\fVectora Com 45 Light|b0||i0||c0|p34;\C7;\H3.5;\W1.;Type :\P}{\fVectora Com 45 Light|b0||i0||c0|p34;\C7;\H3.5;\W1.;Part No. :\P}{\fVectora Com 45 Light|b0||i0||c0|p34;\C7;\H3.5;\W1.;Date : \P}{\fVectora Com 45 Light|b0||i0||c0|p34;\C7;\H3.5;\W1.;S
  1
cale :}
 73
     1
 44
1.0
1001
ACAD
1000
ACAD_MTEXT_DEFINED_HEIGHT_BEGIN
1070
    46
1040
23.6666666667
1000
ACAD_MTEXT_DEFINED_HEIGHT_END
  0
INSERT
  5
1EB
330
1E5
100
AcDbEntity
  8
Default
100
AcDbBlockReference
  2
SEANNOT_GROUP2
 10
0.0
 20
0.0
 30
0.0
  0
INSERT
  5
1EC
330
1E5
100
AcDbEntity
  8
Default
100
AcDbBlockReference
  2
SEANNOT_GROUP3
 10
0.0
 20
0.0
 30
0.0
  0
LINE
  5
1ED
330
1E5
100
AcDbEntity
  8
Default
  6
Continuous
 62
     7
100
AcDbLine
 10
269.3420202893
 20
189.711288453
 30
0.0
 11
267.226096305
 21
186.6436606679
 31
0.0
  0
LINE
  5
1EE
330
1E5
100
AcDbEntity
  8
Default
  6
Continuous
 62
     7
100
AcDbLine
 10
267.226096305
 20
186.6436606679
 30
0.0
 11
268.2886782185
 21
185.1144666968
 31
0.0
  0
LINE
  5
1EF
330
1E5
100
AcDbEntity
  8
Default
  6
Continuous
 62
     7
100
AcDbLine
 10
268.2886782185
 20
185.1144666968
 30
0.0
 11
267.2561257939
 21
183.6453317033
 31
0.0
  0
LINE
  5
1F0
330
1E5
100
AcDbEntity
  8
Default
  6
Continuous
 62
     7
100
AcDbLine
 10
267.2561257939
 20
183.6453317033
 30
0.0
 11
266.2235733692
 21
185.2646141411
 31
0.0
  0
LINE
  5
1F1
330
1E5
100
AcDbEntity
  8
Default
  6
Continuous
 62
     7
100
AcDbLine
 10
266.2235733692
 20
185.2646141411
 30
0.0
 11
264.7036192408
 21
183.1186606679
 31
0.0
  0
LINE
  5
1F2
330
1E5
100
AcDbEntity
  8
Default
  6
Continuous
 62
     7
100
AcDbLine
 10
264.7036192408
 20
183.1186606679
 30
0.0
 11
262.6269645881
 21
183.1186606679
 31
0.0
  0
LINE
  5
1F3
330
1E5
100
AcDbEntity
  8
Default
  6
Continuous
 62
     7
100
AcDbLine
 10
262.6269645881
 20
183.1186606679
 30
0.0
 11
265.20950063
 21
186.6436606679
 31
0.0
  0
LINE
  5
1F4
330
1E5
100
AcDbEntity
  8
Default
  6
Continuous
 62
     7
100
AcDbLine
 10
265.20950063
 20
186.6436606679
 30
0.0
 11
263.1051264492
 21
189.711288453
 31
0.0
  0
LINE
  5
1F5
330
1E5
100
AcDbEntity
  8
Default
  6
Continuous
 62
     7
100
AcDbLine
 10
263.1051264492
 20
189.711288453
 30
0.0
 11
265.20950063
 21
189.711288453
 31
0.0
  0
LINE
  5
1F6
330
1E5
100
AcDbEntity
  8
Default
  6
Continuous
 62
     7
100
AcDbLine
 10
265.20950063
 20
189.711288453
 30
0.0
 11
266.2235733692
 21
188.0042275094
 31
0.0
  0
LINE
  5
1F7
330
1E5
100
AcDbEntity
  8
Default
  6
Continuous
 62
     7
100
AcDbLine
 10
266.2235733692
 20
188.0042275094
 30
0.0
 11
267.226096305
 21
189.711288453
 31
0.0
  0
LINE
  5
1F8
330
1E5
100
AcDbEntity
  8
Default
  6
Continuous
 62
     7
100
AcDbLine
 10
267.226096305
 20
189.711288453
 30
0.0
 11
269.3420202893
 21
189.711288453
 31
0.0
  0
SPLINE
  5
1F9
330
1E5
100
AcDbEntity
  8
Default
  6
Continuous
 62
     7
100
AcDbSpline
210
0.0
220
0.0
230
1.0
 70
     8
 71
     3
 72
    13
 73
     9
 74
     0
 42
0.0000000012369638
 43
0.0000000001
 12
1.0
 22
0.0
 32
0.0
 13
1.0
 23
0.0
 33
0.0
 40
0.0
 40
0.0
 40
0.0
 40
0.0
 40
0.9091644120227717
 40
0.9091644120227717
 40
0.9091644120227717
 40
0.9554905618911577
 40
0.9554905618911577
 40
1.0
 40
1.0
 40
1.0
 40
1.0
 10
267.8844350992403
 20
183.5460033940301
 30
0.0
 10
269.2912011542862
 20
185.5418094228636
 30
0.0
 10
270.697967209332
 20
187.5376154516972
 30
0.0
 10
272.1047332643779
 20
189.5334214805307
 30
0.0
 10
272.1870447473536
 20
189.6501983627819
 30
0.0
 10
272.2849101975365
 20
189.7112884530078
 30
0.0
 10
272.5159062656886
 20
189.7112884530078
 30
0.0
 10
272.6198544963569
 20
189.6512294752883
 30
0.0
 10
272.7122529236178
 20
189.5334214805307
 30
0.0
  0
SPLINE
  5
1FA
330
1E5
100
AcDbEntity
  8
Default
  6
Continuous
 62
     7
100
AcDbSpline
210
0.0
220
0.0
230
1.0
 70
     8
 71
     3
 72
    16
 73
    12
 74
     0
 42
0.0000000006014133
 43
0.0000000001
 12
1.0
 22
0.0
 32
0.0
 13
1.0
 23
0.0
 33
0.0
 40
0.0
 40
0.0
 40
0.0
 40
0.0
 40
0.4418652593848311
 40
0.4418652593848311
 40
0.4418652593848311
 40
0.455090010411123
 40
0.455090010411123
 40
0.4811129075918901
 40
0.4811129075918901
 40
0.4811129075918901
 40
1.0
 40
1.0
 40
1.0
 40
1.0
 10
272.7122529236178
 20
189.5334214805307
 30
0.0
 10
274.1190189786636
 20
187.5376154516972
 30
0.0
 10
275.5257850337095
 20
185.5418094228636
 30
0.0
 10
276.9325510887554
 20
183.5460033940301
 30
0.0
 10
276.9849943017649
 20
183.4716012002038
 30
0.0
 10
277.0133997126086
 20
183.4004758710943
 30
0.0
 10
277.0133997126086
 20
183.1879594883945
 30
0.0
 10
276.9140714033032
 20
183.1186606679488
 30
0.0
 10
276.7154147846925
 20
183.1186606679488
 30
0.0
 10
273.8479835920319
 20
183.1186606679488
 30
0.0
 10
270.9805523993713
 20
183.1186606679488
 30
0.0
 10
268.1131212067108
 20
183.1186606679488
 30
0.0
  0
SPLINE
  5
1FB
330
1E5
100
AcDbEntity
  8
Default
  6
Continuous
 62
     7
100
AcDbSpline
210
0.0
220
0.0
230
1.0
 70
     8
 71
     3
 72
    11
 73
     7
 74
     0
 42
0.0000000141737466
 43
0.0000000001
 12
1.0
 22
0.0
 32
0.0
 13
1.0
 23
0.0
 33
0.0
 40
0.0
 40
0.0
 40
0.0
 40
0.0
 40
0.6560933575639865
 40
0.6560933575639865
 40
0.6560933575639865
 40
1.0
 40
1.0
 40
1.0
 40
1.0
 10
268.1131212067108
 20
183.1186606679488
 30
0.0
 10
267.9075347060556
 20
183.1186606679488
 30
0.0
 10
267.8058964360686
 20
183.1925794097575
 30
0.0
 10
267.8035864753871
 20
183.3381069326933
 30
0.0
 10
267.8027439506852
 20
183.3911859889177
 30
0.0
 10
267.8313060035653
 20
183.4605348488138
 30
0.0
 10
267.8844350992403
 20
183.5460033940301
 30
0.0
  0
LINE
  5
1FC
330
1E5
100
AcDbEntity
  8
Default
  6
Continuous
 62
     7
100
AcDbLine
 10
262.1857620979
 20
189.7274581778
 30
0.0
 11
262.1857620979
 21
183.1186606679
 31
0.0
  0
SPLINE
  5
1FD
330
1E5
100
AcDbEntity
  8
Default
  6
Continuous
 62
     7
100
AcDbSpline
210
0.0
220
0.0
230
1.0
 70
     8
 71
     3
 72
    14
 73
    10
 74
     0
 42
0.0000000052950889
 43
0.0000000001
 12
1.0
 22
0.0
 32
0.0
 13
1.0
 23
0.0
 33
0.0
 40
0.0
 40
0.0
 40
0.0
 40
0.0
 40
0.1210177131110554
 40
0.1210177131110554
 40
0.1210177131110554
 40
0.2419901306838391
 40
0.2419901306838391
 40
0.2419901306838391
 40
1.0
 40
1.0
 40
1.0
 40
1.0
 10
260.4740812329231
 20
189.4387130925884
 30
0.0
 10
260.4740812329231
 20
189.5195617164416
 30
0.0
 10
260.5018007611014
 20
189.5865505762057
 30
0.0
 10
260.5595497781394
 20
189.6419896325622
 30
0.0
 10
260.6172507110666
 20
189.6973825281723
 30
0.0
 10
260.68197769426
 20
189.7274581777785
 30
0.0
 10
260.7628263181132
 20
189.7274581777785
 30
0.0
 10
261.2371382447187
 20
189.7274581777785
 30
0.0
 10
261.7114501713242
 20
189.7274581777785
 30
0.0
 10
262.1857620979297
 20
189.7274581777785
 30
0.0
  0
LINE
  5
1FE
330
1E5
100
AcDbEntity
  8
Default
  6
Continuous
 62
     7
100
AcDbLine
 10
260.4740812329
 20
183.1186606679
 30
0.0
 11
260.4740812329
 21
189.4387130926
 31
0.0
  0
LINE
  5
1FF
330
1E5
100
AcDbEntity
  8
Default
  6
Continuous
 62
     7
100
AcDbLine
 10
262.1857620979
 20
183.1186606679
 30
0.0
 11
260.4740812329
 21
183.1186606679
 31
0.0
  0
SPLINE
  5
200
330
1E5
100
AcDbEntity
  8
Default
  6
Continuous
 62
     7
100
AcDbSpline
210
0.0
220
0.0
230
1.0
 70
     8
 71
     3
 72
    16
 73
    12
 74
     0
 42
0.0000000009758823
 43
0.0000000001
 12
1.0
 22
0.0
 32
0.0
 13
1.0
 23
0.0
 33
0.0
 40
0.0
 40
0.0
 40
0.0
 40
0.0
 40
0.6159054655977501
 40
0.6159054655977501
 40
0.6159054655977501
 40
0.6376683166669079
 40
0.6376683166669079
 40
0.6603379531972834
 40
0.6603379531972834
 40
0.6603379531972834
 40
1.0
 40
1.0
 40
1.0
 40
1.0
 10
255.8218204203412
 20
183.1186606679488
 30
0.0
 10
255.8218204203412
 20
185.2199549012385
 30
0.0
 10
255.8218204203412
 20
187.3212491345281
 30
0.0
 10
255.8218204203412
 20
189.4225433678178
 30
0.0
 10
255.8218204203412
 20
189.503391991671
 30
0.0
 10
255.8495399485194
 20
189.5703808514351
 30
0.0
 10
255.962728021914
 20
189.6835689248296
 30
0.0
 10
256.0297168816781
 20
189.7112884530078
 30
0.0
 10
256.1105655055312
 20
189.7112884530078
 30
0.0
 10
257.2693957807606
 20
189.7112884530078
 30
0.0
 10
258.42822605599
 20
189.7112884530078
 30
0.0
 10
259.5870563312193
 20
189.7112884530078
 30
0.0
  0
LINE
  5
201
330
1E5
100
AcDbEntity
  8
Default
  6
Continuous
 62
     7
100
AcDbLine
 10
257.5404311674
 20
183.1186606679
 30
0.0
 11
255.8218204203
 21
183.1186606679
 31
0.0
  0
LINE
  5
202
330
1E5
100
AcDbEntity
  8
Default
  6
Continuous
 62
     7
100
AcDbLine
 10
257.5404311674
 20
185.7035066706
 30
0.0
 11
257.5404311674
 21
183.1186606679
 31
0.0
  0
LINE
  5
203
330
1E5
100
AcDbEntity
  8
Default
  6
Continuous
 62
     7
100
AcDbLine
 10
259.4877280219
 20
185.7035066706
 30
0.0
 11
257.5404311674
 21
185.7035066706
 31
0.0
  0
LINE
  5
204
330
1E5
100
AcDbEntity
  8
Default
  6
Continuous
 62
     7
100
AcDbLine
 10
259.4877280219
 20
187.1610918606
 30
0.0
 11
259.4877280219
 21
185.7035066706
 31
0.0
  0
LINE
  5
205
330
1E5
100
AcDbEntity
  8
Default
  6
Continuous
 62
     7
100
AcDbLine
 10
257.5404311674
 20
187.1610918606
 30
0.0
 11
259.4877280219
 21
187.1610918606
 31
0.0
  0
LINE
  5
206
330
1E5
100
AcDbEntity
  8
Default
  6
Continuous
 62
     7
100
AcDbLine
 10
257.5404311674
 20
188.260633145
 30
0.0
 11
257.5404311674
 21
187.1610918606
 31
0.0
  0
LINE
  5
207
330
1E5
100
AcDbEntity
  8
Default
  6
Continuous
 62
     7
100
AcDbLine
 10
259.5870563312
 20
188.260633145
 30
0.0
 11
257.5404311674
 21
188.260633145
 31
0.0
  0
LINE
  5
208
330
1E5
100
AcDbEntity
  8
Default
  6
Continuous
 62
     7
100
AcDbLine
 10
259.5870563312
 20
189.711288453
 30
0.0
 11
259.5870563312
 21
188.260633145
 31
0.0
  0
LINE
  5
209
330
1E5
100
AcDbEntity
  8
Default
  6
Continuous
 62
     7
100
AcDbLine
 10
255.0710831988
 20
187.1610918606
 30
0.0
 11
255.0710831988
 21
185.7035066706
 31
0.0
  0
LINE
  5
20A
330
1E5
100
AcDbEntity
  8
Default
  6
Continuous
 62
     7
100
AcDbLine
 10
252.9366795291
 20
187.1610918606
 30
0.0
 11
255.0710831988
 21
187.1610918606
 31
0.0
  0
LINE
  5
20B
330
1E5
100
AcDbEntity
  8
Default
  6
Continuous
 62
     7
100
AcDbLine
 10
252.9366795291
 20
185.7035066706
 30
0.0
 11
252.9366795291
 21
187.1610918606
 31
0.0
  0
LINE
  5
20C
330
1E5
100
AcDbEntity
  8
Default
  6
Continuous
 62
     7
100
AcDbLine
 10
255.0710831988
 20
185.7035066706
 30
0.0
 11
252.9366795291
 21
185.7035066706
 31
0.0
  0
SPLINE
  5
20D
330
1E5
100
AcDbEntity
  8
Default
  6
Continuous
 62
     7
100
AcDbSpline
210
0.0
220
0.0
230
1.0
 70
    11
 71
     3
 72
    47
 73
    43
 74
     0
 42
0.0000000008494054
 43
0.0000000001
 12
1.0
 22
0.0
 32
0.0
 13
1.0
 23
0.0
 33
0.0
 40
0.0
 40
0.0
 40
0.0
 40
0.0
 40
0.0637917384076936
 40
0.0637917384076936
 40
0.0637917384076936
 40
0.1265834997779105
 40
0.1265834997779105
 40
0.1893752611481286
 40
0.1893752611481286
 40
0.1893752611481286
 40
0.2604081010642026
 40
0.2604081010642026
 40
0.3159741129340349
 40
0.3159741129340349
 40
0.3159741129340349
 40
0.3751091105868484
 40
0.3751091105868484
 40
0.3751091105868484
 40
0.435995169879425
 40
0.435995169879425
 40
0.435995169879425
 40
0.4997689343159713
 40
0.4997689343159713
 40
0.5635426987525196
 40
0.5635426987525196
 40
0.5635426987525196
 40
0.624232315369434
 40
0.624232315369434
 40
0.624232315369434
 40
0.6835869381889372
 40
0.6835869381889372
 40
0.6835869381889372
 40
0.7357943705008892
 40
0.7357943705008892
 40
0.8025337685079206
 40
0.8025337685079206
 40
0.8692731665149518
 40
0.8692731665149518
 40
0.9360125645219831
 40
0.9360125645219831
 40
0.9360125645219831
 40
1.0
 40
1.0
 40
1.0
 40
1.0
 10
248.4438060035654
 20
184.5693159759436
 30
0.0
 10
248.7025215998956
 20
184.5693159759436
 30
0.0
 10
248.9450674714552
 20
184.620135110937
 30
0.0
 10
249.1691336575627
 20
184.7194634202424
 30
0.0
 10
249.3951304192655
 20
184.8196475517189
 30
0.0
 10
249.5941664229625
 20
184.9550794097575
 30
0.0
 10
249.9314206824644
 20
185.3061934333486
 30
0.0
 10
250.0653984019926
 20
185.5140898946854
 30
0.0
 10
250.160106789935
 20
185.752015844882
 30
0.0
 10
250.2551311293749
 20
185.9907355268896
 30
0.0
 10
250.3056343128707
 20
186.2509673520904
 30
0.0
 10
250.3056343128707
 20
186.7614686627064
 30
0.0
 10
250.2571251385588
 20
186.9809149274508
 30
0.0
 10
250.160106789935
 20
187.1934313101507
 30
0.0
 10
250.0643595068875
 20
187.4031634539689
 30
0.0
 10
249.9314206824644
 20
187.5907445473721
 30
0.0
 10
249.7627935527134
 20
187.7547517557601
 30
0.0
 10
249.5953209577949
 20
187.9176360604069
 30
0.0
 10
249.3955098043517
 20
188.0458068016317
 30
0.0
 10
249.1691336575627
 20
188.140515189574
 30
0.0
 10
248.9439009259591
 20
188.2347452099388
 30
0.0
 10
248.7025215998956
 20
188.2860427125098
 30
0.0
 10
248.1850904072351
 20
188.2860427125098
 30
0.0
 10
247.9425445356754
 20
188.2375335381978
 30
0.0
 10
247.7161683888864
 20
188.140515189574
 30
0.0
 10
247.4925801256786
 20
188.0446916481992
 30
0.0
 10
247.2934455841682
 20
187.9164490034665
 30
0.0
 10
247.1248184544172
 20
187.7547517557601
 30
0.0
 10
246.9550373605366
 20
187.5919479671074
 30
0.0
 10
246.8222136051381
 20
187.403637732169
 30
0.0
 10
246.7228852958327
 20
187.1934313101507
 30
0.0
 10
246.622664698655
 20
186.9813365579839
 30
0.0
 10
246.5727378515339
 20
186.7614686627064
 30
0.0
 10
246.5727378515339
 20
186.2509673520904
 30
0.0
 10
246.6235569865273
 20
185.9899417950786
 30
0.0
 10
246.8222136051381
 20
185.5140898946854
 30
0.0
 10
246.9561913246663
 20
185.3061934333486
 30
0.0
 10
247.2934455841682
 20
184.9550794097575
 30
0.0
 10
247.492102202779
 20
184.8187917295478
 30
0.0
 10
247.7161683888864
 20
184.7194634202424
 30
0.0
 10
247.9421651505893
 20
184.6192792887659
 30
0.0
 10
248.1850904072351
 20
184.5693159759436
 30
0.0
 10
248.4438060035654
 20
184.5693159759436
 30
0.0
  0
SPLINE
  5
20E
330
1E5
100
AcDbEntity
  8
Default
  6
Continuous
 62
     7
100
AcDbSpline
210
0.0
220
0.0
230
1.0
 70
    11
 71
     3
 72
    49
 73
    45
 74
     0
 42
0.0000000004385322
 43
0.0000000001
 12
1.0
 22
0.0
 32
0.0
 13
1.0
 23
0.0
 33
0.0
 40
0.0
 40
0.0
 40
0.0
 40
0.0
 40
0.0617996483207596
 40
0.0617996483207596
 40
0.0617996483207596
 40
0.1220737652654132
 40
0.1220737652654132
 40
0.1220737652654132
 40
0.1820249318660078
 40
0.1820249318660078
 40
0.1820249318660078
 40
0.2438982680995642
 40
0.2438982680995642
 40
0.3109516975991858
 40
0.3109516975991858
 40
0.3109516975991858
 40
0.3722543214771952
 40
0.3722543214771952
 40
0.3722543214771952
 40
0.4335172266527087
 40
0.4335172266527087
 40
0.4335172266527087
 40
0.4994898970728853
 40
0.4994898970728853
 40
0.5657506577569065
 40
0.5657506577569065
 40
0.5657506577569065
 40
0.626961718898901
 40
0.626961718898901
 40
0.6886100019061948
 40
0.6886100019061948
 40
0.6886100019061948
 40
0.7556907268882871
 40
0.7556907268882871
 40
0.8175892499404324
 40
0.8175892499404324
 40
0.8175892499404324
 40
0.8774725210786118
 40
0.8774725210786118
 40
0.8774725210786118
 40
0.9379094648157675
 40
0.9379094648157675
 40
0.9379094648157675
 40
1.0
 40
1.0
 40
1.0
 40
1.0
 10
248.4438060035654
 20
189.9492144032044
 30
0.0
 10
248.9196356399268
 20
189.9515130970999
 30
0.0
 10
249.3770301188996
 20
189.8637458579882
 30
0.0
 10
249.8136126877069
 20
189.6997386496002
 30
0.0
 10
250.2509557040483
 20
189.5354457704455
 30
0.0
 10
250.6382686510096
 20
189.3001154516972
 30
0.0
 10
250.9755229105116
 20
188.997510602418
 30
0.0
 10
251.3129086463213
 20
188.694787784671
 30
0.0
 10
251.585352530433
 20
188.3368618475032
 30
0.0
 10
251.7863191097253
 20
187.918758964148
 30
0.0
 10
251.9868172819147
 20
187.5016305829262
 30
0.0
 10
252.0889239590044
 20
187.0455938265333
 30
0.0
 10
252.0889239590044
 20
186.0107314412123
 30
0.0
 10
251.9988354924251
 20
185.52101977673
 30
0.0
 10
251.816348598585
 20
185.0775073258781
 30
0.0
 10
251.6330488643873
 20
184.6320193642835
 30
0.0
 10
251.3820759904592
 20
184.2482314412123
 30
0.0
 10
251.0609914557278
 20
183.9225269851179
 30
0.0
 10
250.7410617834882
 20
183.5979940082417
 30
0.0
 10
250.3564534478642
 20
183.3473467754193
 30
0.0
 10
249.9083210756492
 20
183.1671698422608
 30
0.0
 10
249.4629767181928
 20
182.9881138634896
 30
0.0
 10
248.9727869996335
 20
182.8992144032044
 30
0.0
 10
247.9125150468157
 20
182.8992144032044
 30
0.0
 10
247.4251133430149
 20
182.9893028697837
 30
0.0
 10
246.9792909314815
 20
183.1671698422608
 30
0.0
 10
246.530680710158
 20
183.3461490497318
 30
0.0
 10
246.1453951254526
 20
183.5991324897051
 30
0.0
 10
245.4962961739454
 20
184.2482314412123
 30
0.0
 10
245.2445104596597
 20
184.6316849143446
 30
0.0
 10
245.0620235658196
 20
185.0775073258781
 30
0.0
 10
244.8803465126443
 20
185.521351265914
 30
0.0
 10
244.7871382447187
 20
186.0107314412123
 30
0.0
 10
244.7871382447187
 20
187.0455938265333
 30
0.0
 10
244.8887765147056
 20
187.5029660414744
 30
0.0
 10
245.0920530546794
 20
187.918758964148
 30
0.0
 10
245.2957954536029
 20
188.335504780128
 30
0.0
 10
245.5632850337095
 20
188.6972157138204
 30
0.0
 10
245.9005392932115
 20
188.997510602418
 30
0.0
 10
246.2389407961124
 20
189.2988270091107
 30
0.0
 10
246.6281769078904
 20
189.5334214805307
 30
0.0
 10
247.0670694373792
 20
189.6997386496002
 30
0.0
 10
247.5072164315149
 20
189.8665311947464
 30
0.0
 10
247.9656441424906
 20
189.9469044425229
 30
0.0
 10
248.4438060035654
 20
189.9492144032044
 30
0.0
  0
LINE
  5
20F
330
1E5
100
AcDbEntity
  8
Default
  6
Continuous
 62
     7
100
AcDbLine
 10
242.3339600009
 20
185.4332412708
 30
0.0
 11
240.8347955186
 21
185.4332412708
 31
0.0
  0
SPLINE
  5
210
330
1E5
100
AcDbEntity
  8
Default
  6
Continuous
 62
     7
100
AcDbSpline
210
0.0
220
0.0
230
1.0
 70
     8
 71
     3
 72
    43
 73
    39
 74
     0
 42
0.0000000009932047
 43
0.0000000001
 12
1.0
 22
0.0
 32
0.0
 13
1.0
 23
0.0
 33
0.0
 40
0.0
 40
0.0
 40
0.0
 40
0.0
 40
0.0949373847537602
 40
0.0949373847537602
 40
0.0949373847537602
 40
0.1911787086491429
 40
0.1911787086491429
 40
0.2677918678027036
 40
0.2677918678027036
 40
0.2677918678027036
 40
0.3406026976746725
 40
0.3406026976746725
 40
0.3406026976746725
 40
0.4151543081273698
 40
0.4151543081273698
 40
0.4151543081273698
 40
0.4895478942304584
 40
0.4895478942304584
 40
0.5659890102262922
 40
0.5659890102262922
 40
0.6424301262221261
 40
0.6424301262221261
 40
0.6424301262221261
 40
0.714798401889747
 40
0.714798401889747
 40
0.714798401889747
 40
0.7953127750919691
 40
0.7953127750919691
 40
0.8472575319966263
 40
0.8472575319966263
 40
0.8472575319966263
 40
0.898191982468852
 40
0.898191982468852
 40
0.898191982468852
 40
0.9471592991231073
 40
0.9471592991231073
 40
0.9471592991231073
 40
1.0
 40
1.0
 40
1.0
 40
1.0
 10
242.2554213377724
 20
187.3782281646723
 30
0.0
 10
242.1353033823333
 20
187.6970027387221
 30
0.0
 10
241.9551264491748
 20
187.9510984136893
 30
0.0
 10
241.7148905382967
 20
188.1428251502555
 30
0.0
 10
241.4721172585773
 20
188.3365769023392
 30
0.0
 10
241.1766696995024
 20
188.4315702354455
 30
0.0
 10
240.5460504334474
 20
188.4315702354455
 30
0.0
 10
240.3011946012062
 20
188.371511257726
 30
0.0
 10
240.0840582971433
 20
188.2490833416055
 30
0.0
 10
239.8686747464151
 20
188.1276436800246
 30
0.0
 10
239.6913649812849
 20
187.9649581777784
 30
0.0
 10
239.5481474190306
 20
187.7663015591677
 30
0.0
 10
239.4057198468884
 20
187.5687407332931
 30
0.0
 10
239.2986716654264
 20
187.345888715131
 30
0.0
 10
239.2270628842993
 20
187.0987229222083
 30
0.0
 10
239.1546578089098
 20
186.848808629735
 30
0.0
 10
239.1161847715863
 20
186.5997714149999
 30
0.0
 10
239.1161847715863
 20
186.089270104384
 30
0.0
 10
239.1554541031722
 20
185.8397943507798
 30
0.0
 10
239.3079115081525
 20
185.3500826862975
 30
0.0
 10
239.4187896208655
 20
185.1283264608715
 30
0.0
 10
239.5643171438012
 20
184.9342897636238
 30
0.0
 10
239.7109534478642
 20
184.7387746915399
 30
0.0
 10
239.8900215998956
 20
184.5808657793512
 30
0.0
 10
240.104847943277
 20
184.4630577845936
 30
0.0
 10
240.3206481660817
 20
184.3447157269266
 30
0.0
 10
240.5691500402626
 20
184.2851908121166
 30
0.0
 10
241.0403820192927
 20
184.2851908121166
 30
0.0
 10
241.2182489917698
 20
184.3082904189318
 30
0.0
 10
241.3914960428838
 20
184.3591095539252
 30
0.0
 10
241.5619922405099
 20
184.4091217718955
 30
0.0
 10
241.7148905382967
 20
184.4815374700458
 30
0.0
 10
241.8488682578248
 20
184.5762458579881
 30
0.0
 10
241.9813056983178
 20
184.6698654279918
 30
0.0
 10
242.089104168703
 20
184.7910722013695
 30
0.0
 10
242.1768826746007
 20
184.9342897636238
 30
0.0
 10
242.2630012238817
 20
185.0747989756085
 30
0.0
 10
242.315480315492
 20
185.241514534266
 30
0.0
 10
242.3339600009441
 20
185.4332412708322
 30
0.0
  0
LINE
  5
211
330
1E5
100
AcDbEntity
  8
Default
  6
Continuous
 62
     7
100
AcDbLine
 10
243.8839436182
 20
188.0642864871
 30
0.0
 11
242.2554213378
 21
187.3782281647
 31
0.0
  0
SPLINE
  5
212
330
1E5
100
AcDbEntity
  8
Default
  6
Continuous
 62
     7
100
AcDbSpline
210
0.0
220
0.0
230
1.0
 70
     8
 71
     3
 72
    51
 73
    47
 74
     0
 42
0.0000000004766382
 43
0.0000000001
 12
1.0
 22
0.0
 32
0.0
 13
1.0
 23
0.0
 33
0.0
 40
0.0
 40
0.0
 40
0.0
 40
0.0
 40
0.0095402040290222
 40
0.0095402040290222
 40
0.0095402040290222
 40
0.0400756007423482
 40
0.0400756007423482
 40
0.0400756007423482
 40
0.0693620114069116
 40
0.0693620114069116
 40
0.0986484220714753
 40
0.0986484220714753
 40
0.0986484220714753
 40
0.1302632519246672
 40
0.1302632519246672
 40
0.1302632519246672
 40
0.2055179711079718
 40
0.2055179711079718
 40
0.2055179711079718
 40
0.281182745691462
 40
0.281182745691462
 40
0.3511962093102096
 40
0.3511962093102096
 40
0.3511962093102096
 40
0.4149417185613706
 40
0.4149417185613706
 40
0.4149417185613706
 40
0.4786592191897758
 40
0.4786592191897758
 40
0.4786592191897758
 40
0.5478830793697405
 40
0.5478830793697405
 40
0.6199007276287178
 40
0.6199007276287178
 40
0.6199007276287178
 40
0.6846819262147057
 40
0.6846819262147057
 40
0.6846819262147057
 40
0.7494892886116509
 40
0.7494892886116509
 40
0.7494892886116509
 40
0.8193637744922013
 40
0.8193637744922013
 40
0.9096818872461009
 40
0.9096818872461009
 40
1.0
 40
1.0
 40
1.0
 40
1.0
 10
244.1426592145745
 20
186.777638387477
 30
0.0
 10
244.1426592145745
 20
186.7114195146068
 30
0.0
 10
244.1426592145745
 20
186.6452006417365
 30
0.0
 10
244.1426592145745
 20
186.5789817688662
 30
0.0
 10
244.1426592145745
 20
186.3618454648034
 30
0.0
 10
244.1287994504854
 20
186.1493290821035
 30
0.0
 10
244.1172496470778
 20
185.9437425814482
 30
0.0
 10
244.1057071113542
 20
185.738285445568
 30
0.0
 10
244.0849101975365
 20
185.5371895015006
 30
0.0
 10
244.0109914557279
 20
185.1398762642791
 30
0.0
 10
243.9578623600529
 20
184.9435296063499
 30
0.0
 10
243.8839436182442
 20
184.7518028697837
 30
0.0
 10
243.8103238022207
 20
184.5608514719727
 30
0.0
 10
243.7060766457672
 20
184.3683493966513
 30
0.0
 10
243.567479004876
 20
184.1766226600851
 30
0.0
 10
243.2385391943749
 20
183.7215892555586
 30
0.0
 10
242.8467712722416
 20
183.3866161070052
 30
0.0
 10
242.3801592145745
 20
183.1833395670314
 30
0.0
 10
241.9127013576763
 20
182.9796945600658
 30
0.0
 10
241.4007358856099
 20
182.8761147963892
 30
0.0
 10
240.3289141293845
 20
182.8761147963892
 30
0.0
 10
239.8530622289913
 20
182.9592733809239
 30
0.0
 10
239.4187896208655
 20
183.1279005106749
 30
0.0
 10
238.9865243210358
 20
183.2957482068854
 30
0.0
 10
238.6149233036964
 20
183.5344535906225
 30
0.0
 10
238.3076985330542
 20
183.8370584399017
 30
0.0
 10
237.9993189146371
 20
184.1408007708237
 30
0.0
 10
237.7625478122154
 20
184.5092569982241
 30
0.0
 10
237.5893007611014
 20
184.9412196456684
 30
0.0
 10
237.4171718734448
 20
185.3703943388921
 30
0.0
 10
237.3328951254526
 20
185.8444142721428
 30
0.0
 10
237.3328951254526
 20
186.8954463822346
 30
0.0
 10
237.4183636706689
 20
187.3828480860353
 30
0.0
 10
237.5893007611014
 20
187.8194306548426
 30
0.0
 10
237.760544896821
 20
188.2567974339103
 30
0.0
 10
238.005093683775
 20
188.6302268540563
 30
0.0
 10
238.3192483364618
 20
188.9420715460616
 30
0.0
 10
238.6322480402607
 20
189.2527697814501
 30
0.0
 10
239.0099265802364
 20
189.4918421882634
 30
0.0
 10
239.4488191097252
 20
189.6627792786959
 30
0.0
 10
239.8889361806183
 20
189.8341932957806
 30
0.0
 10
240.3751133430149
 20
189.9145649929816
 30
0.0
 10
241.587842700813
 20
189.9145649929816
 30
0.0
 10
242.1815025959638
 20
189.7621075880012
 30
0.0
 10
243.2025052171957
 20
189.1522779680799
 30
0.0
 10
243.5998184544173
 20
188.6879758710943
 30
0.0
 10
243.8839436182442
 20
188.0642864870838
 30
0.0
  0
LINE
  5
213
330
1E5
100
AcDbEntity
  8
Default
  6
Continuous
 62
     7
100
AcDbLine
 10
240.8347955186
 20
186.7776383875
 30
0.0
 11
244.1426592146
 21
186.7776383875
 31
0.0
  0
LINE
  5
214
330
1E5
100
AcDbEntity
  8
Default
  6
Continuous
 62
     7
100
AcDbLine
 10
240.8347955186
 20
185.4332412708
 30
0.0
 11
240.8347955186
 21
186.7776383875
 31
0.0
  0
SPLINE
  5
215
330
1E5
100
AcDbEntity
  8
Default
  6
Continuous
 62
     7
100
AcDbSpline
210
0.0
220
0.0
230
1.0
 70
     8
 71
     3
 72
    16
 73
    12
 74
     0
 42
0.000000000976763
 43
0.0000000001
 12
1.0
 22
0.0
 32
0.0
 13
1.0
 23
0.0
 33
0.0
 40
0.0
 40
0.0
 40
0.0
 40
0.0
 40
0.6164577788718584
 40
0.6164577788718584
 40
0.6164577788718584
 40
0.6381328433885463
 40
0.6381328433885463
 40
0.6607110355934293
 40
0.6607110355934293
 40
0.6607110355934293
 40
1.0
 40
1.0
 40
1.0
 40
1.0
 10
233.0225084937357
 20
183.1186606679488
 30
0.0
 10
233.0225084937357
 20
185.2199549012385
 30
0.0
 10
233.0225084937357
 20
187.3212491345281
 30
0.0
 10
233.0225084937357
 20
189.4225433678178
 30
0.0
 10
233.0225084937357
 20
189.503391991671
 30
0.0
 10
233.050228021914
 20
189.5703808514351
 30
0.0
 10
233.1634160953085
 20
189.6835689248296
 30
0.0
 10
233.2304049550725
 20
189.7112884530078
 30
0.0
 10
233.3089436182443
 20
189.7112884530078
 30
0.0
 10
234.4654639327921
 20
189.7112884530078
 30
0.0
 10
235.6219842473399
 20
189.7112884530078
 30
0.0
 10
236.7785045618878
 20
189.7112884530078
 30
0.0
  0
LINE
  5
216
330
1E5
100
AcDbEntity
  8
Default
  6
Continuous
 62
     7
100
AcDbLine
 10
236.7785045619
 20
183.1186606679
 30
0.0
 11
233.0225084937
 21
183.1186606679
 31
0.0
  0
LINE
  5
217
330
1E5
100
AcDbEntity
  8
Default
  6
Continuous
 62
     7
100
AcDbLine
 10
236.7785045619
 20
184.5693159759
 30
0.0
 11
236.7785045619
 21
183.1186606679
 31
0.0
  0
LINE
  5
218
330
1E5
100
AcDbEntity
  8
Default
  6
Continuous
 62
     7
100
AcDbLine
 10
234.7318793981
 20
184.5693159759
 30
0.0
 11
236.7785045619
 21
184.5693159759
 31
0.0
  0
LINE
  5
219
330
1E5
100
AcDbEntity
  8
Default
  6
Continuous
 62
     7
100
AcDbLine
 10
234.7318793981
 20
185.7035066706
 30
0.0
 11
234.7318793981
 21
184.5693159759
 31
0.0
  0
LINE
  5
21A
330
1E5
100
AcDbEntity
  8
Default
  6
Continuous
 62
     7
100
AcDbLine
 10
236.6791762526
 20
185.7035066706
 30
0.0
 11
234.7318793981
 21
185.7035066706
 31
0.0
  0
LINE
  5
21B
330
1E5
100
AcDbEntity
  8
Default
  6
Continuous
 62
     7
100
AcDbLine
 10
236.6791762526
 20
187.1610918606
 30
0.0
 11
236.6791762526
 21
185.7035066706
 31
0.0
  0
LINE
  5
21C
330
1E5
100
AcDbEntity
  8
Default
  6
Continuous
 62
     7
100
AcDbLine
 10
234.7318793981
 20
187.1610918606
 30
0.0
 11
236.6791762526
 21
187.1610918606
 31
0.0
  0
LINE
  5
21D
330
1E5
100
AcDbEntity
  8
Default
  6
Continuous
 62
     7
100
AcDbLine
 10
234.7318793981
 20
188.260633145
 30
0.0
 11
234.7318793981
 21
187.1610918606
 31
0.0
  0
LINE
  5
21E
330
1E5
100
AcDbEntity
  8
Default
  6
Continuous
 62
     7
100
AcDbLine
 10
236.7785045619
 20
188.260633145
 30
0.0
 11
234.7318793981
 21
188.260633145
 31
0.0
  0
LINE
  5
21F
330
1E5
100
AcDbEntity
  8
Default
  6
Continuous
 62
     7
100
AcDbLine
 10
236.7785045619
 20
189.711288453
 30
0.0
 11
236.7785045619
 21
188.260633145
 31
0.0
  0
LINE
  5
220
330
1E5
100
AcDbEntity
  8
Default
  6
Continuous
 62
     7
100
AcDbLine
 10
228.7098119013
 20
188.3992307859
 30
0.0
 11
228.7098119013
 21
186.7499188593
 31
0.0
  0
LINE
  5
221
330
1E5
100
AcDbEntity
  8
Default
  6
Continuous
 62
     7
100
AcDbLine
 10
228.7098119013
 20
186.7499188593
 30
0.0
 11
228.8807489918
 21
186.7499188593
 31
0.0
  0
SPLINE
  5
222
330
1E5
100
AcDbEntity
  8
Default
  6
Continuous
 62
     7
100
AcDbSpline
210
0.0
220
0.0
230
1.0
 70
     8
 71
     3
 72
    29
 73
    25
 74
     0
 42
0.0000000028633018
 43
0.0000000001
 12
1.0
 22
0.0
 32
0.0
 13
1.0
 23
0.0
 33
0.0
 40
0.0
 40
0.0
 40
0.0
 40
0.0
 40
0.1203556671631279
 40
0.1203556671631279
 40
0.1203556671631279
 40
0.2363519504887718
 40
0.2363519504887718
 40
0.2363519504887718
 40
0.3551316836966588
 40
0.3551316836966588
 40
0.4739114169045465
 40
0.4739114169045465
 40
0.5942337440501996
 40
0.5942337440501996
 40
0.7145560711958533
 40
0.7145560711958533
 40
0.7145560711958533
 40
0.8303426976884648
 40
0.8303426976884648
 40
0.8303426976884648
 40
0.9506957818555967
 40
0.9506957818555967
 40
0.9506957818555967
 40
1.0
 40
1.0
 40
1.0
 40
1.0
 10
228.8807489917698
 20
186.7499188592988
 30
0.0
 10
229.019346632661
 20
186.7499188592988
 30
0.0
 10
229.1579442735522
 20
186.7591587020248
 30
0.0
 10
229.2965419144435
 20
186.7799483481585
 30
0.0
 10
229.4373986855855
 20
186.8010768638298
 30
0.0
 10
229.5644973534998
 20
186.8376973651965
 30
0.0
 10
229.6799953875758
 20
186.8954463822346
 30
0.0
 10
229.7964174059245
 20
186.9536573914089
 30
0.0
 10
229.8902018095942
 20
187.0340440231258
 30
0.0
 10
230.0287994504854
 20
187.2511803271887
 30
0.0
 10
230.0634488607082
 20
187.3967078501244
 30
0.0
 10
230.0634488607082
 20
187.7547517557601
 30
0.0
 10
230.0287994504854
 20
187.8979693180144
 30
0.0
 10
229.8902018095942
 20
188.1151056220773
 30
0.0
 10
229.7978033823333
 20
188.198264206612
 30
0.0
 10
229.6799953875758
 20
188.25601322365
 30
0.0
 10
229.5649627826514
 20
188.3124017554757
 30
0.0
 10
229.4374495160162
 20
188.3484116509108
 30
0.0
 10
229.2965419144435
 20
188.3692012970445
 30
0.0
 10
229.1578950608181
 20
188.3896573902023
 30
0.0
 10
229.019346632661
 20
188.3992307859043
 30
0.0
 10
228.8807489917698
 20
188.3992307859043
 30
0.0
 10
228.8237699616256
 20
188.3992307859043
 30
0.0
 10
228.7667909314815
 20
188.3992307859043
 30
0.0
 10
228.7098119013373
 20
188.3992307859043
 30
0.0
  0
LINE
  5
223
330
1E5
100
AcDbEntity
  8
Default
  6
Continuous
 62
     7
100
AcDbLine
 10
228.7098119013
 20
183.1186606679
 30
0.0
 11
227.000440997
 21
183.1186606679
 31
0.0
  0
LINE
  5
224
330
1E5
100
AcDbEntity
  8
Default
  6
Continuous
 62
     7
100
AcDbLine
 10
228.7098119013
 20
185.6526875356
 30
0.0
 11
228.7098119013
 21
183.1186606679
 31
0.0
  0
LINE
  5
225
330
1E5
100
AcDbEntity
  8
Default
  6
Continuous
 62
     7
100
AcDbLine
 10
230.3406441425
 20
183.1186606679
 30
0.0
 11
228.7098119013
 21
185.6526875356
 31
0.0
  0
LINE
  5
226
330
1E5
100
AcDbEntity
  8
Default
  6
Continuous
 62
     7
100
AcDbLine
 10
232.4773577729
 20
183.1186606679
 30
0.0
 11
230.3406441425
 21
183.1186606679
 31
0.0
  0
LINE
  5
227
330
1E5
100
AcDbEntity
  8
Default
  6
Continuous
 62
     7
100
AcDbLine
 10
230.4007031202
 20
185.8190047046
 30
0.0
 11
232.4773577729
 21
183.1186606679
 31
0.0
  0
SPLINE
  5
228
330
1E5
100
AcDbEntity
  8
Default
  6
Continuous
 62
     7
100
AcDbSpline
210
0.0
220
0.0
230
1.0
 70
     8
 71
     3
 72
    39
 73
    35
 74
     0
 42
0.0000000006617465
 43
0.0000000001
 12
1.0
 22
0.0
 32
0.0
 13
1.0
 23
0.0
 33
0.0
 40
0.0
 40
0.0
 40
0.0
 40
0.0
 40
0.4184837171182216
 40
0.4184837171182216
 40
0.4184837171182216
 40
0.4329116956232541
 40
0.4329116956232541
 40
0.447940839899329
 40
0.447940839899329
 40
0.447940839899329
 40
0.5989875461512338
 40
0.5989875461512338
 40
0.5989875461512338
 40
0.65983019696195
 40
0.65983019696195
 40
0.65983019696195
 40
0.7141636694202442
 40
0.7141636694202442
 40
0.7141636694202442
 40
0.7672492360561214
 40
0.7672492360561214
 40
0.7672492360561214
 40
0.8311842098663922
 40
0.8311842098663922
 40
0.8732466926363075
 40
0.8732466926363075
 40
0.8732466926363075
 40
0.9147241024096695
 40
0.9147241024096695
 40
0.9147241024096695
 40
0.9560702513872078
 40
0.9560702513872078
 40
0.9560702513872078
 40
1.0
 40
1.0
 40
1.0
 40
1.0
 10
227.0004409970123
 20
183.1186606679488
 30
0.0
 10
227.0004409970123
 20
185.2199549012385
 30
0.0
 10
227.0004409970123
 20
187.3212491345281
 30
0.0
 10
227.0004409970123
 20
189.4225433678178
 30
0.0
 10
227.0004409970123
 20
189.503391991671
 30
0.0
 10
227.0281605251905
 20
189.5703808514351
 30
0.0
 10
227.141348598585
 20
189.6835689248296
 30
0.0
 10
227.2060274976676
 20
189.7112884530078
 30
0.0
 10
227.2776362787947
 20
189.7112884530078
 30
0.0
 10
228.0360733692272
 20
189.7112884530078
 30
0.0
 10
228.7945104596597
 20
189.7112884530078
 30
0.0
 10
229.5529475500922
 20
189.7112884530078
 30
0.0
 10
229.8786520061866
 20
189.7112884530078
 30
0.0
 10
230.1812568554658
 20
189.672019121422
 30
0.0
 10
230.4584521372482
 20
189.5911704975687
 30
0.0
 10
230.7371553613635
 20
189.5098820572018
 30
0.0
 10
230.9781932905902
 20
189.3902039182765
 30
0.0
 10
231.1837797912455
 20
189.223886749207
 30
0.0
 10
231.3882367819392
 20
189.0584833410054
 30
0.0
 10
231.5510635396073
 20
188.8496731188007
 30
0.0
 10
231.6665615736833
 20
188.5955774438335
 30
0.0
 10
231.782929798427
 20
188.3395673493973
 30
0.0
 10
231.8398086247973
 20
188.0365669589056
 30
0.0
 10
231.8398086247973
 20
187.4544568671624
 30
0.0
 10
231.8097791359376
 20
187.235010602418
 30
0.0
 10
231.745100236855
 20
187.0317340624443
 30
0.0
 10
231.679966279852
 20
186.827027340435
 30
0.0
 10
231.5903328711931
 20
186.6390407465858
 30
0.0
 10
231.4679049550726
 20
186.4750335381978
 30
0.0
 10
231.3443697291374
 20
186.3095429525111
 30
0.0
 10
231.1953295946532
 20
186.1678087675556
 30
0.0
 10
231.0151526614946
 20
186.0523107334796
 30
0.0
 10
230.8366129371881
 20
185.9378621922575
 30
0.0
 10
230.6316991883622
 20
185.8582740362319
 30
0.0
 10
230.4007031202102
 20
185.8190047046461
 30
0.0
  0
HATCH
  5
229
330
1E5
100
AcDbEntity
  8
Default
  6
Continuous
 62
     7
100
AcDbHatch
 10
0.0
 20
0.0
 30
0.0
210
0.0
220
0.0
230
1.0
  2
SOLID
 70
     1
 71
     0
 91
        2
 92
        1
 93
        6
 72
     4
 94
        3
 73
     0
 74
     0
 95
       39
 96
       35
 40
0.0
 40
0.0
 40
0.0
 40
0.0
 40
0.0439297486127922
 40
0.0439297486127922
 40
0.0439297486127922
 40
0.0852758975903305
 40
0.0852758975903305
 40
0.0852758975903305
 40
0.1267533073636925
 40
0.1267533073636925
 40
0.1267533073636925
 40
0.1688157901336078
 40
0.1688157901336078
 40
0.2327507639438786
 40
0.2327507639438786
 40
0.2327507639438786
 40
0.2858363305797558
 40
0.2858363305797558
 40
0.2858363305797558
 40
0.34016980303805
 40
0.34016980303805
 40
0.34016980303805
 40
0.4010124538487662
 40
0.4010124538487662
 40
0.4010124538487662
 40
0.552059160100671
 40
0.552059160100671
 40
0.552059160100671
 40
0.5670883043767458
 40
0.5670883043767458
 40
0.5815162828817784
 40
0.5815162828817784
 40
0.5815162828817784
 40
1.0
 40
1.0
 40
1.0
 40
1.0
 10
230.4007031202102
 20
185.8190047046461
 10
230.6316991883622
 20
185.8582740362319
 10
230.8366129371881
 20
185.9378621922575
 10
231.0151526614946
 20
186.0523107334796
 10
231.1953295946532
 20
186.1678087675556
 10
231.3443697291374
 20
186.3095429525111
 10
231.4679049550726
 20
186.4750335381978
 10
231.5903328711931
 20
186.6390407465858
 10
231.679966279852
 20
186.827027340435
 10
231.745100236855
 20
187.0317340624443
 10
231.8097791359376
 20
187.235010602418
 10
231.8398086247973
 20
187.4544568671624
 10
231.8398086247973
 20
188.0365669589056
 10
231.782929798427
 20
188.3395673493973
 10
231.6665615736833
 20
188.5955774438335
 10
231.5510635396073
 20
188.8496731188007
 10
231.3882367819392
 20
189.0584833410054
 10
231.1837797912455
 20
189.223886749207
 10
230.9781932905902
 20
189.3902039182765
 10
230.7371553613635
 20
189.5098820572018
 10
230.4584521372482
 20
189.5911704975687
 10
230.1812568554658
 20
189.672019121422
 10
229.8786520061866
 20
189.7112884530078
 10
229.5529475500922
 20
189.7112884530078
 10
228.7945104596597
 20
189.7112884530078
 10
228.0360733692272
 20
189.7112884530078
 10
227.2776362787947
 20
189.7112884530078
 10
227.2060274976676
 20
189.7112884530078
 10
227.141348598585
 20
189.6835689248296
 10
227.0281605251905
 20
189.5703808514351
 10
227.0004409970123
 20
189.503391991671
 10
227.0004409970123
 20
189.4225433678178
 10
227.0004409970123
 20
187.3212491345281
 10
227.0004409970123
 20
185.2199549012385
 10
227.0004409970123
 20
183.1186606679488
 72
     1
 10
227.0004409970123
 20
183.1186606679488
 11
228.7098119013373
 21
183.1186606679488
 72
     1
 10
228.7098119013373
 20
183.1186606679488
 11
228.7098119013373
 21
185.6526875355766
 72
     1
 10
228.7098119013373
 20
185.6526875355766
 11
230.3406441424906
 21
183.1186606679488
 72
     1
 10
230.3406441424906
 20
183.1186606679488
 11
232.4773577728969
 21
183.1186606679488
 72
     1
 10
232.4773577728969
 20
183.1186606679488
 11
230.4007031202102
 21
185.8190047046461
 97
        0
 92
        1
 93
        3
 72
     1
 10
228.7098119013373
 20
188.3992307859043
 11
228.7098119013373
 21
186.7499188592988
 72
     1
 10
228.7098119013373
 20
186.7499188592988
 11
228.8807489917698
 21
186.7499188592988
 72
     4
 94
        3
 73
     0
 74
     0
 95
       29
 96
       25
 40
0.0
 40
0.0
 40
0.0
 40
0.0
 40
0.120355667163128
 40
0.120355667163128
 40
0.120355667163128
 40
0.2363519504887718
 40
0.2363519504887718
 40
0.2363519504887718
 40
0.3551316836966587
 40
0.3551316836966587
 40
0.4739114169045465
 40
0.4739114169045465
 40
0.5942337440501996
 40
0.5942337440501996
 40
0.7145560711958533
 40
0.7145560711958533
 40
0.7145560711958533
 40
0.8303426976884648
 40
0.8303426976884648
 40
0.8303426976884648
 40
0.9506957818555967
 40
0.9506957818555967
 40
0.9506957818555967
 40
1.0
 40
1.0
 40
1.0
 40
1.0
 10
228.8807489917698
 20
186.7499188592988
 10
229.019346632661
 20
186.7499188592988
 10
229.1579442735522
 20
186.7591587020248
 10
229.2965419144435
 20
186.7799483481585
 10
229.4373986855855
 20
186.8010768638298
 10
229.5644973534998
 20
186.8376973651965
 10
229.6799953875758
 20
186.8954463822346
 10
229.7964174059245
 20
186.9536573914089
 10
229.8902018095942
 20
187.0340440231258
 10
230.0287994504854
 20
187.2511803271887
 10
230.0634488607082
 20
187.3967078501244
 10
230.0634488607082
 20
187.7547517557601
 10
230.0287994504854
 20
187.8979693180144
 10
229.8902018095942
 20
188.1151056220773
 10
229.7978033823333
 20
188.198264206612
 10
229.6799953875758
 20
188.25601322365
 10
229.5649627826514
 20
188.3124017554757
 10
229.4374495160162
 20
188.3484116509108
 10
229.2965419144435
 20
188.3692012970445
 10
229.1578950608181
 20
188.3896573902023
 10
229.019346632661
 20
188.3992307859043
 10
228.8807489917698
 20
188.3992307859043
 10
228.8237699616256
 20
188.3992307859043
 10
228.7667909314815
 20
188.3992307859043
 10
228.7098119013373
 20
188.3992307859043
 97
        0
 75
     0
 76
     1
 98
        0
  0
HATCH
  5
22A
330
1E5
100
AcDbEntity
  8
Default
  6
Continuous
 62
     7
100
AcDbHatch
 10
0.0
 20
0.0
 30
0.0
210
0.0
220
0.0
230
1.0
  2
SOLID
 70
     1
 71
     0
 91
        1
 92
        1
 93
       11
 72
     4
 94
        3
 73
     0
 74
     0
 95
       16
 96
       12
 40
0.0
 40
0.0
 40
0.0
 40
0.0
 40
0.3392889644065707
 40
0.3392889644065707
 40
0.3392889644065707
 40
0.3618671566114537
 40
0.3618671566114537
 40
0.3835422211281416
 40
0.3835422211281416
 40
0.3835422211281416
 40
1.0
 40
1.0
 40
1.0
 40
1.0
 10
236.7785045618878
 20
189.7112884530078
 10
235.6219842473399
 20
189.7112884530078
 10
234.4654639327921
 20
189.7112884530078
 10
233.3089436182443
 20
189.7112884530078
 10
233.2304049550725
 20
189.7112884530078
 10
233.1634160953085
 20
189.6835689248296
 10
233.050228021914
 20
189.5703808514351
 10
233.0225084937357
 20
189.503391991671
 10
233.0225084937357
 20
189.4225433678178
 10
233.0225084937357
 20
187.3212491345281
 10
233.0225084937357
 20
185.2199549012385
 10
233.0225084937357
 20
183.1186606679488
 72
     1
 10
233.0225084937357
 20
183.1186606679488
 11
236.7785045618878
 21
183.1186606679488
 72
     1
 10
236.7785045618878
 20
183.1186606679488
 11
236.7785045618878
 21
184.5693159759436
 72
     1
 10
236.7785045618878
 20
184.5693159759436
 11
234.7318793980608
 21
184.5693159759436
 72
     1
 10
234.7318793980608
 20
184.5693159759436
 11
234.7318793980608
 21
185.7035066705701
 72
     1
 10
234.7318793980608
 20
185.7035066705701
 11
236.6791762525824
 21
185.7035066705701
 72
     1
 10
236.6791762525824
 20
185.7035066705701
 11
236.6791762525824
 21
187.1610918606094
 72
     1
 10
236.6791762525824
 20
187.1610918606094
 11
234.7318793980608
 21
187.1610918606094
 72
     1
 10
234.7318793980608
 20
187.1610918606094
 11
234.7318793980608
 21
188.260633145013
 72
     1
 10
234.7318793980608
 20
188.260633145013
 11
236.7785045618878
 21
188.260633145013
 72
     1
 10
236.7785045618878
 20
188.260633145013
 11
236.7785045618878
 21
189.7112884530078
 97
        0
 75
     0
 76
     1
 98
        0
  0
HATCH
  5
22B
330
1E5
100
AcDbEntity
  8
Default
  6
Continuous
 62
     7
100
AcDbHatch
 10
0.0
 20
0.0
 30
0.0
210
0.0
220
0.0
230
1.0
  2
SOLID
 70
     1
 71
     0
 91
        1
 92
        1
 93
        6
 72
     4
 94
        3
 73
     0
 74
     0
 95
       51
 96
       47
 40
0.0
 40
0.0
 40
0.0
 40
0.0
 40
0.0903181127538991
 40
0.0903181127538991
 40
0.1806362255077987
 40
0.1806362255077987
 40
0.2505107113883491
 40
0.2505107113883491
 40
0.2505107113883491
 40
0.3153180737852943
 40
0.3153180737852943
 40
0.3153180737852943
 40
0.3800992723712822
 40
0.3800992723712822
 40
0.3800992723712822
 40
0.4521169206302595
 40
0.4521169206302595
 40
0.5213407808102242
 40
0.5213407808102242
 40
0.5213407808102242
 40
0.5850582814386294
 40
0.5850582814386294
 40
0.5850582814386294
 40
0.6488037906897904
 40
0.6488037906897904
 40
0.6488037906897904
 40
0.718817254308538
 40
0.718817254308538
 40
0.7944820288920282
 40
0.7944820288920282
 40
0.7944820288920282
 40
0.8697367480753329
 40
0.8697367480753329
 40
0.8697367480753329
 40
0.9013515779285247
 40
0.9013515779285247
 40
0.9013515779285247
 40
0.9306379885930884
 40
0.9306379885930884
 40
0.9599243992576518
 40
0.9599243992576518
 40
0.9599243992576518
 40
0.9904597959709778
 40
0.9904597959709778
 40
0.9904597959709778
 40
1.0
 40
1.0
 40
1.0
 40
1.0
 10
243.8839436182442
 20
188.0642864870838
 10
243.5998184544173
 20
188.6879758710943
 10
243.2025052171957
 20
189.1522779680799
 10
242.1815025959638
 20
189.7621075880012
 10
241.587842700813
 20
189.9145649929816
 10
240.3751133430149
 20
189.9145649929816
 10
239.8889361806183
 20
189.8341932957806
 10
239.4488191097252
 20
189.6627792786959
 10
239.0099265802364
 20
189.4918421882634
 10
238.6322480402607
 20
189.2527697814501
 10
238.3192483364618
 20
188.9420715460616
 10
238.005093683775
 20
188.6302268540563
 10
237.760544896821
 20
188.2567974339103
 10
237.5893007611014
 20
187.8194306548426
 10
237.4183636706689
 20
187.3828480860353
 10
237.3328951254526
 20
186.8954463822346
 10
237.3328951254526
 20
185.8444142721428
 10
237.4171718734448
 20
185.3703943388921
 10
237.5893007611014
 20
184.9412196456684
 10
237.7625478122154
 20
184.5092569982241
 10
237.9993189146371
 20
184.1408007708237
 10
238.3076985330542
 20
183.8370584399017
 10
238.6149233036964
 20
183.5344535906225
 10
238.9865243210358
 20
183.2957482068854
 10
239.4187896208655
 20
183.1279005106749
 10
239.8530622289913
 20
182.9592733809239
 10
240.3289141293845
 20
182.8761147963892
 10
241.4007358856099
 20
182.8761147963892
 10
241.9127013576763
 20
182.9796945600658
 10
242.3801592145745
 20
183.1833395670314
 10
242.8467712722416
 20
183.3866161070052
 10
243.2385391943749
 20
183.7215892555586
 10
243.567479004876
 20
184.1766226600851
 10
243.7060766457672
 20
184.3683493966513
 10
243.8103238022207
 20
184.5608514719727
 10
243.8839436182442
 20
184.7518028697837
 10
243.9578623600529
 20
184.9435296063499
 10
244.0109914557279
 20
185.1398762642791
 10
244.0849101975365
 20
185.5371895015006
 10
244.1057071113542
 20
185.738285445568
 10
244.1172496470778
 20
185.9437425814482
 10
244.1287994504854
 20
186.1493290821035
 10
244.1426592145745
 20
186.3618454648034
 10
244.1426592145745
 20
186.5789817688662
 10
244.1426592145745
 20
186.6452006417365
 10
244.1426592145745
 20
186.7114195146068
 10
244.1426592145745
 20
186.777638387477
 72
     1
 10
244.1426592145745
 20
186.777638387477
 11
240.8347955186374
 21
186.777638387477
 72
     1
 10
240.8347955186374
 20
186.777638387477
 11
240.8347955186374
 21
185.4332412708322
 72
     1
 10
240.8347955186374
 20
185.4332412708322
 11
242.3339600009441
 21
185.4332412708322
 72
     4
 94
        3
 73
     0
 74
     0
 95
       43
 96
       39
 40
0.0
 40
0.0
 40
0.0
 40
0.0
 40
0.0528407008768927
 40
0.0528407008768927
 40
0.0528407008768927
 40
0.101808017531148
 40
0.101808017531148
 40
0.101808017531148
 40
0.1527424680033737
 40
0.1527424680033737
 40
0.1527424680033737
 40
0.2046872249080309
 40
0.2046872249080309
 40
0.285201598110253
 40
0.285201598110253
 40
0.285201598110253
 40
0.3575698737778739
 40
0.3575698737778739
 40
0.3575698737778739
 40
0.4340109897737078
 40
0.4340109897737078
 40
0.5104521057695417
 40
0.5104521057695417
 40
0.5848456918726302
 40
0.5848456918726302
 40
0.5848456918726302
 40
0.6593973023253275
 40
0.6593973023253275
 40
0.6593973023253275
 40
0.7322081321972964
 40
0.7322081321972964
 40
0.7322081321972964
 40
0.808821291350857
 40
0.808821291350857
 40
0.9050626152462398
 40
0.9050626152462398
 40
0.9050626152462398
 40
1.0
 40
1.0
 40
1.0
 40
1.0
 10
242.3339600009441
 20
185.4332412708322
 10
242.315480315492
 20
185.241514534266
 10
242.2630012238817
 20
185.0747989756085
 10
242.1768826746007
 20
184.9342897636238
 10
242.089104168703
 20
184.7910722013695
 10
241.9813056983178
 20
184.6698654279918
 10
241.8488682578248
 20
184.5762458579881
 10
241.7148905382967
 20
184.4815374700458
 10
241.5619922405099
 20
184.4091217718955
 10
241.3914960428838
 20
184.3591095539252
 10
241.2182489917698
 20
184.3082904189318
 10
241.0403820192927
 20
184.2851908121166
 10
240.5691500402626
 20
184.2851908121166
 10
240.3206481660817
 20
184.3447157269266
 10
240.104847943277
 20
184.4630577845936
 10
239.8900215998956
 20
184.5808657793512
 10
239.7109534478642
 20
184.7387746915399
 10
239.5643171438012
 20
184.9342897636238
 10
239.4187896208655
 20
185.1283264608715
 10
239.3079115081525
 20
185.3500826862975
 10
239.1554541031722
 20
185.8397943507798
 10
239.1161847715863
 20
186.089270104384
 10
239.1161847715863
 20
186.5997714149999
 10
239.1546578089098
 20
186.848808629735
 10
239.2270628842993
 20
187.0987229222083
 10
239.2986716654264
 20
187.345888715131
 10
239.4057198468884
 20
187.5687407332931
 10
239.5481474190306
 20
187.7663015591677
 10
239.6913649812849
 20
187.9649581777784
 10
239.8686747464151
 20
188.1276436800246
 10
240.0840582971433
 20
188.2490833416055
 10
240.3011946012062
 20
188.371511257726
 10
240.5460504334474
 20
188.4315702354455
 10
241.1766696995024
 20
188.4315702354455
 10
241.4721172585773
 20
188.3365769023392
 10
241.7148905382967
 20
188.1428251502555
 10
241.9551264491748
 20
187.9510984136893
 10
242.1353033823333
 20
187.6970027387221
 10
242.2554213377724
 20
187.3782281646723
 72
     1
 10
242.2554213377724
 20
187.3782281646723
 11
243.8839436182442
 21
188.0642864870838
 97
        0
 75
     0
 76
     1
 98
        0
  0
HATCH
  5
22C
330
1E5
100
AcDbEntity
  8
Default
  6
Continuous
 62
     7
100
AcDbHatch
 10
0.0
 20
0.0
 30
0.0
210
0.0
220
0.0
230
1.0
  2
SOLID
 70
     1
 71
     0
 91
        2
 92
        1
 93
        1
 72
     4
 94
        3
 73
     0
 74
     0
 95
       49
 96
       45
 40
0.0
 40
0.0
 40
0.0
 40
0.0
 40
0.0620905351842325
 40
0.0620905351842325
 40
0.0620905351842325
 40
0.1225274789213882
 40
0.1225274789213882
 40
0.1225274789213882
 40
0.1824107500595676
 40
0.1824107500595676
 40
0.1824107500595676
 40
0.2443092731117129
 40
0.2443092731117129
 40
0.3113899980938052
 40
0.3113899980938052
 40
0.3113899980938052
 40
0.373038281101099
 40
0.373038281101099
 40
0.4342493422430935
 40
0.4342493422430935
 40
0.4342493422430935
 40
0.5005101029271146
 40
0.5005101029271146
 40
0.5664827733472912
 40
0.5664827733472912
 40
0.5664827733472912
 40
0.6277456785228048
 40
0.6277456785228048
 40
0.6277456785228048
 40
0.6890483024008142
 40
0.6890483024008142
 40
0.6890483024008142
 40
0.7561017319004357
 40
0.7561017319004357
 40
0.8179750681339922
 40
0.8179750681339922
 40
0.8179750681339922
 40
0.8779262347345869
 40
0.8779262347345869
 40
0.8779262347345869
 40
0.9382003516792404
 40
0.9382003516792404
 40
0.9382003516792404
 40
1.0
 40
1.0
 40
1.0
 40
1.0
 10
248.4438060035654
 20
189.9492144032044
 10
247.9656441424906
 20
189.9469044425229
 10
247.5072164315149
 20
189.8665311947464
 10
247.0670694373792
 20
189.6997386496002
 10
246.6281769078904
 20
189.5334214805307
 10
246.2389407961124
 20
189.2988270091107
 10
245.9005392932115
 20
188.997510602418
 10
245.5632850337095
 20
188.6972157138204
 10
245.2957954536029
 20
188.335504780128
 10
245.0920530546794
 20
187.918758964148
 10
244.8887765147056
 20
187.5029660414744
 10
244.7871382447187
 20
187.0455938265333
 10
244.7871382447187
 20
186.0107314412123
 10
244.8803465126443
 20
185.521351265914
 10
245.0620235658196
 20
185.0775073258781
 10
245.2445104596597
 20
184.6316849143446
 10
245.4962961739454
 20
184.2482314412123
 10
246.1453951254526
 20
183.5991324897051
 10
246.530680710158
 20
183.3461490497318
 10
246.9792909314815
 20
183.1671698422608
 10
247.4251133430149
 20
182.9893028697837
 10
247.9125150468157
 20
182.8992144032044
 10
248.9727869996335
 20
182.8992144032044
 10
249.4629767181928
 20
182.9881138634896
 10
249.9083210756492
 20
183.1671698422608
 10
250.3564534478642
 20
183.3473467754193
 10
250.7410617834882
 20
183.5979940082417
 10
251.0609914557278
 20
183.9225269851179
 10
251.3820759904592
 20
184.2482314412123
 10
251.6330488643873
 20
184.6320193642835
 10
251.816348598585
 20
185.0775073258781
 10
251.9988354924251
 20
185.52101977673
 10
252.0889239590044
 20
186.0107314412123
 10
252.0889239590044
 20
187.0455938265333
 10
251.9868172819147
 20
187.5016305829262
 10
251.7863191097253
 20
187.918758964148
 10
251.585352530433
 20
188.3368618475032
 10
251.3129086463213
 20
188.694787784671
 10
250.9755229105116
 20
188.997510602418
 10
250.6382686510096
 20
189.3001154516972
 10
250.2509557040483
 20
189.5354457704455
 10
249.8136126877069
 20
189.6997386496002
 10
249.3770301188996
 20
189.8637458579882
 10
248.9196356399268
 20
189.9515130970999
 10
248.4438060035654
 20
189.9492144032044
 97
        0
 92
        1
 93
        1
 72
     4
 94
        3
 73
     0
 74
     0
 95
       47
 96
       43
 40
0.0
 40
0.0
 40
0.0
 40
0.0
 40
0.0637917384076936
 40
0.0637917384076936
 40
0.0637917384076936
 40
0.1265834997779105
 40
0.1265834997779105
 40
0.1893752611481285
 40
0.1893752611481285
 40
0.1893752611481285
 40
0.2604081010642026
 40
0.2604081010642026
 40
0.3159741129340349
 40
0.3159741129340349
 40
0.3159741129340349
 40
0.3751091105868485
 40
0.3751091105868485
 40
0.3751091105868485
 40
0.435995169879425
 40
0.435995169879425
 40
0.435995169879425
 40
0.4997689343159712
 40
0.4997689343159712
 40
0.5635426987525196
 40
0.5635426987525196
 40
0.5635426987525196
 40
0.624232315369434
 40
0.624232315369434
 40
0.624232315369434
 40
0.6835869381889372
 40
0.6835869381889372
 40
0.6835869381889372
 40
0.7357943705008892
 40
0.7357943705008892
 40
0.8025337685079206
 40
0.8025337685079206
 40
0.8692731665149518
 40
0.8692731665149518
 40
0.9360125645219831
 40
0.9360125645219831
 40
0.9360125645219831
 40
1.0
 40
1.0
 40
1.0
 40
1.0
 10
248.4438060035654
 20
184.5693159759436
 10
248.7025215998956
 20
184.5693159759436
 10
248.9450674714552
 20
184.620135110937
 10
249.1691336575627
 20
184.7194634202424
 10
249.3951304192655
 20
184.8196475517189
 10
249.5941664229625
 20
184.9550794097575
 10
249.9314206824644
 20
185.3061934333486
 10
250.0653984019926
 20
185.5140898946854
 10
250.160106789935
 20
185.752015844882
 10
250.2551311293749
 20
185.9907355268896
 10
250.3056343128707
 20
186.2509673520904
 10
250.3056343128707
 20
186.7614686627064
 10
250.2571251385588
 20
186.9809149274508
 10
250.160106789935
 20
187.1934313101507
 10
250.0643595068875
 20
187.4031634539689
 10
249.9314206824644
 20
187.5907445473721
 10
249.7627935527134
 20
187.7547517557601
 10
249.5953209577949
 20
187.9176360604069
 10
249.3955098043517
 20
188.0458068016317
 10
249.1691336575627
 20
188.140515189574
 10
248.9439009259591
 20
188.2347452099388
 10
248.7025215998956
 20
188.2860427125098
 10
248.1850904072351
 20
188.2860427125098
 10
247.9425445356754
 20
188.2375335381978
 10
247.7161683888864
 20
188.140515189574
 10
247.4925801256786
 20
188.0446916481992
 10
247.2934455841682
 20
187.9164490034665
 10
247.1248184544172
 20
187.7547517557601
 10
246.9550373605366
 20
187.5919479671074
 10
246.8222136051381
 20
187.403637732169
 10
246.7228852958327
 20
187.1934313101507
 10
246.622664698655
 20
186.9813365579839
 10
246.5727378515339
 20
186.7614686627064
 10
246.5727378515339
 20
186.2509673520904
 10
246.6235569865273
 20
185.9899417950786
 10
246.8222136051381
 20
185.5140898946854
 10
246.9561913246663
 20
185.3061934333486
 10
247.2934455841682
 20
184.9550794097575
 10
247.492102202779
 20
184.8187917295478
 10
247.7161683888864
 20
184.7194634202424
 10
247.9421651505893
 20
184.6192792887659
 10
248.1850904072351
 20
184.5693159759436
 10
248.4438060035654
 20
184.5693159759436
 97
        0
 75
     0
 76
     1
 98
        0
  0
HATCH
  5
22D
330
1E5
100
AcDbEntity
  8
Default
  6
Continuous
 62
     7
100
AcDbHatch
 10
0.0
 20
0.0
 30
0.0
210
0.0
220
0.0
230
1.0
  2
SOLID
 70
     1
 71
     0
 91
        1
 92
        1
 93
        4
 72
     1
 10
255.0710831988471
 20
185.7035066705701
 11
255.0710831988471
 21
187.1610918606094
 72
     1
 10
255.0710831988471
 20
187.1610918606094
 11
252.9366795291224
 21
187.1610918606094
 72
     1
 10
252.9366795291224
 20
187.1610918606094
 11
252.9366795291224
 21
185.70350667057
 72
     1
 10
252.9366795291224
 20
185.70350667057
 11
255.0710831988471
 21
185.7035066705701
 97
        0
 75
     0
 76
     1
 98
        0
  0
HATCH
  5
22E
330
1E5
100
AcDbEntity
  8
Default
  6
Continuous
 62
     7
100
AcDbHatch
 10
0.0
 20
0.0
 30
0.0
210
0.0
220
0.0
230
1.0
  2
SOLID
 70
     1
 71
     0
 91
        1
 92
        1
 93
        9
 72
     4
 94
        3
 73
     0
 74
     0
 95
       16
 96
       12
 40
0.0
 40
0.0
 40
0.0
 40
0.0
 40
0.3396620468027166
 40
0.3396620468027166
 40
0.3396620468027166
 40
0.3623316833330921
 40
0.3623316833330921
 40
0.3840945344022499
 40
0.3840945344022499
 40
0.3840945344022499
 40
1.0
 40
1.0
 40
1.0
 40
1.0
 10
259.5870563312193
 20
189.7112884530078
 10
258.42822605599
 20
189.7112884530078
 10
257.2693957807606
 20
189.7112884530078
 10
256.1105655055312
 20
189.7112884530078
 10
256.0297168816781
 20
189.7112884530078
 10
255.962728021914
 20
189.6835689248296
 10
255.8495399485194
 20
189.5703808514351
 10
255.8218204203412
 20
189.503391991671
 10
255.8218204203412
 20
189.4225433678178
 10
255.8218204203412
 20
187.3212491345281
 10
255.8218204203412
 20
185.2199549012385
 10
255.8218204203412
 20
183.1186606679488
 72
     1
 10
255.8218204203412
 20
183.1186606679488
 11
257.5404311673923
 21
183.1186606679488
 72
     1
 10
257.5404311673923
 20
183.1186606679488
 11
257.5404311673923
 21
185.7035066705701
 72
     1
 10
257.5404311673923
 20
185.7035066705701
 11
259.4877280219139
 21
185.7035066705701
 72
     1
 10
259.4877280219139
 20
185.7035066705701
 11
259.4877280219139
 21
187.1610918606094
 72
     1
 10
259.4877280219139
 20
187.1610918606094
 11
257.5404311673923
 21
187.1610918606094
 72
     1
 10
257.5404311673923
 20
187.1610918606094
 11
257.5404311673923
 21
188.260633145013
 72
     1
 10
257.5404311673923
 20
188.260633145013
 11
259.5870563312194
 21
188.260633145013
 72
     1
 10
259.5870563312193
 20
188.260633145013
 11
259.5870563312193
 21
189.7112884530078
 97
        0
 75
     0
 76
     1
 98
        0
  0
HATCH
  5
22F
330
1E5
100
AcDbEntity
  8
Default
  6
Continuous
 62
     7
100
AcDbHatch
 10
0.0
 20
0.0
 30
0.0
210
0.0
220
0.0
230
1.0
  2
SOLID
 70
     1
 71
     0
 91
        1
 92
        1
 93
        4
 72
     4
 94
        3
 73
     0
 74
     0
 95
       14
 96
       10
 40
0.0
 40
0.0
 40
0.0
 40
0.0
 40
0.7580098693161609
 40
0.7580098693161609
 40
0.7580098693161609
 40
0.8789822868889446
 40
0.8789822868889446
 40
0.8789822868889446
 40
1.0
 40
1.0
 40
1.0
 40
1.0
 10
262.1857620979297
 20
189.7274581777785
 10
261.7114501713242
 20
189.7274581777785
 10
261.2371382447187
 20
189.7274581777785
 10
260.7628263181132
 20
189.7274581777785
 10
260.68197769426
 20
189.7274581777785
 10
260.6172507110666
 20
189.6973825281723
 10
260.5595497781394
 20
189.6419896325622
 10
260.5018007611014
 20
189.5865505762057
 10
260.4740812329231
 20
189.5195617164416
 10
260.4740812329231
 20
189.4387130925884
 72
     1
 10
260.4740812329231
 20
189.4387130925884
 11
260.4740812329231
 21
183.1186606679488
 72
     1
 10
260.4740812329231
 20
183.1186606679488
 11
262.1857620979297
 21
183.1186606679488
 72
     1
 10
262.1857620979297
 20
183.1186606679488
 11
262.1857620979297
 21
189.7274581777785
 97
        0
 75
     0
 76
     1
 98
        0
  0
HATCH
  5
230
330
1E5
100
AcDbEntity
  8
Default
  6
Continuous
 62
     7
100
AcDbHatch
 10
0.0
 20
0.0
 30
0.0
210
0.0
220
0.0
230
1.0
  2
SOLID
 70
     1
 71
     0
 91
        1
 92
        1
 93
       12
 72
     1
 10
266.2235733692272
 20
188.0042275093643
 11
265.2095006300398
 21
189.7112884530078
 72
     1
 10
265.2095006300398
 20
189.7112884530078
 11
263.1051264491747
 21
189.7112884530078
 72
     1
 10
263.1051264491747
 20
189.7112884530078
 11
265.2095006300398
 21
186.6436606679488
 72
     1
 10
265.2095006300398
 20
186.6436606679488
 11
262.6269645881001
 21
183.1186606679488
 72
     1
 10
262.6269645881001
 20
183.1186606679488
 11
264.7036192407868
 21
183.1186606679488
 72
     1
 10
264.7036192407868
 20
183.1186606679488
 11
266.2235733692272
 21
185.2646141410812
 72
     1
 10
266.2235733692272
 20
185.2646141410812
 11
267.2561257938668
 21
183.6453317033355
 72
     1
 10
267.2561257938668
 20
183.6453317033355
 11
268.2886782185064
 21
185.1144666967824
 72
     1
 10
268.2886782185064
 20
185.1144666967824
 11
267.226096305007
 21
186.6436606679488
 72
     1
 10
267.226096305007
 20
186.6436606679488
 11
269.3420202892797
 21
189.7112884530078
 72
     1
 10
269.3420202892797
 20
189.7112884530078
 11
267.226096305007
 21
189.7112884530078
 72
     1
 10
267.226096305007
 20
189.7112884530078
 11
266.2235733692272
 21
188.0042275093643
 97
        0
 75
     0
 76
     1
 98
        0
  0
HATCH
  5
231
330
1E5
100
AcDbEntity
  8
Default
  6
Continuous
 62
     7
100
AcDbHatch
 10
0.0
 20
0.0
 30
0.0
210
0.0
220
0.0
230
1.0
  2
SOLID
 70
     1
 71
     0
 91
        1
 92
        1
 93
        3
 72
     4
 94
        3
 73
     0
 74
     0
 95
       13
 96
        9
 40
0.0
 40
0.0
 40
0.0
 40
0.0
 40
0.0445094381088423
 40
0.0445094381088423
 40
0.0908355879772283
 40
0.0908355879772283
 40
0.0908355879772283
 40
1.0
 40
1.0
 40
1.0
 40
1.0
 10
272.7122529236178
 20
189.5334214805307
 10
272.6198544963569
 20
189.6512294752883
 10
272.5159062656886
 20
189.7112884530078
 10
272.2849101975365
 20
189.7112884530078
 10
272.1870447473536
 20
189.6501983627819
 10
272.1047332643779
 20
189.5334214805307
 10
270.697967209332
 20
187.5376154516972
 10
269.2912011542862
 20
185.5418094228636
 10
267.8844350992403
 20
183.5460033940301
 72
     4
 94
        3
 73
     0
 74
     0
 95
       11
 96
        7
 40
0.0
 40
0.0
 40
0.0
 40
0.0
 40
0.3439066424360135
 40
0.3439066424360135
 40
0.3439066424360135
 40
1.0
 40
1.0
 40
1.0
 40
1.0
 10
267.8844350992403
 20
183.5460033940301
 10
267.8313060035653
 20
183.4605348488138
 10
267.8027439506852
 20
183.3911859889177
 10
267.8035864753871
 20
183.3381069326933
 10
267.8058964360686
 20
183.1925794097575
 10
267.9075347060556
 20
183.1186606679488
 10
268.1131212067108
 20
183.1186606679488
 72
     4
 94
        3
 73
     0
 74
     0
 95
       16
 96
       12
 40
0.0
 40
0.0
 40
0.0
 40
0.0
 40
0.5188870924081099
 40
0.5188870924081099
 40
0.5188870924081099
 40
0.544909989588877
 40
0.544909989588877
 40
0.5581347406151689
 40
0.5581347406151689
 40
0.5581347406151689
 40
1.0
 40
1.0
 40
1.0
 40
1.0
 10
268.1131212067108
 20
183.1186606679488
 10
270.9805523993713
 20
183.1186606679488
 10
273.8479835920319
 20
183.1186606679488
 10
276.7154147846925
 20
183.1186606679488
 10
276.9140714033032
 20
183.1186606679488
 10
277.0133997126086
 20
183.1879594883945
 10
277.0133997126086
 20
183.4004758710943
 10
276.9849943017649
 20
183.4716012002038
 10
276.9325510887554
 20
183.5460033940301
 10
275.5257850337095
 20
185.5418094228636
 10
274.1190189786636
 20
187.5376154516972
 10
272.7122529236178
 20
189.5334214805307
 97
        0
 75
     0
 76
     1
 98
        0
  0
ENDBLK
  5
233
330
1E5
100
AcDbEntity
  8
0
100
AcDbBlockEnd
  0
ENDSEC
  0
SECTION
  2
ENTITIES
  0
INSERT
  5
41
330
1F
100
AcDbEntity
  8
Default
100
AcDbBlockReference
  2
SE
 10
0.0
 20
0.0
 30
0.0
  0
DIMENSION
  5
158
330
1F
100
AcDbEntity
  8
Default
  6
Continuous
 62
     7
100
AcDbDimension
  2
DMBLK127
 10
161.454446378
 20
149.2395403687
 30
0.0
 11
185.7044456628
 21
149.2395403687
 31
0.0
 70
   160
  1
\A1;<>
 71
     5
 42
-1.0
  3
DIN
100
AcDbAlignedDimension
 13
209.954446378
 23
69.060735673
 33
0.0
 14
161.454446378
 24
121.1465221107
 34
0.0
100
AcDbRotatedDimension
  0
DIMENSION
  5
162
330
1F
100
AcDbEntity
  8
Default
  6
Continuous
 62
     7
100
AcDbDimension
  2
DMBLK128
 10
125.954446378
 20
166.0395416323
 30
0.0
 11
167.9544469443
 21
166.0395416323
 31
0.0
 70
   160
  1
\A1;<>
 71
     5
 42
-1.0
  3
DIN
100
AcDbAlignedDimension
 13
209.954446378
 23
69.060735673
 33
0.0
 14
125.954446378
 24
122.1465221107
 34
0.0
100
AcDbRotatedDimension
  0
DIMENSION
  5
16C
330
1F
100
AcDbEntity
  8
Default
  6
Continuous
 62
     7
100
AcDbDimension
  2
DMBLK129
 10
67.954446378
 20
174.4395422641
 30
0.0
 11
138.9544440534
 21
174.4395422641
 31
0.0
 70
   160
  1
\A1;<>
 71
     5
 42
-1.0
  3
DIN
100
AcDbAlignedDimension
 13
209.954446378
 23
69.060735673
 33
0.0
 14
67.954446378
 24
109.3465221107
 34
0.0
100
AcDbRotatedDimension
  0
DIMENSION
  5
176
330
1F
100
AcDbEntity
  8
Default
  6
Continuous
 62
     7
100
AcDbDimension
  2
DMBLK130
 10
209.954446378
 20
48.4817925453
 30
0.0
 11
154.95444608
 21
48.4817925453
 31
0.0
 70
   160
  1
\A1;<>
 71
     5
 42
-1.0
  3
DIN
100
AcDbAlignedDimension
 13
99.954446378
 23
60.1465221107
 33
0.0
 14
209.954446378
 24
69.060735673
 34
0.0
100
AcDbRotatedDimension
  0
INSERT
  5
181
330
1F
100
AcDbEntity
  8
Default
100
AcDbBlockReference
  2
GDimGGroup
 10
0.0
 20
0.0
 30
0.0
  0
INSERT
  5
18C
330
1F
100
AcDbEntity
  8
Default
100
AcDbBlockReference
  2
GDimGGroup1
 10
0.0
 20
0.0
 30
0.0
  0
INSERT
  5
198
330
1F
100
AcDbEntity
  8
Default
100
AcDbBlockReference
  2
GDimGGroup2
 10
0.0
 20
0.0
 30
0.0
  0
INSERT
  5
1A2
330
1F
100
AcDbEntity
  8
Default
100
AcDbBlockReference
  2
GDimGGroup3
 10
0.0
 20
0.0
 30
0.0
  0
INSERT
  5
1AB
330
1F
100
AcDbEntity
  8
Default
100
AcDbBlockReference
  2
GDimGGroup4
 10
0.0
 20
0.0
 30
0.0
  0
DIMENSION
  5
1B5
330
1F
100
AcDbEntity
  8
Default
  6
Continuous
 62
     7
100
AcDbDimension
  2
DMBLK131
 10
186.454446378
 20
140.8395397368
 30
0.0
 11
198.2044467804
 21
140.8395397368
 31
0.0
 70
   160
  1
\A1;<>
 71
     5
 42
-1.0
  3
DIN
100
AcDbAlignedDimension
 13
209.954446378
 23
69.060735673
 33
0.0
 14
186.454446378
 24
121.1465221107
 34
0.0
100
AcDbRotatedDimension
  0
DIMENSION
  5
1BF
330
1F
100
AcDbEntity
  8
Default
  6
Continuous
 62
     7
100
AcDbDimension
  2
DMBLK132
 10
141.954446378
 20
157.6395410005
 30
0.0
 11
175.9544445303
 21
157.6395410005
 31
0.0
 70
   160
  1
\A1;<>
 71
     5
 42
-1.0
  3
DIN
100
AcDbAlignedDimension
 13
209.954446378
 23
69.060735673
 33
0.0
 14
141.954446378
 24
116.1465221107
 34
0.0
100
AcDbRotatedDimension
  0
INSERT
  5
1CA
330
1F
100
AcDbEntity
  8
Default
100
AcDbBlockReference
  2
GDimGGroup5
 10
0.0
 20
0.0
 30
0.0
  0
INSERT
  5
234
330
1F
100
AcDbEntity
  8
Default
 62
     7
100
AcDbBlockReference
  2
RF-Massblatt_2016
 10
0.0
 20
0.0
 30
0.0
  0
ENDSEC
  0
SECTION
  2
OBJECTS
  0
DICTIONARY
  5
C
330
0
100
AcDbDictionary
281
     1
  3
ACAD_GROUP
350
D
  3
ACAD_LAYOUT
350
1A
  3
ACAD_MATERIAL
350
3B
  3
ACAD_MLEADERSTYLE
350
237
  3
ACAD_MLINESTYLE
350
17
  3
ACAD_PLOTSETTINGS
350
19
  3
ACAD_PLOTSTYLENAME
350
E
  3
ACAD_VISUALSTYLE
350
2A
  3
AcDbVariableDictionary
350
235
  0
DICTIONARY
  5
23C
330
1E6
100
AcDbDictionary
280
     1
281
     1
  3
ACAD_MTEXT_RT
360
23D
  0
DICTIONARY
  5
23E
330
1E7
100
AcDbDictionary
280
     1
281
     1
  3
ACAD_MTEXT_RT
360
23F
  0
DICTIONARY
  5
240
330
1EA
100
AcDbDictionary
280
     1
281
     1
  3
ACAD_MTEXT_RT
360
241
  0
DICTIONARY
  5
D
102
{ACAD_REACTORS
330
C
102
}
330
C
100
AcDbDictionary
281
     1
  0
DICTIONARY
  5
1A
102
{ACAD_REACTORS
330
C
102
}
330
C
100
AcDbDictionary
281
     1
  3
Layout1
350
1E
  3
Model
350
22
  0
DICTIONARY
  5
3B
102
{ACAD_REACTORS
330
C
102
}
330
C
100
AcDbDictionary
281
     1
  3
ByBlock
350
3D
  3
ByLayer
350
3C
  3
Global
350
3E
  0
DICTIONARY
  5
237
102
{ACAD_REACTORS
330
C
102
}
330
C
100
AcDbDictionary
281
     1
  0
DICTIONARY
  5
17
102
{ACAD_REACTORS
330
C
102
}
330
C
100
AcDbDictionary
281
     1
  3
Standard
350
18
  0
DICTIONARY
  5
19
102
{ACAD_REACTORS
330
C
102
}
330
C
100
AcDbDictionary
281
     1
  0
ACDBDICTIONARYWDFLT
  5
E
102
{ACAD_REACTORS
330
C
102
}
330
C
100
AcDbDictionary
281
     1
  3
Normal
350
F
100
AcDbDictionaryWithDefault
340
F
  0
DICTIONARY
  5
2A
102
{ACAD_REACTORS
330
C
102
}
330
C
100
AcDbDictionary
281
     1
  3
2dWireframe
350
2F
  3
3D Hidden
350
31
  3
3dWireframe
350
30
  3
Basic
350
32
  3
Brighten
350
36
  3
ColorChange
350
3A
  3
Conceptual
350
34
  3
Dim
350
35
  3
Facepattern
350
39
  3
Flat
350
2B
  3
FlatWithEdges
350
2C
  3
Gouraud
350
2D
  3
GouraudWithEdges
350
2E
  3
Linepattern
350
38
  3
Realistic
350
33
  3
Thicken
350
37
  0
DICTIONARY
  5
235
102
{ACAD_REACTORS
330
C
102
}
330
C
100
AcDbDictionary
281
     1
  3
DIMASSOC
350
23A
  3
HIDETEXT
350
23B
  3
PSOLHEIGHT
350
239
  3
PSOLWIDTH
350
238
  0
XRECORD
  5
23D
102
{ACAD_REACTORS
330
23C
102
}
330
23C
100
AcDbXrecord
280
     1
 40
10118767.0
  1
\pxsm1.;{\fVectora Com 45 Light|b1||i0||c0|p34;\C7;\H2.5;\W1.;REGO-FIX AG\P}{\fVectora Com 45 Light|b0||i0||c0|p34;\C7;\H2.5;\W1.;Obermattweg 60\P}{\fVectora Com 45 Light|b0||i0||c0|p34;\C7;\H2.5;\W1.;4456 Tenniken / Switzerland\P}{\fVectora Com 45 L
  1
ight|b0||i0||c0|p34;\C7;\H2.5;\W1.;\P}{\fVectora Com 45 Light|b0||i0||c0|p34;\C7;\H2.5;\W1.;P +41 61 976 14 66\P}{\fVectora Com 45 Light|b0||i0||c0|p34;\C7;\H2.5;\W1.;F +41 61 976 14 14\P}{\fVectora Com 45 Light|b1||i0||c0|p34;\C7;\H2.5;\W1.;www.rego
  1
-fix.com}
  0
XRECORD
  5
23F
102
{ACAD_REACTORS
330
23E
102
}
330
23E
100
AcDbXrecord
280
     1
 40
47111022.0
  1
\pxsm1.;{\fSolid Edge ISO|b0||i0||c0|p34;\C7;\H2.;\W1.;This is a non-controlled copy. All information given herein is subject to change without notice\P}{\fSolid Edge ISO|b0||i0||c0|p34;\C7;\H2.;\W1.;\P}{\fSolid Edge ISO|b0||i0||c0|p34;\C7;\H2.;\W1.;
  1
The information given herein has been carefully checked and is believed to be correct. REGO-FIX,\P}{\fSolid Edge ISO|b0||i0||c0|p34;\C7;\H2.;\W1.;however, assumes no responsibility or liability for any errors, inaccuracies or omissions that may appea
  1
r\P}{\fSolid Edge ISO|b0||i0||c0|p34;\C7;\H2.;\W1.;in this drawing\P}{\fSolid Edge ISO|b0||i0||c0|p34;\C7;\H2.;\W1.;\P}{\fSolid Edge ISO|b0||i0||c0|p34;\C7;\H2.;\W1.;This document is subject to copyright laws. No part of this document may be reproduc
  1
ed or transmitted\P}{\fSolid Edge ISO|b0||i0||c0|p34;\C7;\H2.;\W1.;in any form or any means, electronic or mechanic, for any purpose, without the express written permission\P}{\fSolid Edge ISO|b0||i0||c0|p34;\C7;\H2.;\W1.;of REGO-FIX\P}{\fSolid Edge 
  1
ISO|b0||i0||c0|p34;\C7;\H1.5;\W1.;\P}
  0
XRECORD
  5
241
102
{ACAD_REACTORS
330
240
102
}
330
240
100
AcDbXrecord
280
     1
 40
2697483.0
  1
\pxsm1.;{\fVectora Com 45 Light|b0||i0||c0|p34;\C7;\H3.5;\W1.;Type :\P}{\fVectora Com 45 Light|b0||i0||c0|p34;\C7;\H3.5;\W1.;Part No. :\P}{\fVectora Com 45 Light|b0||i0||c0|p34;\C7;\H3.5;\W1.;Date : \P}{\fVectora Com 45 Light|b0||i0||c0|p34;\C7;\H3.5
  1
;\W1.;Scale :}
  0
LAYOUT
  5
1E
102
{ACAD_REACTORS
330
1A
102
}
330
1A
100
AcDbPlotSettings
  1

  2
none_device
  4

  6

 40
0.0
 41
0.0
 42
0.0
 43
0.0
 44
0.0
 45
0.0
 46
0.0
 47
0.0
 48
0.0
 49
0.0
140
0.0
141
0.0
142
1.0
143
1.0
 70
   688
 72
     0
 73
     0
 74
     5
  7

 75
    16
147
1.0
148
0.0
149
0.0
100
AcDbLayout
  1
Layout1
 70
     1
 71
     1
 10
0.0
 20
0.0
 11
297.0
 21
210.0
 12
0.0
 22
0.0
 32
0.0
 14
0.0
 24
0.0
 34
0.0
 15
297.0
 25
210.0
 35
0.0
146
0.0
 13
0.0
 23
0.0
 33
0.0
 16
1.0
 26
0.0
 36
0.0
 17
0.0
 27
1.0
 37
0.0
 76
     0
330
1B
  0
LAYOUT
  5
22
102
{ACAD_REACTORS
330
1A
102
}
330
1A
100
AcDbPlotSettings
  1

  2
none_device
  4

  6

 40
0.0
 41
0.0
 42
0.0
 43
0.0
 44
0.0
 45
0.0
 46
0.0
 47
0.0
 48
0.0
 49
0.0
140
0.0
141
0.0
142
1.0
143
1.0
 70
  1712
 72
     0
 73
     0
 74
     0
  7

 75
     0
147
1.0
148
0.0
149
0.0
100
AcDbLayout
  1
Model
 70
     1
 71
     0
 10
0.0
 20
0.0
 11
297.0
 21
210.0
 12
0.0
 22
0.0
 32
0.0
 14
0.0
 24
0.0
 34
0.0
 15
297.0
 25
210.0
 35
0.0
146
0.0
 13
0.0
 23
0.0
 33
0.0
 16
1.0
 26
0.0
 36
0.0
 17
0.0
 27
1.0
 37
0.0
 76
     0
330
1F
331
29
  0
MATERIAL
  5
3D
102
{ACAD_REACTORS
330
3B
102
}
102
{ACAD_XDICTIONARY
360
264
102
}
330
3B
100
AcDbMaterial
  1
ByBlock
  0
MATERIAL
  5
3C
102
{ACAD_REACTORS
330
3B
102
}
102
{ACAD_XDICTIONARY
360
262
102
}
330
3B
100
AcDbMaterial
  1
ByLayer
  0
MATERIAL
  5
3E
102
{ACAD_REACTORS
330
3B
102
}
102
{ACAD_XDICTIONARY
360
266
102
}
330
3B
100
AcDbMaterial
  1
Global
  0
MLINESTYLE
  5
18
102
{ACAD_REACTORS
330
17
102
}
330
17
100
AcDbMlineStyle
  2
Standard
 70
     0
  3

 62
   256
 51
90.0
 52
90.0
 71
     2
 49
0.5
 62
   256
  6
BYLAYER
 49
-0.5
 62
   256
  6
BYLAYER
  0
ACDBPLACEHOLDER
  5
F
102
{ACAD_REACTORS
330
E
102
}
330
E
  0
VISUALSTYLE
  5
2F
102
{ACAD_REACTORS
330
2A
102
}
102
{ACAD_XDICTIONARY
360
24A
102
}
330
2A
100
AcDbVisualStyle
  2
2dWireframe
 70
     4
 71
     0
 72
     2
 73
     0
 90
        0
 40
-0.6
 41
-30.0
 62
     5
 63
     7
 74
     1
 91
        4
 64
     7
 65
   257
 75
     1
175
     1
 42
1.0
 92
        0
 66
   257
 43
1.0
 76
     1
 77
     6
 78
     2
 67
     7
 79
     5
170
     0
171
     0
290
     0
174
     0
 93
        1
 44
0.0
173
     0
291
     0
 45
0.0
1001
ACAD
1000
AcDbSavedByObjectVersion
1070
     0
  0
VISUALSTYLE
  5
31
102
{ACAD_REACTORS
330
2A
102
}
102
{ACAD_XDICTIONARY
360
24E
102
}
330
2A
100
AcDbVisualStyle
  2
3D Hidden
 70
     6
 71
     1
 72
     2
 73
     2
 90
        0
 40
-0.6
 41
-30.0
 62
     5
 63
     7
 74
     2
 91
        2
 64
     7
 65
   257
 75
     2
175
     1
 42
40.0
 92
        0
 66
   257
 43
1.0
 76
     1
 77
     6
 78
     2
 67
     7
 79
     3
170
     0
171
     0
290
     0
174
     0
 93
        1
 44
0.0
173
     0
291
     0
 45
0.0
1001
ACAD
1000
AcDbSavedByObjectVersion
1070
     0
  0
VISUALSTYLE
  5
30
102
{ACAD_REACTORS
330
2A
102
}
102
{ACAD_XDICTIONARY
360
24C
102
}
330
2A
100
AcDbVisualStyle
  2
3dWireframe
 70
     5
 71
     0
 72
     2
 73
     0
 90
        0
 40
-0.6
 41
-30.0
 62
     5
 63
     7
 74
     1
 91
        4
 64
     7
 65
   257
 75
     1
175
     1
 42
1.0
 92
        0
 66
   257
 43
1.0
 76
     1
 77
     6
 78
     2
 67
     7
 79
     5
170
     0
171
     0
290
     0
174
     0
 93
        1
 44
0.0
173
     0
291
     0
 45
0.0
1001
ACAD
1000
AcDbSavedByObjectVersion
1070
     0
  0
VISUALSTYLE
  5
32
102
{ACAD_REACTORS
330
2A
102
}
102
{ACAD_XDICTIONARY
360
250
102
}
330
2A
100
AcDbVisualStyle
  2
Basic
 70
     7
 71
     1
 72
     0
 73
     1
 90
        0
 40
-0.6
 41
-30.0
 62
     5
 63
     7
 74
     0
 91
        4
 64
     7
 65
   257
 75
     1
175
     1
 42
1.0
 92
        8
 66
     7
 43
1.0
 76
     1
 77
     6
 78
     2
 67
     7
 79
     5
170
     0
171
     0
290
     0
174
     0
 93
        1
 44
0.0
173
     0
291
     1
 45
0.0
1001
ACAD
1000
AcDbSavedByObjectVersion
1070
     0
  0
VISUALSTYLE
  5
36
102
{ACAD_REACTORS
330
2A
102
}
102
{ACAD_XDICTIONARY
360
258
102
}
330
2A
100
AcDbVisualStyle
  2
Brighten
 70
    12
 71
     2
 72
     2
 73
     0
 90
        0
 40
-0.6
 41
-30.0
 62
     5
 63
     7
 74
     1
 91
        4
 64
     7
 65
   257
 75
     1
175
     1
 42
1.0
 92
        8
 66
     7
 43
1.0
 76
     1
 77
     6
 78
     2
 67
     7
 79
     5
170
     0
171
     0
290
     0
174
     0
 93
        1
 44
50.0
173
     0
291
     1
 45
0.0
1001
ACAD
1000
AcDbSavedByObjectVersion
1070
     0
  0
VISUALSTYLE
  5
3A
102
{ACAD_REACTORS
330
2A
102
}
102
{ACAD_XDICTIONARY
360
260
102
}
330
2A
100
AcDbVisualStyle
  2
ColorChange
 70
    16
 71
     2
 72
     2
 73
     3
 90
        0
 40
-0.6
 41
-30.0
 62
     5
 63
     8
 74
     1
 91
        4
 64
     7
 65
   257
 75
     1
175
     1
 42
1.0
 92
        8
 66
     8
 43
1.0
 76
     1
 77
     6
 78
     2
 67
     7
 79
     5
170
     0
171
     0
290
     0
174
     0
 93
        1
 44
0.0
173
     0
291
     1
 45
0.0
1001
ACAD
1000
AcDbSavedByObjectVersion
1070
     0
  0
VISUALSTYLE
  5
34
102
{ACAD_REACTORS
330
2A
102
}
102
{ACAD_XDICTIONARY
360
254
102
}
330
2A
100
AcDbVisualStyle
  2
Conceptual
 70
     9
 71
     3
 72
     2
 73
     0
 90
        0
 40
-0.6
 41
-30.0
 62
     5
 63
     7
 74
     2
 91
        2
 64
     7
 65
   257
 75
     1
175
     1
 42
40.0
 92
        8
 66
     7
 43
1.0
 76
     1
 77
     6
 78
     2
 67
     7
 79
     3
170
     0
171
     0
290
     0
174
     0
 93
        1
 44
0.0
173
     0
291
     0
 45
0.0
1001
ACAD
1000
AcDbSavedByObjectVersion
1070
     0
  0
VISUALSTYLE
  5
35
102
{ACAD_REACTORS
330
2A
102
}
102
{ACAD_XDICTIONARY
360
256
102
}
330
2A
100
AcDbVisualStyle
  2
Dim
 70
    11
 71
     2
 72
     2
 73
     0
 90
        0
 40
-0.6
 41
-30.0
 62
     5
 63
     7
 74
     1
 91
        4
 64
     7
 65
   257
 75
     1
175
     1
 42
1.0
 92
        8
 66
     7
 43
1.0
 76
     1
 77
     6
 78
     2
 67
     7
 79
     5
170
     0
171
     0
290
     0
174
     0
 93
        1
 44
-50.0
173
     0
291
     1
 45
0.0
1001
ACAD
1000
AcDbSavedByObjectVersion
1070
     0
  0
VISUALSTYLE
  5
39
102
{ACAD_REACTORS
330
2A
102
}
102
{ACAD_XDICTIONARY
360
25E
102
}
330
2A
100
AcDbVisualStyle
  2
Facepattern
 70
    15
 71
     2
 72
     2
 73
     0
 90
        0
 40
-0.6
 41
-30.0
 62
     5
 63
     7
 74
     1
 91
        4
 64
     7
 65
   257
 75
     1
175
     1
 42
1.0
 92
        8
 66
     7
 43
1.0
 76
     1
 77
     6
 78
     2
 67
     7
 79
     5
170
     0
171
     0
290
     0
174
     0
 93
        1
 44
0.0
173
     0
291
     1
 45
0.0
1001
ACAD
1000
AcDbSavedByObjectVersion
1070
     0
  0
VISUALSTYLE
  5
2B
102
{ACAD_REACTORS
330
2A
102
}
102
{ACAD_XDICTIONARY
360
242
102
}
330
2A
100
AcDbVisualStyle
  2
Flat
 70
     0
 71
     2
 72
     1
 73
     1
 90
        2
 40
-0.6
 41
30.0
 62
     5
 63
     7
 74
     0
 91
        4
 64
     7
 65
   257
 75
     1
175
     1
 42
1.0
 92
        8
 66
     7
 43
1.0
 76
     1
 77
     6
 78
     2
 67
     7
 79
     5
170
     0
171
     0
290
     0
174
     0
 93
       13
 44
0.0
173
     0
291
     1
 45
0.0
1001
ACAD
1000
AcDbSavedByObjectVersion
1070
     0
  0
VISUALSTYLE
  5
2C
102
{ACAD_REACTORS
330
2A
102
}
102
{ACAD_XDICTIONARY
360
244
102
}
330
2A
100
AcDbVisualStyle
  2
FlatWithEdges
 70
     1
 71
     2
 72
     1
 73
     1
 90
        2
 40
-0.6
 41
30.0
 62
     5
 63
     7
 74
     1
 91
        4
 64
     7
 65
   257
 75
     1
175
     1
 42
1.0
 92
        0
 66
   257
 43
1.0
 76
     1
 77
     6
 78
     2
 67
     7
 79
     5
170
     0
171
     0
290
     0
174
     0
 93
       13
 44
0.0
173
     0
291
     1
 45
0.0
1001
ACAD
1000
AcDbSavedByObjectVersion
1070
     0
  0
VISUALSTYLE
  5
2D
102
{ACAD_REACTORS
330
2A
102
}
102
{ACAD_XDICTIONARY
360
246
102
}
330
2A
100
AcDbVisualStyle
  2
Gouraud
 70
     2
 71
     2
 72
     2
 73
     1
 90
        2
 40
-0.6
 41
30.0
 62
     5
 63
     7
 74
     0
 91
        4
 64
     7
 65
   257
 75
     1
175
     1
 42
1.0
 92
        0
 66
     7
 43
1.0
 76
     1
 77
     6
 78
     2
 67
     7
 79
     5
170
     0
171
     0
290
     0
174
     0
 93
       13
 44
0.0
173
     0
291
     1
 45
0.0
1001
ACAD
1000
AcDbSavedByObjectVersion
1070
     0
  0
VISUALSTYLE
  5
2E
102
{ACAD_REACTORS
330
2A
102
}
102
{ACAD_XDICTIONARY
360
248
102
}
330
2A
100
AcDbVisualStyle
  2
GouraudWithEdges
 70
     3
 71
     2
 72
     2
 73
     1
 90
        2
 40
-0.6
 41
30.0
 62
     5
 63
     7
 74
     1
 91
        4
 64
     7
 65
   257
 75
     1
175
     1
 42
1.0
 92
        0
 66
   257
 43
1.0
 76
     1
 77
     6
 78
     2
 67
     7
 79
     5
170
     0
171
     0
290
     0
174
     0
 93
       13
 44
0.0
173
     0
291
     1
 45
0.0
1001
ACAD
1000
AcDbSavedByObjectVersion
1070
     0
  0
VISUALSTYLE
  5
38
102
{ACAD_REACTORS
330
2A
102
}
102
{ACAD_XDICTIONARY
360
25C
102
}
330
2A
100
AcDbVisualStyle
  2
Linepattern
 70
    14
 71
     2
 72
     2
 73
     0
 90
        0
 40
-0.6
 41
-30.0
 62
     5
 63
     7
 74
     1
 91
        4
 64
     7
 65
   257
 75
     7
175
     7
 42
1.0
 92
        8
 66
     7
 43
1.0
 76
     1
 77
     6
 78
     2
 67
     7
 79
     5
170
     0
171
     0
290
     0
174
     0
 93
        1
 44
0.0
173
     0
291
     1
 45
0.0
1001
ACAD
1000
AcDbSavedByObjectVersion
1070
     0
  0
VISUALSTYLE
  5
33
102
{ACAD_REACTORS
330
2A
102
}
102
{ACAD_XDICTIONARY
360
252
102
}
330
2A
100
AcDbVisualStyle
  2
Realistic
 70
     8
 71
     2
 72
     2
 73
     0
 90
        0
 40
-0.6
 41
-30.0
 62
     5
 63
     7
 74
     1
 91
        0
 64
     7
 65
   257
 75
     1
175
     1
 42
1.0
 92
        8
 66
     8
 43
1.0
 76
     1
 77
     6
 78
     2
 67
     7
 79
     5
170
     0
171
     0
290
     0
174
     0
 93
       13
 44
0.0
173
     0
291
     0
 45
0.0
1001
ACAD
1000
AcDbSavedByObjectVersion
1070
     0
  0
VISUALSTYLE
  5
37
102
{ACAD_REACTORS
330
2A
102
}
102
{ACAD_XDICTIONARY
360
25A
102
}
330
2A
100
AcDbVisualStyle
  2
Thicken
 70
    13
 71
     2
 72
     2
 73
     0
 90
        0
 40
-0.6
 41
-30.0
 62
     5
 63
     7
 74
     1
 91
        4
 64
     7
 65
   257
 75
     1
175
     1
 42
1.0
 92
       12
 66
     7
 43
1.0
 76
     1
 77
     6
 78
     2
 67
     7
 79
     5
170
     0
171
     0
290
     0
174
     0
 93
        1
 44
0.0
173
     0
291
     1
 45
0.0
1001
ACAD
1000
AcDbSavedByObjectVersion
1070
     0
  0
DICTIONARYVAR
  5
23A
102
{ACAD_REACTORS
330
235
102
}
330
235
100
DictionaryVariables
280
     0
  1
2
  0
DICTIONARYVAR
  5
23B
102
{ACAD_REACTORS
330
235
102
}
330
235
100
DictionaryVariables
280
     0
  1
1
  0
DICTIONARYVAR
  5
239
102
{ACAD_REACTORS
330
235
102
}
330
235
100
DictionaryVariables
280
     0
  1
80.000000
  0
DICTIONARYVAR
  5
238
102
{ACAD_REACTORS
330
235
102
}
330
235
100
DictionaryVariables
280
     0
  1
5.000000
  0
DICTIONARY
  5
264
330
3D
100
AcDbDictionary
280
     1
281
     1
  3
ACAD_XREC_ROUNDTRIP
360
265
  0
DICTIONARY
  5
262
330
3C
100
AcDbDictionary
280
     1
281
     1
  3
ACAD_XREC_ROUNDTRIP
360
263
  0
DICTIONARY
  5
266
330
3E
100
AcDbDictionary
280
     1
281
     1
  3
ACAD_XREC_ROUNDTRIP
360
267
  0
DICTIONARY
  5
24A
330
2F
100
AcDbDictionary
280
     1
281
     1
  3
ACAD_XREC_ROUNDTRIP
360
24B
  0
DICTIONARY
  5
24E
330
31
100
AcDbDictionary
280
     1
281
     1
  3
ACAD_XREC_ROUNDTRIP
360
24F
  0
DICTIONARY
  5
24C
330
30
100
AcDbDictionary
280
     1
281
     1
  3
ACAD_XREC_ROUNDTRIP
360
24D
  0
DICTIONARY
  5
250
330
32
100
AcDbDictionary
280
     1
281
     1
  3
ACAD_XREC_ROUNDTRIP
360
251
  0
DICTIONARY
  5
258
330
36
100
AcDbDictionary
280
     1
281
     1
  3
ACAD_XREC_ROUNDTRIP
360
259
  0
DICTIONARY
  5
260
330
3A
100
AcDbDictionary
280
     1
281
     1
  3
ACAD_XREC_ROUNDTRIP
360
261
  0
DICTIONARY
  5
254
330
34
100
AcDbDictionary
280
     1
281
     1
  3
ACAD_XREC_ROUNDTRIP
360
255
  0
DICTIONARY
  5
256
330
35
100
AcDbDictionary
280
     1
281
     1
  3
ACAD_XREC_ROUNDTRIP
360
257
  0
DICTIONARY
  5
25E
330
39
100
AcDbDictionary
280
     1
281
     1
  3
ACAD_XREC_ROUNDTRIP
360
25F
  0
DICTIONARY
  5
242
330
2B
100
AcDbDictionary
280
     1
281
     1
  3
ACAD_XREC_ROUNDTRIP
360
243
  0
DICTIONARY
  5
244
330
2C
100
AcDbDictionary
280
     1
281
     1
  3
ACAD_XREC_ROUNDTRIP
360
245
  0
DICTIONARY
  5
246
330
2D
100
AcDbDictionary
280
     1
281
     1
  3
ACAD_XREC_ROUNDTRIP
360
247
  0
DICTIONARY
  5
248
330
2E
100
AcDbDictionary
280
     1
281
     1
  3
ACAD_XREC_ROUNDTRIP
360
249
  0
DICTIONARY
  5
25C
330
38
100
AcDbDictionary
280
     1
281
     1
  3
ACAD_XREC_ROUNDTRIP
360
25D
  0
DICTIONARY
  5
252
330
33
100
AcDbDictionary
280
     1
281
     1
  3
ACAD_XREC_ROUNDTRIP
360
253
  0
DICTIONARY
  5
25A
330
37
100
AcDbDictionary
280
     1
281
     1
  3
ACAD_XREC_ROUNDTRIP
360
25B
  0
XRECORD
  5
265
102
{ACAD_REACTORS
330
264
102
}
330
264
100
AcDbXrecord
280
     1
102
MATERIAL
148
0.0
149
0.0
149
0.0
 93
        0
 94
      127
282
     0
 72
     1
 77
     1
171
     1
175
     1
179
     1
273
     0
  0
XRECORD
  5
263
102
{ACAD_REACTORS
330
262
102
}
330
262
100
AcDbXrecord
280
     1
102
MATERIAL
148
0.0
149
0.0
149
0.0
 93
        0
 94
      127
282
     0
 72
     1
 77
     1
171
     1
175
     1
179
     1
273
     0
  0
XRECORD
  5
267
102
{ACAD_REACTORS
330
266
102
}
330
266
100
AcDbXrecord
280
     1
102
MATERIAL
148
0.0
149
0.0
149
0.0
 93
        0
 94
      127
282
     0
 72
     1
 77
     1
171
     1
175
     1
179
     1
273
     0
  0
XRECORD
  5
24B
102
{ACAD_REACTORS
330
24A
102
}
330
24A
100
AcDbXrecord
280
     1
102
RTVSPropertyOp0
 70
     1
102
RTVSPropertyOp1
 70
     1
102
RTVSPropertyOp2
 70
     1
102
RTVSPropertyOp3
 70
     1
102
RTVSPropertyOp4
 70
     1
102
RTVSPropertyOp5
 70
     1
102
RTVSPropertyOp6
 70
     1
102
RTVSPropertyOp7
 70
     1
102
RTVSPropertyOp8
 70
     1
102
RTVSPropertyOp9
 70
     1
102
RTVSPropertyOp10
 70
     1
102
RTVSPropertyOp11
 70
     1
102
RTVSPropertyOp12
 70
     1
102
RTVSPropertyOp13
 70
     1
102
RTVSPropertyOp14
 70
     1
102
RTVSPropertyOp15
 70
     1
102
RTVSPropertyOp16
 70
     1
102
RTVSPropertyOp17
 70
     1
102
RTVSPropertyOp18
 70
     1
102
RTVSPropertyOp19
 70
     1
102
RTVSPropertyOp20
 70
     1
102
RTVSPropertyOp21
 70
     1
102
RTVSPropertyOp22
 70
     1
102
RTVSPropertyOp23
 70
     1
102
RTVSPropertyOp24
 70
     1
102
RTVSPropertyOp25
 70
     1
102
RTVSPropertyOp26
 70
     1
102
RTVSPropertyOp27
 70
     1
102
RTVSPropertyOp28
 70
     1
102
RTVSPropertyOp29
 70
     1
102
RTVSPropertyOp30
 70
     1
102
RTVSPropertyOp31
 70
     1
102
RTVSPropertyOp32
 70
     1
  0
XRECORD
  5
24F
102
{ACAD_REACTORS
330
24E
102
}
330
24E
100
AcDbXrecord
280
     1
102
RTVSPropertyOp0
 70
     1
102
RTVSPropertyOp1
 70
     1
102
RTVSPropertyOp2
 70
     1
102
RTVSPropertyOp3
 70
     1
102
RTVSPropertyOp4
 70
     1
102
RTVSPropertyOp5
 70
     1
102
RTVSPropertyOp6
 70
     1
102
RTVSPropertyOp7
 70
     1
102
RTVSPropertyOp8
 70
     1
102
RTVSPropertyOp9
 70
     1
102
RTVSPropertyOp10
 70
     1
102
RTVSPropertyOp11
 70
     1
102
RTVSPropertyOp12
 70
     1
102
RTVSPropertyOp13
 70
     1
102
RTVSPropertyOp14
 70
     1
102
RTVSPropertyOp15
 70
     1
102
RTVSPropertyOp16
 70
     1
102
RTVSPropertyOp17
 70
     1
102
RTVSPropertyOp18
 70
     1
102
RTVSPropertyOp19
 70
     1
102
RTVSPropertyOp20
 70
     1
102
RTVSPropertyOp21
 70
     1
102
RTVSPropertyOp22
 70
     1
102
RTVSPropertyOp23
 70
     1
102
RTVSPropertyOp24
 70
     1
102
RTVSPropertyOp25
 70
     1
102
RTVSPropertyOp26
 70
     1
102
RTVSPropertyOp27
 70
     1
102
RTVSPropertyOp28
 70
     1
102
RTVSPropertyOp29
 70
     1
102
RTVSPropertyOp30
 70
     1
102
RTVSPropertyOp31
 70
     1
102
RTVSPropertyOp32
 70
     1
  0
XRECORD
  5
24D
102
{ACAD_REACTORS
330
24C
102
}
330
24C
100
AcDbXrecord
280
     1
102
RTVSPropertyOp0
 70
     1
102
RTVSPropertyOp1
 70
     1
102
RTVSPropertyOp2
 70
     1
102
RTVSPropertyOp3
 70
     1
102
RTVSPropertyOp4
 70
     1
102
RTVSPropertyOp5
 70
     1
102
RTVSPropertyOp6
 70
     1
102
RTVSPropertyOp7
 70
     1
102
RTVSPropertyOp8
 70
     1
102
RTVSPropertyOp9
 70
     1
102
RTVSPropertyOp10
 70
     1
102
RTVSPropertyOp11
 70
     1
102
RTVSPropertyOp12
 70
     1
102
RTVSPropertyOp13
 70
     1
102
RTVSPropertyOp14
 70
     1
102
RTVSPropertyOp15
 70
     1
102
RTVSPropertyOp16
 70
     1
102
RTVSPropertyOp17
 70
     1
102
RTVSPropertyOp18
 70
     1
102
RTVSPropertyOp19
 70
     1
102
RTVSPropertyOp20
 70
     1
102
RTVSPropertyOp21
 70
     1
102
RTVSPropertyOp22
 70
     1
102
RTVSPropertyOp23
 70
     1
102
RTVSPropertyOp24
 70
     1
102
RTVSPropertyOp25
 70
     1
102
RTVSPropertyOp26
 70
     1
102
RTVSPropertyOp27
 70
     1
102
RTVSPropertyOp28
 70
     1
102
RTVSPropertyOp29
 70
     1
102
RTVSPropertyOp30
 70
     1
102
RTVSPropertyOp31
 70
     1
102
RTVSPropertyOp32
 70
     1
  0
XRECORD
  5
251
102
{ACAD_REACTORS
330
250
102
}
330
250
100
AcDbXrecord
280
     1
102
RTVSPropertyOp0
 70
     1
102
RTVSPropertyOp1
 70
     1
102
RTVSPropertyOp2
 70
     1
102
RTVSPropertyOp3
 70
     1
102
RTVSPropertyOp4
 70
     1
102
RTVSPropertyOp5
 70
     1
102
RTVSPropertyOp6
 70
     1
102
RTVSPropertyOp7
 70
     1
102
RTVSPropertyOp8
 70
     1
102
RTVSPropertyOp9
 70
     1
102
RTVSPropertyOp10
 70
     1
102
RTVSPropertyOp11
 70
     1
102
RTVSPropertyOp12
 70
     1
102
RTVSPropertyOp13
 70
     1
102
RTVSPropertyOp14
 70
     1
102
RTVSPropertyOp15
 70
     1
102
RTVSPropertyOp16
 70
     1
102
RTVSPropertyOp17
 70
     1
102
RTVSPropertyOp18
 70
     1
102
RTVSPropertyOp19
 70
     1
102
RTVSPropertyOp20
 70
     1
102
RTVSPropertyOp21
 70
     1
102
RTVSPropertyOp22
 70
     1
102
RTVSPropertyOp23
 70
     1
102
RTVSPropertyOp24
 70
     1
102
RTVSPropertyOp25
 70
     1
102
RTVSPropertyOp26
 70
     1
102
RTVSPropertyOp27
 70
     1
102
RTVSPropertyOp28
 70
     1
102
RTVSPropertyOp29
 70
     1
102
RTVSPropertyOp30
 70
     1
102
RTVSPropertyOp31
 70
     1
102
RTVSPropertyOp32
 70
     1
  0
XRECORD
  5
259
102
{ACAD_REACTORS
330
258
102
}
330
258
100
AcDbXrecord
280
     1
102
RTVSPropertyOp0
 70
     1
102
RTVSPropertyOp1
 70
     1
102
RTVSPropertyOp2
 70
     1
102
RTVSPropertyOp3
 70
     1
102
RTVSPropertyOp4
 70
     1
102
RTVSPropertyOp5
 70
     1
102
RTVSPropertyOp6
 70
     1
102
RTVSPropertyOp7
 70
     1
102
RTVSPropertyOp8
 70
     1
102
RTVSPropertyOp9
 70
     1
102
RTVSPropertyOp10
 70
     1
102
RTVSPropertyOp11
 70
     1
102
RTVSPropertyOp12
 70
     1
102
RTVSPropertyOp13
 70
     1
102
RTVSPropertyOp14
 70
     1
102
RTVSPropertyOp15
 70
     1
102
RTVSPropertyOp16
 70
     1
102
RTVSPropertyOp17
 70
     1
102
RTVSPropertyOp18
 70
     1
102
RTVSPropertyOp19
 70
     1
102
RTVSPropertyOp20
 70
     1
102
RTVSPropertyOp21
 70
     1
102
RTVSPropertyOp22
 70
     1
102
RTVSPropertyOp23
 70
     1
102
RTVSPropertyOp24
 70
     1
102
RTVSPropertyOp25
 70
     1
102
RTVSPropertyOp26
 70
     1
102
RTVSPropertyOp27
 70
     1
102
RTVSPropertyOp28
 70
     1
102
RTVSPropertyOp29
 70
     1
102
RTVSPropertyOp30
 70
     1
102
RTVSPropertyOp31
 70
     1
102
RTVSPropertyOp32
 70
     1
  0
XRECORD
  5
261
102
{ACAD_REACTORS
330
260
102
}
330
260
100
AcDbXrecord
280
     1
102
RTVSPropertyOp0
 70
     1
102
RTVSPropertyOp1
 70
     1
102
RTVSPropertyOp2
 70
     1
102
RTVSPropertyOp3
 70
     1
102
RTVSPropertyOp4
 70
     1
102
RTVSPropertyOp5
 70
     1
102
RTVSPropertyOp6
 70
     1
102
RTVSPropertyOp7
 70
     1
102
RTVSPropertyOp8
 70
     1
102
RTVSPropertyOp9
 70
     1
102
RTVSPropertyOp10
 70
     1
102
RTVSPropertyOp11
 70
     1
102
RTVSPropertyOp12
 70
     1
102
RTVSPropertyOp13
 70
     1
102
RTVSPropertyOp14
 70
     1
102
RTVSPropertyOp15
 70
     1
102
RTVSPropertyOp16
 70
     1
102
RTVSPropertyOp17
 70
     1
102
RTVSPropertyOp18
 70
     1
102
RTVSPropertyOp19
 70
     1
102
RTVSPropertyOp20
 70
     1
102
RTVSPropertyOp21
 70
     1
102
RTVSPropertyOp22
 70
     1
102
RTVSPropertyOp23
 70
     1
102
RTVSPropertyOp24
 70
     1
102
RTVSPropertyOp25
 70
     1
102
RTVSPropertyOp26
 70
     1
102
RTVSPropertyOp27
 70
     1
102
RTVSPropertyOp28
 70
     1
102
RTVSPropertyOp29
 70
     1
102
RTVSPropertyOp30
 70
     1
102
RTVSPropertyOp31
 70
     1
102
RTVSPropertyOp32
 70
     1
  0
XRECORD
  5
255
102
{ACAD_REACTORS
330
254
102
}
330
254
100
AcDbXrecord
280
     1
102
RTVSPropertyOp0
 70
     1
102
RTVSPropertyOp1
 70
     1
102
RTVSPropertyOp2
 70
     1
102
RTVSPropertyOp3
 70
     1
102
RTVSPropertyOp4
 70
     1
102
RTVSPropertyOp5
 70
     1
102
RTVSPropertyOp6
 70
     1
102
RTVSPropertyOp7
 70
     1
102
RTVSPropertyOp8
 70
     1
102
RTVSPropertyOp9
 70
     1
102
RTVSPropertyOp10
 70
     1
102
RTVSPropertyOp11
 70
     1
102
RTVSPropertyOp12
 70
     1
102
RTVSPropertyOp13
 70
     1
102
RTVSPropertyOp14
 70
     1
102
RTVSPropertyOp15
 70
     1
102
RTVSPropertyOp16
 70
     1
102
RTVSPropertyOp17
 70
     1
102
RTVSPropertyOp18
 70
     1
102
RTVSPropertyOp19
 70
     1
102
RTVSPropertyOp20
 70
     1
102
RTVSPropertyOp21
 70
     1
102
RTVSPropertyOp22
 70
     1
102
RTVSPropertyOp23
 70
     1
102
RTVSPropertyOp24
 70
     1
102
RTVSPropertyOp25
 70
     1
102
RTVSPropertyOp26
 70
     1
102
RTVSPropertyOp27
 70
     1
102
RTVSPropertyOp28
 70
     1
102
RTVSPropertyOp29
 70
     1
102
RTVSPropertyOp30
 70
     1
102
RTVSPropertyOp31
 70
     1
102
RTVSPropertyOp32
 70
     1
  0
XRECORD
  5
257
102
{ACAD_REACTORS
330
256
102
}
330
256
100
AcDbXrecord
280
     1
102
RTVSPropertyOp0
 70
     1
102
RTVSPropertyOp1
 70
     1
102
RTVSPropertyOp2
 70
     1
102
RTVSPropertyOp3
 70
     1
102
RTVSPropertyOp4
 70
     1
102
RTVSPropertyOp5
 70
     1
102
RTVSPropertyOp6
 70
     1
102
RTVSPropertyOp7
 70
     1
102
RTVSPropertyOp8
 70
     1
102
RTVSPropertyOp9
 70
     1
102
RTVSPropertyOp10
 70
     1
102
RTVSPropertyOp11
 70
     1
102
RTVSPropertyOp12
 70
     1
102
RTVSPropertyOp13
 70
     1
102
RTVSPropertyOp14
 70
     1
102
RTVSPropertyOp15
 70
     1
102
RTVSPropertyOp16
 70
     1
102
RTVSPropertyOp17
 70
     1
102
RTVSPropertyOp18
 70
     1
102
RTVSPropertyOp19
 70
     1
102
RTVSPropertyOp20
 70
     1
102
RTVSPropertyOp21
 70
     1
102
RTVSPropertyOp22
 70
     1
102
RTVSPropertyOp23
 70
     1
102
RTVSPropertyOp24
 70
     1
102
RTVSPropertyOp25
 70
     1
102
RTVSPropertyOp26
 70
     1
102
RTVSPropertyOp27
 70
     1
102
RTVSPropertyOp28
 70
     1
102
RTVSPropertyOp29
 70
     1
102
RTVSPropertyOp30
 70
     1
102
RTVSPropertyOp31
 70
     1
102
RTVSPropertyOp32
 70
     1
  0
XRECORD
  5
25F
102
{ACAD_REACTORS
330
25E
102
}
330
25E
100
AcDbXrecord
280
     1
102
RTVSPropertyOp0
 70
     1
102
RTVSPropertyOp1
 70
     1
102
RTVSPropertyOp2
 70
     1
102
RTVSPropertyOp3
 70
     1
102
RTVSPropertyOp4
 70
     1
102
RTVSPropertyOp5
 70
     1
102
RTVSPropertyOp6
 70
     1
102
RTVSPropertyOp7
 70
     1
102
RTVSPropertyOp8
 70
     1
102
RTVSPropertyOp9
 70
     1
102
RTVSPropertyOp10
 70
     1
102
RTVSPropertyOp11
 70
     1
102
RTVSPropertyOp12
 70
     1
102
RTVSPropertyOp13
 70
     1
102
RTVSPropertyOp14
 70
     1
102
RTVSPropertyOp15
 70
     1
102
RTVSPropertyOp16
 70
     1
102
RTVSPropertyOp17
 70
     1
102
RTVSPropertyOp18
 70
     1
102
RTVSPropertyOp19
 70
     1
102
RTVSPropertyOp20
 70
     1
102
RTVSPropertyOp21
 70
     1
102
RTVSPropertyOp22
 70
     1
102
RTVSPropertyOp23
 70
     1
102
RTVSPropertyOp24
 70
     1
102
RTVSPropertyOp25
 70
     1
102
RTVSPropertyOp26
 70
     1
102
RTVSPropertyOp27
 70
     1
102
RTVSPropertyOp28
 70
     1
102
RTVSPropertyOp29
 70
     1
102
RTVSPropertyOp30
 70
     1
102
RTVSPropertyOp31
 70
     1
102
RTVSPropertyOp32
 70
     1
  0
XRECORD
  5
243
102
{ACAD_REACTORS
330
242
102
}
330
242
100
AcDbXrecord
280
     1
102
RTVSPropertyOp0
 70
     1
102
RTVSPropertyOp1
 70
     1
102
RTVSPropertyOp2
 70
     1
102
RTVSPropertyOp3
 70
     1
102
RTVSPropertyOp4
 70
     1
102
RTVSPropertyOp5
 70
     1
102
RTVSPropertyOp6
 70
     1
102
RTVSPropertyOp7
 70
     1
102
RTVSPropertyOp8
 70
     1
102
RTVSPropertyOp9
 70
     1
102
RTVSPropertyOp10
 70
     1
102
RTVSPropertyOp11
 70
     1
102
RTVSPropertyOp12
 70
     1
102
RTVSPropertyOp13
 70
     1
102
RTVSPropertyOp14
 70
     1
102
RTVSPropertyOp15
 70
     1
102
RTVSPropertyOp16
 70
     1
102
RTVSPropertyOp17
 70
     1
102
RTVSPropertyOp18
 70
     1
102
RTVSPropertyOp19
 70
     1
102
RTVSPropertyOp20
 70
     1
102
RTVSPropertyOp21
 70
     1
102
RTVSPropertyOp22
 70
     1
102
RTVSPropertyOp23
 70
     1
102
RTVSPropertyOp24
 70
     1
102
RTVSPropertyOp25
 70
     1
102
RTVSPropertyOp26
 70
     1
102
RTVSPropertyOp27
 70
     1
102
RTVSPropertyOp28
 70
     1
102
RTVSPropertyOp29
 70
     1
102
RTVSPropertyOp30
 70
     1
102
RTVSPropertyOp31
 70
     1
102
RTVSPropertyOp32
 70
     1
  0
XRECORD
  5
245
102
{ACAD_REACTORS
330
244
102
}
330
244
100
AcDbXrecord
280
     1
102
RTVSPropertyOp0
 70
     1
102
RTVSPropertyOp1
 70
     1
102
RTVSPropertyOp2
 70
     1
102
RTVSPropertyOp3
 70
     1
102
RTVSPropertyOp4
 70
     1
102
RTVSPropertyOp5
 70
     1
102
RTVSPropertyOp6
 70
     1
102
RTVSPropertyOp7
 70
     1
102
RTVSPropertyOp8
 70
     1
102
RTVSPropertyOp9
 70
     1
102
RTVSPropertyOp10
 70
     1
102
RTVSPropertyOp11
 70
     1
102
RTVSPropertyOp12
 70
     1
102
RTVSPropertyOp13
 70
     1
102
RTVSPropertyOp14
 70
     1
102
RTVSPropertyOp15
 70
     1
102
RTVSPropertyOp16
 70
     1
102
RTVSPropertyOp17
 70
     1
102
RTVSPropertyOp18
 70
     1
102
RTVSPropertyOp19
 70
     1
102
RTVSPropertyOp20
 70
     1
102
RTVSPropertyOp21
 70
     1
102
RTVSPropertyOp22
 70
     1
102
RTVSPropertyOp23
 70
     1
102
RTVSPropertyOp24
 70
     1
102
RTVSPropertyOp25
 70
     1
102
RTVSPropertyOp26
 70
     1
102
RTVSPropertyOp27
 70
     1
102
RTVSPropertyOp28
 70
     1
102
RTVSPropertyOp29
 70
     1
102
RTVSPropertyOp30
 70
     1
102
RTVSPropertyOp31
 70
     1
102
RTVSPropertyOp32
 70
     1
  0
XRECORD
  5
247
102
{ACAD_REACTORS
330
246
102
}
330
246
100
AcDbXrecord
280
     1
102
RTVSPropertyOp0
 70
     1
102
RTVSPropertyOp1
 70
     1
102
RTVSPropertyOp2
 70
     1
102
RTVSPropertyOp3
 70
     1
102
RTVSPropertyOp4
 70
     1
102
RTVSPropertyOp5
 70
     1
102
RTVSPropertyOp6
 70
     1
102
RTVSPropertyOp7
 70
     1
102
RTVSPropertyOp8
 70
     1
102
RTVSPropertyOp9
 70
     1
102
RTVSPropertyOp10
 70
     1
102
RTVSPropertyOp11
 70
     1
102
RTVSPropertyOp12
 70
     1
102
RTVSPropertyOp13
 70
     1
102
RTVSPropertyOp14
 70
     1
102
RTVSPropertyOp15
 70
     1
102
RTVSPropertyOp16
 70
     1
102
RTVSPropertyOp17
 70
     1
102
RTVSPropertyOp18
 70
     1
102
RTVSPropertyOp19
 70
     1
102
RTVSPropertyOp20
 70
     1
102
RTVSPropertyOp21
 70
     1
102
RTVSPropertyOp22
 70
     1
102
RTVSPropertyOp23
 70
     1
102
RTVSPropertyOp24
 70
     1
102
RTVSPropertyOp25
 70
     1
102
RTVSPropertyOp26
 70
     1
102
RTVSPropertyOp27
 70
     1
102
RTVSPropertyOp28
 70
     1
102
RTVSPropertyOp29
 70
     1
102
RTVSPropertyOp30
 70
     1
102
RTVSPropertyOp31
 70
     1
102
RTVSPropertyOp32
 70
     1
  0
XRECORD
  5
249
102
{ACAD_REACTORS
330
248
102
}
330
248
100
AcDbXrecord
280
     1
102
RTVSPropertyOp0
 70
     1
102
RTVSPropertyOp1
 70
     1
102
RTVSPropertyOp2
 70
     1
102
RTVSPropertyOp3
 70
     1
102
RTVSPropertyOp4
 70
     1
102
RTVSPropertyOp5
 70
     1
102
RTVSPropertyOp6
 70
     1
102
RTVSPropertyOp7
 70
     1
102
RTVSPropertyOp8
 70
     1
102
RTVSPropertyOp9
 70
     1
102
RTVSPropertyOp10
 70
     1
102
RTVSPropertyOp11
 70
     1
102
RTVSPropertyOp12
 70
     1
102
RTVSPropertyOp13
 70
     1
102
RTVSPropertyOp14
 70
     1
102
RTVSPropertyOp15
 70
     1
102
RTVSPropertyOp16
 70
     1
102
RTVSPropertyOp17
 70
     1
102
RTVSPropertyOp18
 70
     1
102
RTVSPropertyOp19
 70
     1
102
RTVSPropertyOp20
 70
     1
102
RTVSPropertyOp21
 70
     1
102
RTVSPropertyOp22
 70
     1
102
RTVSPropertyOp23
 70
     1
102
RTVSPropertyOp24
 70
     1
102
RTVSPropertyOp25
 70
     1
102
RTVSPropertyOp26
 70
     1
102
RTVSPropertyOp27
 70
     1
102
RTVSPropertyOp28
 70
     1
102
RTVSPropertyOp29
 70
     1
102
RTVSPropertyOp30
 70
     1
102
RTVSPropertyOp31
 70
     1
102
RTVSPropertyOp32
 70
     1
  0
XRECORD
  5
25D
102
{ACAD_REACTORS
330
25C
102
}
330
25C
100
AcDbXrecord
280
     1
102
RTVSPropertyOp0
 70
     1
102
RTVSPropertyOp1
 70
     1
102
RTVSPropertyOp2
 70
     1
102
RTVSPropertyOp3
 70
     1
102
RTVSPropertyOp4
 70
     1
102
RTVSPropertyOp5
 70
     1
102
RTVSPropertyOp6
 70
     1
102
RTVSPropertyOp7
 70
     1
102
RTVSPropertyOp8
 70
     1
102
RTVSPropertyOp9
 70
     1
102
RTVSPropertyOp10
 70
     1
102
RTVSPropertyOp11
 70
     1
102
RTVSPropertyOp12
 70
     1
102
RTVSPropertyOp13
 70
     1
102
RTVSPropertyOp14
 70
     1
102
RTVSPropertyOp15
 70
     1
102
RTVSPropertyOp16
 70
     1
102
RTVSPropertyOp17
 70
     1
102
RTVSPropertyOp18
 70
     1
102
RTVSPropertyOp19
 70
     1
102
RTVSPropertyOp20
 70
     1
102
RTVSPropertyOp21
 70
     1
102
RTVSPropertyOp22
 70
     1
102
RTVSPropertyOp23
 70
     1
102
RTVSPropertyOp24
 70
     1
102
RTVSPropertyOp25
 70
     1
102
RTVSPropertyOp26
 70
     1
102
RTVSPropertyOp27
 70
     1
102
RTVSPropertyOp28
 70
     1
102
RTVSPropertyOp29
 70
     1
102
RTVSPropertyOp30
 70
     1
102
RTVSPropertyOp31
 70
     1
102
RTVSPropertyOp32
 70
     1
  0
XRECORD
  5
253
102
{ACAD_REACTORS
330
252
102
}
330
252
100
AcDbXrecord
280
     1
102
RTVSPropertyOp0
 70
     1
102
RTVSPropertyOp1
 70
     1
102
RTVSPropertyOp2
 70
     1
102
RTVSPropertyOp3
 70
     1
102
RTVSPropertyOp4
 70
     1
102
RTVSPropertyOp5
 70
     1
102
RTVSPropertyOp6
 70
     1
102
RTVSPropertyOp7
 70
     1
102
RTVSPropertyOp8
 70
     1
102
RTVSPropertyOp9
 70
     1
102
RTVSPropertyOp10
 70
     1
102
RTVSPropertyOp11
 70
     1
102
RTVSPropertyOp12
 70
     1
102
RTVSPropertyOp13
 70
     1
102
RTVSPropertyOp14
 70
     1
102
RTVSPropertyOp15
 70
     1
102
RTVSPropertyOp16
 70
     1
102
RTVSPropertyOp17
 70
     1
102
RTVSPropertyOp18
 70
     1
102
RTVSPropertyOp19
 70
     1
102
RTVSPropertyOp20
 70
     1
102
RTVSPropertyOp21
 70
     1
102
RTVSPropertyOp22
 70
     1
102
RTVSPropertyOp23
 70
     1
102
RTVSPropertyOp24
 70
     1
102
RTVSPropertyOp25
 70
     1
102
RTVSPropertyOp26
 70
     1
102
RTVSPropertyOp27
 70
     1
102
RTVSPropertyOp28
 70
     1
102
RTVSPropertyOp29
 70
     1
102
RTVSPropertyOp30
 70
     1
102
RTVSPropertyOp31
 70
     1
102
RTVSPropertyOp32
 70
     1
  0
XRECORD
  5
25B
102
{ACAD_REACTORS
330
25A
102
}
330
25A
100
AcDbXrecord
280
     1
102
RTVSPropertyOp0
 70
     1
102
RTVSPropertyOp1
 70
     1
102
RTVSPropertyOp2
 70
     1
102
RTVSPropertyOp3
 70
     1
102
RTVSPropertyOp4
 70
     1
102
RTVSPropertyOp5
 70
     1
102
RTVSPropertyOp6
 70
     1
102
RTVSPropertyOp7
 70
     1
102
RTVSPropertyOp8
 70
     1
102
RTVSPropertyOp9
 70
     1
102
RTVSPropertyOp10
 70
     1
102
RTVSPropertyOp11
 70
     1
102
RTVSPropertyOp12
 70
     1
102
RTVSPropertyOp13
 70
     1
102
RTVSPropertyOp14
 70
     1
102
RTVSPropertyOp15
 70
     1
102
RTVSPropertyOp16
 70
     1
102
RTVSPropertyOp17
 70
     1
102
RTVSPropertyOp18
 70
     1
102
RTVSPropertyOp19
 70
     1
102
RTVSPropertyOp20
 70
     1
102
RTVSPropertyOp21
 70
     1
102
RTVSPropertyOp22
 70
     1
102
RTVSPropertyOp23
 70
     1
102
RTVSPropertyOp24
 70
     1
102
RTVSPropertyOp25
 70
     1
102
RTVSPropertyOp26
 70
     1
102
RTVSPropertyOp27
 70
     1
102
RTVSPropertyOp28
 70
     1
102
RTVSPropertyOp29
 70
     1
102
RTVSPropertyOp30
 70
     1
102
RTVSPropertyOp31
 70
     1
102
RTVSPropertyOp32
 70
     1
  0
ENDSEC
  0
EOF
