  0
SECTION
  2
HEADER
  9
$ACADVER
  1
AC1015
  9
$ACADMAINTVER
 70
     6
  9
$DWGCODEPAGE
  3
ANSI_1252
  9
$INSBASE
 10
0.0
 20
0.0
 30
0.0
  9
$EXTMIN
 10
0.0
 20
0.0
 30
0.0
  9
$EXTMAX
 10
297.0
 20
210.0
 30
0.0
  9
$LIMMIN
 10
0.0
 20
0.0
  9
$LIMMAX
 10
297.0
 20
210.0
  9
$ORTHOMODE
 70
     0
  9
$REGENMODE
 70
     1
  9
$FILLMODE
 70
     1
  9
$QTEXTMODE
 70
     0
  9
$MIRRTEXT
 70
     1
  9
$LTSCALE
 40
1.0
  9
$ATTMODE
 70
     1
  9
$TEXTSIZE
 40
2.5
  9
$TRACEWID
 40
1.0
  9
$TEXTSTYLE
  7
Standard
  9
$CLAYER
  8
0
  9
$CELTYPE
  6
ByLayer
  9
$CECOLOR
 62
   256
  9
$CELTSCALE
 40
1.0
  9
$DISPSILH
 70
     0
  9
$DIMSCALE
 40
1.0
  9
$DIMASZ
 40
2.5
  9
$DIMEXO
 40
0.625
  9
$DIMDLI
 40
3.75
  9
$DIMRND
 40
0.0
  9
$DIMDLE
 40
0.0
  9
$DIMEXE
 40
1.25
  9
$DIMTP
 40
0.0
  9
$DIMTM
 40
0.0
  9
$DIMTXT
 40
2.5
  9
$DIMCEN
 40
2.5
  9
$DIMTSZ
 40
0.0
  9
$DIMTOL
 70
     0
  9
$DIMLIM
 70
     0
  9
$DIMTIH
 70
     0
  9
$DIMTOH
 70
     0
  9
$DIMSE1
 70
     0
  9
$DIMSE2
 70
     0
  9
$DIMTAD
 70
     1
  9
$DIMZIN
 70
     8
  9
$DIMBLK
  1

  9
$DIMASO
 70
     1
  9
$DIMSHO
 70
     1
  9
$DIMPOST
  1

  9
$DIMAPOST
  1

  9
$DIMALT
 70
     0
  9
$DIMALTD
 70
     3
  9
$DIMALTF
 40
0.0393700787
  9
$DIMLFAC
 40
1.0
  9
$DIMTOFL
 70
     1
  9
$DIMTVP
 40
0.0
  9
$DIMTIX
 70
     0
  9
$DIMSOXD
 70
     0
  9
$DIMSAH
 70
     0
  9
$DIMBLK1
  1

  9
$DIMBLK2
  1

  9
$DIMSTYLE
  2
ISO-25
  9
$DIMCLRD
 70
     0
  9
$DIMCLRE
 70
     0
  9
$DIMCLRT
 70
     0
  9
$DIMTFAC
 40
1.0
  9
$DIMGAP
 40
0.625
  9
$DIMJUST
 70
     0
  9
$DIMSD1
 70
     0
  9
$DIMSD2
 70
     0
  9
$DIMTOLJ
 70
     0
  9
$DIMTZIN
 70
     8
  9
$DIMALTZ
 70
     0
  9
$DIMALTTZ
 70
     0
  9
$DIMUPT
 70
     0
  9
$DIMDEC
 70
     2
  9
$DIMTDEC
 70
     2
  9
$DIMALTU
 70
     2
  9
$DIMALTTD
 70
     3
  9
$DIMTXSTY
  7
Standard
  9
$DIMAUNIT
 70
     0
  9
$DIMADEC
 70
     0
  9
$DIMALTRND
 40
0.0
  9
$DIMAZIN
 70
     0
  9
$DIMDSEP
 70
    44
  9
$DIMATFIT
 70
     3
  9
$DIMFRAC
 70
     0
  9
$DIMLDRBLK
  1

  9
$DIMLUNIT
 70
     2
  9
$DIMLWD
 70
    -2
  9
$DIMLWE
 70
    -2
  9
$DIMTMOVE
 70
     0
  9
$LUNITS
 70
     2
  9
$LUPREC
 70
     4
  9
$SKETCHINC
 40
1.0
  9
$FILLETRAD
 40
10.0
  9
$AUNITS
 70
     0
  9
$AUPREC
 70
     0
  9
$MENU
  1
.
  9
$ELEVATION
 40
0.0
  9
$PELEVATION
 40
0.0
  9
$THICKNESS
 40
0.0
  9
$LIMCHECK
 70
     0
  9
$CHAMFERA
 40
10.0
  9
$CHAMFERB
 40
10.0
  9
$CHAMFERC
 40
20.0
  9
$CHAMFERD
 40
0.0
  9
$SKPOLY
 70
     0
  9
$TDCREATE
 40
2457409.609733379
  9
$TDUCREATE
 40
2457409.568066713
  9
$TDUPDATE
 40
2457409.609735787
  9
$TDUUPDATE
 40
2457409.56806912
  9
$TDINDWG
 40
0.0000000116
  9
$TDUSRTIMER
 40
0.0000000116
  9
$USRTIMER
 70
     1
  9
$ANGBASE
 50
0.0
  9
$ANGDIR
 70
     0
  9
$PDMODE
 70
     0
  9
$PDSIZE
 40
0.0
  9
$PLINEWID
 40
0.0
  9
$SPLFRAME
 70
     0
  9
$SPLINETYPE
 70
     6
  9
$SPLINESEGS
 70
     8
  9
$HANDSEED
  5
266
  9
$SURFTAB1
 70
     6
  9
$SURFTAB2
 70
     6
  9
$SURFTYPE
 70
     6
  9
$SURFU
 70
     6
  9
$SURFV
 70
     6
  9
$UCSBASE
  2

  9
$UCSNAME
  2

  9
$UCSORG
 10
0.0
 20
0.0
 30
0.0
  9
$UCSXDIR
 10
1.0
 20
0.0
 30
0.0
  9
$UCSYDIR
 10
0.0
 20
1.0
 30
0.0
  9
$UCSORTHOREF
  2

  9
$UCSORTHOVIEW
 70
     0
  9
$UCSORGTOP
 10
0.0
 20
0.0
 30
0.0
  9
$UCSORGBOTTOM
 10
0.0
 20
0.0
 30
0.0
  9
$UCSORGLEFT
 10
0.0
 20
0.0
 30
0.0
  9
$UCSORGRIGHT
 10
0.0
 20
0.0
 30
0.0
  9
$UCSORGFRONT
 10
0.0
 20
0.0
 30
0.0
  9
$UCSORGBACK
 10
0.0
 20
0.0
 30
0.0
  9
$PUCSBASE
  2

  9
$PUCSNAME
  2

  9
$PUCSORG
 10
0.0
 20
0.0
 30
0.0
  9
$PUCSXDIR
 10
1.0
 20
0.0
 30
0.0
  9
$PUCSYDIR
 10
0.0
 20
1.0
 30
0.0
  9
$PUCSORTHOREF
  2

  9
$PUCSORTHOVIEW
 70
     0
  9
$PUCSORGTOP
 10
0.0
 20
0.0
 30
0.0
  9
$PUCSORGBOTTOM
 10
0.0
 20
0.0
 30
0.0
  9
$PUCSORGLEFT
 10
0.0
 20
0.0
 30
0.0
  9
$PUCSORGRIGHT
 10
0.0
 20
0.0
 30
0.0
  9
$PUCSORGFRONT
 10
0.0
 20
0.0
 30
0.0
  9
$PUCSORGBACK
 10
0.0
 20
0.0
 30
0.0
  9
$USERI1
 70
     0
  9
$USERI2
 70
     0
  9
$USERI3
 70
     0
  9
$USERI4
 70
     0
  9
$USERI5
 70
     0
  9
$USERR1
 40
0.0
  9
$USERR2
 40
0.0
  9
$USERR3
 40
0.0
  9
$USERR4
 40
0.0
  9
$USERR5
 40
0.0
  9
$WORLDVIEW
 70
     1
  9
$SHADEDGE
 70
     3
  9
$SHADEDIF
 70
    70
  9
$TILEMODE
 70
     1
  9
$MAXACTVP
 70
    64
  9
$PINSBASE
 10
0.0
 20
0.0
 30
0.0
  9
$PLIMCHECK
 70
     0
  9
$PEXTMIN
 10
0.0
 20
0.0
 30
0.0
  9
$PEXTMAX
 10
297.0
 20
210.0
 30
0.0
  9
$PLIMMIN
 10
0.0
 20
0.0
  9
$PLIMMAX
 10
297.0
 20
210.0
  9
$UNITMODE
 70
     0
  9
$VISRETAIN
 70
     1
  9
$PLINEGEN
 70
     0
  9
$PSLTSCALE
 70
     1
  9
$TREEDEPTH
 70
  3020
  9
$CMLSTYLE
  2
Standard
  9
$CMLJUST
 70
     0
  9
$CMLSCALE
 40
20.0
  9
$PROXYGRAPHICS
 70
     1
  9
$MEASUREMENT
 70
     1
  9
$CELWEIGHT
370
    -1
  9
$ENDCAPS
280
     0
  9
$JOINSTYLE
280
     0
  9
$LWDISPLAY
290
     0
  9
$INSUNITS
 70
     4
  9
$HYPERLINKBASE
  1

  9
$STYLESHEET
  1

  9
$XEDIT
290
     1
  9
$CEPSNTYPE
380
     0
  9
$PSTYLEMODE
290
     1
  9
$FINGERPRINTGUID
  2
{55A22091-BD81-4ED8-A518-772EB62E4313}
  9
$VERSIONGUID
  2
{FAEB1C32-E019-11D5-929B-00C0DF256EC4}
  9
$EXTNAMES
290
     1
  9
$PSVPSCALE
 40
0.0
  9
$OLESTARTUP
290
     0
  0
ENDSEC
  0
SECTION
  2
CLASSES
  0
CLASS
  1
ACDBDICTIONARYWDFLT
  2
AcDbDictionaryWithDefault
  3
ObjectDBX Classes
 90
        0
280
     0
281
     0
  0
CLASS
  1
VISUALSTYLE
  2
AcDbVisualStyle
  3
ObjectDBX Classes
 90
     4095
280
     0
281
     0
  0
CLASS
  1
MATERIAL
  2
AcDbMaterial
  3
ObjectDBX Classes
 90
     1153
280
     0
281
     0
  0
CLASS
  1
DICTIONARYVAR
  2
AcDbDictionaryVar
  3
ObjectDBX Classes
 90
        0
280
     0
281
     0
  0
CLASS
  1
ACDBPLACEHOLDER
  2
AcDbPlaceHolder
  3
ObjectDBX Classes
 90
        0
280
     0
281
     0
  0
CLASS
  1
LAYOUT
  2
AcDbLayout
  3
ObjectDBX Classes
 90
        0
280
     0
281
     0
  0
ENDSEC
  0
SECTION
  2
TABLES
  0
TABLE
  2
VPORT
  5
8
330
0
100
AcDbSymbolTable
 70
     1
  0
VPORT
  5
29
330
8
100
AcDbSymbolTableRecord
100
AcDbViewportTableRecord
  2
*Active
 70
     0
 10
0.0
 20
0.0
 11
1.0
 21
1.0
 12
344.1869158879
 22
148.5
 13
0.0
 23
0.0
 14
10.0
 24
10.0
 15
10.0
 25
10.0
 16
0.0
 26
0.0
 36
1.0
 17
0.0
 27
0.0
 37
0.0
 40
297.0
 41
1.9729729729
 42
50.0
 43
0.0
 44
0.0
 50
0.0
 51
0.0
 71
     0
 72
   100
 73
     1
 74
     3
 75
     0
 76
     0
 77
     0
 78
     0
281
     0
 65
     1
110
0.0
120
0.0
130
0.0
111
1.0
121
0.0
131
0.0
112
0.0
122
1.0
132
0.0
 79
     0
146
0.0
  0
ENDTAB
  0
TABLE
  2
LTYPE
  5
5
330
0
100
AcDbSymbolTable
 70
     4
  0
LTYPE
  5
14
330
5
100
AcDbSymbolTableRecord
100
AcDbLinetypeTableRecord
  2
ByBlock
 70
     0
  3

 72
    65
 73
     0
 40
0.0
  0
LTYPE
  5
15
330
5
100
AcDbSymbolTableRecord
100
AcDbLinetypeTableRecord
  2
ByLayer
 70
     0
  3

 72
    65
 73
     0
 40
0.0
  0
LTYPE
  5
16
330
5
100
AcDbSymbolTableRecord
100
AcDbLinetypeTableRecord
  2
Continuous
 70
     0
  3
Solid line
 72
    65
 73
     0
 40
0.0
  0
LTYPE
  5
43
330
5
100
AcDbSymbolTableRecord
100
AcDbLinetypeTableRecord
  2
DOT2
 70
     0
  3
Dot (.5x) ........................................
 72
    65
 73
     2
 40
3.175
 49
0.0
 74
     4
 75
     0
340
0
 46
0.0
 50
0.0
 44
0.0
 45
0.0
 49
-3.175
 74
     4
 75
     0
340
0
 46
0.0
 50
0.0
 44
0.0
 45
0.0
  0
LTYPE
  5
46
330
5
100
AcDbSymbolTableRecord
100
AcDbLinetypeTableRecord
  2
CENTER2
 70
     0
  3
Center (.5x) ___ _ ___ _ ___ _ ___ _ ___ _ ___
 72
    65
 73
     4
 40
28.575
 49
19.05
 74
     4
 75
     0
340
0
 46
0.0
 50
0.0
 44
0.0
 45
0.0
 49
-3.175
 74
     4
 75
     0
340
0
 46
0.0
 50
0.0
 44
0.0
 45
0.0
 49
3.175
 74
     4
 75
     0
340
0
 46
0.0
 50
0.0
 44
0.0
 45
0.0
 49
-3.175
 74
     4
 75
     0
340
0
 46
0.0
 50
0.0
 44
0.0
 45
0.0
  0
LTYPE
  5
113
330
5
100
AcDbSymbolTableRecord
100
AcDbLinetypeTableRecord
  2
HIDDEN2
 70
     0
  3
Hidden (.5x) _ _ _ _ _ _ _ _ _ _ _ _ _ _ _ _ _ 
 72
    65
 73
     2
 40
4.7625
 49
3.175
 74
     4
 75
     0
340
0
 46
0.0
 50
0.0
 44
0.0
 45
0.0
 49
-1.5875
 74
     4
 75
     0
340
0
 46
0.0
 50
0.0
 44
0.0
 45
0.0
  0
ENDTAB
  0
TABLE
  2
LAYER
  5
2
330
0
100
AcDbSymbolTable
 70
     4
  0
LAYER
  5
10
330
2
100
AcDbSymbolTableRecord
100
AcDbLayerTableRecord
  2
0
 70
     0
 62
     7
  6
Continuous
370
    -3
390
F
  0
LAYER
  5
3F
330
2
100
AcDbSymbolTableRecord
100
AcDbLayerTableRecord
  2
Default
 70
     0
 62
     7
  6
Continuous
370
    -3
390
F
  0
LAYER
  5
42
330
2
100
AcDbSymbolTableRecord
100
AcDbLayerTableRecord
  2
DV1_Default
 70
     0
 62
     7
  6
Continuous
370
    -3
390
F
  0
LAYER
  5
5B
330
2
100
AcDbSymbolTableRecord
100
AcDbLayerTableRecord
  2
0011904
 70
     0
 62
     7
  6
Continuous
370
    -3
390
F
  0
ENDTAB
  0
TABLE
  2
STYLE
  5
3
330
0
100
AcDbSymbolTable
 70
     5
  0
STYLE
  5
11
330
3
100
AcDbSymbolTableRecord
100
AcDbTextStyleTableRecord
  2
Standard
 70
     0
 40
0.0
 41
1.0
 50
0.0
 71
     0
 42
2.5
  3
txt
  4

  0
STYLE
  5
154
330
3
100
AcDbSymbolTableRecord
100
AcDbTextStyleTableRecord
  2
SEACAD_Solid_Edge_ISO
 70
     0
 40
0.0
 41
1.0
 50
0.0
 71
     0
 42
0.2
  3
seiso.ttf
  4

1001
ACAD
1000
Solid Edge ISO
1071
        0
  0
STYLE
  5
190
330
3
100
AcDbSymbolTableRecord
100
AcDbTextStyleTableRecord
  2
SEACAD_Solid_Edge_ISO1_Symbols
 70
     0
 40
0.0
 41
1.0
 50
0.0
 71
     0
 42
0.2
  3
semeci1.ttf
  4

1001
ACAD
1000
Solid Edge ISO1 Symbols
1071
        0
  0
STYLE
  5
1D2
330
3
100
AcDbSymbolTableRecord
100
AcDbTextStyleTableRecord
  2
SEACAD_Solid_Edge_ANSIB
 70
     0
 40
0.0
 41
1.0
 50
0.0
 71
     0
 42
0.2
  3
seansbd.ttf
  4

1001
ACAD
1000
Solid Edge ANSI
1071
 33554432
  0
STYLE
  5
1D7
330
3
100
AcDbSymbolTableRecord
100
AcDbTextStyleTableRecord
  2
SEACAD_Solid_Edge_ANSI
 70
     0
 40
0.0
 41
1.0
 50
0.0
 71
     0
 42
0.2
  3
seans.ttf
  4

1001
ACAD
1000
Solid Edge ANSI
1071
        0
  0
ENDTAB
  0
TABLE
  2
VIEW
  5
6
330
0
100
AcDbSymbolTable
 70
     0
  0
ENDTAB
  0
TABLE
  2
UCS
  5
7
330
0
100
AcDbSymbolTable
 70
     0
  0
ENDTAB
  0
TABLE
  2
APPID
  5
9
330
0
100
AcDbSymbolTable
 70
     1
  0
APPID
  5
12
330
9
100
AcDbSymbolTableRecord
100
AcDbRegAppTableRecord
  2
ACAD
 70
     0
  0
ENDTAB
  0
TABLE
  2
DIMSTYLE
  5
A
330
0
100
AcDbSymbolTable
 70
     3
100
AcDbDimStyleTable
  0
DIMSTYLE
105
27
330
A
100
AcDbSymbolTableRecord
100
AcDbDimStyleTableRecord
  2
ISO-25
 70
     0
 41
2.5
 42
0.625
 43
3.75
 44
1.25
 73
     0
 74
     0
 77
     1
 78
     8
140
2.5
141
2.5
143
0.0393700787
147
0.625
171
     3
172
     1
178
     0
271
     2
272
     2
274
     3
278
    44
283
     0
284
     8
340
11
  0
DIMSTYLE
105
142
330
A
100
AcDbSymbolTableRecord
100
AcDbDimStyleTableRecord
  2
Standard
 70
     0
178
     0
340
11
  0
DIMSTYLE
105
155
102
{ACAD_REACTORS
330
156
330
160
330
16A
330
174
330
19F
330
1A9
102
}
330
A
100
AcDbSymbolTableRecord
100
AcDbDimStyleTableRecord
  2
DIN
 70
     0
 41
3.5
 42
0.0
 44
1.75
 73
     0
 74
     0
 77
     1
 78
     8
140
3.5
141
1.75
147
1.75
172
     1
173
     1
178
     0
179
     3
271
     3
272
     3
278
    44
284
     8
340
154
343
14F
344
14F
  0
ENDTAB
  0
TABLE
  2
BLOCK_RECORD
  5
1
330
0
100
AcDbSymbolTable
 70
    22
  0
BLOCK_RECORD
  5
1F
330
1
100
AcDbSymbolTableRecord
100
AcDbBlockTableRecord
  2
*Model_Space
340
22
  0
BLOCK_RECORD
  5
1B
330
1
100
AcDbSymbolTableRecord
100
AcDbBlockTableRecord
  2
*Paper_Space
340
1E
  0
BLOCK_RECORD
  5
40
330
1
100
AcDbSymbolTableRecord
100
AcDbBlockTableRecord
  2
SE
340
0
102
{BLKREFS
331
41
102
}
  0
BLOCK_RECORD
  5
143
330
1
100
AcDbSymbolTableRecord
100
AcDbBlockTableRecord
  2
_OBLIQUE
340
0
  0
BLOCK_RECORD
  5
147
330
1
100
AcDbSymbolTableRecord
100
AcDbBlockTableRecord
  2
_DOT
340
0
  0
BLOCK_RECORD
  5
14F
330
1
100
AcDbSymbolTableRecord
100
AcDbBlockTableRecord
  2
_SE_FILLED
340
0
  0
BLOCK_RECORD
  5
157
330
1
100
AcDbSymbolTableRecord
100
AcDbBlockTableRecord
  2
DMBLK133
340
0
  0
BLOCK_RECORD
  5
161
330
1
100
AcDbSymbolTableRecord
100
AcDbBlockTableRecord
  2
DMBLK134
340
0
  0
BLOCK_RECORD
  5
16B
330
1
100
AcDbSymbolTableRecord
100
AcDbBlockTableRecord
  2
DMBLK135
340
0
  0
BLOCK_RECORD
  5
175
330
1
100
AcDbSymbolTableRecord
100
AcDbBlockTableRecord
  2
DMBLK136
340
0
  0
BLOCK_RECORD
  5
17E
330
1
100
AcDbSymbolTableRecord
100
AcDbBlockTableRecord
  2
GDimGGroup
340
0
102
{BLKREFS
331
17F
102
}
  0
BLOCK_RECORD
  5
189
330
1
100
AcDbSymbolTableRecord
100
AcDbBlockTableRecord
  2
GDimGGroup1
340
0
102
{BLKREFS
331
18A
102
}
  0
BLOCK_RECORD
  5
195
330
1
100
AcDbSymbolTableRecord
100
AcDbBlockTableRecord
  2
GDimGGroup2
340
0
102
{BLKREFS
331
196
102
}
  0
BLOCK_RECORD
  5
1A0
330
1
100
AcDbSymbolTableRecord
100
AcDbBlockTableRecord
  2
DMBLK137
340
0
  0
BLOCK_RECORD
  5
1AA
330
1
100
AcDbSymbolTableRecord
100
AcDbBlockTableRecord
  2
DMBLK138
340
0
  0
BLOCK_RECORD
  5
1B3
330
1
100
AcDbSymbolTableRecord
100
AcDbBlockTableRecord
  2
GDimGGroup3
340
0
102
{BLKREFS
331
1B4
102
}
  0
BLOCK_RECORD
  5
1BD
330
1
100
AcDbSymbolTableRecord
100
AcDbBlockTableRecord
  2
GDimGGroup4
340
0
102
{BLKREFS
331
1BE
102
}
  0
BLOCK_RECORD
  5
1C6
330
1
100
AcDbSymbolTableRecord
100
AcDbBlockTableRecord
  2
GDimGGroup5
340
0
102
{BLKREFS
331
1C7
102
}
  0
BLOCK_RECORD
  5
1D1
330
1
100
AcDbSymbolTableRecord
100
AcDbBlockTableRecord
  2
SEANNOT_GROUP
340
0
102
{BLKREFS
331
1E6
102
}
  0
BLOCK_RECORD
  5
1D6
330
1
100
AcDbSymbolTableRecord
100
AcDbBlockTableRecord
  2
SEANNOT_GROUP1
340
0
102
{BLKREFS
331
1E7
102
}
  0
BLOCK_RECORD
  5
1DB
330
1
100
AcDbSymbolTableRecord
100
AcDbBlockTableRecord
  2
SEANNOT_GROUP2
340
0
102
{BLKREFS
331
1E9
102
}
  0
BLOCK_RECORD
  5
1DF
330
1
100
AcDbSymbolTableRecord
100
AcDbBlockTableRecord
  2
SEANNOT_GROUP3
340
0
102
{BLKREFS
331
1EA
102
}
  0
BLOCK_RECORD
  5
1E3
330
1
100
AcDbSymbolTableRecord
100
AcDbBlockTableRecord
  2
RF-Massblatt_2016
340
0
102
{BLKREFS
331
232
102
}
  0
ENDTAB
  0
ENDSEC
  0
SECTION
  2
BLOCKS
  0
BLOCK
  5
20
330
1F
100
AcDbEntity
  8
0
100
AcDbBlockBegin
  2
*Model_Space
 70
     0
 10
0.0
 20
0.0
 30
0.0
  3
*Model_Space
  1

  0
ENDBLK
  5
21
330
1F
100
AcDbEntity
  8
0
100
AcDbBlockEnd
  0
BLOCK
  5
1C
330
1B
100
AcDbEntity
 67
     1
  8
0
100
AcDbBlockBegin
  2
*Paper_Space
 70
     0
 10
0.0
 20
0.0
 30
0.0
  3
*Paper_Space
  1

  0
ENDBLK
  5
1D
330
1B
100
AcDbEntity
 67
     1
  8
0
100
AcDbBlockEnd
  0
BLOCK
  5
140
330
40
100
AcDbEntity
  8
0
100
AcDbBlockBegin
  2
SE
 70
     0
 10
0.0
 20
0.0
 30
0.0
  3
SE
  1

  0
LINE
  5
44
330
40
100
AcDbEntity
  8
DV1_Default
  6
DOT2
 62
     7
100
AcDbLine
 10
199.7478634949
 20
121.6964260367
 30
0.0
 11
204.1379602197
 21
117.3063293119
 31
0.0
  0
LINE
  5
45
330
40
100
AcDbEntity
  8
DV1_Default
  6
DOT2
 62
     7
100
AcDbLine
 10
204.1379602197
 20
96.1692590511
 30
0.0
 11
204.1379602197
 21
117.3063293119
 31
0.0
  0
LINE
  5
47
330
40
100
AcDbEntity
  8
DV1_Default
  6
CENTER2
 62
     7
100
AcDbLine
 10
152.6379602197
 20
125.3063293119
 30
0.0
 11
152.6379602197
 21
101.3063293119
 31
0.0
  0
LINE
  5
48
330
40
100
AcDbEntity
  8
DV1_Default
  6
CENTER2
 62
     7
100
AcDbLine
 10
66.1379602197
 20
89.3063293119
 30
0.0
 11
206.1379602197
 21
89.3063293119
 31
0.0
  0
LINE
  5
49
330
40
100
AcDbEntity
  8
DV1_Default
  6
CENTER2
 62
     7
100
AcDbLine
 10
101.1379602197
 20
122.4073308237
 30
0.0
 11
101.1379602197
 21
113.8063293119
 31
0.0
  0
LINE
  5
4A
330
40
100
AcDbEntity
  8
DV1_Default
  6
CENTER2
 62
     7
100
AcDbLine
 10
86.8879602737
 20
89.3063293119
 30
0.0
 11
83.3879601656
 21
89.3063293119
 31
0.0
  0
LINE
  5
4B
330
40
100
AcDbEntity
  8
DV1_Default
  6
CENTER2
 62
     7
100
AcDbLine
 10
85.1379602197
 20
91.056329366
 30
0.0
 11
85.1379602197
 21
87.5563292579
 31
0.0
  0
LINE
  5
4C
330
40
100
AcDbEntity
  8
DV1_Default
  6
CENTER2
 62
     7
100
AcDbLine
 10
88.6379603277
 20
89.3063293119
 30
0.0
 11
90.8879602197
 21
89.3063293119
 31
0.0
  0
LINE
  5
4D
330
40
100
AcDbEntity
  8
DV1_Default
  6
CENTER2
 62
     7
100
AcDbLine
 10
85.1379602197
 20
92.80632942
 30
0.0
 11
85.1379602197
 21
95.0563293119
 31
0.0
  0
LINE
  5
4E
330
40
100
AcDbEntity
  8
DV1_Default
  6
CENTER2
 62
     7
100
AcDbLine
 10
81.6379601116
 20
89.3063293119
 30
0.0
 11
79.3879602197
 21
89.3063293119
 31
0.0
  0
LINE
  5
4F
330
40
100
AcDbEntity
  8
DV1_Default
  6
CENTER2
 62
     7
100
AcDbLine
 10
85.1379602197
 20
85.8063292039
 30
0.0
 11
85.1379602197
 21
83.5563293119
 31
0.0
  0
LINE
  5
50
330
40
100
AcDbEntity
  8
DV1_Default
  6
CENTER2
 62
     7
100
AcDbLine
 10
108.8879602737
 20
89.3063293119
 30
0.0
 11
105.3879601656
 21
89.3063293119
 31
0.0
  0
LINE
  5
51
330
40
100
AcDbEntity
  8
DV1_Default
  6
CENTER2
 62
     7
100
AcDbLine
 10
107.1379602197
 20
91.056329366
 30
0.0
 11
107.1379602197
 21
87.5563292579
 31
0.0
  0
LINE
  5
52
330
40
100
AcDbEntity
  8
DV1_Default
  6
CENTER2
 62
     7
100
AcDbLine
 10
110.6379603277
 20
89.3063293119
 30
0.0
 11
117.1379602197
 21
89.3063293119
 31
0.0
  0
LINE
  5
53
330
40
100
AcDbEntity
  8
DV1_Default
  6
CENTER2
 62
     7
100
AcDbLine
 10
107.1379602197
 20
92.80632942
 30
0.0
 11
107.1379602197
 21
99.3063293119
 31
0.0
  0
LINE
  5
54
330
40
100
AcDbEntity
  8
DV1_Default
  6
CENTER2
 62
     7
100
AcDbLine
 10
103.6379601116
 20
89.3063293119
 30
0.0
 11
97.1379602197
 21
89.3063293119
 31
0.0
  0
LINE
  5
55
330
40
100
AcDbEntity
  8
DV1_Default
  6
CENTER2
 62
     7
100
AcDbLine
 10
107.1379602197
 20
85.8063292039
 30
0.0
 11
107.1379602197
 21
79.3063293119
 31
0.0
  0
LINE
  5
56
330
40
100
AcDbEntity
  8
DV1_Default
  6
CENTER2
 62
     7
100
AcDbLine
 10
180.6379602197
 20
125.3063293119
 30
0.0
 11
180.6379602197
 21
101.3063293119
 31
0.0
  0
HATCH
  5
57
330
40
100
AcDbEntity
  8
DV1_Default
  6
Continuous
 62
     7
100
AcDbHatch
 10
0.0
 20
0.0
 30
0.0
210
0.0
220
0.0
230
1.0
  2
LINE
 70
     0
 71
     0
 91
        1
 92
        1
 93
       51
 72
     2
 10
102.6379602196655
 20
105.0563293119385
 40
1.5
 50
236.4426902380795
 51
360.0
 73
     0
 72
     1
 10
104.1379602196655
 20
105.0563293119385
 11
104.1379602196655
 21
98.36482931193852
 72
     1
 10
104.1379602196655
 20
98.36482931193852
 11
104.1964602196655
 21
98.30632931193853
 72
     1
 10
104.1964602196655
 20
98.30632931193853
 11
112.6379602196655
 21
98.30632931193853
 72
     1
 10
112.6379602196655
 20
98.30632931193853
 11
113.6379602196655
 21
99.30632931193853
 72
     1
 10
113.6379602196655
 20
99.30632931193853
 11
115.7379602196655
 21
99.30632931193851
 72
     2
 10
115.7379602196655
 20
98.90632931193852
 40
0.400000000000001
 50
270.0
 51
360.0
 73
     0
 72
     1
 10
116.1379602196655
 20
98.90632931193852
 11
116.1379602196655
 21
93.50632931193852
 72
     1
 10
116.1379602196655
 20
93.50632931193852
 11
132.1808894759305
 21
93.50632931193852
 72
     1
 10
132.1808894759305
 20
93.50632931193852
 11
139.1379602196655
 21
105.5563293119385
 72
     1
 10
139.1379602196655
 20
105.5563293119385
 11
142.6379602196655
 21
105.5563293119385
 72
     1
 10
142.6379602196655
 20
105.5563293119385
 11
142.6379602196656
 21
121.8063293119385
 72
     1
 10
142.6379602196656
 20
121.8063293119385
 11
143.2629602196656
 21
122.4313293119385
 72
     1
 10
143.2629602196656
 20
122.4313293119385
 11
140.6379602196655
 21
125.0563293119385
 72
     1
 10
140.6379602196655
 20
125.0563293119385
 11
139.0184140383001
 21
125.0563293119385
 72
     1
 10
139.0184140383001
 20
125.0563293119385
 11
136.1379602196655
 21
114.3063293119385
 72
     1
 10
136.1379602196655
 20
114.3063293119385
 11
121.1379602196655
 21
114.3063293119385
 72
     2
 10
121.1379602196655
 20
115.3063293119385
 40
1.000000000000001
 50
90.0
 51
180.0
 73
     0
 72
     1
 10
120.1379602196655
 20
115.3063293119385
 11
120.1379602196655
 21
120.3063293119385
 72
     1
 10
120.1379602196655
 20
120.3063293119385
 11
119.6379602196655
 21
120.8063293119385
 72
     1
 10
119.6379602196655
 20
120.8063293119385
 11
115.5154592944249
 21
120.8063293119385
 72
     1
 10
115.5154592944248
 20
120.8063293119385
 11
114.0129602196655
 21
118.2039245761302
 72
     1
 10
114.0129602196655
 20
118.2039245761302
 11
114.0129602196655
 21
117.3063293119385
 72
     2
 10
113.5129602196655
 20
117.3063293119385
 40
0.5000000000000004
 50
0.0
 51
90.00000000000651
 73
     0
 72
     1
 10
113.5129602196655
 20
116.8063293119385
 11
110.7629602196655
 21
116.8063293119385
 72
     2
 10
110.7629602196655
 20
117.3063293119385
 40
0.5000000000000004
 50
90.0
 51
180.0
 73
     0
 72
     1
 10
110.2629602196655
 20
117.3063293119385
 11
110.2629602196655
 21
118.2039245761301
 72
     1
 10
110.2629602196655
 20
118.2039245761302
 11
108.7604611449062
 21
120.8063293119385
 72
     1
 10
108.7604611449062
 20
120.8063293119385
 11
106.1379602196655
 21
120.8063293119385
 72
     1
 10
106.1379602196655
 20
120.8063293119385
 11
106.1379602196655
 21
116.1063293119385
 72
     2
 10
105.8379602196655
 20
116.1063293119385
 40
0.3000000000000017
 50
0.0
 51
90.0
 73
     0
 72
     1
 10
105.8379602196655
 20
115.8063293119385
 11
96.43796021966553
 21
115.8063293119385
 72
     2
 10
96.43796021966553
 20
116.1063293119385
 40
0.3000000000000017
 50
90.0
 51
180.0
 73
     0
 72
     1
 10
96.13796021966553
 20
116.1063293119385
 11
96.13796021966553
 21
120.8063293119385
 72
     1
 10
96.13796021966553
 20
120.8063293119385
 11
94.63796021966553
 21
120.8063293119385
 72
     1
 10
94.63796021966553
 20
120.8063293119385
 11
94.13796021966553
 21
120.3063293119385
 72
     1
 10
94.13796021966553
 20
120.3063293119385
 11
94.13796021966553
 21
114.7243328958678
 72
     1
 10
94.13796021966553
 20
114.7243328958678
 11
94.23212106091047
 21
114.0543436970393
 72
     2
 10
93.63796021966553
 20
113.9708398364632
 40
0.6000000000000011
 50
352.0000000000009
 51
450.0
 73
     0
 72
     1
 10
93.63796021966553
 20
113.3708398364632
 11
92.90299135715614
 21
113.3708398364632
 72
     1
 10
92.90299135715614
 20
113.3708398364632
 11
92.30937125418734
 21
113.5298998636646
 72
     1
 10
92.30937125418734
 20
113.5298998636646
 11
63.27803507933285
 21
112.0783330549219
 72
     2
 10
63.33796021966552
 20
110.8798302482685
 40
1.199999999999998
 50
92.8624052261112
 51
180.0
 73
     1
 72
     1
 10
62.13796021966552
 20
110.8798302482685
 11
62.13796021966554
 21
107.5063293119385
 72
     2
 10
63.33796021966552
 20
107.5063293119385
 40
1.2
 50
180.0
 51
270.0
 73
     1
 72
     1
 10
63.33796021966552
 20
106.3063293119385
 11
75.14193481588107
 21
106.3063293119385
 72
     1
 10
75.14193481588107
 20
106.3063293119385
 11
76.70078054269307
 21
109.0063293119385
 72
     2
 10
77.22039578496373
 20
108.7063293119385
 40
0.5999999999999999
 50
209.9999999999999
 51
270.0
 73
     0
 72
     1
 10
77.22039578496373
 20
109.3063293119385
 11
87.89294222126712
 21
109.3063293119385
 72
     2
 10
87.89294222126712
 20
101.3063293119385
 40
8.000000000000004
 50
270.0
 51
321.3178125465105
 73
     0
 72
     1
 10
94.13794021966552
 20
106.3063293119385
 11
101.8088040220767
 21
106.3063293119385
 97
        0
 75
     0
 76
     1
 52
45.0
 41
1.0
 77
     0
 78
     1
 53
45.0
 43
0.0
 44
0.0
 45
-2.245064030267288
 46
2.245064030267288
 79
     0
 98
        0
  0
HATCH
  5
58
330
40
100
AcDbEntity
  8
DV1_Default
  6
Continuous
 62
     7
100
AcDbHatch
 10
0.0
 20
0.0
 30
0.0
210
0.0
220
0.0
230
1.0
  2
LINE
 70
     0
 71
     0
 91
        1
 92
        1
 93
        4
 72
     1
 10
112.6379602196655
 20
98.30632931193853
 11
104.1964602196655
 21
98.30632931193853
 72
     1
 10
104.1964602196655
 20
98.30632931193853
 11
104.7379602196655
 21
97.76482931193853
 72
     1
 10
104.7379602196655
 20
97.76482931193853
 11
112.0964602196655
 21
97.76482931193851
 72
     1
 10
112.0964602196655
 20
97.76482931193851
 11
112.6379602196655
 21
98.30632931193853
 97
        0
 75
     0
 76
     1
 52
45.0
 41
1.0
 77
     0
 78
     1
 53
45.0
 43
0.0
 44
0.0
 45
-2.245064030267288
 46
2.245064030267288
 79
     0
 98
        0
  0
HATCH
  5
59
330
40
100
AcDbEntity
  8
DV1_Default
  6
Continuous
 62
     7
100
AcDbHatch
 10
0.0
 20
0.0
 30
0.0
210
0.0
220
0.0
230
1.0
  2
LINE
 70
     0
 71
     0
 91
        1
 92
        1
 93
        8
 72
     1
 10
170.6379602196655
 20
105.3063293119385
 11
170.6379602196655
 21
121.8063293119385
 72
     1
 10
170.6379602196655
 20
121.8063293119385
 11
171.2629602196654
 21
122.4313293119384
 72
     1
 10
171.2629602196654
 20
122.4313293119384
 11
168.6379602196652
 21
125.0563293119385
 72
     1
 10
168.6379602196652
 20
125.0563293119385
 11
164.6379602196656
 21
125.0563293119385
 72
     1
 10
164.6379602196656
 20
125.0563293119385
 11
162.0129602196655
 21
122.4313293119385
 72
     1
 10
162.0129602196656
 20
122.4313293119385
 11
162.6379602196656
 21
121.8063293119385
 72
     1
 10
162.6379602196655
 20
121.8063293119385
 11
162.6379602196655
 21
105.3063293119385
 72
     1
 10
162.6379602196655
 20
105.3063293119385
 11
170.6379602196655
 21
105.3063293119385
 97
        0
 75
     0
 76
     1
 52
45.0
 41
1.0
 77
     0
 78
     1
 53
45.0
 43
0.0
 44
0.0
 45
-2.245064030267288
 46
2.245064030267288
 79
     0
 98
        0
  0
HATCH
  5
5A
330
40
100
AcDbEntity
  8
DV1_Default
  6
Continuous
 62
     7
100
AcDbHatch
 10
0.0
 20
0.0
 30
0.0
210
0.0
220
0.0
230
1.0
  2
LINE
 70
     0
 71
     0
 91
        1
 92
        1
 93
       10
 72
     1
 10
190.6379602196655
 20
105.3063293119385
 11
203.3379602196655
 21
105.3063293119385
 72
     2
 10
203.3379602196655
 20
106.1063293119385
 40
0.7999999999999952
 50
270.0
 51
360.0
 73
     1
 72
     1
 10
204.1379602196655
 20
106.1063293119385
 11
204.1379602196655
 21
116.8921157495654
 72
     2
 10
203.1379602196655
 20
116.8921157495654
 40
1.000000000000001
 50
0.0
 51
44.9999999999977
 73
     1
 72
     1
 10
203.8450670008521
 20
117.599222530752
 11
196.680853438479
 21
124.7634360931251
 72
     2
 10
195.9737466572924
 20
124.0563293119385
 40
1.000000000000006
 50
44.99999999999942
 51
90.0
 73
     1
 72
     1
 10
195.9737466572924
 20
125.0563293119385
 11
192.6379602196659
 21
125.0563293119385
 72
     1
 10
192.6379602196659
 20
125.0563293119385
 11
190.0129602196657
 21
122.4313293119384
 72
     1
 10
190.0129602196657
 20
122.4313293119384
 11
190.6379602196655
 21
121.8063293119385
 72
     1
 10
190.6379602196655
 20
121.8063293119385
 11
190.6379602196655
 21
105.3063293119385
 97
        0
 75
     0
 76
     1
 52
45.0
 41
1.0
 77
     0
 78
     1
 53
45.0
 43
0.0
 44
0.0
 45
-2.245064030267288
 46
2.245064030267288
 79
     0
 98
        0
  0
ARC
  5
5C
330
40
100
AcDbEntity
  8
0011904
  6
Continuous
 62
     7
100
AcDbCircle
 10
121.1379602197
 20
115.3063293119
 30
0.0
 40
1.000000000000001
100
AcDbArc
 50
180.0
 51
270.0
  0
ARC
  5
5D
330
40
100
AcDbEntity
  8
0011904
  6
Continuous
 62
     7
100
AcDbCircle
 10
152.7801657054
 20
118.1800024164
 30
0.0
 40
15.58002737519063
100
AcDbArc
 50
253.0042851354
 51
286.0129081924
  0
LINE
  5
5E
330
40
100
AcDbEntity
  8
0011904
  6
Continuous
 62
     7
100
AcDbLine
 10
92.3093712542
 20
65.0827587602
 30
0.0
 11
92.3093712542
 21
89.3063293119
 31
0.0
  0
LINE
  5
5F
330
40
100
AcDbEntity
  8
0011904
  6
Continuous
 62
     7
100
AcDbLine
 10
63.1379602197
 20
95.5763293119
 30
0.0
 11
62.1379602197
 21
96.5763293119
 31
0.0
  0
LINE
  5
60
330
40
100
AcDbEntity
  8
0011904
  6
Continuous
 62
     7
100
AcDbLine
 10
104.1379602197
 20
98.3648293119
 30
0.0
 11
104.1379602197
 21
89.3063293119
 31
0.0
  0
SPLINE
  5
61
330
40
100
AcDbEntity
  8
0011904
  6
Continuous
 62
     7
100
AcDbSpline
210
0.0
220
0.0
230
1.0
 70
     8
 71
     3
 72
     8
 73
     4
 74
     0
 42
0.0000000026394244
 43
0.0000000001
 12
1.0
 22
0.0
 32
0.0
 13
1.0
 23
0.0
 33
0.0
 40
0.0
 40
0.0
 40
0.0
 40
0.0
 40
1.0
 40
1.0
 40
1.0
 40
1.0
 10
108.7604611449062
 20
64.97014226466261
 30
0.0
 10
109.2749926976756
 20
66.12367695263674
 30
0.0
 10
109.7773118041385
 20
67.28260231060693
 30
0.0
 10
110.2629602196655
 20
68.44797338312593
 30
0.0
  0
SPLINE
  5
62
330
40
100
AcDbEntity
  8
0011904
  6
Continuous
 62
     7
100
AcDbSpline
210
0.0
220
0.0
230
1.0
 70
     8
 71
     3
 72
     8
 73
     4
 74
     0
 42
0.0000000026394244
 43
0.0000000001
 12
1.0
 22
0.0
 32
0.0
 13
1.0
 23
0.0
 33
0.0
 40
0.0
 40
0.0
 40
0.0
 40
0.0
 40
1.0
 40
1.0
 40
1.0
 40
1.0
 10
114.0129602196655
 20
68.44797338312593
 30
0.0
 10
114.4986086351926
 20
67.28260231060693
 30
0.0
 10
115.0009277416554
 20
66.12367695263674
 30
0.0
 10
115.5154592944248
 20
64.97014226466261
 30
0.0
  0
LINE
  5
63
330
40
100
AcDbEntity
  8
0011904
  6
Continuous
 62
     7
100
AcDbLine
 10
115.5154592944
 20
64.9701422647
 30
0.0
 11
119.6379602197
 21
64.9701422647
 31
0.0
  0
SPLINE
  5
64
330
40
100
AcDbEntity
  8
0011904
  6
Continuous
 62
     7
100
AcDbSpline
210
0.0
220
0.0
230
1.0
 70
     8
 71
     3
 72
     8
 73
     4
 74
     0
 42
0.0000000121853687
 43
0.0000000001
 12
1.0
 22
0.0
 32
0.0
 13
1.0
 23
0.0
 33
0.0
 40
0.0
 40
0.0
 40
0.0
 40
0.0
 40
1.0
 40
1.0
 40
1.0
 40
1.0
 10
119.6379602196655
 20
64.97014226466261
 30
0.0
 10
119.8051982374557
 20
65.18660992864613
 30
0.0
 10
119.9718892051111
 20
65.40353351165064
 30
0.0
 10
120.1379602196655
 20
65.6208907472845
 30
0.0
  0
LINE
  5
65
330
40
100
AcDbEntity
  8
0011904
  6
Continuous
 62
     7
100
AcDbLine
 10
104.7379602197
 20
97.7648293119
 30
0.0
 11
104.7379602197
 21
89.3063293119
 31
0.0
  0
SPLINE
  5
66
330
40
100
AcDbEntity
  8
0011904
  6
Continuous
 62
     7
100
AcDbSpline
210
0.0
220
0.0
230
1.0
 70
     8
 71
     3
 72
    16
 73
    12
 74
     0
 42
0.00000000048285
 43
0.0000000001
 12
1.0
 22
0.0
 32
0.0
 13
1.0
 23
0.0
 33
0.0
 40
0.0
 40
0.0
 40
0.0
 40
0.0
 40
0.1250000000000001
 40
0.1250000000000001
 40
0.2500000000000001
 40
0.2500000000000001
 40
0.3750000000000001
 40
0.3750000000000001
 40
0.5
 40
0.5
 40
0.5001944972431661
 40
0.5001944972431661
 40
0.5001944972431661
 40
0.5001944972431661
 10
87.89294222126715
 20
92.97733434938775
 30
0.0
 10
87.28709295410135
 20
93.57047991938113
 30
0.0
 10
86.50259354806275
 20
93.99181182273018
 30
0.0
 10
84.82620040534952
 20
94.23627712301312
 30
0.0
 10
83.93405463432399
 20
94.0428974675541
 30
0.0
 10
82.47431472456212
 20
93.17815407609528
 30
0.0
 10
81.88252271325781
 20
92.51839563264471
 30
0.0
 10
81.09501073793396
 20
91.01855293861473
 30
0.0
 10
80.8885983721351
 20
90.1683028580642
 30
0.0
 10
80.88796071492546
 20
89.30899911271152
 30
0.0
 10
80.8879602261984
 20
89.30766414190525
 30
0.0
 10
80.88796023929959
 20
89.30632918115134
 30
0.0
  0
LINE
  5
67
330
40
100
AcDbEntity
  8
0011904
  6
Continuous
 62
     7
100
AcDbLine
 10
66.6379602197
 20
83.0363293119
 30
0.0
 11
63.1379602197
 21
83.0363293119
 31
0.0
  0
ARC
  5
68
330
40
100
AcDbEntity
  8
0011904
  6
Continuous
 62
     7
100
AcDbCircle
 10
66.6379602197
 20
84.5363293119
 30
0.0
 40
1.500000000000001
100
AcDbArc
 50
270.0
 51
0.0
  0
ARC
  5
69
330
40
100
AcDbEntity
  8
0011904
  6
Continuous
 62
     7
100
AcDbCircle
 10
84.6552390331
 20
89.3063293119
 30
0.0
 40
4.894793143699917
100
AcDbArc
 50
0.0000054879
 51
48.5887883669
  0
ARC
  5
6A
330
40
100
AcDbEntity
  8
0011904
  6
Continuous
 62
     7
100
AcDbCircle
 10
85.1379602197
 20
89.3063293119
 30
0.0
 40
3.749999999999971
100
AcDbArc
 50
0.0
 51
180.0
  0
ARC
  5
6B
330
40
100
AcDbEntity
  8
0011904
  6
Continuous
 62
     7
100
AcDbCircle
 10
85.1379602197
 20
89.3063293119
 30
0.0
 40
3.749999999999998
100
AcDbArc
 50
180.0
 51
0.0
  0
LINE
  5
6C
330
40
100
AcDbEntity
  8
0011904
  6
Continuous
 62
     7
100
AcDbLine
 10
63.1379602197
 20
83.0363293119
 30
0.0
 11
63.1379602197
 21
80.2315161032
 31
0.0
  0
LINE
  5
6D
330
40
100
AcDbEntity
  8
0011904
  6
Continuous
 62
     7
100
AcDbLine
 10
62.1379602197
 20
82.0363293119
 30
0.0
 11
62.1379602197
 21
80.7097047755
 31
0.0
  0
LINE
  5
6E
330
40
100
AcDbEntity
  8
0011904
  6
Continuous
 62
     7
100
AcDbLine
 10
63.1379602197
 20
83.0363293119
 30
0.0
 11
62.1379602197
 21
82.0363293119
 31
0.0
  0
LINE
  5
6F
330
40
100
AcDbEntity
  8
0011904
  6
Continuous
 62
     7
100
AcDbLine
 10
113.6379602197
 20
99.3063293119
 30
0.0
 11
113.6379602197
 21
89.3063293119
 31
0.0
  0
LINE
  5
70
330
40
100
AcDbEntity
  8
0011904
  6
Continuous
 62
     7
100
AcDbLine
 10
112.0964602197
 20
97.7648293119
 30
0.0
 11
112.0964602197
 21
89.3063293119
 31
0.0
  0
LINE
  5
71
330
40
100
AcDbEntity
  8
0011904
  6
Continuous
 62
     7
100
AcDbLine
 10
110.3777589805
 20
81.3063293119
 30
0.0
 11
110.2629602197
 21
81.3063293119
 31
0.0
  0
LINE
  5
72
330
40
100
AcDbEntity
  8
0011904
  6
Continuous
 62
     7
100
AcDbLine
 10
114.0129602197
 20
81.3063293119
 30
0.0
 11
113.8981614588
 21
81.3063293119
 31
0.0
  0
SPLINE
  5
73
330
40
100
AcDbEntity
  8
0011904
  6
Continuous
 62
     7
100
AcDbSpline
210
0.0
220
0.0
230
1.0
 70
     8
 71
     3
 72
    14
 73
    10
 74
     0
 42
0.0000000125137312
 43
0.0000000001
 12
1.0
 22
0.0
 32
0.0
 13
1.0
 23
0.0
 33
0.0
 40
0.0
 40
0.0
 40
0.0
 40
0.0
 40
0.124999999999997
 40
0.124999999999997
 40
0.249999999999994
 40
0.249999999999994
 40
0.499999999999996
 40
0.499999999999996
 40
1.0
 40
1.0
 40
1.0
 40
1.0
 10
110.7629602196655
 20
81.957860083589
 30
0.0
 10
110.7292762147805
 20
81.957860083589
 30
0.0
 10
110.696948464398
 20
81.94437987920448
 30
0.0
 10
110.6423691987511
 20
81.9057447635041
 30
0.0
 10
110.619309029529
 20
81.88113329040195
 30
0.0
 10
110.5579249047522
 20
81.80233648053094
 30
0.0
 10
110.5268875412569
 20
81.743087977698
 30
0.0
 10
110.4462211534223
 20
81.56266675345275
 30
0.0
 10
110.4083951819464
 20
81.43442315094903
 30
0.0
 10
110.3777589805228
 20
81.30632931193851
 30
0.0
  0
LINE
  5
74
330
40
100
AcDbEntity
  8
0011904
  6
Continuous
 62
     7
100
AcDbLine
 10
113.5129602197
 20
81.9578600837
 30
0.0
 11
110.7629602197
 21
81.9578600836
 31
0.0
  0
SPLINE
  5
75
330
40
100
AcDbEntity
  8
0011904
  6
Continuous
 62
     7
100
AcDbSpline
210
0.0
220
0.0
230
1.0
 70
     8
 71
     3
 72
    14
 73
    10
 74
     0
 42
0.0000000125142491
 43
0.0000000001
 12
1.0
 22
0.0
 32
0.0
 13
1.0
 23
0.0
 33
0.0
 40
0.0
 40
0.0
 40
0.0
 40
0.0
 40
0.5000000000000013
 40
0.5000000000000013
 40
0.750000000000002
 40
0.750000000000002
 40
0.875000000000001
 40
0.875000000000001
 40
1.0
 40
1.0
 40
1.0
 40
1.0
 10
113.8981614588092
 20
81.30632931193851
 30
0.0
 10
113.8676935870812
 20
81.43371934316365
 30
0.0
 10
113.8302166989404
 20
81.561424091636
 30
0.0
 10
113.7489859740204
 20
81.74323546189675
 30
0.0
 10
113.7177743273979
 20
81.80273256747522
 30
0.0
 10
113.6562410865754
 20
81.88155193714965
 30
0.0
 10
113.6332322452488
 20
81.90600122586258
 30
0.0
 10
113.5790002131806
 20
81.94432907075084
 30
0.0
 10
113.5461824827438
 20
81.95786008359087
 30
0.0
 10
113.5129602196584
 20
81.95786008367973
 30
0.0
  0
LINE
  5
76
330
40
100
AcDbEntity
  8
0011904
  6
Continuous
 62
     7
100
AcDbLine
 10
120.1379602197
 20
89.3063293119
 30
0.0
 11
120.1379602197
 21
81.3063293119
 31
0.0
  0
SPLINE
  5
77
330
40
100
AcDbEntity
  8
0011904
  6
Continuous
 62
     7
100
AcDbSpline
210
0.0
220
0.0
230
1.0
 70
     8
 71
     3
 72
    10
 73
     6
 74
     0
 42
0.0000000055483638
 43
0.0000000001
 12
1.0
 22
0.0
 32
0.0
 13
1.0
 23
0.0
 33
0.0
 40
0.4713515571756475
 40
0.4713515571756475
 40
0.4713515571756475
 40
0.4713515571756475
 40
0.499999999999997
 40
0.499999999999997
 40
1.0
 40
1.0
 40
1.0
 40
1.0
 10
110.3648805606591
 20
81.25052867724156
 30
0.0
 10
110.3611853846692
 20
81.23369941405034
 30
0.0
 10
110.3576081797477
 20
81.21684653853168
 30
0.0
 10
110.2935004651777
 20
80.90559021526609
 30
0.0
 10
110.2657110828753
 20
80.60466850082445
 30
0.0
 10
110.2631397063497
 20
80.30632931193851
 30
0.0
  0
LINE
  5
78
330
40
100
AcDbEntity
  8
0011904
  6
Continuous
 62
     7
100
AcDbLine
 10
110.2629602197
 20
69.3063293119
 30
0.0
 11
110.2629602197
 21
68.4479733831
 31
0.0
  0
LINE
  5
79
330
40
100
AcDbEntity
  8
0011904
  6
Continuous
 62
     7
100
AcDbLine
 10
114.0129602197
 20
68.4479733831
 30
0.0
 11
114.0129602197
 21
69.3063293119
 31
0.0
  0
LINE
  5
7A
330
40
100
AcDbEntity
  8
0011904
  6
Continuous
 62
     7
100
AcDbLine
 10
120.1379602197
 20
69.3063293119
 30
0.0
 11
120.1379602197
 21
65.6208907473
 31
0.0
  0
LINE
  5
7B
330
40
100
AcDbEntity
  8
0011904
  6
Continuous
 62
     7
100
AcDbLine
 10
116.1379602197
 20
89.3063293119
 30
0.0
 11
116.1379602197
 21
93.5063293119
 31
0.0
  0
LINE
  5
7C
330
40
100
AcDbEntity
  8
0011904
  6
Continuous
 62
     7
100
AcDbLine
 10
108.7604611449
 20
81.3063293119
 30
0.0
 11
110.2629602197
 21
81.3063293119
 31
0.0
  0
LINE
  5
7D
330
40
100
AcDbEntity
  8
0011904
  6
Continuous
 62
     7
100
AcDbLine
 10
110.2629602197
 20
69.3063293119
 30
0.0
 11
108.7604611449
 21
69.3063293119
 31
0.0
  0
LINE
  5
7E
330
40
100
AcDbEntity
  8
0011904
  6
Continuous
 62
     7
100
AcDbLine
 10
114.0129602197
 20
81.3063293119
 30
0.0
 11
115.5154592944
 21
81.3063293119
 31
0.0
  0
LINE
  5
7F
330
40
100
AcDbEntity
  8
0011904
  6
Continuous
 62
     7
100
AcDbLine
 10
115.5154592944
 20
69.3063293119
 30
0.0
 11
114.0129602197
 21
69.3063293119
 31
0.0
  0
LINE
  5
80
330
40
100
AcDbEntity
  8
0011904
  6
Continuous
 62
     7
100
AcDbLine
 10
115.5154592944
 20
81.3063293119
 30
0.0
 11
119.6379602197
 21
81.3063293119
 31
0.0
  0
LINE
  5
81
330
40
100
AcDbEntity
  8
0011904
  6
Continuous
 62
     7
100
AcDbLine
 10
119.6379602197
 20
69.3063293119
 30
0.0
 11
115.5154592944
 21
69.3063293119
 31
0.0
  0
LINE
  5
82
330
40
100
AcDbEntity
  8
0011904
  6
Continuous
 62
     7
100
AcDbLine
 10
119.6379602197
 20
81.3063293119
 30
0.0
 11
120.1379602197
 21
81.3063293119
 31
0.0
  0
LINE
  5
83
330
40
100
AcDbEntity
  8
0011904
  6
Continuous
 62
     7
100
AcDbLine
 10
120.1379602197
 20
69.3063293119
 30
0.0
 11
119.6379602197
 21
69.3063293119
 31
0.0
  0
ARC
  5
84
330
40
100
AcDbEntity
  8
0011904
  6
Continuous
 62
     7
100
AcDbCircle
 10
107.1379602197
 20
89.3063293119
 30
0.0
 40
7.999999999999969
100
AcDbArc
 50
180.0
 51
270.0
  0
LINE
  5
85
330
40
100
AcDbEntity
  8
0011904
  6
Continuous
 62
     7
100
AcDbLine
 10
107.1379602197
 20
81.3063293119
 30
0.0
 11
108.7604611449
 21
81.3063293119
 31
0.0
  0
LINE
  5
86
330
40
100
AcDbEntity
  8
0011904
  6
Continuous
 62
     7
100
AcDbLine
 10
108.7604611449
 20
69.3063293119
 30
0.0
 11
106.2496741233
 21
69.3063293119
 31
0.0
  0
ARC
  5
87
330
40
100
AcDbEntity
  8
0011904
  6
Continuous
 62
     7
100
AcDbCircle
 10
106.2496741233
 20
61.3063293119
 30
0.0
 40
8.000000000000004
100
AcDbArc
 50
90.0
 51
152.7433806908
  0
LINE
  5
88
330
40
100
AcDbEntity
  8
0011904
  6
Continuous
 62
     7
100
AcDbLine
 10
99.1379602197
 20
64.9701422647
 30
0.0
 11
108.7604611449
 21
64.9701422647
 31
0.0
  0
ARC
  5
89
330
40
100
AcDbEntity
  8
0011904
  6
Continuous
 62
     7
100
AcDbCircle
 10
101.1379602197
 20
151.9352695703
 30
0.0
 40
31.52793874659566
100
AcDbArc
 50
260.8749648374
 51
279.1250351626
  0
SPLINE
  5
8A
330
40
100
AcDbEntity
  8
0011904
  6
Continuous
 62
     7
100
AcDbSpline
210
0.0
220
0.0
230
1.0
 70
    11
 71
     3
 72
    22
 73
    18
 74
     0
 42
0.0000000005626468
 43
0.0000000001
 12
1.0
 22
0.0
 32
0.0
 13
1.0
 23
0.0
 33
0.0
 40
0.0
 40
0.0
 40
0.0
 40
0.0
 40
0.125
 40
0.125
 40
0.25
 40
0.25
 40
0.375
 40
0.375
 40
0.5
 40
0.5
 40
0.625
 40
0.625
 40
0.75
 40
0.75
 40
0.875
 40
0.875
 40
1.0
 40
1.0
 40
1.0
 40
1.0
 10
101.1379602196655
 20
57.80693064565629
 30
0.0
 10
102.2624358648741
 20
57.80693064565631
 30
0.0
 10
103.3604234759757
 20
57.79768095760243
 30
0.0
 10
104.9265500737144
 20
57.85057052212955
 30
0.0
 10
105.3873387693012
 20
57.92549268995072
 30
0.0
 10
105.388580340888
 20
58.21127065595461
 30
0.0
 10
104.9366157444243
 20
58.42052295914725
 30
0.0
 10
103.3518972333838
 20
58.77544560087261
 30
0.0
 10
102.2496082774391
 20
58.90158212983488
 30
0.0
 10
100.0295340396003
 20
58.90180414219946
 30
0.0
 10
98.91991320922226
 20
58.77416132396821
 30
0.0
 10
97.35132512617209
 20
58.42357707150914
 30
0.0
 10
96.88895403764133
 20
58.21406644339294
 30
0.0
 10
96.88696971332895
 20
57.9242757715974
 30
0.0
 10
97.34804486129256
 20
57.85070059512739
 30
0.0
 10
98.9128257236158
 20
57.79768607590545
 30
0.0
 10
100.0134845744569
 20
57.80693064565628
 30
0.0
 10
101.1379602196655
 20
57.80693064565629
 30
0.0
  0
LINE
  5
8B
330
40
100
AcDbEntity
  8
0011904
  6
Continuous
 62
     7
100
AcDbLine
 10
92.9029913572
 20
89.3063293119
 30
0.0
 11
92.9029913572
 21
65.2418187874
 31
0.0
  0
LINE
  5
8C
330
40
100
AcDbEntity
  8
0011904
  6
Continuous
 62
     7
100
AcDbLine
 10
94.1379602197
 20
114.7243328959
 30
0.0
 11
94.1379602197
 21
113.6391773574
 31
0.0
  0
LINE
  5
8D
330
40
100
AcDbEntity
  8
0011904
  6
Continuous
 62
     7
100
AcDbLine
 10
94.1379602197
 20
89.3063293119
 30
0.0
 11
94.1379602197
 21
58.3063293119
 31
0.0
  0
LINE
  5
8E
330
40
100
AcDbEntity
  8
0011904
  6
Continuous
 62
     7
100
AcDbLine
 10
94.6379602197
 20
89.3063293119
 30
0.0
 11
94.6379602197
 21
57.8063293119
 31
0.0
  0
LINE
  5
8F
330
40
100
AcDbEntity
  8
0011904
  6
Continuous
 62
     7
100
AcDbLine
 10
108.7604611449
 20
64.9701422647
 30
0.0
 11
108.7604611449
 21
57.8063293119
 31
0.0
  0
LINE
  5
90
330
40
100
AcDbEntity
  8
0011904
  6
Continuous
 62
     7
100
AcDbLine
 10
108.7604611449
 20
69.3063293119
 30
0.0
 11
108.7604611449
 21
81.3063293119
 31
0.0
  0
LINE
  5
91
330
40
100
AcDbEntity
  8
0011904
  6
Continuous
 62
     7
100
AcDbLine
 10
110.2629602197
 20
68.4479733831
 30
0.0
 11
110.2629602197
 21
60.4087340477
 31
0.0
  0
LINE
  5
92
330
40
100
AcDbEntity
  8
0011904
  6
Continuous
 62
     7
100
AcDbLine
 10
110.2629602197
 20
69.3063293119
 30
0.0
 11
110.2629602197
 21
81.3063293119
 31
0.0
  0
LINE
  5
93
330
40
100
AcDbEntity
  8
0011904
  6
Continuous
 62
     7
100
AcDbLine
 10
114.0129602197
 20
68.4479733831
 30
0.0
 11
114.0129602197
 21
60.4087340477
 31
0.0
  0
LINE
  5
94
330
40
100
AcDbEntity
  8
0011904
  6
Continuous
 62
     7
100
AcDbLine
 10
114.0129602197
 20
69.3063293119
 30
0.0
 11
114.0129602197
 21
81.3063293119
 31
0.0
  0
LINE
  5
95
330
40
100
AcDbEntity
  8
0011904
  6
Continuous
 62
     7
100
AcDbLine
 10
115.5154592944
 20
64.9701422647
 30
0.0
 11
115.5154592944
 21
57.8063293119
 31
0.0
  0
LINE
  5
96
330
40
100
AcDbEntity
  8
0011904
  6
Continuous
 62
     7
100
AcDbLine
 10
115.5154592944
 20
69.3063293119
 30
0.0
 11
115.5154592944
 21
81.3063293119
 31
0.0
  0
LINE
  5
97
330
40
100
AcDbEntity
  8
0011904
  6
Continuous
 62
     7
100
AcDbLine
 10
119.6379602197
 20
64.9701422647
 30
0.0
 11
119.6379602197
 21
57.8063293119
 31
0.0
  0
LINE
  5
98
330
40
100
AcDbEntity
  8
0011904
  6
Continuous
 62
     7
100
AcDbLine
 10
119.6379602197
 20
69.3063293119
 30
0.0
 11
119.6379602197
 21
81.3063293119
 31
0.0
  0
LINE
  5
99
330
40
100
AcDbEntity
  8
0011904
  6
Continuous
 62
     7
100
AcDbLine
 10
120.1379602197
 20
65.6208907473
 30
0.0
 11
120.1379602197
 21
58.3063293119
 31
0.0
  0
LINE
  5
9A
330
40
100
AcDbEntity
  8
0011904
  6
Continuous
 62
     7
100
AcDbLine
 10
120.1379602197
 20
69.3063293119
 30
0.0
 11
120.1379602197
 21
81.3063293119
 31
0.0
  0
LINE
  5
9B
330
40
100
AcDbEntity
  8
0011904
  6
Continuous
 62
     7
100
AcDbLine
 10
94.1379402197
 20
106.3063293119
 30
0.0
 11
94.1379402197
 21
89.3063293119
 31
0.0
  0
LINE
  5
9C
330
40
100
AcDbEntity
  8
0011904
  6
Continuous
 62
     7
100
AcDbLine
 10
101.8088040221
 20
106.3063293119
 30
0.0
 11
101.8088040221
 21
89.3063293119
 31
0.0
  0
LINE
  5
9D
330
40
100
AcDbEntity
  8
0011904
  6
Continuous
 62
     7
100
AcDbLine
 10
63.3379602197
 20
95.5763293119
 30
0.0
 11
70.6379602197
 21
95.5763293119
 31
0.0
  0
ARC
  5
9E
330
40
100
AcDbEntity
  8
0011904
  6
Continuous
 62
     7
100
AcDbCircle
 10
70.6379602197
 20
94.0763293119
 30
0.0
 40
1.499999999999633
100
AcDbArc
 50
0.0
 51
90.0
  0
LINE
  5
9F
330
40
100
AcDbEntity
  8
0011904
  6
Continuous
 62
     7
100
AcDbLine
 10
72.1379602197
 20
94.0763293119
 30
0.0
 11
72.1379602197
 21
89.3063293119
 31
0.0
  0
LINE
  5
A0
330
40
100
AcDbEntity
  8
0011904
  6
Continuous
 62
     7
100
AcDbLine
 10
63.1379602197
 20
95.5763293119
 30
0.0
 11
63.3379602197
 21
95.5763293119
 31
0.0
  0
LINE
  5
A1
330
40
100
AcDbEntity
  8
0011904
  6
Continuous
 62
     7
100
AcDbLine
 10
62.1379602197
 20
107.5063293119
 30
0.0
 11
62.1379602197
 21
96.5763293119
 31
0.0
  0
LINE
  5
A2
330
40
100
AcDbEntity
  8
0011904
  6
Continuous
 62
     7
100
AcDbLine
 10
75.1419348159
 20
106.3063293119
 30
0.0
 11
75.1419348159
 21
89.3063293119
 31
0.0
  0
LINE
  5
A3
330
40
100
AcDbEntity
  8
0011904
  6
Continuous
 62
     7
100
AcDbLine
 10
63.2780350793
 20
80.1949057808
 30
0.0
 11
63.1379602197
 21
80.2315161032
 31
0.0
  0
SPLINE
  5
A4
330
40
100
AcDbEntity
  8
0011904
  6
Continuous
 62
     7
100
AcDbSpline
210
0.0
220
0.0
230
1.0
 70
     8
 71
     3
 72
    14
 73
    10
 74
     0
 42
0.000000007882378
 43
0.0000000001
 12
1.0
 22
0.0
 32
0.0
 13
1.0
 23
0.0
 33
0.0
 40
0.0
 40
0.0
 40
0.0
 40
0.0
 40
0.1249999999999992
 40
0.1249999999999992
 40
0.2499999999999983
 40
0.2499999999999983
 40
0.4999999999999967
 40
0.4999999999999967
 40
1.0
 40
1.0
 40
1.0
 40
1.0
 10
62.57188900591401
 20
79.1058276259109
 30
0.0
 10
62.57164946522457
 20
79.16212455521448
 30
0.0
 10
62.58593098019051
 20
79.21215888926912
 30
0.0
 10
62.62171261333821
 20
79.30489092984705
 30
0.0
 10
62.64345728658856
 20
79.34924355081291
 30
0.0
 10
62.71155717143301
 20
79.48203983237615
 30
0.0
 10
62.76146952279271
 20
79.57028452404079
 30
0.0
 10
62.91557047110205
 20
79.84213928052327
 30
0.0
 10
63.02546253098364
 20
80.03236629457358
 30
0.0
 10
63.13796021967602
 20
80.23151610316941
 30
0.0
  0
SPLINE
  5
A5
330
40
100
AcDbEntity
  8
0011904
  6
Continuous
 62
     7
100
AcDbSpline
210
0.0
220
0.0
230
1.0
 70
     8
 71
     3
 72
    14
 73
    10
 74
     0
 42
0.0000000063912222
 43
0.0000000001
 12
1.0
 22
0.0
 32
0.0
 13
1.0
 23
0.0
 33
0.0
 40
0.0
 40
0.0
 40
0.0
 40
0.0
 40
0.5000000000000002
 40
0.5000000000000002
 40
0.7500000000000003
 40
0.7500000000000003
 40
0.8750000000000001
 40
0.8750000000000001
 40
1.0
 40
1.0
 40
1.0
 40
1.0
 10
62.13796021966552
 20
80.70970477553483
 30
0.0
 10
62.13796021966552
 20
80.45510034150884
 30
0.0
 10
62.17488110398757
 20
80.20066464647782
 30
0.0
 10
62.26173020636399
 20
79.81395336658592
 30
0.0
 10
62.29590263816043
 20
79.68615464610637
 30
0.0
 10
62.34918317033308
 20
79.49540852761945
 30
0.0
 10
62.3674372607302
 20
79.43198307915408
 30
0.0
 10
62.39983434638241
 20
79.30421711138236
 30
0.0
 10
62.41452252264811
 20
79.23769453463107
 30
0.0
 10
62.41430736485627
 20
79.17736819386694
 30
0.0
  0
SPLINE
  5
A6
330
40
100
AcDbEntity
  8
0011904
  6
Continuous
 62
     7
100
AcDbSpline
210
0.0
220
0.0
230
1.0
 70
     8
 71
     3
 72
    44
 73
    40
 74
     0
 42
0.0000000092321899
 43
0.0000000001
 12
1.0
 22
0.0
 32
0.0
 13
1.0
 23
0.0
 33
0.0
 40
0.0
 40
0.0
 40
0.0
 40
0.0
 40
0.1663761473870095
 40
0.1663761473870095
 40
0.1663761473870095
 40
0.3461940810136948
 40
0.3461940810136948
 40
0.3461940810136948
 40
0.4362743831522573
 40
0.4362743831522573
 40
0.4362743831522573
 40
0.4652027233186583
 40
0.4652027233186583
 40
0.4652027233186583
 40
0.4760526126235203
 40
0.4760526126235203
 40
0.4760526126235203
 40
0.4870617491754616
 40
0.4870617491754616
 40
0.4870617491754616
 40
0.4934126732062645
 40
0.4934126732062645
 40
0.4934126732062645
 40
0.4998148777165099
 40
0.4998148777165099
 40
0.4998148777165099
 40
0.5057358198672225
 40
0.5057358198672225
 40
0.5057358198672225
 40
0.5164101130686967
 40
0.5164101130686967
 40
0.5164101130686967
 40
0.5444161393291572
 40
0.5444161393291572
 40
0.5444161393291572
 40
0.64738667883135
 40
0.64738667883135
 40
0.64738667883135
 40
1.0
 40
1.0
 40
1.0
 40
1.0
 10
62.41430736485627
 20
79.17736819386694
 30
0.0
 10
62.41408973395476
 20
79.11634843753957
 30
0.0
 10
62.4153494842332
 20
79.05460885272014
 30
0.0
 10
62.41838686210369
 20
78.99223069034686
 30
0.0
 10
62.42167152255436
 20
78.92477412364026
 30
0.0
 10
62.42673467549345
 20
78.85641884779677
 30
0.0
 10
62.43643816365093
 20
78.78705928460485
 30
0.0
 10
62.44129734851296
 20
78.75232631703385
 30
0.0
 10
62.44708073550376
 20
78.7170436136257
 30
0.0
 10
62.45686363932347
 20
78.6818852854646
 30
0.0
 10
62.46001579754491
 20
78.67055688898769
 30
0.0
 10
62.46362672184127
 20
78.65913368740016
 30
0.0
 10
62.46833959280537
 20
78.64813591037905
 30
0.0
 10
62.47011487362994
 20
78.6439931823462
 30
0.0
 10
62.47206600047163
 20
78.63989116158147
 30
0.0
 10
62.4742719609
 20
78.63598941142176
 30
0.0
 10
62.47649565638487
 20
78.63205629272132
 30
0.0
 10
62.47903591370389
 20
78.62823349588683
 30
0.0
 10
62.48190042329985
 20
78.62509722265476
 30
0.0
 10
62.48356313464169
 20
78.62327676547021
 30
0.0
 10
62.48537040050201
 20
78.62166740518347
 30
0.0
 10
62.48721402762126
 20
78.62047223583478
 30
0.0
 10
62.48906728538453
 20
78.61927082322224
 30
0.0
 10
62.4910025886795
 20
78.61847055296724
 30
0.0
 10
62.49283708097768
 20
78.61812711392169
 30
0.0
 10
62.49454307926032
 20
78.61780773050292
 30
0.0
 10
62.49620152940036
 20
78.61786060747117
 30
0.0
 10
62.49774371154069
 20
78.61818614437232
 30
0.0
 10
62.50050799920374
 20
78.61876965368435
 30
0.0
 10
62.50298089189969
 20
78.62020767903365
 30
0.0
 10
62.50517993233076
 20
78.62200835576108
 30
0.0
 10
62.51090437474072
 20
78.62669579582784
 30
0.0
 10
62.51518202601711
 20
78.63379054533232
 30
0.0
 10
62.51888661438096
 20
78.64123720800168
 30
0.0
 10
62.53242545257717
 20
78.66845188101814
 30
0.0
 10
62.53965932517907
 20
78.70230342793053
 30
0.0
 10
62.54590252572663
 20
78.73610404930123
 30
0.0
 10
62.56716987681089
 20
78.85124526190228
 30
0.0
 10
62.57243315666391
 20
78.97794115728774
 30
0.0
 10
62.57188900591401
 20
79.1058276259109
 30
0.0
  0
ARC
  5
A7
330
40
100
AcDbEntity
  8
0011904
  6
Continuous
 62
     7
100
AcDbCircle
 10
56.2900929824
 20
20.3603800291
 30
0.0
 40
60.24119692271412
100
AcDbArc
 50
80.1090247756
 51
83.3387283195
  0
SPLINE
  5
A8
330
40
100
AcDbEntity
  8
0011904
  6
Continuous
 62
     7
100
AcDbSpline
210
0.0
220
0.0
230
1.0
 70
     8
 71
     3
 72
    14
 73
    10
 74
     0
 42
0.0000000031852821
 43
0.0000000001
 12
1.0
 22
0.0
 32
0.0
 13
1.0
 23
0.0
 33
0.0
 40
0.0
 40
0.0
 40
0.0
 40
0.0
 40
0.4999999999999991
 40
0.4999999999999991
 40
0.749999999999998
 40
0.749999999999998
 40
0.874999999999999
 40
0.874999999999999
 40
1.0
 40
1.0
 40
1.0
 40
1.0
 10
68.13796021966552
 20
82.16883307223013
 30
0.0
 10
68.13796021966552
 20
81.64568481359456
 30
0.0
 10
67.98822725271033
 20
81.14043085713894
 30
0.0
 10
67.63129393585896
 20
80.4669468260423
 30
0.0
 10
67.49007305032062
 20
80.25191196876824
 30
0.0
 10
67.22986468900902
 20
79.96285861879562
 30
0.0
 10
67.13552975539824
 20
79.87169325498283
 30
0.0
 10
66.91342826853757
 20
79.72890159569396
 30
0.0
 10
66.77490249190043
 20
79.6812557053206
 30
0.0
 10
66.63796021966407
 20
79.70617558632478
 30
0.0
  0
LINE
  5
A9
330
40
100
AcDbEntity
  8
0011904
  6
Continuous
 62
     7
100
AcDbLine
 10
68.1379602197
 20
89.3063293119
 30
0.0
 11
68.1379602197
 21
82.1688330722
 31
0.0
  0
SPLINE
  5
AA
330
40
100
AcDbEntity
  8
0011904
  6
Continuous
 62
     7
100
AcDbSpline
210
0.0
220
0.0
230
1.0
 70
     8
 71
     3
 72
    14
 73
    10
 74
     0
 42
0.0000000006928027
 43
0.0000000001
 12
1.0
 22
0.0
 32
0.0
 13
1.0
 23
0.0
 33
0.0
 40
0.0
 40
0.0
 40
0.0
 40
0.0
 40
0.2500000000000001
 40
0.2500000000000001
 40
0.5000000000000002
 40
0.5000000000000002
 40
0.7500000000000001
 40
0.7500000000000001
 40
1.0
 40
1.0
 40
1.0
 40
1.0
 10
80.69508747225247
 20
89.30632931193855
 30
0.0
 10
80.69508747225248
 20
88.1350116839675
 30
0.0
 10
81.2642754367286
 20
86.9714473577879
 30
0.0
 10
83.03213905553501
 20
85.42892520483791
 30
0.0
 10
84.2166382228573
 20
85.01562382736367
 30
0.0
 10
86.56234719545247
 20
85.03112819311191
 30
0.0
 10
87.72471645261709
 20
85.45091056095826
 30
0.0
 10
89.48250857611825
 20
86.9925213341439
 30
0.0
 10
90.04850378259574
 20
88.12759680679896
 30
0.0
 10
90.04850378259572
 20
89.30632931193855
 30
0.0
  0
LINE
  5
AB
330
40
100
AcDbEntity
  8
0011904
  6
Continuous
 62
     7
100
AcDbLine
 10
62.1379602197
 20
67.7328283756
 30
0.0
 11
62.1379602197
 21
80.7097047755
 31
0.0
  0
LINE
  5
AC
330
40
100
AcDbEntity
  8
0011904
  6
Continuous
 62
     7
100
AcDbLine
 10
136.1379602197
 20
89.3063293119
 30
0.0
 11
136.1379602197
 21
64.3063293119
 31
0.0
  0
LINE
  5
AD
330
40
100
AcDbEntity
  8
0011904
  6
Continuous
 62
     7
100
AcDbLine
 10
139.0184140383
 20
89.3063293119
 30
0.0
 11
139.0184140383
 21
53.5563293119
 31
0.0
  0
ARC
  5
AE
330
40
100
AcDbEntity
  8
0011904
  6
Continuous
 62
     7
100
AcDbCircle
 10
180.6379602197
 20
170.5638042818
 30
0.0
 40
47.06304578046293
100
AcDbArc
 50
255.2277704301
 51
284.7722295699
  0
ARC
  5
AF
330
40
100
AcDbEntity
  8
0011904
  6
Continuous
 62
     7
100
AcDbCircle
 10
152.6379602197
 20
170.5972682907
 30
0.0
 40
47.09540447927566
100
AcDbArc
 50
255.23815105
 51
284.76184895
  0
LINE
  5
B0
330
40
100
AcDbEntity
  8
0011904
  6
Continuous
 62
     7
100
AcDbLine
 10
154.1379602197
 20
58.9063293119
 30
0.0
 11
179.1379602197
 21
58.9063293119
 31
0.0
  0
LINE
  5
B1
330
40
100
AcDbEntity
  8
0011904
  6
Continuous
 62
     7
100
AcDbLine
 10
154.1379602197
 20
58.9063293119
 30
0.0
 11
148.7879602197
 21
53.5563293119
 31
0.0
  0
LINE
  5
B2
330
40
100
AcDbEntity
  8
0011904
  6
Continuous
 62
     7
100
AcDbLine
 10
179.1379602197
 20
58.9063293119
 30
0.0
 11
184.4879602197
 21
53.5563293119
 31
0.0
  0
LINE
  5
B3
330
40
100
AcDbEntity
  8
0011904
  6
Continuous
 62
     7
100
AcDbLine
 10
204.1379602197
 20
89.3063293119
 30
0.0
 11
204.1379602197
 21
61.7205428743
 31
0.0
  0
ARC
  5
B4
330
40
100
AcDbEntity
  8
0011904
  6
Continuous
 62
     7
100
AcDbCircle
 10
180.6379602197
 20
118.7285382263
 30
0.0
 40
16.11451204318311
100
AcDbArc
 50
254.0762650376
 51
285.9606254479
  0
LINE
  5
B5
330
40
100
AcDbEntity
  8
0011904
  6
Continuous
 62
     7
100
AcDbLine
 10
139.1379602197
 20
105.5563293119
 30
0.0
 11
139.1379602197
 21
89.3063293119
 31
0.0
  0
LINE
  5
B6
330
40
100
AcDbEntity
  8
0011904
  6
Continuous
 62
     7
100
AcDbLine
 10
145.6379602197
 20
103.3063293119
 30
0.0
 11
145.6379602197
 21
89.3063293119
 31
0.0
  0
LINE
  5
B7
330
40
100
AcDbEntity
  8
0011904
  6
Continuous
 62
     7
100
AcDbLine
 10
145.8879602197
 20
103.3063293119
 30
0.0
 11
145.8879602197
 21
89.3063293119
 31
0.0
  0
LINE
  5
B8
330
40
100
AcDbEntity
  8
0011904
  6
Continuous
 62
     7
100
AcDbLine
 10
204.1379602197
 20
106.1063293119
 30
0.0
 11
204.1379602197
 21
89.3063293119
 31
0.0
  0
LINE
  5
B9
330
40
100
AcDbEntity
  8
0011904
  6
Continuous
 62
     7
100
AcDbLine
 10
132.1808894759
 20
89.3063293119
 30
0.0
 11
132.1808894759
 21
93.5063293119
 31
0.0
  0
LINE
  5
BA
330
40
100
AcDbEntity
  8
0011904
  6
Continuous
 62
     7
100
AcDbLine
 10
204.1379602197
 20
89.3063293119
 30
0.0
 11
203.8450670009
 21
89.3063293119
 31
0.0
  0
LINE
  5
BB
330
40
100
AcDbEntity
  8
0011904
  6
Continuous
 62
     7
100
AcDbLine
 10
168.6379602197
 20
125.0563293119
 30
0.0
 11
164.6379602197
 21
125.0563293119
 31
0.0
  0
LINE
  5
BC
330
40
100
AcDbEntity
  8
0011904
  6
Continuous
 62
     7
100
AcDbLine
 10
162.0129602197
 20
122.4313293119
 30
0.0
 11
164.6379602197
 21
125.0563293119
 31
0.0
  0
LINE
  5
BD
330
40
100
AcDbEntity
  8
0011904
  6
Continuous
 62
     7
100
AcDbLine
 10
168.6379602197
 20
125.0563293119
 30
0.0
 11
171.2629602197
 21
122.4313293119
 31
0.0
  0
LINE
  5
BE
330
40
100
AcDbEntity
  8
0011904
  6
Continuous
 62
     7
100
AcDbLine
 10
170.6379602197
 20
105.3063293119
 30
0.0
 11
162.6379602197
 21
105.3063293119
 31
0.0
  0
ARC
  5
BF
330
40
100
AcDbEntity
  8
0011904
  6
Continuous
 62
     7
100
AcDbCircle
 10
195.9737466573
 20
124.0563293119
 30
0.0
 40
1.000000000000006
100
AcDbArc
 50
45.0
 51
90.0
  0
LINE
  5
C0
330
40
100
AcDbEntity
  8
0011904
  6
Continuous
 62
     7
100
AcDbLine
 10
203.8450670009
 20
117.5992225308
 30
0.0
 11
196.6808534385
 21
124.7634360931
 31
0.0
  0
ARC
  5
C1
330
40
100
AcDbEntity
  8
0011904
  6
Continuous
 62
     7
100
AcDbCircle
 10
203.1379602197
 20
116.8921157496
 30
0.0
 40
1.000000000000001
100
AcDbArc
 50
0.0
 51
45.0
  0
LINE
  5
C2
330
40
100
AcDbEntity
  8
0011904
  6
Continuous
 62
     7
100
AcDbLine
 10
204.1379602197
 20
106.1063293119
 30
0.0
 11
204.1379602197
 21
116.8921157496
 31
0.0
  0
LINE
  5
C3
330
40
100
AcDbEntity
  8
0011904
  6
Continuous
 62
     7
100
AcDbLine
 10
195.9737466573
 20
125.0563293119
 30
0.0
 11
192.6379602197
 21
125.0563293119
 31
0.0
  0
LINE
  5
C4
330
40
100
AcDbEntity
  8
0011904
  6
Continuous
 62
     7
100
AcDbLine
 10
190.0129602197
 20
122.4313293119
 30
0.0
 11
192.6379602197
 21
125.0563293119
 31
0.0
  0
LINE
  5
C5
330
40
100
AcDbEntity
  8
0011904
  6
Continuous
 62
     7
100
AcDbLine
 10
203.3379602197
 20
105.3063293119
 30
0.0
 11
190.6379602197
 21
105.3063293119
 31
0.0
  0
ARC
  5
C6
330
40
100
AcDbEntity
  8
0011904
  6
Continuous
 62
     7
100
AcDbCircle
 10
203.3379602197
 20
106.1063293119
 30
0.0
 40
0.7999999999999952
100
AcDbArc
 50
270.0
 51
0.0
  0
ARC
  5
C7
330
40
100
AcDbEntity
  8
0011904
  6
Continuous
 62
     7
100
AcDbCircle
 10
77.220395785
 20
108.7063293119
 30
0.0
 40
0.5999999999999999
100
AcDbArc
 50
90.0
 51
150.0
  0
LINE
  5
C8
330
40
100
AcDbEntity
  8
0011904
  6
Continuous
 62
     7
100
AcDbLine
 10
87.8929422213
 20
109.3063293119
 30
0.0
 11
77.220395785
 21
109.3063293119
 31
0.0
  0
LINE
  5
C9
330
40
100
AcDbEntity
  8
0011904
  6
Continuous
 62
     7
100
AcDbLine
 10
76.7007805427
 20
109.0063293119
 30
0.0
 11
75.1419348159
 21
106.3063293119
 31
0.0
  0
ARC
  5
CA
330
40
100
AcDbEntity
  8
0011904
  6
Continuous
 62
     7
100
AcDbCircle
 10
87.8929422213
 20
101.3063293119
 30
0.0
 40
8.000000000000004
100
AcDbArc
 50
38.6821874535
 51
90.0
  0
LINE
  5
CB
330
40
100
AcDbEntity
  8
0011904
  6
Continuous
 62
     7
100
AcDbLine
 10
94.1379402197
 20
106.3063293119
 30
0.0
 11
101.8088040221
 21
106.3063293119
 31
0.0
  0
ARC
  5
CC
330
40
100
AcDbEntity
  8
0011904
  6
Continuous
 62
     7
100
AcDbCircle
 10
102.6379602197
 20
105.0563293119
 30
0.0
 40
1.5
100
AcDbArc
 50
0.0
 51
123.5573097619
  0
LINE
  5
CD
330
40
100
AcDbEntity
  8
0011904
  6
Continuous
 62
     7
100
AcDbLine
 10
75.1419348159
 20
106.3063293119
 30
0.0
 11
63.3379602197
 21
106.3063293119
 31
0.0
  0
ARC
  5
CE
330
40
100
AcDbEntity
  8
0011904
  6
Continuous
 62
     7
100
AcDbCircle
 10
63.3379602197
 20
107.5063293119
 30
0.0
 40
1.2
100
AcDbArc
 50
180.0
 51
270.0
  0
LINE
  5
CF
330
40
100
AcDbEntity
  8
0011904
  6
Continuous
 62
     7
100
AcDbLine
 10
62.1379602197
 20
110.8798302483
 30
0.0
 11
62.1379602197
 21
107.5063293119
 31
0.0
  0
LINE
  5
D0
330
40
100
AcDbEntity
  8
0011904
  6
Continuous
 62
     7
100
AcDbLine
 10
104.1379602197
 20
105.0563293119
 30
0.0
 11
104.1379602197
 21
98.3648293119
 31
0.0
  0
ARC
  5
D1
330
40
100
AcDbEntity
  8
0011904
  6
Continuous
 62
     7
100
AcDbCircle
 10
63.3379602197
 20
110.8798302483
 30
0.0
 40
1.199999999999998
100
AcDbArc
 50
92.8624052261
 51
180.0
  0
LINE
  5
D2
330
40
100
AcDbEntity
  8
0011904
  6
Continuous
 62
     7
100
AcDbLine
 10
92.3093712542
 20
113.5298998637
 30
0.0
 11
63.2780350793
 21
112.0783330549
 31
0.0
  0
LINE
  5
D3
330
40
100
AcDbEntity
  8
0011904
  6
Continuous
 62
     7
100
AcDbLine
 10
92.9029913572
 20
113.3708398365
 30
0.0
 11
92.3093712542
 21
113.5298998637
 31
0.0
  0
LINE
  5
D4
330
40
100
AcDbEntity
  8
0011904
  6
Continuous
 62
     7
100
AcDbLine
 10
104.1379602197
 20
98.3648293119
 30
0.0
 11
104.7379602197
 21
97.7648293119
 31
0.0
  0
LINE
  5
D5
330
40
100
AcDbEntity
  8
0011904
  6
Continuous
 62
     7
100
AcDbLine
 10
112.0964602197
 20
97.7648293119
 30
0.0
 11
104.7379602197
 21
97.7648293119
 31
0.0
  0
LINE
  5
D6
330
40
100
AcDbEntity
  8
0011904
  6
Continuous
 62
     7
100
AcDbLine
 10
113.6379602197
 20
99.3063293119
 30
0.0
 11
112.0964602197
 21
97.7648293119
 31
0.0
  0
LINE
  5
D7
330
40
100
AcDbEntity
  8
0011904
  6
Continuous
 62
     7
100
AcDbLine
 10
93.6379602197
 20
113.3708398365
 30
0.0
 11
92.9029913572
 21
113.3708398365
 31
0.0
  0
LINE
  5
D8
330
40
100
AcDbEntity
  8
0011904
  6
Continuous
 62
     7
100
AcDbLine
 10
115.7379602197
 20
99.3063293119
 30
0.0
 11
113.6379602197
 21
99.3063293119
 31
0.0
  0
ARC
  5
D9
330
40
100
AcDbEntity
  8
0011904
  6
Continuous
 62
     7
100
AcDbCircle
 10
93.6379602197
 20
113.9708398365
 30
0.0
 40
0.6000000000000011
100
AcDbArc
 50
270.0
 51
8.0
  0
ARC
  5
DA
330
40
100
AcDbEntity
  8
0011904
  6
Continuous
 62
     7
100
AcDbCircle
 10
115.7379602197
 20
98.9063293119
 30
0.0
 40
0.400000000000001
100
AcDbArc
 50
0.0
 51
90.0
  0
LINE
  5
DB
330
40
100
AcDbEntity
  8
0011904
  6
Continuous
 62
     7
100
AcDbLine
 10
94.1379602197
 20
114.7243328959
 30
0.0
 11
94.2321210609
 21
114.054343697
 31
0.0
  0
LINE
  5
DC
330
40
100
AcDbEntity
  8
0011904
  6
Continuous
 62
     7
100
AcDbLine
 10
94.1379602197
 20
120.3063293119
 30
0.0
 11
94.1379602197
 21
114.7243328959
 31
0.0
  0
LINE
  5
DD
330
40
100
AcDbEntity
  8
0011904
  6
Continuous
 62
     7
100
AcDbLine
 10
94.6379602197
 20
120.8063293119
 30
0.0
 11
94.1379602197
 21
120.3063293119
 31
0.0
  0
LINE
  5
DE
330
40
100
AcDbEntity
  8
0011904
  6
Continuous
 62
     7
100
AcDbLine
 10
96.1379602197
 20
120.8063293119
 30
0.0
 11
94.6379602197
 21
120.8063293119
 31
0.0
  0
LINE
  5
DF
330
40
100
AcDbEntity
  8
0011904
  6
Continuous
 62
     7
100
AcDbLine
 10
96.1379602197
 20
120.8063293119
 30
0.0
 11
96.1379602197
 21
116.1063293119
 31
0.0
  0
LINE
  5
E0
330
40
100
AcDbEntity
  8
0011904
  6
Continuous
 62
     7
100
AcDbLine
 10
116.1379602197
 20
93.5063293119
 30
0.0
 11
116.1379602197
 21
98.9063293119
 31
0.0
  0
LINE
  5
E1
330
40
100
AcDbEntity
  8
0011904
  6
Continuous
 62
     7
100
AcDbLine
 10
132.1808894759
 20
93.5063293119
 30
0.0
 11
116.1379602197
 21
93.5063293119
 31
0.0
  0
ARC
  5
E2
330
40
100
AcDbEntity
  8
0011904
  6
Continuous
 62
     7
100
AcDbCircle
 10
96.4379602197
 20
116.1063293119
 30
0.0
 40
0.3000000000000017
100
AcDbArc
 50
180.0
 51
270.0
  0
LINE
  5
E3
330
40
100
AcDbEntity
  8
0011904
  6
Continuous
 62
     7
100
AcDbLine
 10
139.1379602197
 20
105.5563293119
 30
0.0
 11
132.1808894759
 21
93.5063293119
 31
0.0
  0
LINE
  5
E4
330
40
100
AcDbEntity
  8
0011904
  6
Continuous
 62
     7
100
AcDbLine
 10
105.8379602197
 20
115.8063293119
 30
0.0
 11
96.4379602197
 21
115.8063293119
 31
0.0
  0
ARC
  5
E5
330
40
100
AcDbEntity
  8
0011904
  6
Continuous
 62
     7
100
AcDbCircle
 10
105.8379602197
 20
116.1063293119
 30
0.0
 40
0.3000000000000017
100
AcDbArc
 50
270.0
 51
0.0
  0
LINE
  5
E6
330
40
100
AcDbEntity
  8
0011904
  6
Continuous
 62
     7
100
AcDbLine
 10
106.1379602197
 20
116.1063293119
 30
0.0
 11
106.1379602197
 21
120.8063293119
 31
0.0
  0
LINE
  5
E7
330
40
100
AcDbEntity
  8
0011904
  6
Continuous
 62
     7
100
AcDbLine
 10
142.6379602197
 20
105.5563293119
 30
0.0
 11
139.1379602197
 21
105.5563293119
 31
0.0
  0
LINE
  5
E8
330
40
100
AcDbEntity
  8
0011904
  6
Continuous
 62
     7
100
AcDbLine
 10
108.7604611449
 20
120.8063293119
 30
0.0
 11
106.1379602197
 21
120.8063293119
 31
0.0
  0
LINE
  5
E9
330
40
100
AcDbEntity
  8
0011904
  6
Continuous
 62
     7
100
AcDbLine
 10
110.2629602197
 20
118.2039245761
 30
0.0
 11
108.7604611449
 21
120.8063293119
 31
0.0
  0
LINE
  5
EA
330
40
100
AcDbEntity
  8
0011904
  6
Continuous
 62
     7
100
AcDbLine
 10
110.2629602197
 20
117.3063293119
 30
0.0
 11
110.2629602197
 21
118.2039245761
 31
0.0
  0
ARC
  5
EB
330
40
100
AcDbEntity
  8
0011904
  6
Continuous
 62
     7
100
AcDbCircle
 10
110.7629602197
 20
117.3063293119
 30
0.0
 40
0.5000000000000004
100
AcDbArc
 50
180.0
 51
270.0
  0
LINE
  5
EC
330
40
100
AcDbEntity
  8
0011904
  6
Continuous
 62
     7
100
AcDbLine
 10
140.6379602197
 20
125.0563293119
 30
0.0
 11
143.2629602197
 21
122.4313293119
 31
0.0
  0
LINE
  5
ED
330
40
100
AcDbEntity
  8
0011904
  6
Continuous
 62
     7
100
AcDbLine
 10
113.5129602197
 20
116.8063293119
 30
0.0
 11
110.7629602197
 21
116.8063293119
 31
0.0
  0
ARC
  5
EE
330
40
100
AcDbEntity
  8
0011904
  6
Continuous
 62
     7
100
AcDbCircle
 10
113.5129602197
 20
117.3063293119
 30
0.0
 40
0.5000000000000004
100
AcDbArc
 50
270.0
 51
0.0
  0
LINE
  5
EF
330
40
100
AcDbEntity
  8
0011904
  6
Continuous
 62
     7
100
AcDbLine
 10
140.6379602197
 20
125.0563293119
 30
0.0
 11
139.0184140383
 21
125.0563293119
 31
0.0
  0
LINE
  5
F0
330
40
100
AcDbEntity
  8
0011904
  6
Continuous
 62
     7
100
AcDbLine
 10
114.0129602197
 20
118.2039245761
 30
0.0
 11
114.0129602197
 21
117.3063293119
 31
0.0
  0
LINE
  5
F1
330
40
100
AcDbEntity
  8
0011904
  6
Continuous
 62
     7
100
AcDbLine
 10
115.5154592944
 20
120.8063293119
 30
0.0
 11
114.0129602197
 21
118.2039245761
 31
0.0
  0
LINE
  5
F2
330
40
100
AcDbEntity
  8
0011904
  6
Continuous
 62
     7
100
AcDbLine
 10
119.6379602197
 20
120.8063293119
 30
0.0
 11
115.5154592944
 21
120.8063293119
 31
0.0
  0
LINE
  5
F3
330
40
100
AcDbEntity
  8
0011904
  6
Continuous
 62
     7
100
AcDbLine
 10
120.1379602197
 20
120.3063293119
 30
0.0
 11
119.6379602197
 21
120.8063293119
 31
0.0
  0
LINE
  5
F4
330
40
100
AcDbEntity
  8
0011904
  6
Continuous
 62
     7
100
AcDbLine
 10
139.0184140383
 20
125.0563293119
 30
0.0
 11
136.1379602197
 21
114.3063293119
 31
0.0
  0
LINE
  5
F5
330
40
100
AcDbEntity
  8
0011904
  6
Continuous
 62
     7
100
AcDbLine
 10
120.1379602197
 20
115.3063293119
 30
0.0
 11
120.1379602197
 21
120.3063293119
 31
0.0
  0
LINE
  5
F6
330
40
100
AcDbEntity
  8
0011904
  6
Continuous
 62
     7
100
AcDbLine
 10
136.1379602197
 20
114.3063293119
 30
0.0
 11
121.1379602197
 21
114.3063293119
 31
0.0
  0
LINE
  5
F7
330
40
100
AcDbEntity
  8
0011904
  6
Continuous
 62
     7
100
AcDbLine
 10
92.3093712542
 20
65.0827587602
 30
0.0
 11
92.9029913572
 21
65.2418187874
 31
0.0
  0
LINE
  5
F8
330
40
100
AcDbEntity
  8
0011904
  6
Continuous
 62
     7
100
AcDbLine
 10
94.1379602197
 20
58.3063293119
 30
0.0
 11
94.6379602197
 21
57.8063293119
 31
0.0
  0
LINE
  5
F9
330
40
100
AcDbEntity
  8
0011904
  6
Continuous
 62
     7
100
AcDbLine
 10
102.3651628925
 20
57.8063293119
 30
0.0
 11
108.7604611449
 21
57.8063293119
 31
0.0
  0
LINE
  5
FA
330
40
100
AcDbEntity
  8
0011904
  6
Continuous
 62
     7
100
AcDbLine
 10
94.6379602197
 20
57.8063293119
 30
0.0
 11
99.9210655455
 21
57.8063293119
 31
0.0
  0
ARC
  5
FB
330
40
100
AcDbEntity
  8
0011904
  6
Continuous
 62
     7
100
AcDbCircle
 10
93.6379602197
 20
64.6418187874
 30
0.0
 40
0.5999999999999963
100
AcDbArc
 50
33.5573097619
 51
90.0
  0
LINE
  5
FC
330
40
100
AcDbEntity
  8
0011904
  6
Continuous
 62
     7
100
AcDbLine
 10
92.9029913572
 20
65.2418187874
 30
0.0
 11
93.6379602197
 21
65.2418187874
 31
0.0
  0
LINE
  5
FD
330
40
100
AcDbEntity
  8
0011904
  6
Continuous
 62
     7
100
AcDbLine
 10
63.2780350793
 20
66.534325569
 30
0.0
 11
92.3093712542
 21
65.0827587602
 31
0.0
  0
LINE
  5
FE
330
40
100
AcDbEntity
  8
0011904
  6
Continuous
 62
     7
100
AcDbLine
 10
121.1379602197
 20
64.3063293119
 30
0.0
 11
136.1379602197
 21
64.3063293119
 31
0.0
  0
LINE
  5
FF
330
40
100
AcDbEntity
  8
0011904
  6
Continuous
 62
     7
100
AcDbLine
 10
136.1379602197
 20
64.3063293119
 30
0.0
 11
139.0184140383
 21
53.5563293119
 31
0.0
  0
ARC
  5
100
330
40
100
AcDbEntity
  8
0011904
  6
Continuous
 62
     7
100
AcDbCircle
 10
195.9737466573
 20
54.5563293119
 30
0.0
 40
1.000000000000001
100
AcDbArc
 50
270.0
 51
315.0
  0
LINE
  5
101
330
40
100
AcDbEntity
  8
0011904
  6
Continuous
 62
     7
100
AcDbLine
 10
196.6808534385
 20
53.8492225308
 30
0.0
 11
203.8450670009
 21
61.0134360931
 31
0.0
  0
ARC
  5
102
330
40
100
AcDbEntity
  8
0011904
  6
Continuous
 62
     7
100
AcDbCircle
 10
203.1379602197
 20
61.7205428743
 30
0.0
 40
0.9999999999999989
100
AcDbArc
 50
315.0
 51
0.0
  0
ARC
  5
103
330
40
100
AcDbEntity
  8
0011904
  6
Continuous
 62
     7
100
AcDbCircle
 10
121.1379602197
 20
63.3063293119
 30
0.0
 40
1.000000000000001
100
AcDbArc
 50
90.0
 51
180.0
  0
ARC
  5
104
330
40
100
AcDbEntity
  8
0011904
  6
Continuous
 62
     7
100
AcDbCircle
 10
110.7629602197
 20
61.3063293119
 30
0.0
 40
0.5000000000000004
100
AcDbArc
 50
90.0
 51
180.0
  0
ARC
  5
105
330
40
100
AcDbEntity
  8
0011904
  6
Continuous
 62
     7
100
AcDbCircle
 10
113.5129602197
 20
61.3063293119
 30
0.0
 40
0.5000000000000004
100
AcDbArc
 50
0.0
 51
90.0
  0
LINE
  5
106
330
40
100
AcDbEntity
  8
0011904
  6
Continuous
 62
     7
100
AcDbLine
 10
110.7629602197
 20
61.8063293119
 30
0.0
 11
113.5129602197
 21
61.8063293119
 31
0.0
  0
LINE
  5
107
330
40
100
AcDbEntity
  8
0011904
  6
Continuous
 62
     7
100
AcDbLine
 10
108.7604611449
 20
57.8063293119
 30
0.0
 11
110.2629602197
 21
60.4087340477
 31
0.0
  0
LINE
  5
108
330
40
100
AcDbEntity
  8
0011904
  6
Continuous
 62
     7
100
AcDbLine
 10
119.6379602197
 20
57.8063293119
 30
0.0
 11
120.1379602197
 21
58.3063293119
 31
0.0
  0
LINE
  5
109
330
40
100
AcDbEntity
  8
0011904
  6
Continuous
 62
     7
100
AcDbLine
 10
115.5154592944
 20
57.8063293119
 30
0.0
 11
119.6379602197
 21
57.8063293119
 31
0.0
  0
LINE
  5
10A
330
40
100
AcDbEntity
  8
0011904
  6
Continuous
 62
     7
100
AcDbLine
 10
114.0129602197
 20
60.4087340477
 30
0.0
 11
115.5154592944
 21
57.8063293119
 31
0.0
  0
ARC
  5
10B
330
40
100
AcDbEntity
  8
0011904
  6
Continuous
 62
     7
100
AcDbCircle
 10
63.3379602197
 20
67.7328283756
 30
0.0
 40
1.2
100
AcDbArc
 50
180.0
 51
267.1375947739
  0
LINE
  5
10C
330
40
100
AcDbEntity
  8
0011904
  6
Continuous
 62
     7
100
AcDbLine
 10
184.4879602197
 20
53.5563293119
 30
0.0
 11
195.9737466573
 21
53.5563293119
 31
0.0
  0
LINE
  5
10D
330
40
100
AcDbEntity
  8
0011904
  6
Continuous
 62
     7
100
AcDbLine
 10
139.0184140383
 20
53.5563293119
 30
0.0
 11
148.7879602197
 21
53.5563293119
 31
0.0
  0
LINE
  5
10E
330
40
100
AcDbEntity
  8
0011904
  6
Continuous
 62
     7
100
AcDbLine
 10
104.1964602197
 20
98.3063293119
 30
0.0
 11
112.6379602197
 21
98.3063293119
 31
0.0
  0
LINE
  5
10F
330
40
100
AcDbEntity
  8
0011904
  6
Continuous
 62
     7
100
AcDbLine
 10
144.1379602197
 20
103.3063293119
 30
0.0
 11
161.1379602197
 21
103.3063293119
 31
0.0
  0
LINE
  5
110
330
40
100
AcDbEntity
  8
0011904
  6
Continuous
 62
     7
100
AcDbLine
 10
142.6379602197
 20
121.8063293119
 30
0.0
 11
162.6379602197
 21
121.8063293119
 31
0.0
  0
LINE
  5
111
330
40
100
AcDbEntity
  8
0011904
  6
Continuous
 62
     7
100
AcDbLine
 10
142.6379602197
 20
104.8063293119
 30
0.0
 11
162.6379602197
 21
104.8063293119
 31
0.0
  0
LINE
  5
112
330
40
100
AcDbEntity
  8
0011904
  6
Continuous
 62
     7
100
AcDbLine
 10
144.1379602197
 20
123.3063293119
 30
0.0
 11
161.1379602197
 21
123.3063293119
 31
0.0
  0
LINE
  5
114
330
40
100
AcDbEntity
  8
0011904
  6
HIDDEN2
 62
     7
100
AcDbLine
 10
146.2871072586
 20
112.3063293119
 30
0.0
 11
146.2871072586
 21
123.3063293119
 31
0.0
  0
LINE
  5
115
330
40
100
AcDbEntity
  8
0011904
  6
HIDDEN2
 62
     7
100
AcDbLine
 10
146.2871072586
 20
112.3063293119
 30
0.0
 11
147.8748204989
 21
112.3063293119
 31
0.0
  0
LINE
  5
116
330
40
100
AcDbEntity
  8
0011904
  6
HIDDEN2
 62
     7
100
AcDbLine
 10
149.4625337391
 20
112.3063293119
 30
0.0
 11
149.4625337391
 21
123.3063293119
 31
0.0
  0
LINE
  5
117
330
40
100
AcDbEntity
  8
0011904
  6
HIDDEN2
 62
     7
100
AcDbLine
 10
149.4625337391
 20
112.3063293119
 30
0.0
 11
152.6379602197
 21
112.3063293119
 31
0.0
  0
LINE
  5
118
330
40
100
AcDbEntity
  8
0011904
  6
HIDDEN2
 62
     7
100
AcDbLine
 10
155.8133867002
 20
112.3063293119
 30
0.0
 11
155.8133867002
 21
123.3063293119
 31
0.0
  0
LINE
  5
119
330
40
100
AcDbEntity
  8
0011904
  6
HIDDEN2
 62
     7
100
AcDbLine
 10
155.8133867002
 20
112.3063293119
 30
0.0
 11
157.4010999405
 21
112.3063293119
 31
0.0
  0
LINE
  5
11A
330
40
100
AcDbEntity
  8
0011904
  6
HIDDEN2
 62
     7
100
AcDbLine
 10
158.9888131808
 20
112.3063293119
 30
0.0
 11
158.9888131808
 21
123.3063293119
 31
0.0
  0
LINE
  5
11B
330
40
100
AcDbEntity
  8
0011904
  6
HIDDEN2
 62
     7
100
AcDbLine
 10
147.8748204989
 20
112.3063293119
 30
0.0
 11
149.4625337391
 21
112.3063293119
 31
0.0
  0
LINE
  5
11C
330
40
100
AcDbEntity
  8
0011904
  6
HIDDEN2
 62
     7
100
AcDbLine
 10
152.6379602197
 20
112.3063293119
 30
0.0
 11
155.8133867002
 21
112.3063293119
 31
0.0
  0
LINE
  5
11D
330
40
100
AcDbEntity
  8
0011904
  6
HIDDEN2
 62
     7
100
AcDbLine
 10
157.4010999405
 20
112.3063293119
 30
0.0
 11
158.9888131808
 21
112.3063293119
 31
0.0
  0
LINE
  5
11E
330
40
100
AcDbEntity
  8
0011904
  6
Continuous
 62
     7
100
AcDbLine
 10
162.6379602197
 20
104.8063293119
 30
0.0
 11
162.6379602197
 21
121.8063293119
 31
0.0
  0
LINE
  5
11F
330
40
100
AcDbEntity
  8
0011904
  6
Continuous
 62
     7
100
AcDbLine
 10
142.6379602197
 20
121.8063293119
 30
0.0
 11
142.6379602197
 21
104.8063293119
 31
0.0
  0
LINE
  5
120
330
40
100
AcDbEntity
  8
0011904
  6
Continuous
 62
     7
100
AcDbLine
 10
142.6379602197
 20
104.8063293119
 30
0.0
 11
144.1379602197
 21
103.3063293119
 31
0.0
  0
LINE
  5
121
330
40
100
AcDbEntity
  8
0011904
  6
Continuous
 62
     7
100
AcDbLine
 10
161.1379602197
 20
103.3063293119
 30
0.0
 11
162.6379602197
 21
104.8063293119
 31
0.0
  0
LINE
  5
122
330
40
100
AcDbEntity
  8
0011904
  6
Continuous
 62
     7
100
AcDbLine
 10
162.6379602197
 20
121.8063293119
 30
0.0
 11
161.1379602197
 21
123.3063293119
 31
0.0
  0
LINE
  5
123
330
40
100
AcDbEntity
  8
0011904
  6
Continuous
 62
     7
100
AcDbLine
 10
144.1379602197
 20
123.3063293119
 30
0.0
 11
142.6379602197
 21
121.8063293119
 31
0.0
  0
LINE
  5
124
330
40
100
AcDbEntity
  8
0011904
  6
HIDDEN2
 62
     7
100
AcDbLine
 10
147.1379602197
 20
112.3063293119
 30
0.0
 11
152.6379602197
 21
109.0015959073
 31
0.0
  0
LINE
  5
125
330
40
100
AcDbEntity
  8
0011904
  6
HIDDEN2
 62
     7
100
AcDbLine
 10
152.6379602197
 20
109.0015959073
 30
0.0
 11
158.1379602197
 21
112.3063293119
 31
0.0
  0
LINE
  5
126
330
40
100
AcDbEntity
  8
0011904
  6
Continuous
 62
     7
100
AcDbLine
 10
161.4109602197
 20
123.0333293119
 30
0.0
 11
161.4109602197
 21
103.5793293119
 31
0.0
  0
LINE
  5
127
330
40
100
AcDbEntity
  8
0011904
  6
Continuous
 62
     7
100
AcDbLine
 10
143.8649602197
 20
123.0333293119
 30
0.0
 11
143.8649602197
 21
103.5793293119
 31
0.0
  0
LINE
  5
128
330
40
100
AcDbEntity
  8
0011904
  6
Continuous
 62
     7
100
AcDbLine
 10
172.1379602197
 20
103.3063293119
 30
0.0
 11
189.1379602197
 21
103.3063293119
 31
0.0
  0
LINE
  5
129
330
40
100
AcDbEntity
  8
0011904
  6
Continuous
 62
     7
100
AcDbLine
 10
170.6379602197
 20
121.8063293119
 30
0.0
 11
190.6379602197
 21
121.8063293119
 31
0.0
  0
LINE
  5
12A
330
40
100
AcDbEntity
  8
0011904
  6
Continuous
 62
     7
100
AcDbLine
 10
170.6379602197
 20
104.8063293119
 30
0.0
 11
190.6379602197
 21
104.8063293119
 31
0.0
  0
LINE
  5
12B
330
40
100
AcDbEntity
  8
0011904
  6
Continuous
 62
     7
100
AcDbLine
 10
172.1379602197
 20
123.3063293119
 30
0.0
 11
189.1379602197
 21
123.3063293119
 31
0.0
  0
LINE
  5
12C
330
40
100
AcDbEntity
  8
0011904
  6
HIDDEN2
 62
     7
100
AcDbLine
 10
174.2871072586
 20
112.3063293119
 30
0.0
 11
174.2871072586
 21
123.3063293119
 31
0.0
  0
LINE
  5
12D
330
40
100
AcDbEntity
  8
0011904
  6
HIDDEN2
 62
     7
100
AcDbLine
 10
174.2871072586
 20
112.3063293119
 30
0.0
 11
175.8748204989
 21
112.3063293119
 31
0.0
  0
LINE
  5
12E
330
40
100
AcDbEntity
  8
0011904
  6
HIDDEN2
 62
     7
100
AcDbLine
 10
177.4625337391
 20
112.3063293119
 30
0.0
 11
177.4625337391
 21
123.3063293119
 31
0.0
  0
LINE
  5
12F
330
40
100
AcDbEntity
  8
0011904
  6
HIDDEN2
 62
     7
100
AcDbLine
 10
177.4625337391
 20
112.3063293119
 30
0.0
 11
180.6379602197
 21
112.3063293119
 31
0.0
  0
LINE
  5
130
330
40
100
AcDbEntity
  8
0011904
  6
HIDDEN2
 62
     7
100
AcDbLine
 10
183.8133867002
 20
112.3063293119
 30
0.0
 11
183.8133867002
 21
123.3063293119
 31
0.0
  0
LINE
  5
131
330
40
100
AcDbEntity
  8
0011904
  6
HIDDEN2
 62
     7
100
AcDbLine
 10
183.8133867002
 20
112.3063293119
 30
0.0
 11
185.4010999405
 21
112.3063293119
 31
0.0
  0
LINE
  5
132
330
40
100
AcDbEntity
  8
0011904
  6
HIDDEN2
 62
     7
100
AcDbLine
 10
186.9888131808
 20
112.3063293119
 30
0.0
 11
186.9888131808
 21
123.3063293119
 31
0.0
  0
LINE
  5
133
330
40
100
AcDbEntity
  8
0011904
  6
HIDDEN2
 62
     7
100
AcDbLine
 10
175.8748204989
 20
112.3063293119
 30
0.0
 11
177.4625337391
 21
112.3063293119
 31
0.0
  0
LINE
  5
134
330
40
100
AcDbEntity
  8
0011904
  6
HIDDEN2
 62
     7
100
AcDbLine
 10
180.6379602197
 20
112.3063293119
 30
0.0
 11
183.8133867002
 21
112.3063293119
 31
0.0
  0
LINE
  5
135
330
40
100
AcDbEntity
  8
0011904
  6
HIDDEN2
 62
     7
100
AcDbLine
 10
185.4010999405
 20
112.3063293119
 30
0.0
 11
186.9888131808
 21
112.3063293119
 31
0.0
  0
LINE
  5
136
330
40
100
AcDbEntity
  8
0011904
  6
Continuous
 62
     7
100
AcDbLine
 10
190.6379602197
 20
104.8063293119
 30
0.0
 11
190.6379602197
 21
121.8063293119
 31
0.0
  0
LINE
  5
137
330
40
100
AcDbEntity
  8
0011904
  6
Continuous
 62
     7
100
AcDbLine
 10
170.6379602197
 20
121.8063293119
 30
0.0
 11
170.6379602197
 21
104.8063293119
 31
0.0
  0
LINE
  5
138
330
40
100
AcDbEntity
  8
0011904
  6
Continuous
 62
     7
100
AcDbLine
 10
170.6379602197
 20
104.8063293119
 30
0.0
 11
172.1379602197
 21
103.3063293119
 31
0.0
  0
LINE
  5
139
330
40
100
AcDbEntity
  8
0011904
  6
Continuous
 62
     7
100
AcDbLine
 10
189.1379602197
 20
103.3063293119
 30
0.0
 11
190.6379602197
 21
104.8063293119
 31
0.0
  0
LINE
  5
13A
330
40
100
AcDbEntity
  8
0011904
  6
Continuous
 62
     7
100
AcDbLine
 10
190.6379602197
 20
121.8063293119
 30
0.0
 11
189.1379602197
 21
123.3063293119
 31
0.0
  0
LINE
  5
13B
330
40
100
AcDbEntity
  8
0011904
  6
Continuous
 62
     7
100
AcDbLine
 10
172.1379602197
 20
123.3063293119
 30
0.0
 11
170.6379602197
 21
121.8063293119
 31
0.0
  0
LINE
  5
13C
330
40
100
AcDbEntity
  8
0011904
  6
HIDDEN2
 62
     7
100
AcDbLine
 10
175.1379602197
 20
112.3063293119
 30
0.0
 11
180.6379602197
 21
109.0015959073
 31
0.0
  0
LINE
  5
13D
330
40
100
AcDbEntity
  8
0011904
  6
HIDDEN2
 62
     7
100
AcDbLine
 10
180.6379602197
 20
109.0015959073
 30
0.0
 11
186.1379602197
 21
112.3063293119
 31
0.0
  0
LINE
  5
13E
330
40
100
AcDbEntity
  8
0011904
  6
Continuous
 62
     7
100
AcDbLine
 10
189.4109602197
 20
123.0333293119
 30
0.0
 11
189.4109602197
 21
103.5793293119
 31
0.0
  0
LINE
  5
13F
330
40
100
AcDbEntity
  8
0011904
  6
Continuous
 62
     7
100
AcDbLine
 10
171.8649602197
 20
123.0333293119
 30
0.0
 11
171.8649602197
 21
103.5793293119
 31
0.0
  0
ENDBLK
  5
141
330
40
100
AcDbEntity
  8
0
100
AcDbBlockEnd
  0
BLOCK
  5
144
330
143
100
AcDbEntity
  8
0
100
AcDbBlockBegin
  2
_OBLIQUE
 70
     0
 10
0.0
 20
0.0
 30
0.0
  3
_OBLIQUE
  1

  0
LINE
  5
146
330
143
100
AcDbEntity
  8
0
  6
ByBlock
 62
     0
370
    -2
100
AcDbLine
 10
-0.5
 20
-0.5
 30
0.0
 11
0.5
 21
0.5
 31
0.0
  0
ENDBLK
  5
145
330
143
100
AcDbEntity
  8
0
100
AcDbBlockEnd
  0
BLOCK
  5
148
330
147
100
AcDbEntity
  8
0
100
AcDbBlockBegin
  2
_DOT
 70
     0
 10
0.0
 20
0.0
 30
0.0
  3
_DOT
  1

  0
POLYLINE
  5
14A
330
147
100
AcDbEntity
  8
0
  6
ByBlock
 62
     0
100
AcDb2dPolyline
 66
     1
 10
0.0
 20
0.0
 30
0.0
 70
     1
 40
0.5
 41
0.5
  0
VERTEX
  5
14C
330
14A
100
AcDbEntity
  8
0
  6
ByBlock
 62
     0
100
AcDbVertex
100
AcDb2dVertex
 10
-0.25
 20
0.0
 30
0.0
 42
1.0
  0
VERTEX
  5
14D
330
14A
100
AcDbEntity
  8
0
  6
ByBlock
 62
     0
100
AcDbVertex
100
AcDb2dVertex
 10
0.25
 20
0.0
 30
0.0
 42
1.0
  0
SEQEND
  5
14E
330
14A
100
AcDbEntity
  8
0
  6
ByBlock
 62
     0
  0
LINE
  5
14B
330
147
100
AcDbEntity
  8
0
  6
ByBlock
 62
     0
370
    -2
100
AcDbLine
 10
-0.5
 20
0.0
 30
0.0
 11
-1.0
 21
0.0
 31
0.0
  0
ENDBLK
  5
149
330
147
100
AcDbEntity
  8
0
100
AcDbBlockEnd
  0
BLOCK
  5
152
330
14F
100
AcDbEntity
  8
0
100
AcDbBlockBegin
  2
_SE_FILLED
 70
     0
 10
0.0
 20
0.0
 30
0.0
  3
_SE_FILLED
  1

  0
SOLID
  5
150
330
14F
100
AcDbEntity
  8
0
 62
     0
100
AcDbTrace
 10
0.0
 20
0.0
 30
0.0
 11
-1.0
 21
-0.1665
 31
0.0
 12
-1.0
 22
0.1665
 32
0.0
 13
0.0
 23
0.0
 33
0.0
  0
LINE
  5
151
330
14F
100
AcDbEntity
  8
0
 62
     0
100
AcDbLine
 10
0.0
 20
0.0
 30
0.0
 11
-1.0
 21
0.0
 31
0.0
  0
ENDBLK
  5
153
330
14F
100
AcDbEntity
  8
0
100
AcDbBlockEnd
  0
BLOCK
  5
15E
330
157
100
AcDbEntity
  8
0
100
AcDbBlockBegin
  2
DMBLK133
 70
     0
 10
0.0
 20
0.0
 30
0.0
  3
DMBLK133
  1

  0
HATCH
  5
158
330
157
100
AcDbEntity
  8
Default
  6
Continuous
 62
     7
100
AcDbHatch
 10
0.0
 20
0.0
 30
0.0
210
0.0
220
0.0
230
1.0
  2
SOLID
 70
     1
 71
     0
 91
        1
 92
        1
 93
        3
 72
     1
 10
200.6379601116321
 20
148.8796656053627
 11
200.6379601116321
 21
147.7129989026849
 72
     1
 10
200.6379601116321
 20
147.7129989026849
 11
204.1379602196655
 21
148.2963322540238
 72
     1
 10
204.1379602196655
 20
148.2963322540238
 11
200.6379601116321
 21
148.8796656053627
 97
        0
 75
     0
 76
     1
 98
        0
  0
HATCH
  5
159
330
157
100
AcDbEntity
  8
Default
  6
Continuous
 62
     7
100
AcDbHatch
 10
0.0
 20
0.0
 30
0.0
210
0.0
220
0.0
230
1.0
  2
SOLID
 70
     1
 71
     0
 91
        1
 92
        1
 93
        3
 72
     1
 10
156.1379602680943
 20
148.8796656053627
 11
152.6379601600609
 21
148.2963322540238
 72
     1
 10
152.6379601600609
 20
148.2963322540238
 11
156.1379602680943
 21
147.7129989026849
 72
     1
 10
156.1379602680943
 20
147.7129989026849
 11
156.1379602680943
 21
148.8796656053627
 97
        0
 75
     0
 76
     1
 98
        0
  0
LINE
  5
15A
330
157
100
AcDbEntity
  8
Default
  6
Continuous
 62
     7
100
AcDbLine
 10
204.1379602197
 20
72.5063293119
 30
0.0
 11
204.1379602197
 21
150.046332308
 31
0.0
  0
LINE
  5
15B
330
157
100
AcDbEntity
  8
Default
  6
Continuous
 62
     7
100
AcDbLine
 10
152.6379602197
 20
121.8063293119
 30
0.0
 11
152.6379602197
 21
150.046332308
 31
0.0
  0
LINE
  5
15C
330
157
100
AcDbEntity
  8
Default
  6
Continuous
 62
     7
100
AcDbLine
 10
204.1379602197
 20
148.296332254
 30
0.0
 11
152.6379601601
 21
148.296332254
 31
0.0
  0
TEXT
  5
15D
330
157
100
AcDbEntity
  8
Default
  6
Continuous
 62
     7
100
AcDbText
 10
175.3652329171
 20
149.171332254
 30
0.0
 40
3.5
  1
51,5
  7
SEACAD_Solid_Edge_ISO
 11
175.3652329171
 21
152.671332254
 31
0.0
100
AcDbText
 73
     3
  0
ENDBLK
  5
15F
330
157
100
AcDbEntity
  8
0
100
AcDbBlockEnd
  0
BLOCK
  5
168
330
161
100
AcDbEntity
  8
0
100
AcDbBlockBegin
  2
DMBLK134
 70
     0
 10
0.0
 20
0.0
 30
0.0
  3
DMBLK134
  1

  0
HATCH
  5
162
330
161
100
AcDbEntity
  8
Default
  6
Continuous
 62
     7
100
AcDbHatch
 10
0.0
 20
0.0
 30
0.0
210
0.0
220
0.0
230
1.0
  2
SOLID
 70
     1
 71
     0
 91
        1
 92
        1
 93
        3
 72
     1
 10
200.6379601116321
 20
165.6796668689811
 11
200.6379601116321
 21
164.5130001663034
 72
     1
 10
200.6379601116321
 20
164.5130001663034
 11
204.1379602196655
 21
165.0963335176423
 72
     1
 10
204.1379602196655
 20
165.0963335176423
 11
200.6379601116321
 21
165.6796668689811
 97
        0
 75
     0
 76
     1
 98
        0
  0
HATCH
  5
163
330
161
100
AcDbEntity
  8
Default
  6
Continuous
 62
     7
100
AcDbHatch
 10
0.0
 20
0.0
 30
0.0
210
0.0
220
0.0
230
1.0
  2
SOLID
 70
     1
 71
     0
 91
        1
 92
        1
 93
        3
 72
     1
 10
123.6379614601872
 20
165.6796668689811
 11
120.1379613521538
 21
165.0963335176423
 72
     1
 10
120.1379613521538
 20
165.0963335176423
 11
123.6379614601872
 21
164.5130001663034
 72
     1
 10
123.6379614601872
 20
164.5130001663034
 11
123.6379614601872
 21
165.6796668689811
 97
        0
 75
     0
 76
     1
 98
        0
  0
LINE
  5
164
330
161
100
AcDbEntity
  8
Default
  6
Continuous
 62
     7
100
AcDbLine
 10
204.1379602197
 20
72.5063293119
 30
0.0
 11
204.1379602197
 21
166.8463335717
 31
0.0
  0
LINE
  5
165
330
161
100
AcDbEntity
  8
Default
  6
Continuous
 62
     7
100
AcDbLine
 10
120.1379602197
 20
120.3063293119
 30
0.0
 11
120.1379602197
 21
166.8463335717
 31
0.0
  0
LINE
  5
166
330
161
100
AcDbEntity
  8
Default
  6
Continuous
 62
     7
100
AcDbLine
 10
204.1379602197
 20
165.0963335176
 30
0.0
 11
120.1379613522
 21
165.0963335176
 31
0.0
  0
TEXT
  5
167
330
161
100
AcDbEntity
  8
Default
  6
Continuous
 62
     7
100
AcDbText
 10
159.9902335132
 20
165.9713335176
 30
0.0
 40
3.5
  1
84
  7
SEACAD_Solid_Edge_ISO
 11
159.9902335132
 21
169.4713335176
 31
0.0
100
AcDbText
 73
     3
  0
ENDBLK
  5
169
330
161
100
AcDbEntity
  8
0
100
AcDbBlockEnd
  0
BLOCK
  5
172
330
16B
100
AcDbEntity
  8
0
100
AcDbBlockBegin
  2
DMBLK135
 70
     0
 10
0.0
 20
0.0
 30
0.0
  3
DMBLK135
  1

  0
HATCH
  5
16C
330
16B
100
AcDbEntity
  8
Default
  6
Continuous
 62
     7
100
AcDbHatch
 10
0.0
 20
0.0
 30
0.0
210
0.0
220
0.0
230
1.0
  2
SOLID
 70
     1
 71
     0
 91
        1
 92
        1
 93
        3
 72
     1
 10
200.6379601116321
 20
174.0796675007904
 11
200.6379601116321
 21
172.9130007981126
 72
     1
 10
200.6379601116321
 20
172.9130007981126
 11
204.1379602196655
 21
173.4963341494515
 72
     1
 10
204.1379602196655
 20
173.4963341494515
 11
200.6379601116321
 21
174.0796675007904
 97
        0
 75
     0
 76
     1
 98
        0
  0
HATCH
  5
16D
330
16B
100
AcDbEntity
  8
Default
  6
Continuous
 62
     7
100
AcDbHatch
 10
0.0
 20
0.0
 30
0.0
210
0.0
220
0.0
230
1.0
  2
SOLID
 70
     1
 71
     0
 91
        1
 92
        1
 93
        3
 72
     1
 10
65.63795567853667
 20
174.0796675007904
 11
62.13795557050325
 21
173.4963341494515
 72
     1
 10
62.13795557050325
 20
173.4963341494515
 11
65.63795567853667
 21
172.9130007981126
 72
     1
 10
65.63795567853667
 20
172.9130007981126
 11
65.63795567853667
 21
174.0796675007904
 97
        0
 75
     0
 76
     1
 98
        0
  0
LINE
  5
16E
330
16B
100
AcDbEntity
  8
Default
  6
Continuous
 62
     7
100
AcDbLine
 10
204.1379602197
 20
72.5063293119
 30
0.0
 11
204.1379602197
 21
175.2463342035
 31
0.0
  0
LINE
  5
16F
330
16B
100
AcDbEntity
  8
Default
  6
Continuous
 62
     7
100
AcDbLine
 10
62.1379602197
 20
107.5063293119
 30
0.0
 11
62.1379602197
 21
175.2463342035
 31
0.0
  0
LINE
  5
170
330
16B
100
AcDbEntity
  8
Default
  6
Continuous
 62
     7
100
AcDbLine
 10
204.1379602197
 20
173.4963341495
 30
0.0
 11
62.1379555705
 21
173.4963341495
 31
0.0
  0
TEXT
  5
171
330
16B
100
AcDbEntity
  8
Default
  6
Continuous
 62
     7
100
AcDbText
 10
130.3140942587
 20
174.3713341495
 30
0.0
 40
3.5
  1
142
  7
SEACAD_Solid_Edge_ISO
 11
130.3140942587
 21
177.8713341495
 31
0.0
100
AcDbText
 73
     3
  0
ENDBLK
  5
173
330
16B
100
AcDbEntity
  8
0
100
AcDbBlockEnd
  0
BLOCK
  5
17C
330
175
100
AcDbEntity
  8
0
100
AcDbBlockBegin
  2
DMBLK136
 70
     0
 10
0.0
 20
0.0
 30
0.0
  3
DMBLK136
  1

  0
HATCH
  5
176
330
175
100
AcDbEntity
  8
Default
  6
Continuous
 62
     7
100
AcDbHatch
 10
0.0
 20
0.0
 30
0.0
210
0.0
220
0.0
230
1.0
  2
SOLID
 70
     1
 71
     0
 91
        1
 92
        1
 93
        3
 72
     1
 10
97.63796032769895
 20
44.10517678547545
 11
97.63796032769895
 21
45.27184348815325
 72
     1
 10
97.63796032769895
 20
45.27184348815325
 11
94.13796021966553
 21
44.68851013681435
 72
     1
 10
94.13796021966553
 20
44.68851013681435
 11
97.63796032769895
 21
44.10517678547545
 97
        0
 75
     0
 76
     1
 98
        0
  0
HATCH
  5
177
330
175
100
AcDbEntity
  8
Default
  6
Continuous
 62
     7
100
AcDbHatch
 10
0.0
 20
0.0
 30
0.0
210
0.0
220
0.0
230
1.0
  2
SOLID
 70
     1
 71
     0
 91
        1
 92
        1
 93
        3
 72
     1
 10
200.6379595155857
 20
44.10517678547545
 11
204.1379596236191
 21
44.68851013681435
 72
     1
 10
204.1379596236191
 20
44.68851013681435
 11
200.6379595155857
 21
45.27184348815325
 72
     1
 10
200.6379595155857
 20
45.27184348815325
 11
200.6379595155857
 21
44.10517678547545
 97
        0
 75
     0
 76
     1
 98
        0
  0
LINE
  5
178
330
175
100
AcDbEntity
  8
Default
  6
Continuous
 62
     7
100
AcDbLine
 10
94.1379602197
 20
58.3063293119
 30
0.0
 11
94.1379602197
 21
42.9385100828
 31
0.0
  0
LINE
  5
179
330
175
100
AcDbEntity
  8
Default
  6
Continuous
 62
     7
100
AcDbLine
 10
204.1379602197
 20
72.5063293119
 30
0.0
 11
204.1379602197
 21
42.9385100828
 31
0.0
  0
LINE
  5
17A
330
175
100
AcDbEntity
  8
Default
  6
Continuous
 62
     7
100
AcDbLine
 10
94.1379602197
 20
44.6885101368
 30
0.0
 11
204.1379596236
 21
44.6885101368
 31
0.0
  0
TEXT
  5
17B
330
175
100
AcDbEntity
  8
Default
  6
Continuous
 62
     7
100
AcDbText
 10
146.6720508307
 20
45.5635101368
 30
0.0
 40
3.5
  1
110
  7
SEACAD_Solid_Edge_ISO
 11
146.6720508307
 21
49.0635101368
 31
0.0
100
AcDbText
 73
     3
  0
ENDBLK
  5
17D
330
175
100
AcDbEntity
  8
0
100
AcDbBlockEnd
  0
BLOCK
  5
187
330
17E
100
AcDbEntity
  8
0
100
AcDbBlockBegin
  2
GDimGGroup
 70
     0
 10
0.0
 20
0.0
 30
0.0
  3
GDimGGroup
  1

  0
HATCH
  5
180
330
17E
100
AcDbEntity
  8
Default
  6
Continuous
 62
     7
100
AcDbHatch
 10
0.0
 20
0.0
 30
0.0
210
0.0
220
0.0
230
1.0
  2
SOLID
 70
     1
 71
     0
 91
        1
 92
        1
 93
        3
 72
     1
 10
189.8235380259269
 20
64.55900322161501
 11
189.9622185667018
 21
61.01343609312505
 72
     1
 10
189.9622185667018
 20
61.01343609312506
 11
190.9809479346683
 21
64.41232841708312
 72
     1
 10
190.9809479346683
 20
64.41232841708312
 11
189.8235380259269
 21
64.55900322161501
 97
        0
 75
     0
 76
     1
 98
        0
  0
HATCH
  5
181
330
17E
100
AcDbEntity
  8
Default
  6
Continuous
 62
     7
100
AcDbHatch
 10
0.0
 20
0.0
 30
0.0
210
0.0
220
0.0
230
1.0
  2
SOLID
 70
     1
 71
     0
 91
        1
 92
        1
 93
        3
 72
     1
 10
197.152140985956
 20
49.51375045664169
 11
194.0284107308794
 21
51.19677982315241
 72
     1
 10
194.0284107308794
 20
51.1967798231524
 11
196.4374433397862
 21
48.59162331264446
 72
     1
 10
196.4374433397862
 20
48.59162331264446
 11
197.152140985956
 21
49.51375045664168
 97
        0
 75
     0
 76
     1
 98
        0
  0
LINE
  5
182
330
17E
100
AcDbEntity
  8
Default
  6
Continuous
 62
     7
100
AcDbLine
 10
203.8450670009
 20
61.0134360931
 30
0.0
 11
188.2122178142
 21
61.0134360931
 31
0.0
  0
LINE
  5
183
330
17E
100
AcDbEntity
  8
Default
  6
Continuous
 62
     7
100
AcDbLine
 10
196.201560192
 20
53.3699292843
 30
0.0
 11
192.7909733317
 21
49.959342424
 31
0.0
  0
ARC
  5
184
330
17E
100
AcDbEntity
  8
Default
  6
Continuous
 62
     7
100
AcDbCircle
 10
203.8450670009
 20
61.0134360931
 30
0.0
 40
13.88284843415022
100
AcDbArc
 50
129.0958500405
 51
225.0000012522
  0
ARC
  5
185
330
17E
100
AcDbEntity
  8
Default
  6
Continuous
 62
     7
100
AcDbCircle
 10
203.8450670009
 20
61.0134360931
 30
0.0
 40
13.88284843414989
100
AcDbArc
 50
225.0
 51
253.889637472
  0
TEXT
  5
186
330
17E
100
AcDbEntity
  8
Default
  6
Continuous
 62
     7
100
AcDbText
 10
190.2757913537
 20
67.4321689199
 30
0.0
 40
3.5
  1
45°
 50
54.1500445939
  7
SEACAD_Solid_Edge_ISO
 11
187.4388541241
 21
69.4819950479
 31
0.0
100
AcDbText
 73
     3
  0
ENDBLK
  5
188
330
17E
100
AcDbEntity
  8
0
100
AcDbBlockEnd
  0
BLOCK
  5
193
330
189
100
AcDbEntity
  8
0
100
AcDbBlockBegin
  2
GDimGGroup1
 70
     0
 10
0.0
 20
0.0
 30
0.0
  3
GDimGGroup1
  1

  0
HATCH
  5
18B
330
189
100
AcDbEntity
  8
Default
  6
Continuous
 62
     7
100
AcDbHatch
 10
0.0
 20
0.0
 30
0.0
210
0.0
220
0.0
230
1.0
  2
SOLID
 70
     1
 71
     0
 91
        1
 92
        1
 93
        3
 72
     1
 10
227.5218378478379
 20
113.8063292039051
 11
226.938504496499
 21
117.3063293119385
 72
     1
 10
226.938504496499
 20
117.3063293119385
 11
226.3551711451601
 21
113.8063292039051
 72
     1
 10
226.3551711451601
 20
113.8063292039051
 11
227.5218378478379
 21
113.8063292039051
 97
        0
 75
     0
 76
     1
 98
        0
  0
HATCH
  5
18C
330
189
100
AcDbEntity
  8
Default
  6
Continuous
 62
     7
100
AcDbHatch
 10
0.0
 20
0.0
 30
0.0
210
0.0
220
0.0
230
1.0
  2
SOLID
 70
     1
 71
     0
 91
        1
 92
        1
 93
        3
 72
     1
 10
227.5218378478379
 20
64.80632769143725
 11
226.3551711451601
 21
64.80632769143725
 72
     1
 10
226.3551711451601
 20
64.80632769143725
 11
226.938504496499
 21
61.30632758340383
 72
     1
 10
226.938504496499
 20
61.30632758340384
 11
227.5218378478379
 21
64.80632769143726
 97
        0
 75
     0
 76
     1
 98
        0
  0
LINE
  5
18D
330
189
100
AcDbEntity
  8
Default
  6
Continuous
 62
     7
100
AcDbLine
 10
204.1379602197
 20
117.3063293119
 30
0.0
 11
228.6885045505
 21
117.3063293119
 31
0.0
  0
LINE
  5
18E
330
189
100
AcDbEntity
  8
Default
  6
Continuous
 62
     7
100
AcDbLine
 10
204.1379602197
 20
61.3063293119
 30
0.0
 11
228.6885045505
 21
61.3063293119
 31
0.0
  0
LINE
  5
18F
330
189
100
AcDbEntity
  8
Default
  6
Continuous
 62
     7
100
AcDbLine
 10
226.9385044965
 20
117.3063293119
 30
0.0
 11
226.9385044965
 21
61.3063275834
 31
0.0
  0
TEXT
  5
191
330
189
100
AcDbEntity
  8
Default
  6
Continuous
 62
     7
100
AcDbText
 10
226.0635044965
 20
84.1925325944
 30
0.0
 40
3.5
  1
O
 50
90.0
  7
SEACAD_Solid_Edge_ISO1_Symbols
 11
222.5635044965
 21
84.1925325944
 31
0.0
100
AcDbText
 73
     3
  0
TEXT
  5
192
330
189
100
AcDbEntity
  8
Default
  6
Continuous
 62
     7
100
AcDbText
 10
226.0635044965
 20
90.2837606646
 30
0.0
 40
3.5
  1
56
 50
90.0
  7
SEACAD_Solid_Edge_ISO
 11
222.5635044965
 21
90.2837606646
 31
0.0
100
AcDbText
 73
     3
  0
ENDBLK
  5
194
330
189
100
AcDbEntity
  8
0
100
AcDbBlockEnd
  0
BLOCK
  5
19D
330
195
100
AcDbEntity
  8
0
100
AcDbBlockBegin
  2
GDimGGroup2
 70
     0
 10
0.0
 20
0.0
 30
0.0
  3
GDimGGroup2
  1

  0
HATCH
  5
197
330
195
100
AcDbEntity
  8
Default
  6
Continuous
 62
     7
100
AcDbHatch
 10
0.0
 20
0.0
 30
0.0
210
0.0
220
0.0
230
1.0
  2
SOLID
 70
     1
 71
     0
 91
        1
 92
        1
 93
        3
 72
     1
 10
146.137960327699
 20
131.2302124004925
 11
142.6379602196656
 21
130.6468790491536
 72
     1
 10
142.6379602196656
 20
130.6468790491536
 11
146.137960327699
 21
130.0635456978147
 72
     1
 10
146.137960327699
 20
130.0635456978147
 11
146.137960327699
 21
131.2302124004925
 97
        0
 75
     0
 76
     1
 98
        0
  0
HATCH
  5
198
330
195
100
AcDbEntity
  8
Default
  6
Continuous
 62
     7
100
AcDbHatch
 10
0.0
 20
0.0
 30
0.0
210
0.0
220
0.0
230
1.0
  2
SOLID
 70
     1
 71
     0
 91
        1
 92
        1
 93
        3
 72
     1
 10
159.1379596645973
 20
131.2302124004925
 11
159.1379596645973
 21
130.0635456978147
 72
     1
 10
159.1379596645973
 20
130.0635456978147
 11
162.6379597726307
 21
130.6468790491536
 72
     1
 10
162.6379597726307
 20
130.6468790491536
 11
159.1379596645973
 21
131.2302124004925
 97
        0
 75
     0
 76
     1
 98
        0
  0
LINE
  5
199
330
195
100
AcDbEntity
  8
Default
  6
Continuous
 62
     7
100
AcDbLine
 10
142.6379602197
 20
121.8063293119
 30
0.0
 11
142.6379602197
 21
132.3968791032
 31
0.0
  0
LINE
  5
19A
330
195
100
AcDbEntity
  8
Default
  6
Continuous
 62
     7
100
AcDbLine
 10
162.6379602197
 20
121.8063293119
 30
0.0
 11
162.6379602197
 21
132.3968791032
 31
0.0
  0
LINE
  5
19B
330
195
100
AcDbEntity
  8
Default
  6
Continuous
 62
     7
100
AcDbLine
 10
142.6379602197
 20
130.6468790492
 30
0.0
 11
162.6379597726
 21
130.6468790492
 31
0.0
  0
TEXT
  5
19C
330
195
100
AcDbEntity
  8
Default
  6
Continuous
 62
     7
100
AcDbText
 10
145.2720509052
 20
131.5218790492
 30
0.0
 40
3.5
  1
M20 x 2
  7
SEACAD_Solid_Edge_ISO
 11
145.2720509052
 21
135.0218790492
 31
0.0
100
AcDbText
 73
     3
  0
ENDBLK
  5
19E
330
195
100
AcDbEntity
  8
0
100
AcDbBlockEnd
  0
BLOCK
  5
1A7
330
1A0
100
AcDbEntity
  8
0
100
AcDbBlockBegin
  2
DMBLK137
 70
     0
 10
0.0
 20
0.0
 30
0.0
  3
DMBLK137
  1

  0
HATCH
  5
1A1
330
1A0
100
AcDbEntity
  8
Default
  6
Continuous
 62
     7
100
AcDbHatch
 10
0.0
 20
0.0
 30
0.0
210
0.0
220
0.0
230
1.0
  2
SOLID
 70
     1
 71
     0
 91
        1
 92
        1
 93
        3
 72
     1
 10
200.6379601116321
 20
140.4796649735534
 11
200.6379601116321
 21
139.3129982708757
 72
     1
 10
200.6379601116321
 20
139.3129982708757
 11
204.1379602196655
 21
139.8963316222145
 72
     1
 10
204.1379602196655
 20
139.8963316222145
 11
200.6379601116321
 21
140.4796649735534
 97
        0
 75
     0
 76
     1
 98
        0
  0
HATCH
  5
1A2
330
1A0
100
AcDbEntity
  8
Default
  6
Continuous
 62
     7
100
AcDbHatch
 10
0.0
 20
0.0
 30
0.0
210
0.0
220
0.0
230
1.0
  2
SOLID
 70
     1
 71
     0
 91
        1
 92
        1
 93
        3
 72
     1
 10
184.1379611323617
 20
140.4796649735534
 11
180.6379610243282
 21
139.8963316222145
 72
     1
 10
180.6379610243282
 20
139.8963316222145
 11
184.1379611323617
 21
139.3129982708757
 72
     1
 10
184.1379611323617
 20
139.3129982708757
 11
184.1379611323617
 21
140.4796649735534
 97
        0
 75
     0
 76
     1
 98
        0
  0
LINE
  5
1A3
330
1A0
100
AcDbEntity
  8
Default
  6
Continuous
 62
     7
100
AcDbLine
 10
204.1379602197
 20
72.5063293119
 30
0.0
 11
204.1379602197
 21
141.6463316762
 31
0.0
  0
LINE
  5
1A4
330
1A0
100
AcDbEntity
  8
Default
  6
Continuous
 62
     7
100
AcDbLine
 10
180.6379602197
 20
121.8063293119
 30
0.0
 11
180.6379602197
 21
141.6463316762
 31
0.0
  0
LINE
  5
1A5
330
1A0
100
AcDbEntity
  8
Default
  6
Continuous
 62
     7
100
AcDbLine
 10
204.1379602197
 20
139.8963316222
 30
0.0
 11
180.6379610243
 21
139.8963316222
 31
0.0
  0
TEXT
  5
1A6
330
1A0
100
AcDbEntity
  8
Default
  6
Continuous
 62
     7
100
AcDbText
 10
189.0868242584
 20
140.7713316222
 30
0.0
 40
3.5
  1
23,5
  7
SEACAD_Solid_Edge_ISO
 11
189.0868242584
 21
144.2713316222
 31
0.0
100
AcDbText
 73
     3
  0
ENDBLK
  5
1A8
330
1A0
100
AcDbEntity
  8
0
100
AcDbBlockEnd
  0
BLOCK
  5
1B1
330
1AA
100
AcDbEntity
  8
0
100
AcDbBlockBegin
  2
DMBLK138
 70
     0
 10
0.0
 20
0.0
 30
0.0
  3
DMBLK138
  1

  0
HATCH
  5
1AB
330
1AA
100
AcDbEntity
  8
Default
  6
Continuous
 62
     7
100
AcDbHatch
 10
0.0
 20
0.0
 30
0.0
210
0.0
220
0.0
230
1.0
  2
SOLID
 70
     1
 71
     0
 91
        1
 92
        1
 93
        3
 72
     1
 10
200.6379601116321
 20
157.2796662371719
 11
200.6379601116321
 21
156.1129995344941
 72
     1
 10
200.6379601116321
 20
156.1129995344941
 11
204.1379602196655
 21
156.696332885833
 72
     1
 10
204.1379602196655
 20
156.696332885833
 11
200.6379601116321
 21
157.2796662371719
 97
        0
 75
     0
 76
     1
 98
        0
  0
HATCH
  5
1AC
330
1AA
100
AcDbEntity
  8
Default
  6
Continuous
 62
     7
100
AcDbHatch
 10
0.0
 20
0.0
 30
0.0
210
0.0
220
0.0
230
1.0
  2
SOLID
 70
     1
 71
     0
 91
        1
 92
        1
 93
        3
 72
     1
 10
139.637956632211
 20
157.2796662371719
 11
136.1379565241776
 21
156.696332885833
 72
     1
 10
136.1379565241776
 20
156.696332885833
 11
139.637956632211
 21
156.1129995344941
 72
     1
 10
139.637956632211
 20
156.1129995344941
 11
139.637956632211
 21
157.2796662371719
 97
        0
 75
     0
 76
     1
 98
        0
  0
LINE
  5
1AD
330
1AA
100
AcDbEntity
  8
Default
  6
Continuous
 62
     7
100
AcDbLine
 10
204.1379602197
 20
72.5063293119
 30
0.0
 11
204.1379602197
 21
158.4463329398
 31
0.0
  0
LINE
  5
1AE
330
1AA
100
AcDbEntity
  8
Default
  6
Continuous
 62
     7
100
AcDbLine
 10
136.1379602197
 20
114.3063293119
 30
0.0
 11
136.1379602197
 21
158.4463329398
 31
0.0
  0
LINE
  5
1AF
330
1AA
100
AcDbEntity
  8
Default
  6
Continuous
 62
     7
100
AcDbLine
 10
204.1379602197
 20
156.6963328858
 30
0.0
 11
136.1379565242
 21
156.6963328858
 31
0.0
  0
TEXT
  5
1B0
330
1AA
100
AcDbEntity
  8
Default
  6
Continuous
 62
     7
100
AcDbText
 10
167.9504583719
 20
157.5713328858
 30
0.0
 40
3.5
  1
68
  7
SEACAD_Solid_Edge_ISO
 11
167.9504583719
 21
161.0713328858
 31
0.0
100
AcDbText
 73
     3
  0
ENDBLK
  5
1B2
330
1AA
100
AcDbEntity
  8
0
100
AcDbBlockEnd
  0
BLOCK
  5
1BB
330
1B3
100
AcDbEntity
  8
0
100
AcDbBlockBegin
  2
GDimGGroup3
 70
     0
 10
0.0
 20
0.0
 30
0.0
  3
GDimGGroup3
  1

  0
HATCH
  5
1B5
330
1B3
100
AcDbEntity
  8
Default
  6
Continuous
 62
     7
100
AcDbHatch
 10
0.0
 20
0.0
 30
0.0
210
0.0
220
0.0
230
1.0
  2
SOLID
 70
     1
 71
     0
 91
        1
 92
        1
 93
        3
 72
     1
 10
174.1379603276989
 20
131.1612982552612
 11
170.6379602196655
 21
130.5779649039223
 72
     1
 10
170.6379602196655
 20
130.5779649039223
 11
174.1379603276989
 21
129.9946315525834
 72
     1
 10
174.1379603276989
 20
129.9946315525834
 11
174.1379603276989
 21
131.1612982552612
 97
        0
 75
     0
 76
     1
 98
        0
  0
HATCH
  5
1B6
330
1B3
100
AcDbEntity
  8
Default
  6
Continuous
 62
     7
100
AcDbHatch
 10
0.0
 20
0.0
 30
0.0
210
0.0
220
0.0
230
1.0
  2
SOLID
 70
     1
 71
     0
 91
        1
 92
        1
 93
        3
 72
     1
 10
187.1379596645973
 20
131.1612982552612
 11
187.1379596645973
 21
129.9946315525834
 72
     1
 10
187.1379596645973
 20
129.9946315525834
 11
190.6379597726307
 21
130.5779649039223
 72
     1
 10
190.6379597726307
 20
130.5779649039223
 11
187.1379596645973
 21
131.1612982552612
 97
        0
 75
     0
 76
     1
 98
        0
  0
LINE
  5
1B7
330
1B3
100
AcDbEntity
  8
Default
  6
Continuous
 62
     7
100
AcDbLine
 10
170.6379602197
 20
121.8063293119
 30
0.0
 11
170.6379602197
 21
132.3279649579
 31
0.0
  0
LINE
  5
1B8
330
1B3
100
AcDbEntity
  8
Default
  6
Continuous
 62
     7
100
AcDbLine
 10
190.6379602197
 20
121.8063293119
 30
0.0
 11
190.6379602197
 21
132.3279649579
 31
0.0
  0
LINE
  5
1B9
330
1B3
100
AcDbEntity
  8
Default
  6
Continuous
 62
     7
100
AcDbLine
 10
170.6379602197
 20
130.5779649039
 30
0.0
 11
190.6379597726
 21
130.5779649039
 31
0.0
  0
TEXT
  5
1BA
330
1B3
100
AcDbEntity
  8
Default
  6
Continuous
 62
     7
100
AcDbText
 10
173.2720509052
 20
131.4529649039
 30
0.0
 40
3.5
  1
M20 x 2
  7
SEACAD_Solid_Edge_ISO
 11
173.2720509052
 21
134.9529649039
 31
0.0
100
AcDbText
 73
     3
  0
ENDBLK
  5
1BC
330
1B3
100
AcDbEntity
  8
0
100
AcDbBlockEnd
  0
BLOCK
  5
1C4
330
1BD
100
AcDbEntity
  8
0
100
AcDbBlockBegin
  2
GDimGGroup4
 70
     0
 10
0.0
 20
0.0
 30
0.0
  3
GDimGGroup4
  1

  0
HATCH
  5
1BF
330
1BD
100
AcDbEntity
  8
Default
  6
Continuous
 62
     7
100
AcDbHatch
 10
0.0
 20
0.0
 30
0.0
210
0.0
220
0.0
230
1.0
  2
SOLID
 70
     1
 71
     0
 91
        1
 92
        1
 93
        3
 72
     1
 10
219.121837719688
 20
101.8063292039051
 11
218.5385043683491
 21
105.3063293119385
 72
     1
 10
218.5385043683491
 20
105.3063293119385
 11
217.9551710170102
 21
101.8063292039051
 72
     1
 10
217.9551710170102
 20
101.8063292039051
 11
219.121837719688
 21
101.8063292039051
 97
        0
 75
     0
 76
     1
 98
        0
  0
LINE
  5
1C0
330
1BD
100
AcDbEntity
  8
Default
  6
Continuous
 62
     7
100
AcDbLine
 10
203.3379602197
 20
105.3063293119
 30
0.0
 11
220.2885044224
 21
105.3063293119
 31
0.0
  0
LINE
  5
1C1
330
1BD
100
AcDbEntity
  8
Default
  6
Continuous
 62
     7
100
AcDbLine
 10
218.5385043683
 20
105.3063293119
 30
0.0
 11
218.5385043683
 21
89.306328552
 31
0.0
  0
TEXT
  5
1C2
330
1BD
100
AcDbEntity
  8
Default
  6
Continuous
 62
     7
100
AcDbText
 10
217.6635043683
 20
84.2720781533
 30
0.0
 40
3.5
  1
O
 50
90.0
  7
SEACAD_Solid_Edge_ISO1_Symbols
 11
214.1635043683
 21
84.2720781533
 31
0.0
100
AcDbText
 73
     3
  0
TEXT
  5
1C3
330
1BD
100
AcDbEntity
  8
Default
  6
Continuous
 62
     7
100
AcDbText
 10
217.6635043683
 20
90.3633062234
 30
0.0
 40
3.5
  1
32
 50
90.0
  7
SEACAD_Solid_Edge_ISO
 11
214.1635043683
 21
90.3633062234
 31
0.0
100
AcDbText
 73
     3
  0
ENDBLK
  5
1C5
330
1BD
100
AcDbEntity
  8
0
100
AcDbBlockEnd
  0
BLOCK
  5
1CF
330
1C6
100
AcDbEntity
  8
0
100
AcDbBlockBegin
  2
GDimGGroup5
 70
     0
 10
0.0
 20
0.0
 30
0.0
  3
GDimGGroup5
  1

  0
HATCH
  5
1C8
330
1C6
100
AcDbEntity
  8
Default
  6
Continuous
 62
     7
100
AcDbHatch
 10
0.0
 20
0.0
 30
0.0
210
0.0
220
0.0
230
1.0
  2
SOLID
 70
     1
 71
     0
 91
        1
 92
        1
 93
        3
 72
     1
 10
235.921836366482
 20
121.5563292039051
 11
235.3385030151431
 21
125.0563293119385
 72
     1
 10
235.3385030151431
 20
125.0563293119385
 11
234.7551696638043
 21
121.5563292039051
 72
     1
 10
234.7551696638043
 20
121.5563292039051
 11
235.921836366482
 21
121.5563292039051
 97
        0
 75
     0
 76
     1
 98
        0
  0
HATCH
  5
1C9
330
1C6
100
AcDbEntity
  8
Default
  6
Continuous
 62
     7
100
AcDbHatch
 10
0.0
 20
0.0
 30
0.0
210
0.0
220
0.0
230
1.0
  2
SOLID
 70
     1
 71
     0
 91
        1
 92
        1
 93
        3
 72
     1
 10
235.921836366482
 20
57.05632608211184
 11
234.7551696638043
 21
57.05632608211184
 72
     1
 10
234.7551696638043
 20
57.05632608211184
 11
235.3385030151431
 21
53.55632597407842
 72
     1
 10
235.3385030151431
 20
53.55632597407842
 11
235.921836366482
 21
57.05632608211184
 97
        0
 75
     0
 76
     1
 98
        0
  0
LINE
  5
1CA
330
1C6
100
AcDbEntity
  8
Default
  6
Continuous
 62
     7
100
AcDbLine
 10
194.3058534385
 20
125.0563293119
 30
0.0
 11
237.0885030692
 21
125.0563293119
 31
0.0
  0
LINE
  5
1CB
330
1C6
100
AcDbEntity
  8
Default
  6
Continuous
 62
     7
100
AcDbLine
 10
194.3058534385
 20
53.5563293119
 30
0.0
 11
237.0885030692
 21
53.5563293119
 31
0.0
  0
LINE
  5
1CC
330
1C6
100
AcDbEntity
  8
Default
  6
Continuous
 62
     7
100
AcDbLine
 10
235.3385030151
 20
125.0563293119
 30
0.0
 11
235.3385030151
 21
53.5563259741
 31
0.0
  0
TEXT
  5
1CD
330
1C6
100
AcDbEntity
  8
Default
  6
Continuous
 62
     7
100
AcDbText
 10
234.4635030151
 20
83.1186681534
 30
0.0
 40
3.5
  1
O
 50
90.0
  7
SEACAD_Solid_Edge_ISO1_Symbols
 11
230.9635030151
 21
83.1186681534
 31
0.0
100
AcDbText
 73
     3
  0
TEXT
  5
1CE
330
1C6
100
AcDbEntity
  8
Default
  6
Continuous
 62
     7
100
AcDbText
 10
234.4635030151
 20
89.2098962236
 30
0.0
 40
3.5
  1
71,5
 50
90.0
  7
SEACAD_Solid_Edge_ISO
 11
230.9635030151
 21
89.2098962236
 31
0.0
100
AcDbText
 73
     3
  0
ENDBLK
  5
1D0
330
1C6
100
AcDbEntity
  8
0
100
AcDbBlockEnd
  0
BLOCK
  5
1D4
330
1D1
100
AcDbEntity
  8
0
100
AcDbBlockBegin
  2
SEANNOT_GROUP
 70
     0
 10
0.0
 20
0.0
 30
0.0
  3
SEANNOT_GROUP
  1

  0
TEXT
  5
1D3
330
1D1
100
AcDbEntity
  8
Default
  6
Continuous
 62
     7
100
AcDbText
 10
243.1483969886
 20
25.7525109624
 30
0.0
 40
3.5
  1
256333260
  7
SEACAD_Solid_Edge_ANSIB
 11
243.1483969886
 21
29.2525109624
 31
0.0
100
AcDbText
 73
     3
  0
ENDBLK
  5
1D5
330
1D1
100
AcDbEntity
  8
0
100
AcDbBlockEnd
  0
BLOCK
  5
1D9
330
1D6
100
AcDbEntity
  8
0
100
AcDbBlockBegin
  2
SEANNOT_GROUP1
 70
     0
 10
0.0
 20
0.0
 30
0.0
  3
SEANNOT_GROUP1
  1

  0
TEXT
  5
1D8
330
1D6
100
AcDbEntity
  8
Default
  6
Continuous
 62
     7
100
AcDbText
 10
243.1477357349
 20
20.0537100543
 30
0.0
 40
3.5
  1
21.01.2016
  7
SEACAD_Solid_Edge_ANSI
 11
243.1477357349
 21
23.5537100543
 31
0.0
100
AcDbText
 73
     3
  0
ENDBLK
  5
1DA
330
1D6
100
AcDbEntity
  8
0
100
AcDbBlockEnd
  0
BLOCK
  5
1DD
330
1DB
100
AcDbEntity
  8
0
100
AcDbBlockBegin
  2
SEANNOT_GROUP2
 70
     0
 10
0.0
 20
0.0
 30
0.0
  3
SEANNOT_GROUP2
  1

  0
TEXT
  5
1DC
330
1DB
100
AcDbEntity
  8
Default
  6
Continuous
 62
     7
100
AcDbText
 10
243.1795282745
 20
31.5598894014
 30
0.0
 40
3.5
  1
HSK-A63_WD32x110
 41
0.926
  7
SEACAD_Solid_Edge_ANSIB
 11
243.1795282745
 21
35.0598894014
 31
0.0
100
AcDbText
 73
     3
  0
ENDBLK
  5
1DE
330
1DB
100
AcDbEntity
  8
0
100
AcDbBlockEnd
  0
BLOCK
  5
1E1
330
1DF
100
AcDbEntity
  8
0
100
AcDbBlockBegin
  2
SEANNOT_GROUP3
 70
     0
 10
0.0
 20
0.0
 30
0.0
  3
SEANNOT_GROUP3
  1

  0
TEXT
  5
1E0
330
1DF
100
AcDbEntity
  8
Default
  6
Continuous
 62
     7
100
AcDbText
 10
243.2357917511
 20
14.1955389783
 30
0.0
 40
3.5
  1
1:1
  7
SEACAD_Solid_Edge_ANSI
 11
243.2357917511
 21
17.6955389783
 31
0.0
100
AcDbText
 73
     3
  0
ENDBLK
  5
1E2
330
1DF
100
AcDbEntity
  8
0
100
AcDbBlockEnd
  0
BLOCK
  5
230
330
1E3
100
AcDbEntity
  8
0
100
AcDbBlockBegin
  2
RF-Massblatt_2016
 70
     0
 10
0.0
 20
0.0
 30
0.0
  3
RF-Massblatt_2016
  1

  0
MTEXT
  5
1E4
102
{ACAD_XDICTIONARY
360
23A
102
}
330
1E3
100
AcDbEntity
  8
Default
100
AcDbMText
 10
15.2206856049
 20
34.8070876502
 30
0.0
 40
2.5
 41
48.9706096033
 71
     1
 72
     1
  3
{\fVectora Com 45 Light|b1||i0||c0|p34;\C7;\H2.5;\W1.;REGO-FIX AG\P}{\fVectora Com 45 Light|b0||i0||c0|p34;\C7;\H2.5;\W1.;Obermattweg 60\P}{\fVectora Com 45 Light|b0||i0||c0|p34;\C7;\H2.5;\W1.;4456 Tenniken / Switzerland\P}{\fVectora Com 45 Light|b0
  3
||i0||c0|p34;\C7;\H2.5;\W1.;\P}{\fVectora Com 45 Light|b0||i0||c0|p34;\C7;\H2.5;\W1.;P +41 61 976 14 66\P}{\fVectora Com 45 Light|b0||i0||c0|p34;\C7;\H2.5;\W1.;F +41 61 976 14 14\P}{\fVectora Com 45 Light|b1||i0||c0|p34;\C7;\H2.5;\W1.;www.rego-fix.c
  1
om}
 73
     1
 44
1.0
1001
ACAD
1000
ACAD_MTEXT_DEFINED_HEIGHT_BEGIN
1070
    46
1040
31.3191355437
1000
ACAD_MTEXT_DEFINED_HEIGHT_END
  0
MTEXT
  5
1E5
102
{ACAD_XDICTIONARY
360
23C
102
}
330
1E3
100
AcDbEntity
  8
Default
100
AcDbMText
 10
90.3836341545
 20
34.4892285804
 30
0.0
 40
2.5
 41
104.0282149141
 71
     1
 72
     1
  3
{\fSolid Edge ISO|b0||i0||c0|p34;\C7;\H2.;\W1.;This is a non-controlled copy. All information given herein is subject to change without notice\P}{\fSolid Edge ISO|b0||i0||c0|p34;\C7;\H2.;\W1.;\P}{\fSolid Edge ISO|b0||i0||c0|p34;\C7;\H2.;\W1.;The inf
  3
ormation given herein has been carefully checked and is believed to be correct. REGO-FIX,\P}{\fSolid Edge ISO|b0||i0||c0|p34;\C7;\H2.;\W1.;however, assumes no responsibility or liability for any errors, inaccuracies or omissions that may appear\P}{\
  3
fSolid Edge ISO|b0||i0||c0|p34;\C7;\H2.;\W1.;in this drawing\P}{\fSolid Edge ISO|b0||i0||c0|p34;\C7;\H2.;\W1.;\P}{\fSolid Edge ISO|b0||i0||c0|p34;\C7;\H2.;\W1.;This document is subject to copyright laws. No part of this document may be reproduced or
  3
 transmitted\P}{\fSolid Edge ISO|b0||i0||c0|p34;\C7;\H2.;\W1.;in any form or any means, electronic or mechanic, for any purpose, without the express written permission\P}{\fSolid Edge ISO|b0||i0||c0|p34;\C7;\H2.;\W1.;of REGO-FIX\P}{\fSolid Edge ISO|
  1
b0||i0||c0|p34;\C7;\H1.5;\W1.;\P}
 73
     1
 44
1.0
1001
ACAD
1000
ACAD_MTEXT_DEFINED_HEIGHT_BEGIN
1070
    46
1040
38.4545554545
1000
ACAD_MTEXT_DEFINED_HEIGHT_END
  0
INSERT
  5
1E6
330
1E3
100
AcDbEntity
  8
Default
100
AcDbBlockReference
  2
SEANNOT_GROUP
 10
0.0
 20
0.0
 30
0.0
  0
INSERT
  5
1E7
330
1E3
100
AcDbEntity
  8
Default
100
AcDbBlockReference
  2
SEANNOT_GROUP1
 10
0.0
 20
0.0
 30
0.0
  0
MTEXT
  5
1E8
102
{ACAD_XDICTIONARY
360
23E
102
}
330
1E3
100
AcDbEntity
  8
Default
100
AcDbMText
 10
219.0323311835
 20
34.8066733186
 30
0.0
 40
2.5
 41
20.1335141444
 71
     1
 72
     1
  3
{\fVectora Com 45 Light|b0||i0||c0|p34;\C7;\H3.5;\W1.;Type :\P}{\fVectora Com 45 Light|b0||i0||c0|p34;\C7;\H3.5;\W1.;Part No. :\P}{\fVectora Com 45 Light|b0||i0||c0|p34;\C7;\H3.5;\W1.;Date : \P}{\fVectora Com 45 Light|b0||i0||c0|p34;\C7;\H3.5;\W1.;S
  1
cale :}
 73
     1
 44
1.0
1001
ACAD
1000
ACAD_MTEXT_DEFINED_HEIGHT_BEGIN
1070
    46
1040
23.6666666667
1000
ACAD_MTEXT_DEFINED_HEIGHT_END
  0
INSERT
  5
1E9
330
1E3
100
AcDbEntity
  8
Default
100
AcDbBlockReference
  2
SEANNOT_GROUP2
 10
0.0
 20
0.0
 30
0.0
  0
INSERT
  5
1EA
330
1E3
100
AcDbEntity
  8
Default
100
AcDbBlockReference
  2
SEANNOT_GROUP3
 10
0.0
 20
0.0
 30
0.0
  0
LINE
  5
1EB
330
1E3
100
AcDbEntity
  8
Default
  6
Continuous
 62
     7
100
AcDbLine
 10
269.3420202893
 20
189.711288453
 30
0.0
 11
267.226096305
 21
186.6436606679
 31
0.0
  0
LINE
  5
1EC
330
1E3
100
AcDbEntity
  8
Default
  6
Continuous
 62
     7
100
AcDbLine
 10
267.226096305
 20
186.6436606679
 30
0.0
 11
268.2886782185
 21
185.1144666968
 31
0.0
  0
LINE
  5
1ED
330
1E3
100
AcDbEntity
  8
Default
  6
Continuous
 62
     7
100
AcDbLine
 10
268.2886782185
 20
185.1144666968
 30
0.0
 11
267.2561257939
 21
183.6453317033
 31
0.0
  0
LINE
  5
1EE
330
1E3
100
AcDbEntity
  8
Default
  6
Continuous
 62
     7
100
AcDbLine
 10
267.2561257939
 20
183.6453317033
 30
0.0
 11
266.2235733692
 21
185.2646141411
 31
0.0
  0
LINE
  5
1EF
330
1E3
100
AcDbEntity
  8
Default
  6
Continuous
 62
     7
100
AcDbLine
 10
266.2235733692
 20
185.2646141411
 30
0.0
 11
264.7036192408
 21
183.1186606679
 31
0.0
  0
LINE
  5
1F0
330
1E3
100
AcDbEntity
  8
Default
  6
Continuous
 62
     7
100
AcDbLine
 10
264.7036192408
 20
183.1186606679
 30
0.0
 11
262.6269645881
 21
183.1186606679
 31
0.0
  0
LINE
  5
1F1
330
1E3
100
AcDbEntity
  8
Default
  6
Continuous
 62
     7
100
AcDbLine
 10
262.6269645881
 20
183.1186606679
 30
0.0
 11
265.20950063
 21
186.6436606679
 31
0.0
  0
LINE
  5
1F2
330
1E3
100
AcDbEntity
  8
Default
  6
Continuous
 62
     7
100
AcDbLine
 10
265.20950063
 20
186.6436606679
 30
0.0
 11
263.1051264492
 21
189.711288453
 31
0.0
  0
LINE
  5
1F3
330
1E3
100
AcDbEntity
  8
Default
  6
Continuous
 62
     7
100
AcDbLine
 10
263.1051264492
 20
189.711288453
 30
0.0
 11
265.20950063
 21
189.711288453
 31
0.0
  0
LINE
  5
1F4
330
1E3
100
AcDbEntity
  8
Default
  6
Continuous
 62
     7
100
AcDbLine
 10
265.20950063
 20
189.711288453
 30
0.0
 11
266.2235733692
 21
188.0042275094
 31
0.0
  0
LINE
  5
1F5
330
1E3
100
AcDbEntity
  8
Default
  6
Continuous
 62
     7
100
AcDbLine
 10
266.2235733692
 20
188.0042275094
 30
0.0
 11
267.226096305
 21
189.711288453
 31
0.0
  0
LINE
  5
1F6
330
1E3
100
AcDbEntity
  8
Default
  6
Continuous
 62
     7
100
AcDbLine
 10
267.226096305
 20
189.711288453
 30
0.0
 11
269.3420202893
 21
189.711288453
 31
0.0
  0
SPLINE
  5
1F7
330
1E3
100
AcDbEntity
  8
Default
  6
Continuous
 62
     7
100
AcDbSpline
210
0.0
220
0.0
230
1.0
 70
     8
 71
     3
 72
    13
 73
     9
 74
     0
 42
0.0000000012369638
 43
0.0000000001
 12
1.0
 22
0.0
 32
0.0
 13
1.0
 23
0.0
 33
0.0
 40
0.0
 40
0.0
 40
0.0
 40
0.0
 40
0.9091644120227717
 40
0.9091644120227717
 40
0.9091644120227717
 40
0.9554905618911577
 40
0.9554905618911577
 40
1.0
 40
1.0
 40
1.0
 40
1.0
 10
267.8844350992403
 20
183.5460033940301
 30
0.0
 10
269.2912011542862
 20
185.5418094228636
 30
0.0
 10
270.697967209332
 20
187.5376154516972
 30
0.0
 10
272.1047332643779
 20
189.5334214805307
 30
0.0
 10
272.1870447473536
 20
189.6501983627819
 30
0.0
 10
272.2849101975365
 20
189.7112884530078
 30
0.0
 10
272.5159062656886
 20
189.7112884530078
 30
0.0
 10
272.6198544963569
 20
189.6512294752883
 30
0.0
 10
272.7122529236178
 20
189.5334214805307
 30
0.0
  0
SPLINE
  5
1F8
330
1E3
100
AcDbEntity
  8
Default
  6
Continuous
 62
     7
100
AcDbSpline
210
0.0
220
0.0
230
1.0
 70
     8
 71
     3
 72
    16
 73
    12
 74
     0
 42
0.0000000006014133
 43
0.0000000001
 12
1.0
 22
0.0
 32
0.0
 13
1.0
 23
0.0
 33
0.0
 40
0.0
 40
0.0
 40
0.0
 40
0.0
 40
0.4418652593848311
 40
0.4418652593848311
 40
0.4418652593848311
 40
0.455090010411123
 40
0.455090010411123
 40
0.4811129075918901
 40
0.4811129075918901
 40
0.4811129075918901
 40
1.0
 40
1.0
 40
1.0
 40
1.0
 10
272.7122529236178
 20
189.5334214805307
 30
0.0
 10
274.1190189786636
 20
187.5376154516972
 30
0.0
 10
275.5257850337095
 20
185.5418094228636
 30
0.0
 10
276.9325510887554
 20
183.5460033940301
 30
0.0
 10
276.9849943017649
 20
183.4716012002038
 30
0.0
 10
277.0133997126086
 20
183.4004758710943
 30
0.0
 10
277.0133997126086
 20
183.1879594883945
 30
0.0
 10
276.9140714033032
 20
183.1186606679488
 30
0.0
 10
276.7154147846925
 20
183.1186606679488
 30
0.0
 10
273.8479835920319
 20
183.1186606679488
 30
0.0
 10
270.9805523993713
 20
183.1186606679488
 30
0.0
 10
268.1131212067108
 20
183.1186606679488
 30
0.0
  0
SPLINE
  5
1F9
330
1E3
100
AcDbEntity
  8
Default
  6
Continuous
 62
     7
100
AcDbSpline
210
0.0
220
0.0
230
1.0
 70
     8
 71
     3
 72
    11
 73
     7
 74
     0
 42
0.0000000141737466
 43
0.0000000001
 12
1.0
 22
0.0
 32
0.0
 13
1.0
 23
0.0
 33
0.0
 40
0.0
 40
0.0
 40
0.0
 40
0.0
 40
0.6560933575639865
 40
0.6560933575639865
 40
0.6560933575639865
 40
1.0
 40
1.0
 40
1.0
 40
1.0
 10
268.1131212067108
 20
183.1186606679488
 30
0.0
 10
267.9075347060556
 20
183.1186606679488
 30
0.0
 10
267.8058964360686
 20
183.1925794097575
 30
0.0
 10
267.8035864753871
 20
183.3381069326933
 30
0.0
 10
267.8027439506852
 20
183.3911859889177
 30
0.0
 10
267.8313060035653
 20
183.4605348488138
 30
0.0
 10
267.8844350992403
 20
183.5460033940301
 30
0.0
  0
LINE
  5
1FA
330
1E3
100
AcDbEntity
  8
Default
  6
Continuous
 62
     7
100
AcDbLine
 10
262.1857620979
 20
189.7274581778
 30
0.0
 11
262.1857620979
 21
183.1186606679
 31
0.0
  0
SPLINE
  5
1FB
330
1E3
100
AcDbEntity
  8
Default
  6
Continuous
 62
     7
100
AcDbSpline
210
0.0
220
0.0
230
1.0
 70
     8
 71
     3
 72
    14
 73
    10
 74
     0
 42
0.0000000052950889
 43
0.0000000001
 12
1.0
 22
0.0
 32
0.0
 13
1.0
 23
0.0
 33
0.0
 40
0.0
 40
0.0
 40
0.0
 40
0.0
 40
0.1210177131110554
 40
0.1210177131110554
 40
0.1210177131110554
 40
0.2419901306838391
 40
0.2419901306838391
 40
0.2419901306838391
 40
1.0
 40
1.0
 40
1.0
 40
1.0
 10
260.4740812329231
 20
189.4387130925884
 30
0.0
 10
260.4740812329231
 20
189.5195617164416
 30
0.0
 10
260.5018007611014
 20
189.5865505762057
 30
0.0
 10
260.5595497781394
 20
189.6419896325622
 30
0.0
 10
260.6172507110666
 20
189.6973825281723
 30
0.0
 10
260.68197769426
 20
189.7274581777785
 30
0.0
 10
260.7628263181132
 20
189.7274581777785
 30
0.0
 10
261.2371382447187
 20
189.7274581777785
 30
0.0
 10
261.7114501713242
 20
189.7274581777785
 30
0.0
 10
262.1857620979297
 20
189.7274581777785
 30
0.0
  0
LINE
  5
1FC
330
1E3
100
AcDbEntity
  8
Default
  6
Continuous
 62
     7
100
AcDbLine
 10
260.4740812329
 20
183.1186606679
 30
0.0
 11
260.4740812329
 21
189.4387130926
 31
0.0
  0
LINE
  5
1FD
330
1E3
100
AcDbEntity
  8
Default
  6
Continuous
 62
     7
100
AcDbLine
 10
262.1857620979
 20
183.1186606679
 30
0.0
 11
260.4740812329
 21
183.1186606679
 31
0.0
  0
SPLINE
  5
1FE
330
1E3
100
AcDbEntity
  8
Default
  6
Continuous
 62
     7
100
AcDbSpline
210
0.0
220
0.0
230
1.0
 70
     8
 71
     3
 72
    16
 73
    12
 74
     0
 42
0.0000000009758823
 43
0.0000000001
 12
1.0
 22
0.0
 32
0.0
 13
1.0
 23
0.0
 33
0.0
 40
0.0
 40
0.0
 40
0.0
 40
0.0
 40
0.6159054655977501
 40
0.6159054655977501
 40
0.6159054655977501
 40
0.6376683166669079
 40
0.6376683166669079
 40
0.6603379531972834
 40
0.6603379531972834
 40
0.6603379531972834
 40
1.0
 40
1.0
 40
1.0
 40
1.0
 10
255.8218204203412
 20
183.1186606679488
 30
0.0
 10
255.8218204203412
 20
185.2199549012385
 30
0.0
 10
255.8218204203412
 20
187.3212491345281
 30
0.0
 10
255.8218204203412
 20
189.4225433678178
 30
0.0
 10
255.8218204203412
 20
189.503391991671
 30
0.0
 10
255.8495399485194
 20
189.5703808514351
 30
0.0
 10
255.962728021914
 20
189.6835689248296
 30
0.0
 10
256.0297168816781
 20
189.7112884530078
 30
0.0
 10
256.1105655055312
 20
189.7112884530078
 30
0.0
 10
257.2693957807606
 20
189.7112884530078
 30
0.0
 10
258.42822605599
 20
189.7112884530078
 30
0.0
 10
259.5870563312193
 20
189.7112884530078
 30
0.0
  0
LINE
  5
1FF
330
1E3
100
AcDbEntity
  8
Default
  6
Continuous
 62
     7
100
AcDbLine
 10
257.5404311674
 20
183.1186606679
 30
0.0
 11
255.8218204203
 21
183.1186606679
 31
0.0
  0
LINE
  5
200
330
1E3
100
AcDbEntity
  8
Default
  6
Continuous
 62
     7
100
AcDbLine
 10
257.5404311674
 20
185.7035066706
 30
0.0
 11
257.5404311674
 21
183.1186606679
 31
0.0
  0
LINE
  5
201
330
1E3
100
AcDbEntity
  8
Default
  6
Continuous
 62
     7
100
AcDbLine
 10
259.4877280219
 20
185.7035066706
 30
0.0
 11
257.5404311674
 21
185.7035066706
 31
0.0
  0
LINE
  5
202
330
1E3
100
AcDbEntity
  8
Default
  6
Continuous
 62
     7
100
AcDbLine
 10
259.4877280219
 20
187.1610918606
 30
0.0
 11
259.4877280219
 21
185.7035066706
 31
0.0
  0
LINE
  5
203
330
1E3
100
AcDbEntity
  8
Default
  6
Continuous
 62
     7
100
AcDbLine
 10
257.5404311674
 20
187.1610918606
 30
0.0
 11
259.4877280219
 21
187.1610918606
 31
0.0
  0
LINE
  5
204
330
1E3
100
AcDbEntity
  8
Default
  6
Continuous
 62
     7
100
AcDbLine
 10
257.5404311674
 20
188.260633145
 30
0.0
 11
257.5404311674
 21
187.1610918606
 31
0.0
  0
LINE
  5
205
330
1E3
100
AcDbEntity
  8
Default
  6
Continuous
 62
     7
100
AcDbLine
 10
259.5870563312
 20
188.260633145
 30
0.0
 11
257.5404311674
 21
188.260633145
 31
0.0
  0
LINE
  5
206
330
1E3
100
AcDbEntity
  8
Default
  6
Continuous
 62
     7
100
AcDbLine
 10
259.5870563312
 20
189.711288453
 30
0.0
 11
259.5870563312
 21
188.260633145
 31
0.0
  0
LINE
  5
207
330
1E3
100
AcDbEntity
  8
Default
  6
Continuous
 62
     7
100
AcDbLine
 10
255.0710831988
 20
187.1610918606
 30
0.0
 11
255.0710831988
 21
185.7035066706
 31
0.0
  0
LINE
  5
208
330
1E3
100
AcDbEntity
  8
Default
  6
Continuous
 62
     7
100
AcDbLine
 10
252.9366795291
 20
187.1610918606
 30
0.0
 11
255.0710831988
 21
187.1610918606
 31
0.0
  0
LINE
  5
209
330
1E3
100
AcDbEntity
  8
Default
  6
Continuous
 62
     7
100
AcDbLine
 10
252.9366795291
 20
185.7035066706
 30
0.0
 11
252.9366795291
 21
187.1610918606
 31
0.0
  0
LINE
  5
20A
330
1E3
100
AcDbEntity
  8
Default
  6
Continuous
 62
     7
100
AcDbLine
 10
255.0710831988
 20
185.7035066706
 30
0.0
 11
252.9366795291
 21
185.7035066706
 31
0.0
  0
SPLINE
  5
20B
330
1E3
100
AcDbEntity
  8
Default
  6
Continuous
 62
     7
100
AcDbSpline
210
0.0
220
0.0
230
1.0
 70
    11
 71
     3
 72
    47
 73
    43
 74
     0
 42
0.0000000008494054
 43
0.0000000001
 12
1.0
 22
0.0
 32
0.0
 13
1.0
 23
0.0
 33
0.0
 40
0.0
 40
0.0
 40
0.0
 40
0.0
 40
0.0637917384076936
 40
0.0637917384076936
 40
0.0637917384076936
 40
0.1265834997779105
 40
0.1265834997779105
 40
0.1893752611481286
 40
0.1893752611481286
 40
0.1893752611481286
 40
0.2604081010642026
 40
0.2604081010642026
 40
0.3159741129340349
 40
0.3159741129340349
 40
0.3159741129340349
 40
0.3751091105868484
 40
0.3751091105868484
 40
0.3751091105868484
 40
0.435995169879425
 40
0.435995169879425
 40
0.435995169879425
 40
0.4997689343159713
 40
0.4997689343159713
 40
0.5635426987525196
 40
0.5635426987525196
 40
0.5635426987525196
 40
0.624232315369434
 40
0.624232315369434
 40
0.624232315369434
 40
0.6835869381889372
 40
0.6835869381889372
 40
0.6835869381889372
 40
0.7357943705008892
 40
0.7357943705008892
 40
0.8025337685079206
 40
0.8025337685079206
 40
0.8692731665149518
 40
0.8692731665149518
 40
0.9360125645219831
 40
0.9360125645219831
 40
0.9360125645219831
 40
1.0
 40
1.0
 40
1.0
 40
1.0
 10
248.4438060035654
 20
184.5693159759436
 30
0.0
 10
248.7025215998956
 20
184.5693159759436
 30
0.0
 10
248.9450674714552
 20
184.620135110937
 30
0.0
 10
249.1691336575627
 20
184.7194634202424
 30
0.0
 10
249.3951304192655
 20
184.8196475517189
 30
0.0
 10
249.5941664229625
 20
184.9550794097575
 30
0.0
 10
249.9314206824644
 20
185.3061934333486
 30
0.0
 10
250.0653984019926
 20
185.5140898946854
 30
0.0
 10
250.160106789935
 20
185.752015844882
 30
0.0
 10
250.2551311293749
 20
185.9907355268896
 30
0.0
 10
250.3056343128707
 20
186.2509673520904
 30
0.0
 10
250.3056343128707
 20
186.7614686627064
 30
0.0
 10
250.2571251385588
 20
186.9809149274508
 30
0.0
 10
250.160106789935
 20
187.1934313101507
 30
0.0
 10
250.0643595068875
 20
187.4031634539689
 30
0.0
 10
249.9314206824644
 20
187.5907445473721
 30
0.0
 10
249.7627935527134
 20
187.7547517557601
 30
0.0
 10
249.5953209577949
 20
187.9176360604069
 30
0.0
 10
249.3955098043517
 20
188.0458068016317
 30
0.0
 10
249.1691336575627
 20
188.140515189574
 30
0.0
 10
248.9439009259591
 20
188.2347452099388
 30
0.0
 10
248.7025215998956
 20
188.2860427125098
 30
0.0
 10
248.1850904072351
 20
188.2860427125098
 30
0.0
 10
247.9425445356754
 20
188.2375335381978
 30
0.0
 10
247.7161683888864
 20
188.140515189574
 30
0.0
 10
247.4925801256786
 20
188.0446916481992
 30
0.0
 10
247.2934455841682
 20
187.9164490034665
 30
0.0
 10
247.1248184544172
 20
187.7547517557601
 30
0.0
 10
246.9550373605366
 20
187.5919479671074
 30
0.0
 10
246.8222136051381
 20
187.403637732169
 30
0.0
 10
246.7228852958327
 20
187.1934313101507
 30
0.0
 10
246.622664698655
 20
186.9813365579839
 30
0.0
 10
246.5727378515339
 20
186.7614686627064
 30
0.0
 10
246.5727378515339
 20
186.2509673520904
 30
0.0
 10
246.6235569865273
 20
185.9899417950786
 30
0.0
 10
246.8222136051381
 20
185.5140898946854
 30
0.0
 10
246.9561913246663
 20
185.3061934333486
 30
0.0
 10
247.2934455841682
 20
184.9550794097575
 30
0.0
 10
247.492102202779
 20
184.8187917295478
 30
0.0
 10
247.7161683888864
 20
184.7194634202424
 30
0.0
 10
247.9421651505893
 20
184.6192792887659
 30
0.0
 10
248.1850904072351
 20
184.5693159759436
 30
0.0
 10
248.4438060035654
 20
184.5693159759436
 30
0.0
  0
SPLINE
  5
20C
330
1E3
100
AcDbEntity
  8
Default
  6
Continuous
 62
     7
100
AcDbSpline
210
0.0
220
0.0
230
1.0
 70
    11
 71
     3
 72
    49
 73
    45
 74
     0
 42
0.0000000004385322
 43
0.0000000001
 12
1.0
 22
0.0
 32
0.0
 13
1.0
 23
0.0
 33
0.0
 40
0.0
 40
0.0
 40
0.0
 40
0.0
 40
0.0617996483207596
 40
0.0617996483207596
 40
0.0617996483207596
 40
0.1220737652654132
 40
0.1220737652654132
 40
0.1220737652654132
 40
0.1820249318660078
 40
0.1820249318660078
 40
0.1820249318660078
 40
0.2438982680995642
 40
0.2438982680995642
 40
0.3109516975991858
 40
0.3109516975991858
 40
0.3109516975991858
 40
0.3722543214771952
 40
0.3722543214771952
 40
0.3722543214771952
 40
0.4335172266527087
 40
0.4335172266527087
 40
0.4335172266527087
 40
0.4994898970728853
 40
0.4994898970728853
 40
0.5657506577569065
 40
0.5657506577569065
 40
0.5657506577569065
 40
0.626961718898901
 40
0.626961718898901
 40
0.6886100019061948
 40
0.6886100019061948
 40
0.6886100019061948
 40
0.7556907268882871
 40
0.7556907268882871
 40
0.8175892499404324
 40
0.8175892499404324
 40
0.8175892499404324
 40
0.8774725210786118
 40
0.8774725210786118
 40
0.8774725210786118
 40
0.9379094648157675
 40
0.9379094648157675
 40
0.9379094648157675
 40
1.0
 40
1.0
 40
1.0
 40
1.0
 10
248.4438060035654
 20
189.9492144032044
 30
0.0
 10
248.9196356399268
 20
189.9515130970999
 30
0.0
 10
249.3770301188996
 20
189.8637458579882
 30
0.0
 10
249.8136126877069
 20
189.6997386496002
 30
0.0
 10
250.2509557040483
 20
189.5354457704455
 30
0.0
 10
250.6382686510096
 20
189.3001154516972
 30
0.0
 10
250.9755229105116
 20
188.997510602418
 30
0.0
 10
251.3129086463213
 20
188.694787784671
 30
0.0
 10
251.585352530433
 20
188.3368618475032
 30
0.0
 10
251.7863191097253
 20
187.918758964148
 30
0.0
 10
251.9868172819147
 20
187.5016305829262
 30
0.0
 10
252.0889239590044
 20
187.0455938265333
 30
0.0
 10
252.0889239590044
 20
186.0107314412123
 30
0.0
 10
251.9988354924251
 20
185.52101977673
 30
0.0
 10
251.816348598585
 20
185.0775073258781
 30
0.0
 10
251.6330488643873
 20
184.6320193642835
 30
0.0
 10
251.3820759904592
 20
184.2482314412123
 30
0.0
 10
251.0609914557278
 20
183.9225269851179
 30
0.0
 10
250.7410617834882
 20
183.5979940082417
 30
0.0
 10
250.3564534478642
 20
183.3473467754193
 30
0.0
 10
249.9083210756492
 20
183.1671698422608
 30
0.0
 10
249.4629767181928
 20
182.9881138634896
 30
0.0
 10
248.9727869996335
 20
182.8992144032044
 30
0.0
 10
247.9125150468157
 20
182.8992144032044
 30
0.0
 10
247.4251133430149
 20
182.9893028697837
 30
0.0
 10
246.9792909314815
 20
183.1671698422608
 30
0.0
 10
246.530680710158
 20
183.3461490497318
 30
0.0
 10
246.1453951254526
 20
183.5991324897051
 30
0.0
 10
245.4962961739454
 20
184.2482314412123
 30
0.0
 10
245.2445104596597
 20
184.6316849143446
 30
0.0
 10
245.0620235658196
 20
185.0775073258781
 30
0.0
 10
244.8803465126443
 20
185.521351265914
 30
0.0
 10
244.7871382447187
 20
186.0107314412123
 30
0.0
 10
244.7871382447187
 20
187.0455938265333
 30
0.0
 10
244.8887765147056
 20
187.5029660414744
 30
0.0
 10
245.0920530546794
 20
187.918758964148
 30
0.0
 10
245.2957954536029
 20
188.335504780128
 30
0.0
 10
245.5632850337095
 20
188.6972157138204
 30
0.0
 10
245.9005392932115
 20
188.997510602418
 30
0.0
 10
246.2389407961124
 20
189.2988270091107
 30
0.0
 10
246.6281769078904
 20
189.5334214805307
 30
0.0
 10
247.0670694373792
 20
189.6997386496002
 30
0.0
 10
247.5072164315149
 20
189.8665311947464
 30
0.0
 10
247.9656441424906
 20
189.9469044425229
 30
0.0
 10
248.4438060035654
 20
189.9492144032044
 30
0.0
  0
LINE
  5
20D
330
1E3
100
AcDbEntity
  8
Default
  6
Continuous
 62
     7
100
AcDbLine
 10
242.3339600009
 20
185.4332412708
 30
0.0
 11
240.8347955186
 21
185.4332412708
 31
0.0
  0
SPLINE
  5
20E
330
1E3
100
AcDbEntity
  8
Default
  6
Continuous
 62
     7
100
AcDbSpline
210
0.0
220
0.0
230
1.0
 70
     8
 71
     3
 72
    43
 73
    39
 74
     0
 42
0.0000000009932047
 43
0.0000000001
 12
1.0
 22
0.0
 32
0.0
 13
1.0
 23
0.0
 33
0.0
 40
0.0
 40
0.0
 40
0.0
 40
0.0
 40
0.0949373847537602
 40
0.0949373847537602
 40
0.0949373847537602
 40
0.1911787086491429
 40
0.1911787086491429
 40
0.2677918678027036
 40
0.2677918678027036
 40
0.2677918678027036
 40
0.3406026976746725
 40
0.3406026976746725
 40
0.3406026976746725
 40
0.4151543081273698
 40
0.4151543081273698
 40
0.4151543081273698
 40
0.4895478942304584
 40
0.4895478942304584
 40
0.5659890102262922
 40
0.5659890102262922
 40
0.6424301262221261
 40
0.6424301262221261
 40
0.6424301262221261
 40
0.714798401889747
 40
0.714798401889747
 40
0.714798401889747
 40
0.7953127750919691
 40
0.7953127750919691
 40
0.8472575319966263
 40
0.8472575319966263
 40
0.8472575319966263
 40
0.898191982468852
 40
0.898191982468852
 40
0.898191982468852
 40
0.9471592991231073
 40
0.9471592991231073
 40
0.9471592991231073
 40
1.0
 40
1.0
 40
1.0
 40
1.0
 10
242.2554213377724
 20
187.3782281646723
 30
0.0
 10
242.1353033823333
 20
187.6970027387221
 30
0.0
 10
241.9551264491748
 20
187.9510984136893
 30
0.0
 10
241.7148905382967
 20
188.1428251502555
 30
0.0
 10
241.4721172585773
 20
188.3365769023392
 30
0.0
 10
241.1766696995024
 20
188.4315702354455
 30
0.0
 10
240.5460504334474
 20
188.4315702354455
 30
0.0
 10
240.3011946012062
 20
188.371511257726
 30
0.0
 10
240.0840582971433
 20
188.2490833416055
 30
0.0
 10
239.8686747464151
 20
188.1276436800246
 30
0.0
 10
239.6913649812849
 20
187.9649581777784
 30
0.0
 10
239.5481474190306
 20
187.7663015591677
 30
0.0
 10
239.4057198468884
 20
187.5687407332931
 30
0.0
 10
239.2986716654264
 20
187.345888715131
 30
0.0
 10
239.2270628842993
 20
187.0987229222083
 30
0.0
 10
239.1546578089098
 20
186.848808629735
 30
0.0
 10
239.1161847715863
 20
186.5997714149999
 30
0.0
 10
239.1161847715863
 20
186.089270104384
 30
0.0
 10
239.1554541031722
 20
185.8397943507798
 30
0.0
 10
239.3079115081525
 20
185.3500826862975
 30
0.0
 10
239.4187896208655
 20
185.1283264608715
 30
0.0
 10
239.5643171438012
 20
184.9342897636238
 30
0.0
 10
239.7109534478642
 20
184.7387746915399
 30
0.0
 10
239.8900215998956
 20
184.5808657793512
 30
0.0
 10
240.104847943277
 20
184.4630577845936
 30
0.0
 10
240.3206481660817
 20
184.3447157269266
 30
0.0
 10
240.5691500402626
 20
184.2851908121166
 30
0.0
 10
241.0403820192927
 20
184.2851908121166
 30
0.0
 10
241.2182489917698
 20
184.3082904189318
 30
0.0
 10
241.3914960428838
 20
184.3591095539252
 30
0.0
 10
241.5619922405099
 20
184.4091217718955
 30
0.0
 10
241.7148905382967
 20
184.4815374700458
 30
0.0
 10
241.8488682578248
 20
184.5762458579881
 30
0.0
 10
241.9813056983178
 20
184.6698654279918
 30
0.0
 10
242.089104168703
 20
184.7910722013695
 30
0.0
 10
242.1768826746007
 20
184.9342897636238
 30
0.0
 10
242.2630012238817
 20
185.0747989756085
 30
0.0
 10
242.315480315492
 20
185.241514534266
 30
0.0
 10
242.3339600009441
 20
185.4332412708322
 30
0.0
  0
LINE
  5
20F
330
1E3
100
AcDbEntity
  8
Default
  6
Continuous
 62
     7
100
AcDbLine
 10
243.8839436182
 20
188.0642864871
 30
0.0
 11
242.2554213378
 21
187.3782281647
 31
0.0
  0
SPLINE
  5
210
330
1E3
100
AcDbEntity
  8
Default
  6
Continuous
 62
     7
100
AcDbSpline
210
0.0
220
0.0
230
1.0
 70
     8
 71
     3
 72
    51
 73
    47
 74
     0
 42
0.0000000004766382
 43
0.0000000001
 12
1.0
 22
0.0
 32
0.0
 13
1.0
 23
0.0
 33
0.0
 40
0.0
 40
0.0
 40
0.0
 40
0.0
 40
0.0095402040290222
 40
0.0095402040290222
 40
0.0095402040290222
 40
0.0400756007423482
 40
0.0400756007423482
 40
0.0400756007423482
 40
0.0693620114069116
 40
0.0693620114069116
 40
0.0986484220714753
 40
0.0986484220714753
 40
0.0986484220714753
 40
0.1302632519246672
 40
0.1302632519246672
 40
0.1302632519246672
 40
0.2055179711079718
 40
0.2055179711079718
 40
0.2055179711079718
 40
0.281182745691462
 40
0.281182745691462
 40
0.3511962093102096
 40
0.3511962093102096
 40
0.3511962093102096
 40
0.4149417185613706
 40
0.4149417185613706
 40
0.4149417185613706
 40
0.4786592191897758
 40
0.4786592191897758
 40
0.4786592191897758
 40
0.5478830793697405
 40
0.5478830793697405
 40
0.6199007276287178
 40
0.6199007276287178
 40
0.6199007276287178
 40
0.6846819262147057
 40
0.6846819262147057
 40
0.6846819262147057
 40
0.7494892886116509
 40
0.7494892886116509
 40
0.7494892886116509
 40
0.8193637744922013
 40
0.8193637744922013
 40
0.9096818872461009
 40
0.9096818872461009
 40
1.0
 40
1.0
 40
1.0
 40
1.0
 10
244.1426592145745
 20
186.777638387477
 30
0.0
 10
244.1426592145745
 20
186.7114195146068
 30
0.0
 10
244.1426592145745
 20
186.6452006417365
 30
0.0
 10
244.1426592145745
 20
186.5789817688662
 30
0.0
 10
244.1426592145745
 20
186.3618454648034
 30
0.0
 10
244.1287994504854
 20
186.1493290821035
 30
0.0
 10
244.1172496470778
 20
185.9437425814482
 30
0.0
 10
244.1057071113542
 20
185.738285445568
 30
0.0
 10
244.0849101975365
 20
185.5371895015006
 30
0.0
 10
244.0109914557279
 20
185.1398762642791
 30
0.0
 10
243.9578623600529
 20
184.9435296063499
 30
0.0
 10
243.8839436182442
 20
184.7518028697837
 30
0.0
 10
243.8103238022207
 20
184.5608514719727
 30
0.0
 10
243.7060766457672
 20
184.3683493966513
 30
0.0
 10
243.567479004876
 20
184.1766226600851
 30
0.0
 10
243.2385391943749
 20
183.7215892555586
 30
0.0
 10
242.8467712722416
 20
183.3866161070052
 30
0.0
 10
242.3801592145745
 20
183.1833395670314
 30
0.0
 10
241.9127013576763
 20
182.9796945600658
 30
0.0
 10
241.4007358856099
 20
182.8761147963892
 30
0.0
 10
240.3289141293845
 20
182.8761147963892
 30
0.0
 10
239.8530622289913
 20
182.9592733809239
 30
0.0
 10
239.4187896208655
 20
183.1279005106749
 30
0.0
 10
238.9865243210358
 20
183.2957482068854
 30
0.0
 10
238.6149233036964
 20
183.5344535906225
 30
0.0
 10
238.3076985330542
 20
183.8370584399017
 30
0.0
 10
237.9993189146371
 20
184.1408007708237
 30
0.0
 10
237.7625478122154
 20
184.5092569982241
 30
0.0
 10
237.5893007611014
 20
184.9412196456684
 30
0.0
 10
237.4171718734448
 20
185.3703943388921
 30
0.0
 10
237.3328951254526
 20
185.8444142721428
 30
0.0
 10
237.3328951254526
 20
186.8954463822346
 30
0.0
 10
237.4183636706689
 20
187.3828480860353
 30
0.0
 10
237.5893007611014
 20
187.8194306548426
 30
0.0
 10
237.760544896821
 20
188.2567974339103
 30
0.0
 10
238.005093683775
 20
188.6302268540563
 30
0.0
 10
238.3192483364618
 20
188.9420715460616
 30
0.0
 10
238.6322480402607
 20
189.2527697814501
 30
0.0
 10
239.0099265802364
 20
189.4918421882634
 30
0.0
 10
239.4488191097252
 20
189.6627792786959
 30
0.0
 10
239.8889361806183
 20
189.8341932957806
 30
0.0
 10
240.3751133430149
 20
189.9145649929816
 30
0.0
 10
241.587842700813
 20
189.9145649929816
 30
0.0
 10
242.1815025959638
 20
189.7621075880012
 30
0.0
 10
243.2025052171957
 20
189.1522779680799
 30
0.0
 10
243.5998184544173
 20
188.6879758710943
 30
0.0
 10
243.8839436182442
 20
188.0642864870838
 30
0.0
  0
LINE
  5
211
330
1E3
100
AcDbEntity
  8
Default
  6
Continuous
 62
     7
100
AcDbLine
 10
240.8347955186
 20
186.7776383875
 30
0.0
 11
244.1426592146
 21
186.7776383875
 31
0.0
  0
LINE
  5
212
330
1E3
100
AcDbEntity
  8
Default
  6
Continuous
 62
     7
100
AcDbLine
 10
240.8347955186
 20
185.4332412708
 30
0.0
 11
240.8347955186
 21
186.7776383875
 31
0.0
  0
SPLINE
  5
213
330
1E3
100
AcDbEntity
  8
Default
  6
Continuous
 62
     7
100
AcDbSpline
210
0.0
220
0.0
230
1.0
 70
     8
 71
     3
 72
    16
 73
    12
 74
     0
 42
0.000000000976763
 43
0.0000000001
 12
1.0
 22
0.0
 32
0.0
 13
1.0
 23
0.0
 33
0.0
 40
0.0
 40
0.0
 40
0.0
 40
0.0
 40
0.6164577788718584
 40
0.6164577788718584
 40
0.6164577788718584
 40
0.6381328433885463
 40
0.6381328433885463
 40
0.6607110355934293
 40
0.6607110355934293
 40
0.6607110355934293
 40
1.0
 40
1.0
 40
1.0
 40
1.0
 10
233.0225084937357
 20
183.1186606679488
 30
0.0
 10
233.0225084937357
 20
185.2199549012385
 30
0.0
 10
233.0225084937357
 20
187.3212491345281
 30
0.0
 10
233.0225084937357
 20
189.4225433678178
 30
0.0
 10
233.0225084937357
 20
189.503391991671
 30
0.0
 10
233.050228021914
 20
189.5703808514351
 30
0.0
 10
233.1634160953085
 20
189.6835689248296
 30
0.0
 10
233.2304049550725
 20
189.7112884530078
 30
0.0
 10
233.3089436182443
 20
189.7112884530078
 30
0.0
 10
234.4654639327921
 20
189.7112884530078
 30
0.0
 10
235.6219842473399
 20
189.7112884530078
 30
0.0
 10
236.7785045618878
 20
189.7112884530078
 30
0.0
  0
LINE
  5
214
330
1E3
100
AcDbEntity
  8
Default
  6
Continuous
 62
     7
100
AcDbLine
 10
236.7785045619
 20
183.1186606679
 30
0.0
 11
233.0225084937
 21
183.1186606679
 31
0.0
  0
LINE
  5
215
330
1E3
100
AcDbEntity
  8
Default
  6
Continuous
 62
     7
100
AcDbLine
 10
236.7785045619
 20
184.5693159759
 30
0.0
 11
236.7785045619
 21
183.1186606679
 31
0.0
  0
LINE
  5
216
330
1E3
100
AcDbEntity
  8
Default
  6
Continuous
 62
     7
100
AcDbLine
 10
234.7318793981
 20
184.5693159759
 30
0.0
 11
236.7785045619
 21
184.5693159759
 31
0.0
  0
LINE
  5
217
330
1E3
100
AcDbEntity
  8
Default
  6
Continuous
 62
     7
100
AcDbLine
 10
234.7318793981
 20
185.7035066706
 30
0.0
 11
234.7318793981
 21
184.5693159759
 31
0.0
  0
LINE
  5
218
330
1E3
100
AcDbEntity
  8
Default
  6
Continuous
 62
     7
100
AcDbLine
 10
236.6791762526
 20
185.7035066706
 30
0.0
 11
234.7318793981
 21
185.7035066706
 31
0.0
  0
LINE
  5
219
330
1E3
100
AcDbEntity
  8
Default
  6
Continuous
 62
     7
100
AcDbLine
 10
236.6791762526
 20
187.1610918606
 30
0.0
 11
236.6791762526
 21
185.7035066706
 31
0.0
  0
LINE
  5
21A
330
1E3
100
AcDbEntity
  8
Default
  6
Continuous
 62
     7
100
AcDbLine
 10
234.7318793981
 20
187.1610918606
 30
0.0
 11
236.6791762526
 21
187.1610918606
 31
0.0
  0
LINE
  5
21B
330
1E3
100
AcDbEntity
  8
Default
  6
Continuous
 62
     7
100
AcDbLine
 10
234.7318793981
 20
188.260633145
 30
0.0
 11
234.7318793981
 21
187.1610918606
 31
0.0
  0
LINE
  5
21C
330
1E3
100
AcDbEntity
  8
Default
  6
Continuous
 62
     7
100
AcDbLine
 10
236.7785045619
 20
188.260633145
 30
0.0
 11
234.7318793981
 21
188.260633145
 31
0.0
  0
LINE
  5
21D
330
1E3
100
AcDbEntity
  8
Default
  6
Continuous
 62
     7
100
AcDbLine
 10
236.7785045619
 20
189.711288453
 30
0.0
 11
236.7785045619
 21
188.260633145
 31
0.0
  0
LINE
  5
21E
330
1E3
100
AcDbEntity
  8
Default
  6
Continuous
 62
     7
100
AcDbLine
 10
228.7098119013
 20
188.3992307859
 30
0.0
 11
228.7098119013
 21
186.7499188593
 31
0.0
  0
LINE
  5
21F
330
1E3
100
AcDbEntity
  8
Default
  6
Continuous
 62
     7
100
AcDbLine
 10
228.7098119013
 20
186.7499188593
 30
0.0
 11
228.8807489918
 21
186.7499188593
 31
0.0
  0
SPLINE
  5
220
330
1E3
100
AcDbEntity
  8
Default
  6
Continuous
 62
     7
100
AcDbSpline
210
0.0
220
0.0
230
1.0
 70
     8
 71
     3
 72
    29
 73
    25
 74
     0
 42
0.0000000028633018
 43
0.0000000001
 12
1.0
 22
0.0
 32
0.0
 13
1.0
 23
0.0
 33
0.0
 40
0.0
 40
0.0
 40
0.0
 40
0.0
 40
0.1203556671631279
 40
0.1203556671631279
 40
0.1203556671631279
 40
0.2363519504887718
 40
0.2363519504887718
 40
0.2363519504887718
 40
0.3551316836966588
 40
0.3551316836966588
 40
0.4739114169045465
 40
0.4739114169045465
 40
0.5942337440501996
 40
0.5942337440501996
 40
0.7145560711958533
 40
0.7145560711958533
 40
0.7145560711958533
 40
0.8303426976884648
 40
0.8303426976884648
 40
0.8303426976884648
 40
0.9506957818555967
 40
0.9506957818555967
 40
0.9506957818555967
 40
1.0
 40
1.0
 40
1.0
 40
1.0
 10
228.8807489917698
 20
186.7499188592988
 30
0.0
 10
229.019346632661
 20
186.7499188592988
 30
0.0
 10
229.1579442735522
 20
186.7591587020248
 30
0.0
 10
229.2965419144435
 20
186.7799483481585
 30
0.0
 10
229.4373986855855
 20
186.8010768638298
 30
0.0
 10
229.5644973534998
 20
186.8376973651965
 30
0.0
 10
229.6799953875758
 20
186.8954463822346
 30
0.0
 10
229.7964174059245
 20
186.9536573914089
 30
0.0
 10
229.8902018095942
 20
187.0340440231258
 30
0.0
 10
230.0287994504854
 20
187.2511803271887
 30
0.0
 10
230.0634488607082
 20
187.3967078501244
 30
0.0
 10
230.0634488607082
 20
187.7547517557601
 30
0.0
 10
230.0287994504854
 20
187.8979693180144
 30
0.0
 10
229.8902018095942
 20
188.1151056220773
 30
0.0
 10
229.7978033823333
 20
188.198264206612
 30
0.0
 10
229.6799953875758
 20
188.25601322365
 30
0.0
 10
229.5649627826514
 20
188.3124017554757
 30
0.0
 10
229.4374495160162
 20
188.3484116509108
 30
0.0
 10
229.2965419144435
 20
188.3692012970445
 30
0.0
 10
229.1578950608181
 20
188.3896573902023
 30
0.0
 10
229.019346632661
 20
188.3992307859043
 30
0.0
 10
228.8807489917698
 20
188.3992307859043
 30
0.0
 10
228.8237699616256
 20
188.3992307859043
 30
0.0
 10
228.7667909314815
 20
188.3992307859043
 30
0.0
 10
228.7098119013373
 20
188.3992307859043
 30
0.0
  0
LINE
  5
221
330
1E3
100
AcDbEntity
  8
Default
  6
Continuous
 62
     7
100
AcDbLine
 10
228.7098119013
 20
183.1186606679
 30
0.0
 11
227.000440997
 21
183.1186606679
 31
0.0
  0
LINE
  5
222
330
1E3
100
AcDbEntity
  8
Default
  6
Continuous
 62
     7
100
AcDbLine
 10
228.7098119013
 20
185.6526875356
 30
0.0
 11
228.7098119013
 21
183.1186606679
 31
0.0
  0
LINE
  5
223
330
1E3
100
AcDbEntity
  8
Default
  6
Continuous
 62
     7
100
AcDbLine
 10
230.3406441425
 20
183.1186606679
 30
0.0
 11
228.7098119013
 21
185.6526875356
 31
0.0
  0
LINE
  5
224
330
1E3
100
AcDbEntity
  8
Default
  6
Continuous
 62
     7
100
AcDbLine
 10
232.4773577729
 20
183.1186606679
 30
0.0
 11
230.3406441425
 21
183.1186606679
 31
0.0
  0
LINE
  5
225
330
1E3
100
AcDbEntity
  8
Default
  6
Continuous
 62
     7
100
AcDbLine
 10
230.4007031202
 20
185.8190047046
 30
0.0
 11
232.4773577729
 21
183.1186606679
 31
0.0
  0
SPLINE
  5
226
330
1E3
100
AcDbEntity
  8
Default
  6
Continuous
 62
     7
100
AcDbSpline
210
0.0
220
0.0
230
1.0
 70
     8
 71
     3
 72
    39
 73
    35
 74
     0
 42
0.0000000006617465
 43
0.0000000001
 12
1.0
 22
0.0
 32
0.0
 13
1.0
 23
0.0
 33
0.0
 40
0.0
 40
0.0
 40
0.0
 40
0.0
 40
0.4184837171182216
 40
0.4184837171182216
 40
0.4184837171182216
 40
0.4329116956232541
 40
0.4329116956232541
 40
0.447940839899329
 40
0.447940839899329
 40
0.447940839899329
 40
0.5989875461512338
 40
0.5989875461512338
 40
0.5989875461512338
 40
0.65983019696195
 40
0.65983019696195
 40
0.65983019696195
 40
0.7141636694202442
 40
0.7141636694202442
 40
0.7141636694202442
 40
0.7672492360561214
 40
0.7672492360561214
 40
0.7672492360561214
 40
0.8311842098663922
 40
0.8311842098663922
 40
0.8732466926363075
 40
0.8732466926363075
 40
0.8732466926363075
 40
0.9147241024096695
 40
0.9147241024096695
 40
0.9147241024096695
 40
0.9560702513872078
 40
0.9560702513872078
 40
0.9560702513872078
 40
1.0
 40
1.0
 40
1.0
 40
1.0
 10
227.0004409970123
 20
183.1186606679488
 30
0.0
 10
227.0004409970123
 20
185.2199549012385
 30
0.0
 10
227.0004409970123
 20
187.3212491345281
 30
0.0
 10
227.0004409970123
 20
189.4225433678178
 30
0.0
 10
227.0004409970123
 20
189.503391991671
 30
0.0
 10
227.0281605251905
 20
189.5703808514351
 30
0.0
 10
227.141348598585
 20
189.6835689248296
 30
0.0
 10
227.2060274976676
 20
189.7112884530078
 30
0.0
 10
227.2776362787947
 20
189.7112884530078
 30
0.0
 10
228.0360733692272
 20
189.7112884530078
 30
0.0
 10
228.7945104596597
 20
189.7112884530078
 30
0.0
 10
229.5529475500922
 20
189.7112884530078
 30
0.0
 10
229.8786520061866
 20
189.7112884530078
 30
0.0
 10
230.1812568554658
 20
189.672019121422
 30
0.0
 10
230.4584521372482
 20
189.5911704975687
 30
0.0
 10
230.7371553613635
 20
189.5098820572018
 30
0.0
 10
230.9781932905902
 20
189.3902039182765
 30
0.0
 10
231.1837797912455
 20
189.223886749207
 30
0.0
 10
231.3882367819392
 20
189.0584833410054
 30
0.0
 10
231.5510635396073
 20
188.8496731188007
 30
0.0
 10
231.6665615736833
 20
188.5955774438335
 30
0.0
 10
231.782929798427
 20
188.3395673493973
 30
0.0
 10
231.8398086247973
 20
188.0365669589056
 30
0.0
 10
231.8398086247973
 20
187.4544568671624
 30
0.0
 10
231.8097791359376
 20
187.235010602418
 30
0.0
 10
231.745100236855
 20
187.0317340624443
 30
0.0
 10
231.679966279852
 20
186.827027340435
 30
0.0
 10
231.5903328711931
 20
186.6390407465858
 30
0.0
 10
231.4679049550726
 20
186.4750335381978
 30
0.0
 10
231.3443697291374
 20
186.3095429525111
 30
0.0
 10
231.1953295946532
 20
186.1678087675556
 30
0.0
 10
231.0151526614946
 20
186.0523107334796
 30
0.0
 10
230.8366129371881
 20
185.9378621922575
 30
0.0
 10
230.6316991883622
 20
185.8582740362319
 30
0.0
 10
230.4007031202102
 20
185.8190047046461
 30
0.0
  0
HATCH
  5
227
330
1E3
100
AcDbEntity
  8
Default
  6
Continuous
 62
     7
100
AcDbHatch
 10
0.0
 20
0.0
 30
0.0
210
0.0
220
0.0
230
1.0
  2
SOLID
 70
     1
 71
     0
 91
        2
 92
        1
 93
        6
 72
     4
 94
        3
 73
     0
 74
     0
 95
       39
 96
       35
 40
0.0
 40
0.0
 40
0.0
 40
0.0
 40
0.0439297486127922
 40
0.0439297486127922
 40
0.0439297486127922
 40
0.0852758975903305
 40
0.0852758975903305
 40
0.0852758975903305
 40
0.1267533073636925
 40
0.1267533073636925
 40
0.1267533073636925
 40
0.1688157901336078
 40
0.1688157901336078
 40
0.2327507639438786
 40
0.2327507639438786
 40
0.2327507639438786
 40
0.2858363305797558
 40
0.2858363305797558
 40
0.2858363305797558
 40
0.34016980303805
 40
0.34016980303805
 40
0.34016980303805
 40
0.4010124538487662
 40
0.4010124538487662
 40
0.4010124538487662
 40
0.552059160100671
 40
0.552059160100671
 40
0.552059160100671
 40
0.5670883043767458
 40
0.5670883043767458
 40
0.5815162828817784
 40
0.5815162828817784
 40
0.5815162828817784
 40
1.0
 40
1.0
 40
1.0
 40
1.0
 10
230.4007031202102
 20
185.8190047046461
 10
230.6316991883622
 20
185.8582740362319
 10
230.8366129371881
 20
185.9378621922575
 10
231.0151526614946
 20
186.0523107334796
 10
231.1953295946532
 20
186.1678087675556
 10
231.3443697291374
 20
186.3095429525111
 10
231.4679049550726
 20
186.4750335381978
 10
231.5903328711931
 20
186.6390407465858
 10
231.679966279852
 20
186.827027340435
 10
231.745100236855
 20
187.0317340624443
 10
231.8097791359376
 20
187.235010602418
 10
231.8398086247973
 20
187.4544568671624
 10
231.8398086247973
 20
188.0365669589056
 10
231.782929798427
 20
188.3395673493973
 10
231.6665615736833
 20
188.5955774438335
 10
231.5510635396073
 20
188.8496731188007
 10
231.3882367819392
 20
189.0584833410054
 10
231.1837797912455
 20
189.223886749207
 10
230.9781932905902
 20
189.3902039182765
 10
230.7371553613635
 20
189.5098820572018
 10
230.4584521372482
 20
189.5911704975687
 10
230.1812568554658
 20
189.672019121422
 10
229.8786520061866
 20
189.7112884530078
 10
229.5529475500922
 20
189.7112884530078
 10
228.7945104596597
 20
189.7112884530078
 10
228.0360733692272
 20
189.7112884530078
 10
227.2776362787947
 20
189.7112884530078
 10
227.2060274976676
 20
189.7112884530078
 10
227.141348598585
 20
189.6835689248296
 10
227.0281605251905
 20
189.5703808514351
 10
227.0004409970123
 20
189.503391991671
 10
227.0004409970123
 20
189.4225433678178
 10
227.0004409970123
 20
187.3212491345281
 10
227.0004409970123
 20
185.2199549012385
 10
227.0004409970123
 20
183.1186606679488
 72
     1
 10
227.0004409970123
 20
183.1186606679488
 11
228.7098119013373
 21
183.1186606679488
 72
     1
 10
228.7098119013373
 20
183.1186606679488
 11
228.7098119013373
 21
185.6526875355766
 72
     1
 10
228.7098119013373
 20
185.6526875355766
 11
230.3406441424906
 21
183.1186606679488
 72
     1
 10
230.3406441424906
 20
183.1186606679488
 11
232.4773577728969
 21
183.1186606679488
 72
     1
 10
232.4773577728969
 20
183.1186606679488
 11
230.4007031202102
 21
185.8190047046461
 97
        0
 92
        1
 93
        3
 72
     1
 10
228.7098119013373
 20
188.3992307859043
 11
228.7098119013373
 21
186.7499188592988
 72
     1
 10
228.7098119013373
 20
186.7499188592988
 11
228.8807489917698
 21
186.7499188592988
 72
     4
 94
        3
 73
     0
 74
     0
 95
       29
 96
       25
 40
0.0
 40
0.0
 40
0.0
 40
0.0
 40
0.120355667163128
 40
0.120355667163128
 40
0.120355667163128
 40
0.2363519504887718
 40
0.2363519504887718
 40
0.2363519504887718
 40
0.3551316836966587
 40
0.3551316836966587
 40
0.4739114169045465
 40
0.4739114169045465
 40
0.5942337440501996
 40
0.5942337440501996
 40
0.7145560711958533
 40
0.7145560711958533
 40
0.7145560711958533
 40
0.8303426976884648
 40
0.8303426976884648
 40
0.8303426976884648
 40
0.9506957818555967
 40
0.9506957818555967
 40
0.9506957818555967
 40
1.0
 40
1.0
 40
1.0
 40
1.0
 10
228.8807489917698
 20
186.7499188592988
 10
229.019346632661
 20
186.7499188592988
 10
229.1579442735522
 20
186.7591587020248
 10
229.2965419144435
 20
186.7799483481585
 10
229.4373986855855
 20
186.8010768638298
 10
229.5644973534998
 20
186.8376973651965
 10
229.6799953875758
 20
186.8954463822346
 10
229.7964174059245
 20
186.9536573914089
 10
229.8902018095942
 20
187.0340440231258
 10
230.0287994504854
 20
187.2511803271887
 10
230.0634488607082
 20
187.3967078501244
 10
230.0634488607082
 20
187.7547517557601
 10
230.0287994504854
 20
187.8979693180144
 10
229.8902018095942
 20
188.1151056220773
 10
229.7978033823333
 20
188.198264206612
 10
229.6799953875758
 20
188.25601322365
 10
229.5649627826514
 20
188.3124017554757
 10
229.4374495160162
 20
188.3484116509108
 10
229.2965419144435
 20
188.3692012970445
 10
229.1578950608181
 20
188.3896573902023
 10
229.019346632661
 20
188.3992307859043
 10
228.8807489917698
 20
188.3992307859043
 10
228.8237699616256
 20
188.3992307859043
 10
228.7667909314815
 20
188.3992307859043
 10
228.7098119013373
 20
188.3992307859043
 97
        0
 75
     0
 76
     1
 98
        0
  0
HATCH
  5
228
330
1E3
100
AcDbEntity
  8
Default
  6
Continuous
 62
     7
100
AcDbHatch
 10
0.0
 20
0.0
 30
0.0
210
0.0
220
0.0
230
1.0
  2
SOLID
 70
     1
 71
     0
 91
        1
 92
        1
 93
       11
 72
     4
 94
        3
 73
     0
 74
     0
 95
       16
 96
       12
 40
0.0
 40
0.0
 40
0.0
 40
0.0
 40
0.3392889644065707
 40
0.3392889644065707
 40
0.3392889644065707
 40
0.3618671566114537
 40
0.3618671566114537
 40
0.3835422211281416
 40
0.3835422211281416
 40
0.3835422211281416
 40
1.0
 40
1.0
 40
1.0
 40
1.0
 10
236.7785045618878
 20
189.7112884530078
 10
235.6219842473399
 20
189.7112884530078
 10
234.4654639327921
 20
189.7112884530078
 10
233.3089436182443
 20
189.7112884530078
 10
233.2304049550725
 20
189.7112884530078
 10
233.1634160953085
 20
189.6835689248296
 10
233.050228021914
 20
189.5703808514351
 10
233.0225084937357
 20
189.503391991671
 10
233.0225084937357
 20
189.4225433678178
 10
233.0225084937357
 20
187.3212491345281
 10
233.0225084937357
 20
185.2199549012385
 10
233.0225084937357
 20
183.1186606679488
 72
     1
 10
233.0225084937357
 20
183.1186606679488
 11
236.7785045618878
 21
183.1186606679488
 72
     1
 10
236.7785045618878
 20
183.1186606679488
 11
236.7785045618878
 21
184.5693159759436
 72
     1
 10
236.7785045618878
 20
184.5693159759436
 11
234.7318793980608
 21
184.5693159759436
 72
     1
 10
234.7318793980608
 20
184.5693159759436
 11
234.7318793980608
 21
185.7035066705701
 72
     1
 10
234.7318793980608
 20
185.7035066705701
 11
236.6791762525824
 21
185.7035066705701
 72
     1
 10
236.6791762525824
 20
185.7035066705701
 11
236.6791762525824
 21
187.1610918606094
 72
     1
 10
236.6791762525824
 20
187.1610918606094
 11
234.7318793980608
 21
187.1610918606094
 72
     1
 10
234.7318793980608
 20
187.1610918606094
 11
234.7318793980608
 21
188.260633145013
 72
     1
 10
234.7318793980608
 20
188.260633145013
 11
236.7785045618878
 21
188.260633145013
 72
     1
 10
236.7785045618878
 20
188.260633145013
 11
236.7785045618878
 21
189.7112884530078
 97
        0
 75
     0
 76
     1
 98
        0
  0
HATCH
  5
229
330
1E3
100
AcDbEntity
  8
Default
  6
Continuous
 62
     7
100
AcDbHatch
 10
0.0
 20
0.0
 30
0.0
210
0.0
220
0.0
230
1.0
  2
SOLID
 70
     1
 71
     0
 91
        1
 92
        1
 93
        6
 72
     4
 94
        3
 73
     0
 74
     0
 95
       51
 96
       47
 40
0.0
 40
0.0
 40
0.0
 40
0.0
 40
0.0903181127538991
 40
0.0903181127538991
 40
0.1806362255077987
 40
0.1806362255077987
 40
0.2505107113883491
 40
0.2505107113883491
 40
0.2505107113883491
 40
0.3153180737852943
 40
0.3153180737852943
 40
0.3153180737852943
 40
0.3800992723712822
 40
0.3800992723712822
 40
0.3800992723712822
 40
0.4521169206302595
 40
0.4521169206302595
 40
0.5213407808102242
 40
0.5213407808102242
 40
0.5213407808102242
 40
0.5850582814386294
 40
0.5850582814386294
 40
0.5850582814386294
 40
0.6488037906897904
 40
0.6488037906897904
 40
0.6488037906897904
 40
0.718817254308538
 40
0.718817254308538
 40
0.7944820288920282
 40
0.7944820288920282
 40
0.7944820288920282
 40
0.8697367480753329
 40
0.8697367480753329
 40
0.8697367480753329
 40
0.9013515779285247
 40
0.9013515779285247
 40
0.9013515779285247
 40
0.9306379885930884
 40
0.9306379885930884
 40
0.9599243992576518
 40
0.9599243992576518
 40
0.9599243992576518
 40
0.9904597959709778
 40
0.9904597959709778
 40
0.9904597959709778
 40
1.0
 40
1.0
 40
1.0
 40
1.0
 10
243.8839436182442
 20
188.0642864870838
 10
243.5998184544173
 20
188.6879758710943
 10
243.2025052171957
 20
189.1522779680799
 10
242.1815025959638
 20
189.7621075880012
 10
241.587842700813
 20
189.9145649929816
 10
240.3751133430149
 20
189.9145649929816
 10
239.8889361806183
 20
189.8341932957806
 10
239.4488191097252
 20
189.6627792786959
 10
239.0099265802364
 20
189.4918421882634
 10
238.6322480402607
 20
189.2527697814501
 10
238.3192483364618
 20
188.9420715460616
 10
238.005093683775
 20
188.6302268540563
 10
237.760544896821
 20
188.2567974339103
 10
237.5893007611014
 20
187.8194306548426
 10
237.4183636706689
 20
187.3828480860353
 10
237.3328951254526
 20
186.8954463822346
 10
237.3328951254526
 20
185.8444142721428
 10
237.4171718734448
 20
185.3703943388921
 10
237.5893007611014
 20
184.9412196456684
 10
237.7625478122154
 20
184.5092569982241
 10
237.9993189146371
 20
184.1408007708237
 10
238.3076985330542
 20
183.8370584399017
 10
238.6149233036964
 20
183.5344535906225
 10
238.9865243210358
 20
183.2957482068854
 10
239.4187896208655
 20
183.1279005106749
 10
239.8530622289913
 20
182.9592733809239
 10
240.3289141293845
 20
182.8761147963892
 10
241.4007358856099
 20
182.8761147963892
 10
241.9127013576763
 20
182.9796945600658
 10
242.3801592145745
 20
183.1833395670314
 10
242.8467712722416
 20
183.3866161070052
 10
243.2385391943749
 20
183.7215892555586
 10
243.567479004876
 20
184.1766226600851
 10
243.7060766457672
 20
184.3683493966513
 10
243.8103238022207
 20
184.5608514719727
 10
243.8839436182442
 20
184.7518028697837
 10
243.9578623600529
 20
184.9435296063499
 10
244.0109914557279
 20
185.1398762642791
 10
244.0849101975365
 20
185.5371895015006
 10
244.1057071113542
 20
185.738285445568
 10
244.1172496470778
 20
185.9437425814482
 10
244.1287994504854
 20
186.1493290821035
 10
244.1426592145745
 20
186.3618454648034
 10
244.1426592145745
 20
186.5789817688662
 10
244.1426592145745
 20
186.6452006417365
 10
244.1426592145745
 20
186.7114195146068
 10
244.1426592145745
 20
186.777638387477
 72
     1
 10
244.1426592145745
 20
186.777638387477
 11
240.8347955186374
 21
186.777638387477
 72
     1
 10
240.8347955186374
 20
186.777638387477
 11
240.8347955186374
 21
185.4332412708322
 72
     1
 10
240.8347955186374
 20
185.4332412708322
 11
242.3339600009441
 21
185.4332412708322
 72
     4
 94
        3
 73
     0
 74
     0
 95
       43
 96
       39
 40
0.0
 40
0.0
 40
0.0
 40
0.0
 40
0.0528407008768927
 40
0.0528407008768927
 40
0.0528407008768927
 40
0.101808017531148
 40
0.101808017531148
 40
0.101808017531148
 40
0.1527424680033737
 40
0.1527424680033737
 40
0.1527424680033737
 40
0.2046872249080309
 40
0.2046872249080309
 40
0.285201598110253
 40
0.285201598110253
 40
0.285201598110253
 40
0.3575698737778739
 40
0.3575698737778739
 40
0.3575698737778739
 40
0.4340109897737078
 40
0.4340109897737078
 40
0.5104521057695417
 40
0.5104521057695417
 40
0.5848456918726302
 40
0.5848456918726302
 40
0.5848456918726302
 40
0.6593973023253275
 40
0.6593973023253275
 40
0.6593973023253275
 40
0.7322081321972964
 40
0.7322081321972964
 40
0.7322081321972964
 40
0.808821291350857
 40
0.808821291350857
 40
0.9050626152462398
 40
0.9050626152462398
 40
0.9050626152462398
 40
1.0
 40
1.0
 40
1.0
 40
1.0
 10
242.3339600009441
 20
185.4332412708322
 10
242.315480315492
 20
185.241514534266
 10
242.2630012238817
 20
185.0747989756085
 10
242.1768826746007
 20
184.9342897636238
 10
242.089104168703
 20
184.7910722013695
 10
241.9813056983178
 20
184.6698654279918
 10
241.8488682578248
 20
184.5762458579881
 10
241.7148905382967
 20
184.4815374700458
 10
241.5619922405099
 20
184.4091217718955
 10
241.3914960428838
 20
184.3591095539252
 10
241.2182489917698
 20
184.3082904189318
 10
241.0403820192927
 20
184.2851908121166
 10
240.5691500402626
 20
184.2851908121166
 10
240.3206481660817
 20
184.3447157269266
 10
240.104847943277
 20
184.4630577845936
 10
239.8900215998956
 20
184.5808657793512
 10
239.7109534478642
 20
184.7387746915399
 10
239.5643171438012
 20
184.9342897636238
 10
239.4187896208655
 20
185.1283264608715
 10
239.3079115081525
 20
185.3500826862975
 10
239.1554541031722
 20
185.8397943507798
 10
239.1161847715863
 20
186.089270104384
 10
239.1161847715863
 20
186.5997714149999
 10
239.1546578089098
 20
186.848808629735
 10
239.2270628842993
 20
187.0987229222083
 10
239.2986716654264
 20
187.345888715131
 10
239.4057198468884
 20
187.5687407332931
 10
239.5481474190306
 20
187.7663015591677
 10
239.6913649812849
 20
187.9649581777784
 10
239.8686747464151
 20
188.1276436800246
 10
240.0840582971433
 20
188.2490833416055
 10
240.3011946012062
 20
188.371511257726
 10
240.5460504334474
 20
188.4315702354455
 10
241.1766696995024
 20
188.4315702354455
 10
241.4721172585773
 20
188.3365769023392
 10
241.7148905382967
 20
188.1428251502555
 10
241.9551264491748
 20
187.9510984136893
 10
242.1353033823333
 20
187.6970027387221
 10
242.2554213377724
 20
187.3782281646723
 72
     1
 10
242.2554213377724
 20
187.3782281646723
 11
243.8839436182442
 21
188.0642864870838
 97
        0
 75
     0
 76
     1
 98
        0
  0
HATCH
  5
22A
330
1E3
100
AcDbEntity
  8
Default
  6
Continuous
 62
     7
100
AcDbHatch
 10
0.0
 20
0.0
 30
0.0
210
0.0
220
0.0
230
1.0
  2
SOLID
 70
     1
 71
     0
 91
        2
 92
        1
 93
        1
 72
     4
 94
        3
 73
     0
 74
     0
 95
       49
 96
       45
 40
0.0
 40
0.0
 40
0.0
 40
0.0
 40
0.0620905351842325
 40
0.0620905351842325
 40
0.0620905351842325
 40
0.1225274789213882
 40
0.1225274789213882
 40
0.1225274789213882
 40
0.1824107500595676
 40
0.1824107500595676
 40
0.1824107500595676
 40
0.2443092731117129
 40
0.2443092731117129
 40
0.3113899980938052
 40
0.3113899980938052
 40
0.3113899980938052
 40
0.373038281101099
 40
0.373038281101099
 40
0.4342493422430935
 40
0.4342493422430935
 40
0.4342493422430935
 40
0.5005101029271146
 40
0.5005101029271146
 40
0.5664827733472912
 40
0.5664827733472912
 40
0.5664827733472912
 40
0.6277456785228048
 40
0.6277456785228048
 40
0.6277456785228048
 40
0.6890483024008142
 40
0.6890483024008142
 40
0.6890483024008142
 40
0.7561017319004357
 40
0.7561017319004357
 40
0.8179750681339922
 40
0.8179750681339922
 40
0.8179750681339922
 40
0.8779262347345869
 40
0.8779262347345869
 40
0.8779262347345869
 40
0.9382003516792404
 40
0.9382003516792404
 40
0.9382003516792404
 40
1.0
 40
1.0
 40
1.0
 40
1.0
 10
248.4438060035654
 20
189.9492144032044
 10
247.9656441424906
 20
189.9469044425229
 10
247.5072164315149
 20
189.8665311947464
 10
247.0670694373792
 20
189.6997386496002
 10
246.6281769078904
 20
189.5334214805307
 10
246.2389407961124
 20
189.2988270091107
 10
245.9005392932115
 20
188.997510602418
 10
245.5632850337095
 20
188.6972157138204
 10
245.2957954536029
 20
188.335504780128
 10
245.0920530546794
 20
187.918758964148
 10
244.8887765147056
 20
187.5029660414744
 10
244.7871382447187
 20
187.0455938265333
 10
244.7871382447187
 20
186.0107314412123
 10
244.8803465126443
 20
185.521351265914
 10
245.0620235658196
 20
185.0775073258781
 10
245.2445104596597
 20
184.6316849143446
 10
245.4962961739454
 20
184.2482314412123
 10
246.1453951254526
 20
183.5991324897051
 10
246.530680710158
 20
183.3461490497318
 10
246.9792909314815
 20
183.1671698422608
 10
247.4251133430149
 20
182.9893028697837
 10
247.9125150468157
 20
182.8992144032044
 10
248.9727869996335
 20
182.8992144032044
 10
249.4629767181928
 20
182.9881138634896
 10
249.9083210756492
 20
183.1671698422608
 10
250.3564534478642
 20
183.3473467754193
 10
250.7410617834882
 20
183.5979940082417
 10
251.0609914557278
 20
183.9225269851179
 10
251.3820759904592
 20
184.2482314412123
 10
251.6330488643873
 20
184.6320193642835
 10
251.816348598585
 20
185.0775073258781
 10
251.9988354924251
 20
185.52101977673
 10
252.0889239590044
 20
186.0107314412123
 10
252.0889239590044
 20
187.0455938265333
 10
251.9868172819147
 20
187.5016305829262
 10
251.7863191097253
 20
187.918758964148
 10
251.585352530433
 20
188.3368618475032
 10
251.3129086463213
 20
188.694787784671
 10
250.9755229105116
 20
188.997510602418
 10
250.6382686510096
 20
189.3001154516972
 10
250.2509557040483
 20
189.5354457704455
 10
249.8136126877069
 20
189.6997386496002
 10
249.3770301188996
 20
189.8637458579882
 10
248.9196356399268
 20
189.9515130970999
 10
248.4438060035654
 20
189.9492144032044
 97
        0
 92
        1
 93
        1
 72
     4
 94
        3
 73
     0
 74
     0
 95
       47
 96
       43
 40
0.0
 40
0.0
 40
0.0
 40
0.0
 40
0.0637917384076936
 40
0.0637917384076936
 40
0.0637917384076936
 40
0.1265834997779105
 40
0.1265834997779105
 40
0.1893752611481285
 40
0.1893752611481285
 40
0.1893752611481285
 40
0.2604081010642026
 40
0.2604081010642026
 40
0.3159741129340349
 40
0.3159741129340349
 40
0.3159741129340349
 40
0.3751091105868485
 40
0.3751091105868485
 40
0.3751091105868485
 40
0.435995169879425
 40
0.435995169879425
 40
0.435995169879425
 40
0.4997689343159712
 40
0.4997689343159712
 40
0.5635426987525196
 40
0.5635426987525196
 40
0.5635426987525196
 40
0.624232315369434
 40
0.624232315369434
 40
0.624232315369434
 40
0.6835869381889372
 40
0.6835869381889372
 40
0.6835869381889372
 40
0.7357943705008892
 40
0.7357943705008892
 40
0.8025337685079206
 40
0.8025337685079206
 40
0.8692731665149518
 40
0.8692731665149518
 40
0.9360125645219831
 40
0.9360125645219831
 40
0.9360125645219831
 40
1.0
 40
1.0
 40
1.0
 40
1.0
 10
248.4438060035654
 20
184.5693159759436
 10
248.7025215998956
 20
184.5693159759436
 10
248.9450674714552
 20
184.620135110937
 10
249.1691336575627
 20
184.7194634202424
 10
249.3951304192655
 20
184.8196475517189
 10
249.5941664229625
 20
184.9550794097575
 10
249.9314206824644
 20
185.3061934333486
 10
250.0653984019926
 20
185.5140898946854
 10
250.160106789935
 20
185.752015844882
 10
250.2551311293749
 20
185.9907355268896
 10
250.3056343128707
 20
186.2509673520904
 10
250.3056343128707
 20
186.7614686627064
 10
250.2571251385588
 20
186.9809149274508
 10
250.160106789935
 20
187.1934313101507
 10
250.0643595068875
 20
187.4031634539689
 10
249.9314206824644
 20
187.5907445473721
 10
249.7627935527134
 20
187.7547517557601
 10
249.5953209577949
 20
187.9176360604069
 10
249.3955098043517
 20
188.0458068016317
 10
249.1691336575627
 20
188.140515189574
 10
248.9439009259591
 20
188.2347452099388
 10
248.7025215998956
 20
188.2860427125098
 10
248.1850904072351
 20
188.2860427125098
 10
247.9425445356754
 20
188.2375335381978
 10
247.7161683888864
 20
188.140515189574
 10
247.4925801256786
 20
188.0446916481992
 10
247.2934455841682
 20
187.9164490034665
 10
247.1248184544172
 20
187.7547517557601
 10
246.9550373605366
 20
187.5919479671074
 10
246.8222136051381
 20
187.403637732169
 10
246.7228852958327
 20
187.1934313101507
 10
246.622664698655
 20
186.9813365579839
 10
246.5727378515339
 20
186.7614686627064
 10
246.5727378515339
 20
186.2509673520904
 10
246.6235569865273
 20
185.9899417950786
 10
246.8222136051381
 20
185.5140898946854
 10
246.9561913246663
 20
185.3061934333486
 10
247.2934455841682
 20
184.9550794097575
 10
247.492102202779
 20
184.8187917295478
 10
247.7161683888864
 20
184.7194634202424
 10
247.9421651505893
 20
184.6192792887659
 10
248.1850904072351
 20
184.5693159759436
 10
248.4438060035654
 20
184.5693159759436
 97
        0
 75
     0
 76
     1
 98
        0
  0
HATCH
  5
22B
330
1E3
100
AcDbEntity
  8
Default
  6
Continuous
 62
     7
100
AcDbHatch
 10
0.0
 20
0.0
 30
0.0
210
0.0
220
0.0
230
1.0
  2
SOLID
 70
     1
 71
     0
 91
        1
 92
        1
 93
        4
 72
     1
 10
255.0710831988471
 20
185.7035066705701
 11
255.0710831988471
 21
187.1610918606094
 72
     1
 10
255.0710831988471
 20
187.1610918606094
 11
252.9366795291224
 21
187.1610918606094
 72
     1
 10
252.9366795291224
 20
187.1610918606094
 11
252.9366795291224
 21
185.70350667057
 72
     1
 10
252.9366795291224
 20
185.70350667057
 11
255.0710831988471
 21
185.7035066705701
 97
        0
 75
     0
 76
     1
 98
        0
  0
HATCH
  5
22C
330
1E3
100
AcDbEntity
  8
Default
  6
Continuous
 62
     7
100
AcDbHatch
 10
0.0
 20
0.0
 30
0.0
210
0.0
220
0.0
230
1.0
  2
SOLID
 70
     1
 71
     0
 91
        1
 92
        1
 93
        9
 72
     4
 94
        3
 73
     0
 74
     0
 95
       16
 96
       12
 40
0.0
 40
0.0
 40
0.0
 40
0.0
 40
0.3396620468027166
 40
0.3396620468027166
 40
0.3396620468027166
 40
0.3623316833330921
 40
0.3623316833330921
 40
0.3840945344022499
 40
0.3840945344022499
 40
0.3840945344022499
 40
1.0
 40
1.0
 40
1.0
 40
1.0
 10
259.5870563312193
 20
189.7112884530078
 10
258.42822605599
 20
189.7112884530078
 10
257.2693957807606
 20
189.7112884530078
 10
256.1105655055312
 20
189.7112884530078
 10
256.0297168816781
 20
189.7112884530078
 10
255.962728021914
 20
189.6835689248296
 10
255.8495399485194
 20
189.5703808514351
 10
255.8218204203412
 20
189.503391991671
 10
255.8218204203412
 20
189.4225433678178
 10
255.8218204203412
 20
187.3212491345281
 10
255.8218204203412
 20
185.2199549012385
 10
255.8218204203412
 20
183.1186606679488
 72
     1
 10
255.8218204203412
 20
183.1186606679488
 11
257.5404311673923
 21
183.1186606679488
 72
     1
 10
257.5404311673923
 20
183.1186606679488
 11
257.5404311673923
 21
185.7035066705701
 72
     1
 10
257.5404311673923
 20
185.7035066705701
 11
259.4877280219139
 21
185.7035066705701
 72
     1
 10
259.4877280219139
 20
185.7035066705701
 11
259.4877280219139
 21
187.1610918606094
 72
     1
 10
259.4877280219139
 20
187.1610918606094
 11
257.5404311673923
 21
187.1610918606094
 72
     1
 10
257.5404311673923
 20
187.1610918606094
 11
257.5404311673923
 21
188.260633145013
 72
     1
 10
257.5404311673923
 20
188.260633145013
 11
259.5870563312194
 21
188.260633145013
 72
     1
 10
259.5870563312193
 20
188.260633145013
 11
259.5870563312193
 21
189.7112884530078
 97
        0
 75
     0
 76
     1
 98
        0
  0
HATCH
  5
22D
330
1E3
100
AcDbEntity
  8
Default
  6
Continuous
 62
     7
100
AcDbHatch
 10
0.0
 20
0.0
 30
0.0
210
0.0
220
0.0
230
1.0
  2
SOLID
 70
     1
 71
     0
 91
        1
 92
        1
 93
        4
 72
     4
 94
        3
 73
     0
 74
     0
 95
       14
 96
       10
 40
0.0
 40
0.0
 40
0.0
 40
0.0
 40
0.7580098693161609
 40
0.7580098693161609
 40
0.7580098693161609
 40
0.8789822868889446
 40
0.8789822868889446
 40
0.8789822868889446
 40
1.0
 40
1.0
 40
1.0
 40
1.0
 10
262.1857620979297
 20
189.7274581777785
 10
261.7114501713242
 20
189.7274581777785
 10
261.2371382447187
 20
189.7274581777785
 10
260.7628263181132
 20
189.7274581777785
 10
260.68197769426
 20
189.7274581777785
 10
260.6172507110666
 20
189.6973825281723
 10
260.5595497781394
 20
189.6419896325622
 10
260.5018007611014
 20
189.5865505762057
 10
260.4740812329231
 20
189.5195617164416
 10
260.4740812329231
 20
189.4387130925884
 72
     1
 10
260.4740812329231
 20
189.4387130925884
 11
260.4740812329231
 21
183.1186606679488
 72
     1
 10
260.4740812329231
 20
183.1186606679488
 11
262.1857620979297
 21
183.1186606679488
 72
     1
 10
262.1857620979297
 20
183.1186606679488
 11
262.1857620979297
 21
189.7274581777785
 97
        0
 75
     0
 76
     1
 98
        0
  0
HATCH
  5
22E
330
1E3
100
AcDbEntity
  8
Default
  6
Continuous
 62
     7
100
AcDbHatch
 10
0.0
 20
0.0
 30
0.0
210
0.0
220
0.0
230
1.0
  2
SOLID
 70
     1
 71
     0
 91
        1
 92
        1
 93
       12
 72
     1
 10
266.2235733692272
 20
188.0042275093643
 11
265.2095006300398
 21
189.7112884530078
 72
     1
 10
265.2095006300398
 20
189.7112884530078
 11
263.1051264491747
 21
189.7112884530078
 72
     1
 10
263.1051264491747
 20
189.7112884530078
 11
265.2095006300398
 21
186.6436606679488
 72
     1
 10
265.2095006300398
 20
186.6436606679488
 11
262.6269645881001
 21
183.1186606679488
 72
     1
 10
262.6269645881001
 20
183.1186606679488
 11
264.7036192407868
 21
183.1186606679488
 72
     1
 10
264.7036192407868
 20
183.1186606679488
 11
266.2235733692272
 21
185.2646141410812
 72
     1
 10
266.2235733692272
 20
185.2646141410812
 11
267.2561257938668
 21
183.6453317033355
 72
     1
 10
267.2561257938668
 20
183.6453317033355
 11
268.2886782185064
 21
185.1144666967824
 72
     1
 10
268.2886782185064
 20
185.1144666967824
 11
267.226096305007
 21
186.6436606679488
 72
     1
 10
267.226096305007
 20
186.6436606679488
 11
269.3420202892797
 21
189.7112884530078
 72
     1
 10
269.3420202892797
 20
189.7112884530078
 11
267.226096305007
 21
189.7112884530078
 72
     1
 10
267.226096305007
 20
189.7112884530078
 11
266.2235733692272
 21
188.0042275093643
 97
        0
 75
     0
 76
     1
 98
        0
  0
HATCH
  5
22F
330
1E3
100
AcDbEntity
  8
Default
  6
Continuous
 62
     7
100
AcDbHatch
 10
0.0
 20
0.0
 30
0.0
210
0.0
220
0.0
230
1.0
  2
SOLID
 70
     1
 71
     0
 91
        1
 92
        1
 93
        3
 72
     4
 94
        3
 73
     0
 74
     0
 95
       13
 96
        9
 40
0.0
 40
0.0
 40
0.0
 40
0.0
 40
0.0445094381088423
 40
0.0445094381088423
 40
0.0908355879772283
 40
0.0908355879772283
 40
0.0908355879772283
 40
1.0
 40
1.0
 40
1.0
 40
1.0
 10
272.7122529236178
 20
189.5334214805307
 10
272.6198544963569
 20
189.6512294752883
 10
272.5159062656886
 20
189.7112884530078
 10
272.2849101975365
 20
189.7112884530078
 10
272.1870447473536
 20
189.6501983627819
 10
272.1047332643779
 20
189.5334214805307
 10
270.697967209332
 20
187.5376154516972
 10
269.2912011542862
 20
185.5418094228636
 10
267.8844350992403
 20
183.5460033940301
 72
     4
 94
        3
 73
     0
 74
     0
 95
       11
 96
        7
 40
0.0
 40
0.0
 40
0.0
 40
0.0
 40
0.3439066424360135
 40
0.3439066424360135
 40
0.3439066424360135
 40
1.0
 40
1.0
 40
1.0
 40
1.0
 10
267.8844350992403
 20
183.5460033940301
 10
267.8313060035653
 20
183.4605348488138
 10
267.8027439506852
 20
183.3911859889177
 10
267.8035864753871
 20
183.3381069326933
 10
267.8058964360686
 20
183.1925794097575
 10
267.9075347060556
 20
183.1186606679488
 10
268.1131212067108
 20
183.1186606679488
 72
     4
 94
        3
 73
     0
 74
     0
 95
       16
 96
       12
 40
0.0
 40
0.0
 40
0.0
 40
0.0
 40
0.5188870924081099
 40
0.5188870924081099
 40
0.5188870924081099
 40
0.544909989588877
 40
0.544909989588877
 40
0.5581347406151689
 40
0.5581347406151689
 40
0.5581347406151689
 40
1.0
 40
1.0
 40
1.0
 40
1.0
 10
268.1131212067108
 20
183.1186606679488
 10
270.9805523993713
 20
183.1186606679488
 10
273.8479835920319
 20
183.1186606679488
 10
276.7154147846925
 20
183.1186606679488
 10
276.9140714033032
 20
183.1186606679488
 10
277.0133997126086
 20
183.1879594883945
 10
277.0133997126086
 20
183.4004758710943
 10
276.9849943017649
 20
183.4716012002038
 10
276.9325510887554
 20
183.5460033940301
 10
275.5257850337095
 20
185.5418094228636
 10
274.1190189786636
 20
187.5376154516972
 10
272.7122529236178
 20
189.5334214805307
 97
        0
 75
     0
 76
     1
 98
        0
  0
ENDBLK
  5
231
330
1E3
100
AcDbEntity
  8
0
100
AcDbBlockEnd
  0
ENDSEC
  0
SECTION
  2
ENTITIES
  0
INSERT
  5
41
330
1F
100
AcDbEntity
  8
Default
100
AcDbBlockReference
  2
SE
 10
0.0
 20
0.0
 30
0.0
  0
DIMENSION
  5
156
330
1F
100
AcDbEntity
  8
Default
  6
Continuous
 62
     7
100
AcDbDimension
  2
DMBLK133
 10
152.6379602197
 20
148.296332254
 30
0.0
 11
178.3879601899
 21
148.296332254
 31
0.0
 70
   160
  1
\A1;<>
 71
     5
 42
-1.0
  3
DIN
100
AcDbAlignedDimension
 13
204.1379602197
 23
72.5063293119
 33
0.0
 14
152.6379602197
 24
121.8063293119
 34
0.0
100
AcDbRotatedDimension
  0
DIMENSION
  5
160
330
1F
100
AcDbEntity
  8
Default
  6
Continuous
 62
     7
100
AcDbDimension
  2
DMBLK134
 10
120.1379602197
 20
165.0963335176
 30
0.0
 11
162.1379607859
 21
165.0963335176
 31
0.0
 70
   160
  1
\A1;<>
 71
     5
 42
-1.0
  3
DIN
100
AcDbAlignedDimension
 13
204.1379602197
 23
72.5063293119
 33
0.0
 14
120.1379602197
 24
120.3063293119
 34
0.0
100
AcDbRotatedDimension
  0
DIMENSION
  5
16A
330
1F
100
AcDbEntity
  8
Default
  6
Continuous
 62
     7
100
AcDbDimension
  2
DMBLK135
 10
62.1379602197
 20
173.4963341495
 30
0.0
 11
133.1379578951
 21
173.4963341495
 31
0.0
 70
   160
  1
\A1;<>
 71
     5
 42
-1.0
  3
DIN
100
AcDbAlignedDimension
 13
204.1379602197
 23
72.5063293119
 33
0.0
 14
62.1379602197
 24
107.5063293119
 34
0.0
100
AcDbRotatedDimension
  0
DIMENSION
  5
174
330
1F
100
AcDbEntity
  8
Default
  6
Continuous
 62
     7
100
AcDbDimension
  2
DMBLK136
 10
204.1379602197
 20
44.6885101368
 30
0.0
 11
149.1379599216
 21
44.6885101368
 31
0.0
 70
   160
  1
\A1;<>
 71
     5
 42
-1.0
  3
DIN
100
AcDbAlignedDimension
 13
94.1379602197
 23
58.3063293119
 33
0.0
 14
204.1379602197
 24
72.5063293119
 34
0.0
100
AcDbRotatedDimension
  0
INSERT
  5
17F
330
1F
100
AcDbEntity
  8
Default
100
AcDbBlockReference
  2
GDimGGroup
 10
0.0
 20
0.0
 30
0.0
  0
INSERT
  5
18A
330
1F
100
AcDbEntity
  8
Default
100
AcDbBlockReference
  2
GDimGGroup1
 10
0.0
 20
0.0
 30
0.0
  0
INSERT
  5
196
330
1F
100
AcDbEntity
  8
Default
100
AcDbBlockReference
  2
GDimGGroup2
 10
0.0
 20
0.0
 30
0.0
  0
DIMENSION
  5
19F
330
1F
100
AcDbEntity
  8
Default
  6
Continuous
 62
     7
100
AcDbDimension
  2
DMBLK137
 10
180.6379602197
 20
139.8963316222
 30
0.0
 11
192.387960622
 21
139.8963316222
 31
0.0
 70
   160
  1
\A1;<>
 71
     5
 42
-1.0
  3
DIN
100
AcDbAlignedDimension
 13
204.1379602197
 23
72.5063293119
 33
0.0
 14
180.6379602197
 24
121.8063293119
 34
0.0
100
AcDbRotatedDimension
  0
DIMENSION
  5
1A9
330
1F
100
AcDbEntity
  8
Default
  6
Continuous
 62
     7
100
AcDbDimension
  2
DMBLK138
 10
136.1379602197
 20
156.6963328858
 30
0.0
 11
170.1379583719
 21
156.6963328858
 31
0.0
 70
   160
  1
\A1;<>
 71
     5
 42
-1.0
  3
DIN
100
AcDbAlignedDimension
 13
204.1379602197
 23
72.5063293119
 33
0.0
 14
136.1379602197
 24
114.3063293119
 34
0.0
100
AcDbRotatedDimension
  0
INSERT
  5
1B4
330
1F
100
AcDbEntity
  8
Default
100
AcDbBlockReference
  2
GDimGGroup3
 10
0.0
 20
0.0
 30
0.0
  0
INSERT
  5
1BE
330
1F
100
AcDbEntity
  8
Default
100
AcDbBlockReference
  2
GDimGGroup4
 10
0.0
 20
0.0
 30
0.0
  0
INSERT
  5
1C7
330
1F
100
AcDbEntity
  8
Default
100
AcDbBlockReference
  2
GDimGGroup5
 10
0.0
 20
0.0
 30
0.0
  0
INSERT
  5
232
330
1F
100
AcDbEntity
  8
Default
 62
     7
100
AcDbBlockReference
  2
RF-Massblatt_2016
 10
0.0
 20
0.0
 30
0.0
  0
ENDSEC
  0
SECTION
  2
OBJECTS
  0
DICTIONARY
  5
C
330
0
100
AcDbDictionary
281
     1
  3
ACAD_GROUP
350
D
  3
ACAD_LAYOUT
350
1A
  3
ACAD_MATERIAL
350
3B
  3
ACAD_MLEADERSTYLE
350
235
  3
ACAD_MLINESTYLE
350
17
  3
ACAD_PLOTSETTINGS
350
19
  3
ACAD_PLOTSTYLENAME
350
E
  3
ACAD_VISUALSTYLE
350
2A
  3
AcDbVariableDictionary
350
233
  0
DICTIONARY
  5
23A
330
1E4
100
AcDbDictionary
280
     1
281
     1
  3
ACAD_MTEXT_RT
360
23B
  0
DICTIONARY
  5
23C
330
1E5
100
AcDbDictionary
280
     1
281
     1
  3
ACAD_MTEXT_RT
360
23D
  0
DICTIONARY
  5
23E
330
1E8
100
AcDbDictionary
280
     1
281
     1
  3
ACAD_MTEXT_RT
360
23F
  0
DICTIONARY
  5
D
102
{ACAD_REACTORS
330
C
102
}
330
C
100
AcDbDictionary
281
     1
  0
DICTIONARY
  5
1A
102
{ACAD_REACTORS
330
C
102
}
330
C
100
AcDbDictionary
281
     1
  3
Layout1
350
1E
  3
Model
350
22
  0
DICTIONARY
  5
3B
102
{ACAD_REACTORS
330
C
102
}
330
C
100
AcDbDictionary
281
     1
  3
ByBlock
350
3D
  3
ByLayer
350
3C
  3
Global
350
3E
  0
DICTIONARY
  5
235
102
{ACAD_REACTORS
330
C
102
}
330
C
100
AcDbDictionary
281
     1
  0
DICTIONARY
  5
17
102
{ACAD_REACTORS
330
C
102
}
330
C
100
AcDbDictionary
281
     1
  3
Standard
350
18
  0
DICTIONARY
  5
19
102
{ACAD_REACTORS
330
C
102
}
330
C
100
AcDbDictionary
281
     1
  0
ACDBDICTIONARYWDFLT
  5
E
102
{ACAD_REACTORS
330
C
102
}
330
C
100
AcDbDictionary
281
     1
  3
Normal
350
F
100
AcDbDictionaryWithDefault
340
F
  0
DICTIONARY
  5
2A
102
{ACAD_REACTORS
330
C
102
}
330
C
100
AcDbDictionary
281
     1
  3
2dWireframe
350
2F
  3
3D Hidden
350
31
  3
3dWireframe
350
30
  3
Basic
350
32
  3
Brighten
350
36
  3
ColorChange
350
3A
  3
Conceptual
350
34
  3
Dim
350
35
  3
Facepattern
350
39
  3
Flat
350
2B
  3
FlatWithEdges
350
2C
  3
Gouraud
350
2D
  3
GouraudWithEdges
350
2E
  3
Linepattern
350
38
  3
Realistic
350
33
  3
Thicken
350
37
  0
DICTIONARY
  5
233
102
{ACAD_REACTORS
330
C
102
}
330
C
100
AcDbDictionary
281
     1
  3
DIMASSOC
350
238
  3
HIDETEXT
350
239
  3
PSOLHEIGHT
350
237
  3
PSOLWIDTH
350
236
  0
XRECORD
  5
23B
102
{ACAD_REACTORS
330
23A
102
}
330
23A
100
AcDbXrecord
280
     1
 40
10118767.0
  1
\pxsm1.;{\fVectora Com 45 Light|b1||i0||c0|p34;\C7;\H2.5;\W1.;REGO-FIX AG\P}{\fVectora Com 45 Light|b0||i0||c0|p34;\C7;\H2.5;\W1.;Obermattweg 60\P}{\fVectora Com 45 Light|b0||i0||c0|p34;\C7;\H2.5;\W1.;4456 Tenniken / Switzerland\P}{\fVectora Com 45 L
  1
ight|b0||i0||c0|p34;\C7;\H2.5;\W1.;\P}{\fVectora Com 45 Light|b0||i0||c0|p34;\C7;\H2.5;\W1.;P +41 61 976 14 66\P}{\fVectora Com 45 Light|b0||i0||c0|p34;\C7;\H2.5;\W1.;F +41 61 976 14 14\P}{\fVectora Com 45 Light|b1||i0||c0|p34;\C7;\H2.5;\W1.;www.rego
  1
-fix.com}
  0
XRECORD
  5
23D
102
{ACAD_REACTORS
330
23C
102
}
330
23C
100
AcDbXrecord
280
     1
 40
47111022.0
  1
\pxsm1.;{\fSolid Edge ISO|b0||i0||c0|p34;\C7;\H2.;\W1.;This is a non-controlled copy. All information given herein is subject to change without notice\P}{\fSolid Edge ISO|b0||i0||c0|p34;\C7;\H2.;\W1.;\P}{\fSolid Edge ISO|b0||i0||c0|p34;\C7;\H2.;\W1.;
  1
The information given herein has been carefully checked and is believed to be correct. REGO-FIX,\P}{\fSolid Edge ISO|b0||i0||c0|p34;\C7;\H2.;\W1.;however, assumes no responsibility or liability for any errors, inaccuracies or omissions that may appea
  1
r\P}{\fSolid Edge ISO|b0||i0||c0|p34;\C7;\H2.;\W1.;in this drawing\P}{\fSolid Edge ISO|b0||i0||c0|p34;\C7;\H2.;\W1.;\P}{\fSolid Edge ISO|b0||i0||c0|p34;\C7;\H2.;\W1.;This document is subject to copyright laws. No part of this document may be reproduc
  1
ed or transmitted\P}{\fSolid Edge ISO|b0||i0||c0|p34;\C7;\H2.;\W1.;in any form or any means, electronic or mechanic, for any purpose, without the express written permission\P}{\fSolid Edge ISO|b0||i0||c0|p34;\C7;\H2.;\W1.;of REGO-FIX\P}{\fSolid Edge 
  1
ISO|b0||i0||c0|p34;\C7;\H1.5;\W1.;\P}
  0
XRECORD
  5
23F
102
{ACAD_REACTORS
330
23E
102
}
330
23E
100
AcDbXrecord
280
     1
 40
2697483.0
  1
\pxsm1.;{\fVectora Com 45 Light|b0||i0||c0|p34;\C7;\H3.5;\W1.;Type :\P}{\fVectora Com 45 Light|b0||i0||c0|p34;\C7;\H3.5;\W1.;Part No. :\P}{\fVectora Com 45 Light|b0||i0||c0|p34;\C7;\H3.5;\W1.;Date : \P}{\fVectora Com 45 Light|b0||i0||c0|p34;\C7;\H3.5
  1
;\W1.;Scale :}
  0
LAYOUT
  5
1E
102
{ACAD_REACTORS
330
1A
102
}
330
1A
100
AcDbPlotSettings
  1

  2
none_device
  4

  6

 40
0.0
 41
0.0
 42
0.0
 43
0.0
 44
0.0
 45
0.0
 46
0.0
 47
0.0
 48
0.0
 49
0.0
140
0.0
141
0.0
142
1.0
143
1.0
 70
   688
 72
     0
 73
     0
 74
     5
  7

 75
    16
147
1.0
148
0.0
149
0.0
100
AcDbLayout
  1
Layout1
 70
     1
 71
     1
 10
0.0
 20
0.0
 11
297.0
 21
210.0
 12
0.0
 22
0.0
 32
0.0
 14
0.0
 24
0.0
 34
0.0
 15
297.0
 25
210.0
 35
0.0
146
0.0
 13
0.0
 23
0.0
 33
0.0
 16
1.0
 26
0.0
 36
0.0
 17
0.0
 27
1.0
 37
0.0
 76
     0
330
1B
  0
LAYOUT
  5
22
102
{ACAD_REACTORS
330
1A
102
}
330
1A
100
AcDbPlotSettings
  1

  2
none_device
  4

  6

 40
0.0
 41
0.0
 42
0.0
 43
0.0
 44
0.0
 45
0.0
 46
0.0
 47
0.0
 48
0.0
 49
0.0
140
0.0
141
0.0
142
1.0
143
1.0
 70
  1712
 72
     0
 73
     0
 74
     0
  7

 75
     0
147
1.0
148
0.0
149
0.0
100
AcDbLayout
  1
Model
 70
     1
 71
     0
 10
0.0
 20
0.0
 11
297.0
 21
210.0
 12
0.0
 22
0.0
 32
0.0
 14
0.0
 24
0.0
 34
0.0
 15
297.0
 25
210.0
 35
0.0
146
0.0
 13
0.0
 23
0.0
 33
0.0
 16
1.0
 26
0.0
 36
0.0
 17
0.0
 27
1.0
 37
0.0
 76
     0
330
1F
331
29
  0
MATERIAL
  5
3D
102
{ACAD_REACTORS
330
3B
102
}
102
{ACAD_XDICTIONARY
360
262
102
}
330
3B
100
AcDbMaterial
  1
ByBlock
  0
MATERIAL
  5
3C
102
{ACAD_REACTORS
330
3B
102
}
102
{ACAD_XDICTIONARY
360
260
102
}
330
3B
100
AcDbMaterial
  1
ByLayer
  0
MATERIAL
  5
3E
102
{ACAD_REACTORS
330
3B
102
}
102
{ACAD_XDICTIONARY
360
264
102
}
330
3B
100
AcDbMaterial
  1
Global
  0
MLINESTYLE
  5
18
102
{ACAD_REACTORS
330
17
102
}
330
17
100
AcDbMlineStyle
  2
Standard
 70
     0
  3

 62
   256
 51
90.0
 52
90.0
 71
     2
 49
0.5
 62
   256
  6
BYLAYER
 49
-0.5
 62
   256
  6
BYLAYER
  0
ACDBPLACEHOLDER
  5
F
102
{ACAD_REACTORS
330
E
102
}
330
E
  0
VISUALSTYLE
  5
2F
102
{ACAD_REACTORS
330
2A
102
}
102
{ACAD_XDICTIONARY
360
248
102
}
330
2A
100
AcDbVisualStyle
  2
2dWireframe
 70
     4
 71
     0
 72
     2
 73
     0
 90
        0
 40
-0.6
 41
-30.0
 62
     5
 63
     7
 74
     1
 91
        4
 64
     7
 65
   257
 75
     1
175
     1
 42
1.0
 92
        0
 66
   257
 43
1.0
 76
     1
 77
     6
 78
     2
 67
     7
 79
     5
170
     0
171
     0
290
     0
174
     0
 93
        1
 44
0.0
173
     0
291
     0
 45
0.0
1001
ACAD
1000
AcDbSavedByObjectVersion
1070
     0
  0
VISUALSTYLE
  5
31
102
{ACAD_REACTORS
330
2A
102
}
102
{ACAD_XDICTIONARY
360
24C
102
}
330
2A
100
AcDbVisualStyle
  2
3D Hidden
 70
     6
 71
     1
 72
     2
 73
     2
 90
        0
 40
-0.6
 41
-30.0
 62
     5
 63
     7
 74
     2
 91
        2
 64
     7
 65
   257
 75
     2
175
     1
 42
40.0
 92
        0
 66
   257
 43
1.0
 76
     1
 77
     6
 78
     2
 67
     7
 79
     3
170
     0
171
     0
290
     0
174
     0
 93
        1
 44
0.0
173
     0
291
     0
 45
0.0
1001
ACAD
1000
AcDbSavedByObjectVersion
1070
     0
  0
VISUALSTYLE
  5
30
102
{ACAD_REACTORS
330
2A
102
}
102
{ACAD_XDICTIONARY
360
24A
102
}
330
2A
100
AcDbVisualStyle
  2
3dWireframe
 70
     5
 71
     0
 72
     2
 73
     0
 90
        0
 40
-0.6
 41
-30.0
 62
     5
 63
     7
 74
     1
 91
        4
 64
     7
 65
   257
 75
     1
175
     1
 42
1.0
 92
        0
 66
   257
 43
1.0
 76
     1
 77
     6
 78
     2
 67
     7
 79
     5
170
     0
171
     0
290
     0
174
     0
 93
        1
 44
0.0
173
     0
291
     0
 45
0.0
1001
ACAD
1000
AcDbSavedByObjectVersion
1070
     0
  0
VISUALSTYLE
  5
32
102
{ACAD_REACTORS
330
2A
102
}
102
{ACAD_XDICTIONARY
360
24E
102
}
330
2A
100
AcDbVisualStyle
  2
Basic
 70
     7
 71
     1
 72
     0
 73
     1
 90
        0
 40
-0.6
 41
-30.0
 62
     5
 63
     7
 74
     0
 91
        4
 64
     7
 65
   257
 75
     1
175
     1
 42
1.0
 92
        8
 66
     7
 43
1.0
 76
     1
 77
     6
 78
     2
 67
     7
 79
     5
170
     0
171
     0
290
     0
174
     0
 93
        1
 44
0.0
173
     0
291
     1
 45
0.0
1001
ACAD
1000
AcDbSavedByObjectVersion
1070
     0
  0
VISUALSTYLE
  5
36
102
{ACAD_REACTORS
330
2A
102
}
102
{ACAD_XDICTIONARY
360
256
102
}
330
2A
100
AcDbVisualStyle
  2
Brighten
 70
    12
 71
     2
 72
     2
 73
     0
 90
        0
 40
-0.6
 41
-30.0
 62
     5
 63
     7
 74
     1
 91
        4
 64
     7
 65
   257
 75
     1
175
     1
 42
1.0
 92
        8
 66
     7
 43
1.0
 76
     1
 77
     6
 78
     2
 67
     7
 79
     5
170
     0
171
     0
290
     0
174
     0
 93
        1
 44
50.0
173
     0
291
     1
 45
0.0
1001
ACAD
1000
AcDbSavedByObjectVersion
1070
     0
  0
VISUALSTYLE
  5
3A
102
{ACAD_REACTORS
330
2A
102
}
102
{ACAD_XDICTIONARY
360
25E
102
}
330
2A
100
AcDbVisualStyle
  2
ColorChange
 70
    16
 71
     2
 72
     2
 73
     3
 90
        0
 40
-0.6
 41
-30.0
 62
     5
 63
     8
 74
     1
 91
        4
 64
     7
 65
   257
 75
     1
175
     1
 42
1.0
 92
        8
 66
     8
 43
1.0
 76
     1
 77
     6
 78
     2
 67
     7
 79
     5
170
     0
171
     0
290
     0
174
     0
 93
        1
 44
0.0
173
     0
291
     1
 45
0.0
1001
ACAD
1000
AcDbSavedByObjectVersion
1070
     0
  0
VISUALSTYLE
  5
34
102
{ACAD_REACTORS
330
2A
102
}
102
{ACAD_XDICTIONARY
360
252
102
}
330
2A
100
AcDbVisualStyle
  2
Conceptual
 70
     9
 71
     3
 72
     2
 73
     0
 90
        0
 40
-0.6
 41
-30.0
 62
     5
 63
     7
 74
     2
 91
        2
 64
     7
 65
   257
 75
     1
175
     1
 42
40.0
 92
        8
 66
     7
 43
1.0
 76
     1
 77
     6
 78
     2
 67
     7
 79
     3
170
     0
171
     0
290
     0
174
     0
 93
        1
 44
0.0
173
     0
291
     0
 45
0.0
1001
ACAD
1000
AcDbSavedByObjectVersion
1070
     0
  0
VISUALSTYLE
  5
35
102
{ACAD_REACTORS
330
2A
102
}
102
{ACAD_XDICTIONARY
360
254
102
}
330
2A
100
AcDbVisualStyle
  2
Dim
 70
    11
 71
     2
 72
     2
 73
     0
 90
        0
 40
-0.6
 41
-30.0
 62
     5
 63
     7
 74
     1
 91
        4
 64
     7
 65
   257
 75
     1
175
     1
 42
1.0
 92
        8
 66
     7
 43
1.0
 76
     1
 77
     6
 78
     2
 67
     7
 79
     5
170
     0
171
     0
290
     0
174
     0
 93
        1
 44
-50.0
173
     0
291
     1
 45
0.0
1001
ACAD
1000
AcDbSavedByObjectVersion
1070
     0
  0
VISUALSTYLE
  5
39
102
{ACAD_REACTORS
330
2A
102
}
102
{ACAD_XDICTIONARY
360
25C
102
}
330
2A
100
AcDbVisualStyle
  2
Facepattern
 70
    15
 71
     2
 72
     2
 73
     0
 90
        0
 40
-0.6
 41
-30.0
 62
     5
 63
     7
 74
     1
 91
        4
 64
     7
 65
   257
 75
     1
175
     1
 42
1.0
 92
        8
 66
     7
 43
1.0
 76
     1
 77
     6
 78
     2
 67
     7
 79
     5
170
     0
171
     0
290
     0
174
     0
 93
        1
 44
0.0
173
     0
291
     1
 45
0.0
1001
ACAD
1000
AcDbSavedByObjectVersion
1070
     0
  0
VISUALSTYLE
  5
2B
102
{ACAD_REACTORS
330
2A
102
}
102
{ACAD_XDICTIONARY
360
240
102
}
330
2A
100
AcDbVisualStyle
  2
Flat
 70
     0
 71
     2
 72
     1
 73
     1
 90
        2
 40
-0.6
 41
30.0
 62
     5
 63
     7
 74
     0
 91
        4
 64
     7
 65
   257
 75
     1
175
     1
 42
1.0
 92
        8
 66
     7
 43
1.0
 76
     1
 77
     6
 78
     2
 67
     7
 79
     5
170
     0
171
     0
290
     0
174
     0
 93
       13
 44
0.0
173
     0
291
     1
 45
0.0
1001
ACAD
1000
AcDbSavedByObjectVersion
1070
     0
  0
VISUALSTYLE
  5
2C
102
{ACAD_REACTORS
330
2A
102
}
102
{ACAD_XDICTIONARY
360
242
102
}
330
2A
100
AcDbVisualStyle
  2
FlatWithEdges
 70
     1
 71
     2
 72
     1
 73
     1
 90
        2
 40
-0.6
 41
30.0
 62
     5
 63
     7
 74
     1
 91
        4
 64
     7
 65
   257
 75
     1
175
     1
 42
1.0
 92
        0
 66
   257
 43
1.0
 76
     1
 77
     6
 78
     2
 67
     7
 79
     5
170
     0
171
     0
290
     0
174
     0
 93
       13
 44
0.0
173
     0
291
     1
 45
0.0
1001
ACAD
1000
AcDbSavedByObjectVersion
1070
     0
  0
VISUALSTYLE
  5
2D
102
{ACAD_REACTORS
330
2A
102
}
102
{ACAD_XDICTIONARY
360
244
102
}
330
2A
100
AcDbVisualStyle
  2
Gouraud
 70
     2
 71
     2
 72
     2
 73
     1
 90
        2
 40
-0.6
 41
30.0
 62
     5
 63
     7
 74
     0
 91
        4
 64
     7
 65
   257
 75
     1
175
     1
 42
1.0
 92
        0
 66
     7
 43
1.0
 76
     1
 77
     6
 78
     2
 67
     7
 79
     5
170
     0
171
     0
290
     0
174
     0
 93
       13
 44
0.0
173
     0
291
     1
 45
0.0
1001
ACAD
1000
AcDbSavedByObjectVersion
1070
     0
  0
VISUALSTYLE
  5
2E
102
{ACAD_REACTORS
330
2A
102
}
102
{ACAD_XDICTIONARY
360
246
102
}
330
2A
100
AcDbVisualStyle
  2
GouraudWithEdges
 70
     3
 71
     2
 72
     2
 73
     1
 90
        2
 40
-0.6
 41
30.0
 62
     5
 63
     7
 74
     1
 91
        4
 64
     7
 65
   257
 75
     1
175
     1
 42
1.0
 92
        0
 66
   257
 43
1.0
 76
     1
 77
     6
 78
     2
 67
     7
 79
     5
170
     0
171
     0
290
     0
174
     0
 93
       13
 44
0.0
173
     0
291
     1
 45
0.0
1001
ACAD
1000
AcDbSavedByObjectVersion
1070
     0
  0
VISUALSTYLE
  5
38
102
{ACAD_REACTORS
330
2A
102
}
102
{ACAD_XDICTIONARY
360
25A
102
}
330
2A
100
AcDbVisualStyle
  2
Linepattern
 70
    14
 71
     2
 72
     2
 73
     0
 90
        0
 40
-0.6
 41
-30.0
 62
     5
 63
     7
 74
     1
 91
        4
 64
     7
 65
   257
 75
     7
175
     7
 42
1.0
 92
        8
 66
     7
 43
1.0
 76
     1
 77
     6
 78
     2
 67
     7
 79
     5
170
     0
171
     0
290
     0
174
     0
 93
        1
 44
0.0
173
     0
291
     1
 45
0.0
1001
ACAD
1000
AcDbSavedByObjectVersion
1070
     0
  0
VISUALSTYLE
  5
33
102
{ACAD_REACTORS
330
2A
102
}
102
{ACAD_XDICTIONARY
360
250
102
}
330
2A
100
AcDbVisualStyle
  2
Realistic
 70
     8
 71
     2
 72
     2
 73
     0
 90
        0
 40
-0.6
 41
-30.0
 62
     5
 63
     7
 74
     1
 91
        0
 64
     7
 65
   257
 75
     1
175
     1
 42
1.0
 92
        8
 66
     8
 43
1.0
 76
     1
 77
     6
 78
     2
 67
     7
 79
     5
170
     0
171
     0
290
     0
174
     0
 93
       13
 44
0.0
173
     0
291
     0
 45
0.0
1001
ACAD
1000
AcDbSavedByObjectVersion
1070
     0
  0
VISUALSTYLE
  5
37
102
{ACAD_REACTORS
330
2A
102
}
102
{ACAD_XDICTIONARY
360
258
102
}
330
2A
100
AcDbVisualStyle
  2
Thicken
 70
    13
 71
     2
 72
     2
 73
     0
 90
        0
 40
-0.6
 41
-30.0
 62
     5
 63
     7
 74
     1
 91
        4
 64
     7
 65
   257
 75
     1
175
     1
 42
1.0
 92
       12
 66
     7
 43
1.0
 76
     1
 77
     6
 78
     2
 67
     7
 79
     5
170
     0
171
     0
290
     0
174
     0
 93
        1
 44
0.0
173
     0
291
     1
 45
0.0
1001
ACAD
1000
AcDbSavedByObjectVersion
1070
     0
  0
DICTIONARYVAR
  5
238
102
{ACAD_REACTORS
330
233
102
}
330
233
100
DictionaryVariables
280
     0
  1
2
  0
DICTIONARYVAR
  5
239
102
{ACAD_REACTORS
330
233
102
}
330
233
100
DictionaryVariables
280
     0
  1
1
  0
DICTIONARYVAR
  5
237
102
{ACAD_REACTORS
330
233
102
}
330
233
100
DictionaryVariables
280
     0
  1
80.000000
  0
DICTIONARYVAR
  5
236
102
{ACAD_REACTORS
330
233
102
}
330
233
100
DictionaryVariables
280
     0
  1
5.000000
  0
DICTIONARY
  5
262
330
3D
100
AcDbDictionary
280
     1
281
     1
  3
ACAD_XREC_ROUNDTRIP
360
263
  0
DICTIONARY
  5
260
330
3C
100
AcDbDictionary
280
     1
281
     1
  3
ACAD_XREC_ROUNDTRIP
360
261
  0
DICTIONARY
  5
264
330
3E
100
AcDbDictionary
280
     1
281
     1
  3
ACAD_XREC_ROUNDTRIP
360
265
  0
DICTIONARY
  5
248
330
2F
100
AcDbDictionary
280
     1
281
     1
  3
ACAD_XREC_ROUNDTRIP
360
249
  0
DICTIONARY
  5
24C
330
31
100
AcDbDictionary
280
     1
281
     1
  3
ACAD_XREC_ROUNDTRIP
360
24D
  0
DICTIONARY
  5
24A
330
30
100
AcDbDictionary
280
     1
281
     1
  3
ACAD_XREC_ROUNDTRIP
360
24B
  0
DICTIONARY
  5
24E
330
32
100
AcDbDictionary
280
     1
281
     1
  3
ACAD_XREC_ROUNDTRIP
360
24F
  0
DICTIONARY
  5
256
330
36
100
AcDbDictionary
280
     1
281
     1
  3
ACAD_XREC_ROUNDTRIP
360
257
  0
DICTIONARY
  5
25E
330
3A
100
AcDbDictionary
280
     1
281
     1
  3
ACAD_XREC_ROUNDTRIP
360
25F
  0
DICTIONARY
  5
252
330
34
100
AcDbDictionary
280
     1
281
     1
  3
ACAD_XREC_ROUNDTRIP
360
253
  0
DICTIONARY
  5
254
330
35
100
AcDbDictionary
280
     1
281
     1
  3
ACAD_XREC_ROUNDTRIP
360
255
  0
DICTIONARY
  5
25C
330
39
100
AcDbDictionary
280
     1
281
     1
  3
ACAD_XREC_ROUNDTRIP
360
25D
  0
DICTIONARY
  5
240
330
2B
100
AcDbDictionary
280
     1
281
     1
  3
ACAD_XREC_ROUNDTRIP
360
241
  0
DICTIONARY
  5
242
330
2C
100
AcDbDictionary
280
     1
281
     1
  3
ACAD_XREC_ROUNDTRIP
360
243
  0
DICTIONARY
  5
244
330
2D
100
AcDbDictionary
280
     1
281
     1
  3
ACAD_XREC_ROUNDTRIP
360
245
  0
DICTIONARY
  5
246
330
2E
100
AcDbDictionary
280
     1
281
     1
  3
ACAD_XREC_ROUNDTRIP
360
247
  0
DICTIONARY
  5
25A
330
38
100
AcDbDictionary
280
     1
281
     1
  3
ACAD_XREC_ROUNDTRIP
360
25B
  0
DICTIONARY
  5
250
330
33
100
AcDbDictionary
280
     1
281
     1
  3
ACAD_XREC_ROUNDTRIP
360
251
  0
DICTIONARY
  5
258
330
37
100
AcDbDictionary
280
     1
281
     1
  3
ACAD_XREC_ROUNDTRIP
360
259
  0
XRECORD
  5
263
102
{ACAD_REACTORS
330
262
102
}
330
262
100
AcDbXrecord
280
     1
102
MATERIAL
148
0.0
149
0.0
149
0.0
 93
        0
 94
      127
282
     0
 72
     1
 77
     1
171
     1
175
     1
179
     1
273
     0
  0
XRECORD
  5
261
102
{ACAD_REACTORS
330
260
102
}
330
260
100
AcDbXrecord
280
     1
102
MATERIAL
148
0.0
149
0.0
149
0.0
 93
        0
 94
      127
282
     0
 72
     1
 77
     1
171
     1
175
     1
179
     1
273
     0
  0
XRECORD
  5
265
102
{ACAD_REACTORS
330
264
102
}
330
264
100
AcDbXrecord
280
     1
102
MATERIAL
148
0.0
149
0.0
149
0.0
 93
        0
 94
      127
282
     0
 72
     1
 77
     1
171
     1
175
     1
179
     1
273
     0
  0
XRECORD
  5
249
102
{ACAD_REACTORS
330
248
102
}
330
248
100
AcDbXrecord
280
     1
102
RTVSPropertyOp0
 70
     1
102
RTVSPropertyOp1
 70
     1
102
RTVSPropertyOp2
 70
     1
102
RTVSPropertyOp3
 70
     1
102
RTVSPropertyOp4
 70
     1
102
RTVSPropertyOp5
 70
     1
102
RTVSPropertyOp6
 70
     1
102
RTVSPropertyOp7
 70
     1
102
RTVSPropertyOp8
 70
     1
102
RTVSPropertyOp9
 70
     1
102
RTVSPropertyOp10
 70
     1
102
RTVSPropertyOp11
 70
     1
102
RTVSPropertyOp12
 70
     1
102
RTVSPropertyOp13
 70
     1
102
RTVSPropertyOp14
 70
     1
102
RTVSPropertyOp15
 70
     1
102
RTVSPropertyOp16
 70
     1
102
RTVSPropertyOp17
 70
     1
102
RTVSPropertyOp18
 70
     1
102
RTVSPropertyOp19
 70
     1
102
RTVSPropertyOp20
 70
     1
102
RTVSPropertyOp21
 70
     1
102
RTVSPropertyOp22
 70
     1
102
RTVSPropertyOp23
 70
     1
102
RTVSPropertyOp24
 70
     1
102
RTVSPropertyOp25
 70
     1
102
RTVSPropertyOp26
 70
     1
102
RTVSPropertyOp27
 70
     1
102
RTVSPropertyOp28
 70
     1
102
RTVSPropertyOp29
 70
     1
102
RTVSPropertyOp30
 70
     1
102
RTVSPropertyOp31
 70
     1
102
RTVSPropertyOp32
 70
     1
  0
XRECORD
  5
24D
102
{ACAD_REACTORS
330
24C
102
}
330
24C
100
AcDbXrecord
280
     1
102
RTVSPropertyOp0
 70
     1
102
RTVSPropertyOp1
 70
     1
102
RTVSPropertyOp2
 70
     1
102
RTVSPropertyOp3
 70
     1
102
RTVSPropertyOp4
 70
     1
102
RTVSPropertyOp5
 70
     1
102
RTVSPropertyOp6
 70
     1
102
RTVSPropertyOp7
 70
     1
102
RTVSPropertyOp8
 70
     1
102
RTVSPropertyOp9
 70
     1
102
RTVSPropertyOp10
 70
     1
102
RTVSPropertyOp11
 70
     1
102
RTVSPropertyOp12
 70
     1
102
RTVSPropertyOp13
 70
     1
102
RTVSPropertyOp14
 70
     1
102
RTVSPropertyOp15
 70
     1
102
RTVSPropertyOp16
 70
     1
102
RTVSPropertyOp17
 70
     1
102
RTVSPropertyOp18
 70
     1
102
RTVSPropertyOp19
 70
     1
102
RTVSPropertyOp20
 70
     1
102
RTVSPropertyOp21
 70
     1
102
RTVSPropertyOp22
 70
     1
102
RTVSPropertyOp23
 70
     1
102
RTVSPropertyOp24
 70
     1
102
RTVSPropertyOp25
 70
     1
102
RTVSPropertyOp26
 70
     1
102
RTVSPropertyOp27
 70
     1
102
RTVSPropertyOp28
 70
     1
102
RTVSPropertyOp29
 70
     1
102
RTVSPropertyOp30
 70
     1
102
RTVSPropertyOp31
 70
     1
102
RTVSPropertyOp32
 70
     1
  0
XRECORD
  5
24B
102
{ACAD_REACTORS
330
24A
102
}
330
24A
100
AcDbXrecord
280
     1
102
RTVSPropertyOp0
 70
     1
102
RTVSPropertyOp1
 70
     1
102
RTVSPropertyOp2
 70
     1
102
RTVSPropertyOp3
 70
     1
102
RTVSPropertyOp4
 70
     1
102
RTVSPropertyOp5
 70
     1
102
RTVSPropertyOp6
 70
     1
102
RTVSPropertyOp7
 70
     1
102
RTVSPropertyOp8
 70
     1
102
RTVSPropertyOp9
 70
     1
102
RTVSPropertyOp10
 70
     1
102
RTVSPropertyOp11
 70
     1
102
RTVSPropertyOp12
 70
     1
102
RTVSPropertyOp13
 70
     1
102
RTVSPropertyOp14
 70
     1
102
RTVSPropertyOp15
 70
     1
102
RTVSPropertyOp16
 70
     1
102
RTVSPropertyOp17
 70
     1
102
RTVSPropertyOp18
 70
     1
102
RTVSPropertyOp19
 70
     1
102
RTVSPropertyOp20
 70
     1
102
RTVSPropertyOp21
 70
     1
102
RTVSPropertyOp22
 70
     1
102
RTVSPropertyOp23
 70
     1
102
RTVSPropertyOp24
 70
     1
102
RTVSPropertyOp25
 70
     1
102
RTVSPropertyOp26
 70
     1
102
RTVSPropertyOp27
 70
     1
102
RTVSPropertyOp28
 70
     1
102
RTVSPropertyOp29
 70
     1
102
RTVSPropertyOp30
 70
     1
102
RTVSPropertyOp31
 70
     1
102
RTVSPropertyOp32
 70
     1
  0
XRECORD
  5
24F
102
{ACAD_REACTORS
330
24E
102
}
330
24E
100
AcDbXrecord
280
     1
102
RTVSPropertyOp0
 70
     1
102
RTVSPropertyOp1
 70
     1
102
RTVSPropertyOp2
 70
     1
102
RTVSPropertyOp3
 70
     1
102
RTVSPropertyOp4
 70
     1
102
RTVSPropertyOp5
 70
     1
102
RTVSPropertyOp6
 70
     1
102
RTVSPropertyOp7
 70
     1
102
RTVSPropertyOp8
 70
     1
102
RTVSPropertyOp9
 70
     1
102
RTVSPropertyOp10
 70
     1
102
RTVSPropertyOp11
 70
     1
102
RTVSPropertyOp12
 70
     1
102
RTVSPropertyOp13
 70
     1
102
RTVSPropertyOp14
 70
     1
102
RTVSPropertyOp15
 70
     1
102
RTVSPropertyOp16
 70
     1
102
RTVSPropertyOp17
 70
     1
102
RTVSPropertyOp18
 70
     1
102
RTVSPropertyOp19
 70
     1
102
RTVSPropertyOp20
 70
     1
102
RTVSPropertyOp21
 70
     1
102
RTVSPropertyOp22
 70
     1
102
RTVSPropertyOp23
 70
     1
102
RTVSPropertyOp24
 70
     1
102
RTVSPropertyOp25
 70
     1
102
RTVSPropertyOp26
 70
     1
102
RTVSPropertyOp27
 70
     1
102
RTVSPropertyOp28
 70
     1
102
RTVSPropertyOp29
 70
     1
102
RTVSPropertyOp30
 70
     1
102
RTVSPropertyOp31
 70
     1
102
RTVSPropertyOp32
 70
     1
  0
XRECORD
  5
257
102
{ACAD_REACTORS
330
256
102
}
330
256
100
AcDbXrecord
280
     1
102
RTVSPropertyOp0
 70
     1
102
RTVSPropertyOp1
 70
     1
102
RTVSPropertyOp2
 70
     1
102
RTVSPropertyOp3
 70
     1
102
RTVSPropertyOp4
 70
     1
102
RTVSPropertyOp5
 70
     1
102
RTVSPropertyOp6
 70
     1
102
RTVSPropertyOp7
 70
     1
102
RTVSPropertyOp8
 70
     1
102
RTVSPropertyOp9
 70
     1
102
RTVSPropertyOp10
 70
     1
102
RTVSPropertyOp11
 70
     1
102
RTVSPropertyOp12
 70
     1
102
RTVSPropertyOp13
 70
     1
102
RTVSPropertyOp14
 70
     1
102
RTVSPropertyOp15
 70
     1
102
RTVSPropertyOp16
 70
     1
102
RTVSPropertyOp17
 70
     1
102
RTVSPropertyOp18
 70
     1
102
RTVSPropertyOp19
 70
     1
102
RTVSPropertyOp20
 70
     1
102
RTVSPropertyOp21
 70
     1
102
RTVSPropertyOp22
 70
     1
102
RTVSPropertyOp23
 70
     1
102
RTVSPropertyOp24
 70
     1
102
RTVSPropertyOp25
 70
     1
102
RTVSPropertyOp26
 70
     1
102
RTVSPropertyOp27
 70
     1
102
RTVSPropertyOp28
 70
     1
102
RTVSPropertyOp29
 70
     1
102
RTVSPropertyOp30
 70
     1
102
RTVSPropertyOp31
 70
     1
102
RTVSPropertyOp32
 70
     1
  0
XRECORD
  5
25F
102
{ACAD_REACTORS
330
25E
102
}
330
25E
100
AcDbXrecord
280
     1
102
RTVSPropertyOp0
 70
     1
102
RTVSPropertyOp1
 70
     1
102
RTVSPropertyOp2
 70
     1
102
RTVSPropertyOp3
 70
     1
102
RTVSPropertyOp4
 70
     1
102
RTVSPropertyOp5
 70
     1
102
RTVSPropertyOp6
 70
     1
102
RTVSPropertyOp7
 70
     1
102
RTVSPropertyOp8
 70
     1
102
RTVSPropertyOp9
 70
     1
102
RTVSPropertyOp10
 70
     1
102
RTVSPropertyOp11
 70
     1
102
RTVSPropertyOp12
 70
     1
102
RTVSPropertyOp13
 70
     1
102
RTVSPropertyOp14
 70
     1
102
RTVSPropertyOp15
 70
     1
102
RTVSPropertyOp16
 70
     1
102
RTVSPropertyOp17
 70
     1
102
RTVSPropertyOp18
 70
     1
102
RTVSPropertyOp19
 70
     1
102
RTVSPropertyOp20
 70
     1
102
RTVSPropertyOp21
 70
     1
102
RTVSPropertyOp22
 70
     1
102
RTVSPropertyOp23
 70
     1
102
RTVSPropertyOp24
 70
     1
102
RTVSPropertyOp25
 70
     1
102
RTVSPropertyOp26
 70
     1
102
RTVSPropertyOp27
 70
     1
102
RTVSPropertyOp28
 70
     1
102
RTVSPropertyOp29
 70
     1
102
RTVSPropertyOp30
 70
     1
102
RTVSPropertyOp31
 70
     1
102
RTVSPropertyOp32
 70
     1
  0
XRECORD
  5
253
102
{ACAD_REACTORS
330
252
102
}
330
252
100
AcDbXrecord
280
     1
102
RTVSPropertyOp0
 70
     1
102
RTVSPropertyOp1
 70
     1
102
RTVSPropertyOp2
 70
     1
102
RTVSPropertyOp3
 70
     1
102
RTVSPropertyOp4
 70
     1
102
RTVSPropertyOp5
 70
     1
102
RTVSPropertyOp6
 70
     1
102
RTVSPropertyOp7
 70
     1
102
RTVSPropertyOp8
 70
     1
102
RTVSPropertyOp9
 70
     1
102
RTVSPropertyOp10
 70
     1
102
RTVSPropertyOp11
 70
     1
102
RTVSPropertyOp12
 70
     1
102
RTVSPropertyOp13
 70
     1
102
RTVSPropertyOp14
 70
     1
102
RTVSPropertyOp15
 70
     1
102
RTVSPropertyOp16
 70
     1
102
RTVSPropertyOp17
 70
     1
102
RTVSPropertyOp18
 70
     1
102
RTVSPropertyOp19
 70
     1
102
RTVSPropertyOp20
 70
     1
102
RTVSPropertyOp21
 70
     1
102
RTVSPropertyOp22
 70
     1
102
RTVSPropertyOp23
 70
     1
102
RTVSPropertyOp24
 70
     1
102
RTVSPropertyOp25
 70
     1
102
RTVSPropertyOp26
 70
     1
102
RTVSPropertyOp27
 70
     1
102
RTVSPropertyOp28
 70
     1
102
RTVSPropertyOp29
 70
     1
102
RTVSPropertyOp30
 70
     1
102
RTVSPropertyOp31
 70
     1
102
RTVSPropertyOp32
 70
     1
  0
XRECORD
  5
255
102
{ACAD_REACTORS
330
254
102
}
330
254
100
AcDbXrecord
280
     1
102
RTVSPropertyOp0
 70
     1
102
RTVSPropertyOp1
 70
     1
102
RTVSPropertyOp2
 70
     1
102
RTVSPropertyOp3
 70
     1
102
RTVSPropertyOp4
 70
     1
102
RTVSPropertyOp5
 70
     1
102
RTVSPropertyOp6
 70
     1
102
RTVSPropertyOp7
 70
     1
102
RTVSPropertyOp8
 70
     1
102
RTVSPropertyOp9
 70
     1
102
RTVSPropertyOp10
 70
     1
102
RTVSPropertyOp11
 70
     1
102
RTVSPropertyOp12
 70
     1
102
RTVSPropertyOp13
 70
     1
102
RTVSPropertyOp14
 70
     1
102
RTVSPropertyOp15
 70
     1
102
RTVSPropertyOp16
 70
     1
102
RTVSPropertyOp17
 70
     1
102
RTVSPropertyOp18
 70
     1
102
RTVSPropertyOp19
 70
     1
102
RTVSPropertyOp20
 70
     1
102
RTVSPropertyOp21
 70
     1
102
RTVSPropertyOp22
 70
     1
102
RTVSPropertyOp23
 70
     1
102
RTVSPropertyOp24
 70
     1
102
RTVSPropertyOp25
 70
     1
102
RTVSPropertyOp26
 70
     1
102
RTVSPropertyOp27
 70
     1
102
RTVSPropertyOp28
 70
     1
102
RTVSPropertyOp29
 70
     1
102
RTVSPropertyOp30
 70
     1
102
RTVSPropertyOp31
 70
     1
102
RTVSPropertyOp32
 70
     1
  0
XRECORD
  5
25D
102
{ACAD_REACTORS
330
25C
102
}
330
25C
100
AcDbXrecord
280
     1
102
RTVSPropertyOp0
 70
     1
102
RTVSPropertyOp1
 70
     1
102
RTVSPropertyOp2
 70
     1
102
RTVSPropertyOp3
 70
     1
102
RTVSPropertyOp4
 70
     1
102
RTVSPropertyOp5
 70
     1
102
RTVSPropertyOp6
 70
     1
102
RTVSPropertyOp7
 70
     1
102
RTVSPropertyOp8
 70
     1
102
RTVSPropertyOp9
 70
     1
102
RTVSPropertyOp10
 70
     1
102
RTVSPropertyOp11
 70
     1
102
RTVSPropertyOp12
 70
     1
102
RTVSPropertyOp13
 70
     1
102
RTVSPropertyOp14
 70
     1
102
RTVSPropertyOp15
 70
     1
102
RTVSPropertyOp16
 70
     1
102
RTVSPropertyOp17
 70
     1
102
RTVSPropertyOp18
 70
     1
102
RTVSPropertyOp19
 70
     1
102
RTVSPropertyOp20
 70
     1
102
RTVSPropertyOp21
 70
     1
102
RTVSPropertyOp22
 70
     1
102
RTVSPropertyOp23
 70
     1
102
RTVSPropertyOp24
 70
     1
102
RTVSPropertyOp25
 70
     1
102
RTVSPropertyOp26
 70
     1
102
RTVSPropertyOp27
 70
     1
102
RTVSPropertyOp28
 70
     1
102
RTVSPropertyOp29
 70
     1
102
RTVSPropertyOp30
 70
     1
102
RTVSPropertyOp31
 70
     1
102
RTVSPropertyOp32
 70
     1
  0
XRECORD
  5
241
102
{ACAD_REACTORS
330
240
102
}
330
240
100
AcDbXrecord
280
     1
102
RTVSPropertyOp0
 70
     1
102
RTVSPropertyOp1
 70
     1
102
RTVSPropertyOp2
 70
     1
102
RTVSPropertyOp3
 70
     1
102
RTVSPropertyOp4
 70
     1
102
RTVSPropertyOp5
 70
     1
102
RTVSPropertyOp6
 70
     1
102
RTVSPropertyOp7
 70
     1
102
RTVSPropertyOp8
 70
     1
102
RTVSPropertyOp9
 70
     1
102
RTVSPropertyOp10
 70
     1
102
RTVSPropertyOp11
 70
     1
102
RTVSPropertyOp12
 70
     1
102
RTVSPropertyOp13
 70
     1
102
RTVSPropertyOp14
 70
     1
102
RTVSPropertyOp15
 70
     1
102
RTVSPropertyOp16
 70
     1
102
RTVSPropertyOp17
 70
     1
102
RTVSPropertyOp18
 70
     1
102
RTVSPropertyOp19
 70
     1
102
RTVSPropertyOp20
 70
     1
102
RTVSPropertyOp21
 70
     1
102
RTVSPropertyOp22
 70
     1
102
RTVSPropertyOp23
 70
     1
102
RTVSPropertyOp24
 70
     1
102
RTVSPropertyOp25
 70
     1
102
RTVSPropertyOp26
 70
     1
102
RTVSPropertyOp27
 70
     1
102
RTVSPropertyOp28
 70
     1
102
RTVSPropertyOp29
 70
     1
102
RTVSPropertyOp30
 70
     1
102
RTVSPropertyOp31
 70
     1
102
RTVSPropertyOp32
 70
     1
  0
XRECORD
  5
243
102
{ACAD_REACTORS
330
242
102
}
330
242
100
AcDbXrecord
280
     1
102
RTVSPropertyOp0
 70
     1
102
RTVSPropertyOp1
 70
     1
102
RTVSPropertyOp2
 70
     1
102
RTVSPropertyOp3
 70
     1
102
RTVSPropertyOp4
 70
     1
102
RTVSPropertyOp5
 70
     1
102
RTVSPropertyOp6
 70
     1
102
RTVSPropertyOp7
 70
     1
102
RTVSPropertyOp8
 70
     1
102
RTVSPropertyOp9
 70
     1
102
RTVSPropertyOp10
 70
     1
102
RTVSPropertyOp11
 70
     1
102
RTVSPropertyOp12
 70
     1
102
RTVSPropertyOp13
 70
     1
102
RTVSPropertyOp14
 70
     1
102
RTVSPropertyOp15
 70
     1
102
RTVSPropertyOp16
 70
     1
102
RTVSPropertyOp17
 70
     1
102
RTVSPropertyOp18
 70
     1
102
RTVSPropertyOp19
 70
     1
102
RTVSPropertyOp20
 70
     1
102
RTVSPropertyOp21
 70
     1
102
RTVSPropertyOp22
 70
     1
102
RTVSPropertyOp23
 70
     1
102
RTVSPropertyOp24
 70
     1
102
RTVSPropertyOp25
 70
     1
102
RTVSPropertyOp26
 70
     1
102
RTVSPropertyOp27
 70
     1
102
RTVSPropertyOp28
 70
     1
102
RTVSPropertyOp29
 70
     1
102
RTVSPropertyOp30
 70
     1
102
RTVSPropertyOp31
 70
     1
102
RTVSPropertyOp32
 70
     1
  0
XRECORD
  5
245
102
{ACAD_REACTORS
330
244
102
}
330
244
100
AcDbXrecord
280
     1
102
RTVSPropertyOp0
 70
     1
102
RTVSPropertyOp1
 70
     1
102
RTVSPropertyOp2
 70
     1
102
RTVSPropertyOp3
 70
     1
102
RTVSPropertyOp4
 70
     1
102
RTVSPropertyOp5
 70
     1
102
RTVSPropertyOp6
 70
     1
102
RTVSPropertyOp7
 70
     1
102
RTVSPropertyOp8
 70
     1
102
RTVSPropertyOp9
 70
     1
102
RTVSPropertyOp10
 70
     1
102
RTVSPropertyOp11
 70
     1
102
RTVSPropertyOp12
 70
     1
102
RTVSPropertyOp13
 70
     1
102
RTVSPropertyOp14
 70
     1
102
RTVSPropertyOp15
 70
     1
102
RTVSPropertyOp16
 70
     1
102
RTVSPropertyOp17
 70
     1
102
RTVSPropertyOp18
 70
     1
102
RTVSPropertyOp19
 70
     1
102
RTVSPropertyOp20
 70
     1
102
RTVSPropertyOp21
 70
     1
102
RTVSPropertyOp22
 70
     1
102
RTVSPropertyOp23
 70
     1
102
RTVSPropertyOp24
 70
     1
102
RTVSPropertyOp25
 70
     1
102
RTVSPropertyOp26
 70
     1
102
RTVSPropertyOp27
 70
     1
102
RTVSPropertyOp28
 70
     1
102
RTVSPropertyOp29
 70
     1
102
RTVSPropertyOp30
 70
     1
102
RTVSPropertyOp31
 70
     1
102
RTVSPropertyOp32
 70
     1
  0
XRECORD
  5
247
102
{ACAD_REACTORS
330
246
102
}
330
246
100
AcDbXrecord
280
     1
102
RTVSPropertyOp0
 70
     1
102
RTVSPropertyOp1
 70
     1
102
RTVSPropertyOp2
 70
     1
102
RTVSPropertyOp3
 70
     1
102
RTVSPropertyOp4
 70
     1
102
RTVSPropertyOp5
 70
     1
102
RTVSPropertyOp6
 70
     1
102
RTVSPropertyOp7
 70
     1
102
RTVSPropertyOp8
 70
     1
102
RTVSPropertyOp9
 70
     1
102
RTVSPropertyOp10
 70
     1
102
RTVSPropertyOp11
 70
     1
102
RTVSPropertyOp12
 70
     1
102
RTVSPropertyOp13
 70
     1
102
RTVSPropertyOp14
 70
     1
102
RTVSPropertyOp15
 70
     1
102
RTVSPropertyOp16
 70
     1
102
RTVSPropertyOp17
 70
     1
102
RTVSPropertyOp18
 70
     1
102
RTVSPropertyOp19
 70
     1
102
RTVSPropertyOp20
 70
     1
102
RTVSPropertyOp21
 70
     1
102
RTVSPropertyOp22
 70
     1
102
RTVSPropertyOp23
 70
     1
102
RTVSPropertyOp24
 70
     1
102
RTVSPropertyOp25
 70
     1
102
RTVSPropertyOp26
 70
     1
102
RTVSPropertyOp27
 70
     1
102
RTVSPropertyOp28
 70
     1
102
RTVSPropertyOp29
 70
     1
102
RTVSPropertyOp30
 70
     1
102
RTVSPropertyOp31
 70
     1
102
RTVSPropertyOp32
 70
     1
  0
XRECORD
  5
25B
102
{ACAD_REACTORS
330
25A
102
}
330
25A
100
AcDbXrecord
280
     1
102
RTVSPropertyOp0
 70
     1
102
RTVSPropertyOp1
 70
     1
102
RTVSPropertyOp2
 70
     1
102
RTVSPropertyOp3
 70
     1
102
RTVSPropertyOp4
 70
     1
102
RTVSPropertyOp5
 70
     1
102
RTVSPropertyOp6
 70
     1
102
RTVSPropertyOp7
 70
     1
102
RTVSPropertyOp8
 70
     1
102
RTVSPropertyOp9
 70
     1
102
RTVSPropertyOp10
 70
     1
102
RTVSPropertyOp11
 70
     1
102
RTVSPropertyOp12
 70
     1
102
RTVSPropertyOp13
 70
     1
102
RTVSPropertyOp14
 70
     1
102
RTVSPropertyOp15
 70
     1
102
RTVSPropertyOp16
 70
     1
102
RTVSPropertyOp17
 70
     1
102
RTVSPropertyOp18
 70
     1
102
RTVSPropertyOp19
 70
     1
102
RTVSPropertyOp20
 70
     1
102
RTVSPropertyOp21
 70
     1
102
RTVSPropertyOp22
 70
     1
102
RTVSPropertyOp23
 70
     1
102
RTVSPropertyOp24
 70
     1
102
RTVSPropertyOp25
 70
     1
102
RTVSPropertyOp26
 70
     1
102
RTVSPropertyOp27
 70
     1
102
RTVSPropertyOp28
 70
     1
102
RTVSPropertyOp29
 70
     1
102
RTVSPropertyOp30
 70
     1
102
RTVSPropertyOp31
 70
     1
102
RTVSPropertyOp32
 70
     1
  0
XRECORD
  5
251
102
{ACAD_REACTORS
330
250
102
}
330
250
100
AcDbXrecord
280
     1
102
RTVSPropertyOp0
 70
     1
102
RTVSPropertyOp1
 70
     1
102
RTVSPropertyOp2
 70
     1
102
RTVSPropertyOp3
 70
     1
102
RTVSPropertyOp4
 70
     1
102
RTVSPropertyOp5
 70
     1
102
RTVSPropertyOp6
 70
     1
102
RTVSPropertyOp7
 70
     1
102
RTVSPropertyOp8
 70
     1
102
RTVSPropertyOp9
 70
     1
102
RTVSPropertyOp10
 70
     1
102
RTVSPropertyOp11
 70
     1
102
RTVSPropertyOp12
 70
     1
102
RTVSPropertyOp13
 70
     1
102
RTVSPropertyOp14
 70
     1
102
RTVSPropertyOp15
 70
     1
102
RTVSPropertyOp16
 70
     1
102
RTVSPropertyOp17
 70
     1
102
RTVSPropertyOp18
 70
     1
102
RTVSPropertyOp19
 70
     1
102
RTVSPropertyOp20
 70
     1
102
RTVSPropertyOp21
 70
     1
102
RTVSPropertyOp22
 70
     1
102
RTVSPropertyOp23
 70
     1
102
RTVSPropertyOp24
 70
     1
102
RTVSPropertyOp25
 70
     1
102
RTVSPropertyOp26
 70
     1
102
RTVSPropertyOp27
 70
     1
102
RTVSPropertyOp28
 70
     1
102
RTVSPropertyOp29
 70
     1
102
RTVSPropertyOp30
 70
     1
102
RTVSPropertyOp31
 70
     1
102
RTVSPropertyOp32
 70
     1
  0
XRECORD
  5
259
102
{ACAD_REACTORS
330
258
102
}
330
258
100
AcDbXrecord
280
     1
102
RTVSPropertyOp0
 70
     1
102
RTVSPropertyOp1
 70
     1
102
RTVSPropertyOp2
 70
     1
102
RTVSPropertyOp3
 70
     1
102
RTVSPropertyOp4
 70
     1
102
RTVSPropertyOp5
 70
     1
102
RTVSPropertyOp6
 70
     1
102
RTVSPropertyOp7
 70
     1
102
RTVSPropertyOp8
 70
     1
102
RTVSPropertyOp9
 70
     1
102
RTVSPropertyOp10
 70
     1
102
RTVSPropertyOp11
 70
     1
102
RTVSPropertyOp12
 70
     1
102
RTVSPropertyOp13
 70
     1
102
RTVSPropertyOp14
 70
     1
102
RTVSPropertyOp15
 70
     1
102
RTVSPropertyOp16
 70
     1
102
RTVSPropertyOp17
 70
     1
102
RTVSPropertyOp18
 70
     1
102
RTVSPropertyOp19
 70
     1
102
RTVSPropertyOp20
 70
     1
102
RTVSPropertyOp21
 70
     1
102
RTVSPropertyOp22
 70
     1
102
RTVSPropertyOp23
 70
     1
102
RTVSPropertyOp24
 70
     1
102
RTVSPropertyOp25
 70
     1
102
RTVSPropertyOp26
 70
     1
102
RTVSPropertyOp27
 70
     1
102
RTVSPropertyOp28
 70
     1
102
RTVSPropertyOp29
 70
     1
102
RTVSPropertyOp30
 70
     1
102
RTVSPropertyOp31
 70
     1
102
RTVSPropertyOp32
 70
     1
  0
ENDSEC
  0
EOF
