  0
SECTION
  2
HEADER
  9
$ACADVER
  1
AC1015
  9
$ACADMAINTVER
 70
     6
  9
$DWGCODEPAGE
  3
ANSI_1252
  9
$INSBASE
 10
0.0
 20
0.0
 30
0.0
  9
$EXTMIN
 10
0.0
 20
0.0
 30
0.0
  9
$EXTMAX
 10
297.0
 20
210.0
 30
0.0
  9
$LIMMIN
 10
0.0
 20
0.0
  9
$LIMMAX
 10
297.0
 20
210.0
  9
$ORTHOMODE
 70
     0
  9
$REGENMODE
 70
     1
  9
$FILLMODE
 70
     1
  9
$QTEXTMODE
 70
     0
  9
$MIRRTEXT
 70
     1
  9
$LTSCALE
 40
1.0
  9
$ATTMODE
 70
     1
  9
$TEXTSIZE
 40
2.5
  9
$TRACEWID
 40
1.0
  9
$TEXTSTYLE
  7
Standard
  9
$CLAYER
  8
0
  9
$CELTYPE
  6
ByLayer
  9
$CECOLOR
 62
   256
  9
$CELTSCALE
 40
1.0
  9
$DISPSILH
 70
     0
  9
$DIMSCALE
 40
1.0
  9
$DIMASZ
 40
2.5
  9
$DIMEXO
 40
0.625
  9
$DIMDLI
 40
3.75
  9
$DIMRND
 40
0.0
  9
$DIMDLE
 40
0.0
  9
$DIMEXE
 40
1.25
  9
$DIMTP
 40
0.0
  9
$DIMTM
 40
0.0
  9
$DIMTXT
 40
2.5
  9
$DIMCEN
 40
2.5
  9
$DIMTSZ
 40
0.0
  9
$DIMTOL
 70
     0
  9
$DIMLIM
 70
     0
  9
$DIMTIH
 70
     0
  9
$DIMTOH
 70
     0
  9
$DIMSE1
 70
     0
  9
$DIMSE2
 70
     0
  9
$DIMTAD
 70
     1
  9
$DIMZIN
 70
     8
  9
$DIMBLK
  1

  9
$DIMASO
 70
     1
  9
$DIMSHO
 70
     1
  9
$DIMPOST
  1

  9
$DIMAPOST
  1

  9
$DIMALT
 70
     0
  9
$DIMALTD
 70
     3
  9
$DIMALTF
 40
0.0393700787
  9
$DIMLFAC
 40
1.0
  9
$DIMTOFL
 70
     1
  9
$DIMTVP
 40
0.0
  9
$DIMTIX
 70
     0
  9
$DIMSOXD
 70
     0
  9
$DIMSAH
 70
     0
  9
$DIMBLK1
  1

  9
$DIMBLK2
  1

  9
$DIMSTYLE
  2
ISO-25
  9
$DIMCLRD
 70
     0
  9
$DIMCLRE
 70
     0
  9
$DIMCLRT
 70
     0
  9
$DIMTFAC
 40
1.0
  9
$DIMGAP
 40
0.625
  9
$DIMJUST
 70
     0
  9
$DIMSD1
 70
     0
  9
$DIMSD2
 70
     0
  9
$DIMTOLJ
 70
     0
  9
$DIMTZIN
 70
     8
  9
$DIMALTZ
 70
     0
  9
$DIMALTTZ
 70
     0
  9
$DIMUPT
 70
     0
  9
$DIMDEC
 70
     2
  9
$DIMTDEC
 70
     2
  9
$DIMALTU
 70
     2
  9
$DIMALTTD
 70
     3
  9
$DIMTXSTY
  7
Standard
  9
$DIMAUNIT
 70
     0
  9
$DIMADEC
 70
     0
  9
$DIMALTRND
 40
0.0
  9
$DIMAZIN
 70
     0
  9
$DIMDSEP
 70
    44
  9
$DIMATFIT
 70
     3
  9
$DIMFRAC
 70
     0
  9
$DIMLDRBLK
  1

  9
$DIMLUNIT
 70
     2
  9
$DIMLWD
 70
    -2
  9
$DIMLWE
 70
    -2
  9
$DIMTMOVE
 70
     0
  9
$LUNITS
 70
     2
  9
$LUPREC
 70
     4
  9
$SKETCHINC
 40
1.0
  9
$FILLETRAD
 40
10.0
  9
$AUNITS
 70
     0
  9
$AUPREC
 70
     0
  9
$MENU
  1
.
  9
$ELEVATION
 40
0.0
  9
$PELEVATION
 40
0.0
  9
$THICKNESS
 40
0.0
  9
$LIMCHECK
 70
     0
  9
$CHAMFERA
 40
10.0
  9
$CHAMFERB
 40
10.0
  9
$CHAMFERC
 40
20.0
  9
$CHAMFERD
 40
0.0
  9
$SKPOLY
 70
     0
  9
$TDCREATE
 40
2457337.477610197
  9
$TDUCREATE
 40
2457337.43594353
  9
$TDUPDATE
 40
2457337.477611042
  9
$TDUUPDATE
 40
2457337.435944375
  9
$TDINDWG
 40
0.0000000116
  9
$TDUSRTIMER
 40
0.0000000116
  9
$USRTIMER
 70
     1
  9
$ANGBASE
 50
0.0
  9
$ANGDIR
 70
     0
  9
$PDMODE
 70
     0
  9
$PDSIZE
 40
0.0
  9
$PLINEWID
 40
0.0
  9
$SPLFRAME
 70
     0
  9
$SPLINETYPE
 70
     6
  9
$SPLINESEGS
 70
     8
  9
$HANDSEED
  5
1AA
  9
$SURFTAB1
 70
     6
  9
$SURFTAB2
 70
     6
  9
$SURFTYPE
 70
     6
  9
$SURFU
 70
     6
  9
$SURFV
 70
     6
  9
$UCSBASE
  2

  9
$UCSNAME
  2

  9
$UCSORG
 10
0.0
 20
0.0
 30
0.0
  9
$UCSXDIR
 10
1.0
 20
0.0
 30
0.0
  9
$UCSYDIR
 10
0.0
 20
1.0
 30
0.0
  9
$UCSORTHOREF
  2

  9
$UCSORTHOVIEW
 70
     0
  9
$UCSORGTOP
 10
0.0
 20
0.0
 30
0.0
  9
$UCSORGBOTTOM
 10
0.0
 20
0.0
 30
0.0
  9
$UCSORGLEFT
 10
0.0
 20
0.0
 30
0.0
  9
$UCSORGRIGHT
 10
0.0
 20
0.0
 30
0.0
  9
$UCSORGFRONT
 10
0.0
 20
0.0
 30
0.0
  9
$UCSORGBACK
 10
0.0
 20
0.0
 30
0.0
  9
$PUCSBASE
  2

  9
$PUCSNAME
  2

  9
$PUCSORG
 10
0.0
 20
0.0
 30
0.0
  9
$PUCSXDIR
 10
1.0
 20
0.0
 30
0.0
  9
$PUCSYDIR
 10
0.0
 20
1.0
 30
0.0
  9
$PUCSORTHOREF
  2

  9
$PUCSORTHOVIEW
 70
     0
  9
$PUCSORGTOP
 10
0.0
 20
0.0
 30
0.0
  9
$PUCSORGBOTTOM
 10
0.0
 20
0.0
 30
0.0
  9
$PUCSORGLEFT
 10
0.0
 20
0.0
 30
0.0
  9
$PUCSORGRIGHT
 10
0.0
 20
0.0
 30
0.0
  9
$PUCSORGFRONT
 10
0.0
 20
0.0
 30
0.0
  9
$PUCSORGBACK
 10
0.0
 20
0.0
 30
0.0
  9
$USERI1
 70
     0
  9
$USERI2
 70
     0
  9
$USERI3
 70
     0
  9
$USERI4
 70
     0
  9
$USERI5
 70
     0
  9
$USERR1
 40
0.0
  9
$USERR2
 40
0.0
  9
$USERR3
 40
0.0
  9
$USERR4
 40
0.0
  9
$USERR5
 40
0.0
  9
$WORLDVIEW
 70
     1
  9
$SHADEDGE
 70
     3
  9
$SHADEDIF
 70
    70
  9
$TILEMODE
 70
     1
  9
$MAXACTVP
 70
    64
  9
$PINSBASE
 10
0.0
 20
0.0
 30
0.0
  9
$PLIMCHECK
 70
     0
  9
$PEXTMIN
 10
0.0
 20
0.0
 30
0.0
  9
$PEXTMAX
 10
297.0
 20
210.0
 30
0.0
  9
$PLIMMIN
 10
0.0
 20
0.0
  9
$PLIMMAX
 10
297.0
 20
210.0
  9
$UNITMODE
 70
     0
  9
$VISRETAIN
 70
     1
  9
$PLINEGEN
 70
     0
  9
$PSLTSCALE
 70
     1
  9
$TREEDEPTH
 70
  3020
  9
$CMLSTYLE
  2
Standard
  9
$CMLJUST
 70
     0
  9
$CMLSCALE
 40
20.0
  9
$PROXYGRAPHICS
 70
     1
  9
$MEASUREMENT
 70
     1
  9
$CELWEIGHT
370
    -1
  9
$ENDCAPS
280
     0
  9
$JOINSTYLE
280
     0
  9
$LWDISPLAY
290
     0
  9
$INSUNITS
 70
     4
  9
$HYPERLINKBASE
  1

  9
$STYLESHEET
  1

  9
$XEDIT
290
     1
  9
$CEPSNTYPE
380
     0
  9
$PSTYLEMODE
290
     1
  9
$FINGERPRINTGUID
  2
{BEFCE520-61E2-47D9-9546-BEC488B884C4}
  9
$VERSIONGUID
  2
{FAEB1C32-E019-11D5-929B-00C0DF256EC4}
  9
$EXTNAMES
290
     1
  9
$PSVPSCALE
 40
0.0
  9
$OLESTARTUP
290
     0
  0
ENDSEC
  0
SECTION
  2
CLASSES
  0
CLASS
  1
ACDBDICTIONARYWDFLT
  2
AcDbDictionaryWithDefault
  3
ObjectDBX Classes
 90
        0
280
     0
281
     0
  0
CLASS
  1
VISUALSTYLE
  2
AcDbVisualStyle
  3
ObjectDBX Classes
 90
     4095
280
     0
281
     0
  0
CLASS
  1
MATERIAL
  2
AcDbMaterial
  3
ObjectDBX Classes
 90
     1153
280
     0
281
     0
  0
CLASS
  1
DICTIONARYVAR
  2
AcDbDictionaryVar
  3
ObjectDBX Classes
 90
        0
280
     0
281
     0
  0
CLASS
  1
ACDBPLACEHOLDER
  2
AcDbPlaceHolder
  3
ObjectDBX Classes
 90
        0
280
     0
281
     0
  0
CLASS
  1
LAYOUT
  2
AcDbLayout
  3
ObjectDBX Classes
 90
        0
280
     0
281
     0
  0
ENDSEC
  0
SECTION
  2
TABLES
  0
TABLE
  2
VPORT
  5
8
330
0
100
AcDbSymbolTable
 70
     1
  0
VPORT
  5
29
330
8
100
AcDbSymbolTableRecord
100
AcDbViewportTableRecord
  2
*Active
 70
     0
 10
0.0
 20
0.0
 11
1.0
 21
1.0
 12
344.1869158879
 22
148.5
 13
0.0
 23
0.0
 14
10.0
 24
10.0
 15
10.0
 25
10.0
 16
0.0
 26
0.0
 36
1.0
 17
0.0
 27
0.0
 37
0.0
 40
297.0
 41
1.9729729729
 42
50.0
 43
0.0
 44
0.0
 50
0.0
 51
0.0
 71
     0
 72
   100
 73
     1
 74
     3
 75
     0
 76
     0
 77
     0
 78
     0
281
     0
 65
     1
110
0.0
120
0.0
130
0.0
111
1.0
121
0.0
131
0.0
112
0.0
122
1.0
132
0.0
 79
     0
146
0.0
  0
ENDTAB
  0
TABLE
  2
LTYPE
  5
5
330
0
100
AcDbSymbolTable
 70
     1
  0
LTYPE
  5
14
330
5
100
AcDbSymbolTableRecord
100
AcDbLinetypeTableRecord
  2
ByBlock
 70
     0
  3

 72
    65
 73
     0
 40
0.0
  0
LTYPE
  5
15
330
5
100
AcDbSymbolTableRecord
100
AcDbLinetypeTableRecord
  2
ByLayer
 70
     0
  3

 72
    65
 73
     0
 40
0.0
  0
LTYPE
  5
16
330
5
100
AcDbSymbolTableRecord
100
AcDbLinetypeTableRecord
  2
Continuous
 70
     0
  3
Solid line
 72
    65
 73
     0
 40
0.0
  0
ENDTAB
  0
TABLE
  2
LAYER
  5
2
330
0
100
AcDbSymbolTable
 70
     3
  0
LAYER
  5
10
330
2
100
AcDbSymbolTableRecord
100
AcDbLayerTableRecord
  2
0
 70
     0
 62
     7
  6
Continuous
370
    -3
390
F
  0
LAYER
  5
3F
330
2
100
AcDbSymbolTableRecord
100
AcDbLayerTableRecord
  2
Default
 70
     0
 62
     7
  6
Continuous
370
    -3
390
F
  0
LAYER
  5
42
330
2
100
AcDbSymbolTableRecord
100
AcDbLayerTableRecord
  2
0012873
 70
     0
 62
     7
  6
Continuous
370
    -3
390
F
  0
ENDTAB
  0
TABLE
  2
STYLE
  5
3
330
0
100
AcDbSymbolTable
 70
     4
  0
STYLE
  5
11
330
3
100
AcDbSymbolTableRecord
100
AcDbTextStyleTableRecord
  2
Standard
 70
     0
 40
0.0
 41
1.0
 50
0.0
 71
     0
 42
2.5
  3
txt
  4

  0
STYLE
  5
F1
330
3
100
AcDbSymbolTableRecord
100
AcDbTextStyleTableRecord
  2
SEACAD_Solid_Edge_ISO
 70
     0
 40
0.0
 41
1.0
 50
0.0
 71
     0
 42
0.2
  3
seiso.ttf
  4

1001
ACAD
1000
Solid Edge ISO
1071
        0
  0
STYLE
  5
112
330
3
100
AcDbSymbolTableRecord
100
AcDbTextStyleTableRecord
  2
SEACAD_Solid_Edge_ANSIB
 70
     0
 40
0.0
 41
1.0
 50
0.0
 71
     0
 42
0.2
  3
seansbd.ttf
  4

1001
ACAD
1000
Solid Edge ANSI
1071
 33554432
  0
STYLE
  5
117
330
3
100
AcDbSymbolTableRecord
100
AcDbTextStyleTableRecord
  2
SEACAD_Solid_Edge_ANSI
 70
     0
 40
0.0
 41
1.0
 50
0.0
 71
     0
 42
0.2
  3
seans.ttf
  4

1001
ACAD
1000
Solid Edge ANSI
1071
        0
  0
ENDTAB
  0
TABLE
  2
VIEW
  5
6
330
0
100
AcDbSymbolTable
 70
     0
  0
ENDTAB
  0
TABLE
  2
UCS
  5
7
330
0
100
AcDbSymbolTable
 70
     0
  0
ENDTAB
  0
TABLE
  2
APPID
  5
9
330
0
100
AcDbSymbolTable
 70
     1
  0
APPID
  5
12
330
9
100
AcDbSymbolTableRecord
100
AcDbRegAppTableRecord
  2
ACAD
 70
     0
  0
ENDTAB
  0
TABLE
  2
DIMSTYLE
  5
A
330
0
100
AcDbSymbolTable
 70
     3
100
AcDbDimStyleTable
  0
DIMSTYLE
105
27
330
A
100
AcDbSymbolTableRecord
100
AcDbDimStyleTableRecord
  2
ISO-25
 70
     0
 41
2.5
 42
0.625
 43
3.75
 44
1.25
 73
     0
 74
     0
 77
     1
 78
     8
140
2.5
141
2.5
143
0.0393700787
147
0.625
171
     3
172
     1
178
     0
271
     2
272
     2
274
     3
278
    44
283
     0
284
     8
340
11
  0
DIMSTYLE
105
DF
330
A
100
AcDbSymbolTableRecord
100
AcDbDimStyleTableRecord
  2
Standard
 70
     0
178
     0
340
11
  0
DIMSTYLE
105
F2
102
{ACAD_REACTORS
330
F3
330
FD
330
107
102
}
330
A
100
AcDbSymbolTableRecord
100
AcDbDimStyleTableRecord
  2
DIN
 70
     0
 41
3.5
 42
0.0
 44
1.75
 73
     0
 74
     0
 77
     1
 78
     8
140
3.5
141
1.75
147
1.75
172
     1
173
     1
178
     0
179
     3
271
     3
272
     3
278
    44
284
     8
340
F1
343
EC
344
EC
  0
ENDTAB
  0
TABLE
  2
BLOCK_RECORD
  5
1
330
0
100
AcDbSymbolTable
 70
    15
  0
BLOCK_RECORD
  5
1F
330
1
100
AcDbSymbolTableRecord
100
AcDbBlockTableRecord
  2
*Model_Space
340
22
  0
BLOCK_RECORD
  5
1B
330
1
100
AcDbSymbolTableRecord
100
AcDbBlockTableRecord
  2
*Paper_Space
340
1E
  0
BLOCK_RECORD
  5
40
330
1
100
AcDbSymbolTableRecord
100
AcDbBlockTableRecord
  2
SE
340
0
102
{BLKREFS
331
41
102
}
  0
BLOCK_RECORD
  5
D7
330
1
100
AcDbSymbolTableRecord
100
AcDbBlockTableRecord
  2
SE1
340
0
102
{BLKREFS
331
D8
102
}
  0
BLOCK_RECORD
  5
E0
330
1
100
AcDbSymbolTableRecord
100
AcDbBlockTableRecord
  2
_OBLIQUE
340
0
  0
BLOCK_RECORD
  5
E4
330
1
100
AcDbSymbolTableRecord
100
AcDbBlockTableRecord
  2
_DOT
340
0
  0
BLOCK_RECORD
  5
EC
330
1
100
AcDbSymbolTableRecord
100
AcDbBlockTableRecord
  2
_SE_FILLED
340
0
  0
BLOCK_RECORD
  5
F4
330
1
100
AcDbSymbolTableRecord
100
AcDbBlockTableRecord
  2
DMBLK459
340
0
  0
BLOCK_RECORD
  5
FE
330
1
100
AcDbSymbolTableRecord
100
AcDbBlockTableRecord
  2
DMBLK460
340
0
  0
BLOCK_RECORD
  5
108
330
1
100
AcDbSymbolTableRecord
100
AcDbBlockTableRecord
  2
DMBLK461
340
0
  0
BLOCK_RECORD
  5
111
330
1
100
AcDbSymbolTableRecord
100
AcDbBlockTableRecord
  2
SEANNOT_GROUP
340
0
102
{BLKREFS
331
16E
102
}
  0
BLOCK_RECORD
  5
116
330
1
100
AcDbSymbolTableRecord
100
AcDbBlockTableRecord
  2
SEANNOT_GROUP1
340
0
102
{BLKREFS
331
16F
102
}
  0
BLOCK_RECORD
  5
11B
330
1
100
AcDbSymbolTableRecord
100
AcDbBlockTableRecord
  2
SEANNOT_GROUP2
340
0
102
{BLKREFS
331
171
102
}
  0
BLOCK_RECORD
  5
11F
330
1
100
AcDbSymbolTableRecord
100
AcDbBlockTableRecord
  2
SEANNOT_GROUP3
340
0
102
{BLKREFS
331
172
102
}
  0
BLOCK_RECORD
  5
123
330
1
100
AcDbSymbolTableRecord
100
AcDbBlockTableRecord
  2
Block1
340
0
102
{BLKREFS
331
173
102
}
  0
BLOCK_RECORD
  5
16B
330
1
100
AcDbSymbolTableRecord
100
AcDbBlockTableRecord
  2
RF-Massblatt_2016
340
0
102
{BLKREFS
331
176
102
}
  0
ENDTAB
  0
ENDSEC
  0
SECTION
  2
BLOCKS
  0
BLOCK
  5
20
330
1F
100
AcDbEntity
  8
0
100
AcDbBlockBegin
  2
*Model_Space
 70
     0
 10
0.0
 20
0.0
 30
0.0
  3
*Model_Space
  1

  0
ENDBLK
  5
21
330
1F
100
AcDbEntity
  8
0
100
AcDbBlockEnd
  0
BLOCK
  5
1C
330
1B
100
AcDbEntity
 67
     1
  8
0
100
AcDbBlockBegin
  2
*Paper_Space
 70
     0
 10
0.0
 20
0.0
 30
0.0
  3
*Paper_Space
  1

  0
ENDBLK
  5
1D
330
1B
100
AcDbEntity
 67
     1
  8
0
100
AcDbBlockEnd
  0
BLOCK
  5
D5
330
40
100
AcDbEntity
  8
0
100
AcDbBlockBegin
  2
SE
 70
     0
 10
0.0
 20
0.0
 30
0.0
  3
SE
  1

  0
LINE
  5
43
330
40
100
AcDbEntity
  8
0012873
  6
Continuous
 62
     7
100
AcDbLine
 10
49.5419928383
 20
113.9596946462
 30
0.0
 11
259.5419928383
 21
113.9596946462
 31
0.0
  0
LINE
  5
44
330
40
100
AcDbEntity
  8
0012873
  6
Continuous
 62
     7
100
AcDbLine
 10
259.5419928383
 20
113.9596946462
 30
0.0
 11
259.5419928383
 21
143.9596946462
 31
0.0
  0
LINE
  5
45
330
40
100
AcDbEntity
  8
0012873
  6
Continuous
 62
     7
100
AcDbLine
 10
259.5419928383
 20
143.9596946462
 30
0.0
 11
49.5419928383
 21
143.9596946462
 31
0.0
  0
LINE
  5
46
330
40
100
AcDbEntity
  8
0012873
  6
Continuous
 62
     7
100
AcDbLine
 10
49.5419928383
 20
143.9596946462
 30
0.0
 11
49.5419928383
 21
113.9596946462
 31
0.0
  0
ARC
  5
47
330
40
100
AcDbEntity
  8
0012873
  6
Continuous
 62
     7
100
AcDbCircle
 10
57.0419928383
 20
138.4596946462
 30
0.0
 40
2.100000000000005
100
AcDbArc
 50
0.0
 51
180.0
  0
LINE
  5
48
330
40
100
AcDbEntity
  8
0012873
  6
Continuous
 62
     7
100
AcDbLine
 10
54.9419928383
 20
138.4596946462
 30
0.0
 11
54.9419928383
 21
130.6596946462
 31
0.0
  0
ARC
  5
49
330
40
100
AcDbEntity
  8
0012873
  6
Continuous
 62
     7
100
AcDbCircle
 10
57.0419928383
 20
130.6596946462
 30
0.0
 40
2.100000000000005
100
AcDbArc
 50
180.0
 51
0.0
  0
LINE
  5
4A
330
40
100
AcDbEntity
  8
0012873
  6
Continuous
 62
     7
100
AcDbLine
 10
59.1419928383
 20
130.6596946462
 30
0.0
 11
59.1419928383
 21
138.4596946462
 31
0.0
  0
ARC
  5
4B
330
40
100
AcDbEntity
  8
0012873
  6
Continuous
 62
     7
100
AcDbCircle
 10
87.0419928383
 20
138.4596946462
 30
0.0
 40
2.100000000000005
100
AcDbArc
 50
0.0
 51
180.0
  0
LINE
  5
4C
330
40
100
AcDbEntity
  8
0012873
  6
Continuous
 62
     7
100
AcDbLine
 10
84.9419928383
 20
138.4596946462
 30
0.0
 11
84.9419928383
 21
130.6596946462
 31
0.0
  0
ARC
  5
4D
330
40
100
AcDbEntity
  8
0012873
  6
Continuous
 62
     7
100
AcDbCircle
 10
87.0419928383
 20
130.6596946462
 30
0.0
 40
2.100000000000005
100
AcDbArc
 50
180.0
 51
0.0
  0
LINE
  5
4E
330
40
100
AcDbEntity
  8
0012873
  6
Continuous
 62
     7
100
AcDbLine
 10
89.1419928383
 20
130.6596946462
 30
0.0
 11
89.1419928383
 21
138.4596946462
 31
0.0
  0
ARC
  5
4F
330
40
100
AcDbEntity
  8
0012873
  6
Continuous
 62
     7
100
AcDbCircle
 10
102.0419928383
 20
138.4596946462
 30
0.0
 40
2.100000000000005
100
AcDbArc
 50
0.0
 51
180.0
  0
LINE
  5
50
330
40
100
AcDbEntity
  8
0012873
  6
Continuous
 62
     7
100
AcDbLine
 10
99.9419928383
 20
138.4596946462
 30
0.0
 11
99.9419928383
 21
130.6596946462
 31
0.0
  0
ARC
  5
51
330
40
100
AcDbEntity
  8
0012873
  6
Continuous
 62
     7
100
AcDbCircle
 10
102.0419928383
 20
130.6596946462
 30
0.0
 40
2.099999999999998
100
AcDbArc
 50
180.0
 51
0.0
  0
LINE
  5
52
330
40
100
AcDbEntity
  8
0012873
  6
Continuous
 62
     7
100
AcDbLine
 10
104.1419928383
 20
130.6596946462
 30
0.0
 11
104.1419928383
 21
138.4596946462
 31
0.0
  0
ARC
  5
53
330
40
100
AcDbEntity
  8
0012873
  6
Continuous
 62
     7
100
AcDbCircle
 10
117.0419928383
 20
138.4596946462
 30
0.0
 40
2.100000000000005
100
AcDbArc
 50
0.0
 51
180.0
  0
LINE
  5
54
330
40
100
AcDbEntity
  8
0012873
  6
Continuous
 62
     7
100
AcDbLine
 10
114.9419928383
 20
138.4596946462
 30
0.0
 11
114.9419928383
 21
130.6596946462
 31
0.0
  0
ARC
  5
55
330
40
100
AcDbEntity
  8
0012873
  6
Continuous
 62
     7
100
AcDbCircle
 10
117.0419928383
 20
130.6596946462
 30
0.0
 40
2.099999999999998
100
AcDbArc
 50
180.0
 51
0.0
  0
LINE
  5
56
330
40
100
AcDbEntity
  8
0012873
  6
Continuous
 62
     7
100
AcDbLine
 10
119.1419928383
 20
130.6596946462
 30
0.0
 11
119.1419928383
 21
138.4596946462
 31
0.0
  0
ARC
  5
57
330
40
100
AcDbEntity
  8
0012873
  6
Continuous
 62
     7
100
AcDbCircle
 10
132.0419928383
 20
138.4596946462
 30
0.0
 40
2.100000000000001
100
AcDbArc
 50
0.0
 51
180.0
  0
LINE
  5
58
330
40
100
AcDbEntity
  8
0012873
  6
Continuous
 62
     7
100
AcDbLine
 10
129.9419928383
 20
138.4596946462
 30
0.0
 11
129.9419928383
 21
130.6596946462
 31
0.0
  0
ARC
  5
59
330
40
100
AcDbEntity
  8
0012873
  6
Continuous
 62
     7
100
AcDbCircle
 10
132.0419928383
 20
130.6596946462
 30
0.0
 40
2.099999999999998
100
AcDbArc
 50
180.0
 51
0.0
  0
LINE
  5
5A
330
40
100
AcDbEntity
  8
0012873
  6
Continuous
 62
     7
100
AcDbLine
 10
134.1419928383
 20
130.6596946462
 30
0.0
 11
134.1419928383
 21
138.4596946462
 31
0.0
  0
ARC
  5
5B
330
40
100
AcDbEntity
  8
0012873
  6
Continuous
 62
     7
100
AcDbCircle
 10
147.0419928383
 20
138.4596946462
 30
0.0
 40
2.100000000000001
100
AcDbArc
 50
0.0
 51
180.0
  0
LINE
  5
5C
330
40
100
AcDbEntity
  8
0012873
  6
Continuous
 62
     7
100
AcDbLine
 10
144.9419928383
 20
138.4596946462
 30
0.0
 11
144.9419928383
 21
130.6596946462
 31
0.0
  0
ARC
  5
5D
330
40
100
AcDbEntity
  8
0012873
  6
Continuous
 62
     7
100
AcDbCircle
 10
147.0419928383
 20
130.6596946462
 30
0.0
 40
2.100000000000002
100
AcDbArc
 50
180.0
 51
0.0
  0
LINE
  5
5E
330
40
100
AcDbEntity
  8
0012873
  6
Continuous
 62
     7
100
AcDbLine
 10
149.1419928383
 20
130.6596946462
 30
0.0
 11
149.1419928383
 21
138.4596946462
 31
0.0
  0
ARC
  5
5F
330
40
100
AcDbEntity
  8
0012873
  6
Continuous
 62
     7
100
AcDbCircle
 10
162.0419928383
 20
138.4596946462
 30
0.0
 40
2.099999999999999
100
AcDbArc
 50
0.0
 51
180.0
  0
LINE
  5
60
330
40
100
AcDbEntity
  8
0012873
  6
Continuous
 62
     7
100
AcDbLine
 10
159.9419928383
 20
138.4596946462
 30
0.0
 11
159.9419928383
 21
130.6596946462
 31
0.0
  0
ARC
  5
61
330
40
100
AcDbEntity
  8
0012873
  6
Continuous
 62
     7
100
AcDbCircle
 10
162.0419928383
 20
130.6596946462
 30
0.0
 40
2.1
100
AcDbArc
 50
180.0
 51
0.0
  0
LINE
  5
62
330
40
100
AcDbEntity
  8
0012873
  6
Continuous
 62
     7
100
AcDbLine
 10
164.1419928383
 20
130.6596946462
 30
0.0
 11
164.1419928383
 21
138.4596946462
 31
0.0
  0
ARC
  5
63
330
40
100
AcDbEntity
  8
0012873
  6
Continuous
 62
     7
100
AcDbCircle
 10
177.0419928383
 20
138.4596946462
 30
0.0
 40
2.100000000000001
100
AcDbArc
 50
0.0
 51
180.0
  0
LINE
  5
64
330
40
100
AcDbEntity
  8
0012873
  6
Continuous
 62
     7
100
AcDbLine
 10
174.9419928383
 20
138.4596946462
 30
0.0
 11
174.9419928383
 21
130.6596946462
 31
0.0
  0
ARC
  5
65
330
40
100
AcDbEntity
  8
0012873
  6
Continuous
 62
     7
100
AcDbCircle
 10
177.0419928383
 20
130.6596946462
 30
0.0
 40
2.099999999999998
100
AcDbArc
 50
180.0
 51
0.0
  0
LINE
  5
66
330
40
100
AcDbEntity
  8
0012873
  6
Continuous
 62
     7
100
AcDbLine
 10
179.1419928383
 20
130.6596946462
 30
0.0
 11
179.1419928383
 21
138.4596946462
 31
0.0
  0
ARC
  5
67
330
40
100
AcDbEntity
  8
0012873
  6
Continuous
 62
     7
100
AcDbCircle
 10
192.0419928383
 20
138.4596946462
 30
0.0
 40
2.099999999999998
100
AcDbArc
 50
0.0
 51
180.0
  0
LINE
  5
68
330
40
100
AcDbEntity
  8
0012873
  6
Continuous
 62
     7
100
AcDbLine
 10
189.9419928383
 20
138.4596946462
 30
0.0
 11
189.9419928383
 21
130.6596946462
 31
0.0
  0
ARC
  5
69
330
40
100
AcDbEntity
  8
0012873
  6
Continuous
 62
     7
100
AcDbCircle
 10
192.0419928383
 20
130.6596946462
 30
0.0
 40
2.099999999999998
100
AcDbArc
 50
180.0
 51
0.0
  0
LINE
  5
6A
330
40
100
AcDbEntity
  8
0012873
  6
Continuous
 62
     7
100
AcDbLine
 10
194.1419928383
 20
130.6596946462
 30
0.0
 11
194.1419928383
 21
138.4596946462
 31
0.0
  0
ARC
  5
6B
330
40
100
AcDbEntity
  8
0012873
  6
Continuous
 62
     7
100
AcDbCircle
 10
207.0419928383
 20
138.4596946462
 30
0.0
 40
2.099999999999998
100
AcDbArc
 50
0.0
 51
180.0
  0
LINE
  5
6C
330
40
100
AcDbEntity
  8
0012873
  6
Continuous
 62
     7
100
AcDbLine
 10
204.9419928383
 20
138.4596946462
 30
0.0
 11
204.9419928383
 21
130.6596946462
 31
0.0
  0
ARC
  5
6D
330
40
100
AcDbEntity
  8
0012873
  6
Continuous
 62
     7
100
AcDbCircle
 10
207.0419928383
 20
130.6596946462
 30
0.0
 40
2.099999999999998
100
AcDbArc
 50
180.0
 51
0.0
  0
LINE
  5
6E
330
40
100
AcDbEntity
  8
0012873
  6
Continuous
 62
     7
100
AcDbLine
 10
209.1419928383
 20
130.6596946462
 30
0.0
 11
209.1419928383
 21
138.4596946462
 31
0.0
  0
ARC
  5
6F
330
40
100
AcDbEntity
  8
0012873
  6
Continuous
 62
     7
100
AcDbCircle
 10
222.0419928383
 20
138.4596946462
 30
0.0
 40
2.100000000000005
100
AcDbArc
 50
0.0
 51
180.0
  0
LINE
  5
70
330
40
100
AcDbEntity
  8
0012873
  6
Continuous
 62
     7
100
AcDbLine
 10
219.9419928383
 20
138.4596946462
 30
0.0
 11
219.9419928383
 21
130.6596946462
 31
0.0
  0
ARC
  5
71
330
40
100
AcDbEntity
  8
0012873
  6
Continuous
 62
     7
100
AcDbCircle
 10
222.0419928383
 20
130.6596946462
 30
0.0
 40
2.100000000000005
100
AcDbArc
 50
180.0
 51
0.0
  0
LINE
  5
72
330
40
100
AcDbEntity
  8
0012873
  6
Continuous
 62
     7
100
AcDbLine
 10
224.1419928383
 20
130.6596946462
 30
0.0
 11
224.1419928383
 21
138.4596946462
 31
0.0
  0
ARC
  5
73
330
40
100
AcDbEntity
  8
0012873
  6
Continuous
 62
     7
100
AcDbCircle
 10
237.0419928383
 20
138.4596946462
 30
0.0
 40
2.100000000000005
100
AcDbArc
 50
0.0
 51
180.0
  0
LINE
  5
74
330
40
100
AcDbEntity
  8
0012873
  6
Continuous
 62
     7
100
AcDbLine
 10
234.9419928383
 20
138.4596946462
 30
0.0
 11
234.9419928383
 21
130.6596946462
 31
0.0
  0
ARC
  5
75
330
40
100
AcDbEntity
  8
0012873
  6
Continuous
 62
     7
100
AcDbCircle
 10
237.0419928383
 20
130.6596946462
 30
0.0
 40
2.100000000000005
100
AcDbArc
 50
180.0
 51
0.0
  0
LINE
  5
76
330
40
100
AcDbEntity
  8
0012873
  6
Continuous
 62
     7
100
AcDbLine
 10
239.1419928383
 20
130.6596946462
 30
0.0
 11
239.1419928383
 21
138.4596946462
 31
0.0
  0
ARC
  5
77
330
40
100
AcDbEntity
  8
0012873
  6
Continuous
 62
     7
100
AcDbCircle
 10
252.0419928383
 20
138.4596946462
 30
0.0
 40
2.100000000000005
100
AcDbArc
 50
0.0
 51
180.0
  0
LINE
  5
78
330
40
100
AcDbEntity
  8
0012873
  6
Continuous
 62
     7
100
AcDbLine
 10
249.9419928383
 20
138.4596946462
 30
0.0
 11
249.9419928383
 21
130.6596946462
 31
0.0
  0
ARC
  5
79
330
40
100
AcDbEntity
  8
0012873
  6
Continuous
 62
     7
100
AcDbCircle
 10
252.0419928383
 20
130.6596946462
 30
0.0
 40
2.100000000000005
100
AcDbArc
 50
180.0
 51
0.0
  0
LINE
  5
7A
330
40
100
AcDbEntity
  8
0012873
  6
Continuous
 62
     7
100
AcDbLine
 10
254.1419928383
 20
130.6596946462
 30
0.0
 11
254.1419928383
 21
138.4596946462
 31
0.0
  0
ARC
  5
7B
330
40
100
AcDbEntity
  8
0012873
  6
Continuous
 62
     7
100
AcDbCircle
 10
72.0419928383
 20
138.4596946462
 30
0.0
 40
2.100000000000005
100
AcDbArc
 50
0.0
 51
180.0
  0
LINE
  5
7C
330
40
100
AcDbEntity
  8
0012873
  6
Continuous
 62
     7
100
AcDbLine
 10
69.9419928383
 20
138.4596946462
 30
0.0
 11
69.9419928383
 21
130.6596946462
 31
0.0
  0
ARC
  5
7D
330
40
100
AcDbEntity
  8
0012873
  6
Continuous
 62
     7
100
AcDbCircle
 10
72.0419928383
 20
130.6596946462
 30
0.0
 40
2.100000000000005
100
AcDbArc
 50
180.0
 51
0.0
  0
LINE
  5
7E
330
40
100
AcDbEntity
  8
0012873
  6
Continuous
 62
     7
100
AcDbLine
 10
74.1419928383
 20
130.6596946462
 30
0.0
 11
74.1419928383
 21
138.4596946462
 31
0.0
  0
LINE
  5
7F
330
40
100
AcDbEntity
  8
0012873
  6
Continuous
 62
     7
100
AcDbLine
 10
57.1230364346
 20
119.2903542082
 30
0.0
 11
57.1230364346
 21
117.2042412514
 31
0.0
  0
LINE
  5
80
330
40
100
AcDbEntity
  8
0012873
  6
Continuous
 62
     7
100
AcDbLine
 10
57.1230364346
 20
117.2042412514
 30
0.0
 11
56.498451717
 21
117.2042412514
 31
0.0
  0
LINE
  5
81
330
40
100
AcDbEntity
  8
0012873
  6
Continuous
 62
     7
100
AcDbLine
 10
56.498451717
 20
117.2042412514
 30
0.0
 11
56.498451717
 21
121.9042412514
 31
0.0
  0
SPLINE
  5
82
330
40
100
AcDbEntity
  8
0012873
  6
Continuous
 62
     7
100
AcDbSpline
210
0.0
220
0.0
230
1.0
 70
     8
 71
     3
 72
    21
 73
    17
 74
     0
 42
0.0000000015120033
 43
0.0000000001
 12
1.0
 22
0.0
 32
0.0
 13
1.0
 23
0.0
 33
0.0
 40
0.0
 40
0.0
 40
0.0
 40
0.0
 40
0.3188524755255804
 40
0.3188524755255804
 40
0.3188524755255804
 40
0.4466871992896583
 40
0.4466871992896583
 40
0.5745219230537378
 40
0.5745219230537378
 40
0.5745219230537378
 40
0.6851965081129122
 40
0.6851965081129122
 40
0.8296133447145184
 40
0.8296133447145184
 40
0.8296133447145184
 40
1.0
 40
1.0
 40
1.0
 40
1.0
 10
56.49845171695234
 20
121.9042412513875
 30
0.0
 10
57.19382270255588
 20
121.9042412513875
 30
0.0
 10
57.88919368815942
 20
121.9042412513875
 30
0.0
 10
58.58456467376297
 20
121.9042412513875
 30
0.0
 10
59.00303643456031
 20
121.9042412513875
 30
0.0
 10
59.32157464054038
 20
121.863643244743
 30
0.0
 10
59.75878394286596
 20
121.6950053709888
 30
0.0
 10
59.93366766379618
 20
121.5451050387629
 30
0.0
 10
60.06483045449387
 20
121.3296233111882
 30
0.0
 10
60.19460623637038
 20
121.1164202409625
 30
0.0
 10
60.26157464054038
 20
120.8799223145104
 30
0.0
 10
60.26157464054038
 20
120.2896897563709
 30
0.0
 10
60.15227231495899
 20
120.0086266334473
 30
0.0
 10
59.93679058738422
 20
119.7806532115204
 30
0.0
 10
59.71974987406983
 20
119.5510304278689
 30
0.0
 10
59.38715603588921
 20
119.4059023809556
 30
0.0
 10
58.93433211562343
 20
119.3434439091948
 30
0.0
  0
SPLINE
  5
83
330
40
100
AcDbEntity
  8
0012873
  6
Continuous
 62
     7
100
AcDbSpline
210
0.0
220
0.0
230
1.0
 70
     8
 71
     3
 72
    14
 73
    10
 74
     0
 42
0.0000000045750909
 43
0.0000000001
 12
1.0
 22
0.0
 32
0.0
 13
1.0
 23
0.0
 33
0.0
 40
0.0
 40
0.0
 40
0.0
 40
0.0
 40
0.2031950052268714
 40
0.2031950052268714
 40
0.2031950052268714
 40
0.575352570870767
 40
0.575352570870767
 40
0.575352570870767
 40
1.0
 40
1.0
 40
1.0
 40
1.0
 10
58.93433211562343
 20
119.3434439091948
 30
0.0
 10
59.09984706578955
 20
119.2653708194938
 30
0.0
 10
59.22476400931115
 20
119.1841748062048
 30
0.0
 10
59.30908294618823
 20
119.1092246400918
 30
0.0
 10
59.4940030974083
 20
118.9448511723406
 30
0.0
 10
59.66197331163672
 20
118.731350885939
 30
0.0
 10
59.82436533821478
 20
118.4846399224838
 30
0.0
 10
59.99414629276406
 20
118.2267034723032
 30
0.0
 10
60.15912451076408
 20
117.9656057271788
 30
0.0
 10
60.32369750330965
 20
117.7042412513875
 30
0.0
  0
LINE
  5
84
330
40
100
AcDbEntity
  8
0012873
  6
Continuous
 62
     7
100
AcDbLine
 10
72.333382996
 20
117.2042412514
 30
0.0
 11
59.8618404213
 21
117.2042412514
 31
0.0
  0
LINE
  5
85
330
40
100
AcDbEntity
  8
0012873
  6
Continuous
 62
     7
100
AcDbLine
 10
57.1230364346
 20
121.3858359358
 30
0.0
 11
57.1230364346
 21
119.8274970653
 31
0.0
  0
SPLINE
  5
86
330
40
100
AcDbEntity
  8
0012873
  6
Continuous
 62
     7
100
AcDbSpline
210
0.0
220
0.0
230
1.0
 70
     8
 71
     3
 72
    25
 73
    21
 74
     0
 42
0.0000000016937385
 43
0.0000000001
 12
1.0
 22
0.0
 32
0.0
 13
1.0
 23
0.0
 33
0.0
 40
0.0
 40
0.0
 40
0.0
 40
0.0
 40
0.2284802880085945
 40
0.2284802880085945
 40
0.2284802880085945
 40
0.3442035663753351
 40
0.3442035663753351
 40
0.3442035663753351
 40
0.424907704947
 40
0.424907704947
 40
0.424907704947
 40
0.4990904865566665
 40
0.4990904865566665
 40
0.6065798231747555
 40
0.6065798231747555
 40
0.6065798231747555
 40
0.7458944041694316
 40
0.7458944041694316
 40
0.7458944041694316
 40
1.0
 40
1.0
 40
1.0
 40
1.0
 10
57.12303643456032
 20
119.827497065341
 30
0.0
 10
57.56857353312067
 20
119.827497065341
 30
0.0
 10
58.01411063168102
 20
119.827497065341
 30
0.0
 10
58.45964773024137
 20
119.827497065341
 30
0.0
 10
58.74383377675299
 20
119.827497065341
 30
0.0
 10
58.96868427509186
 20
119.8587263012214
 30
0.0
 10
59.12795337808191
 20
119.9149389258061
 30
0.0
 10
59.2882025986288
 20
119.9714974742344
 30
0.0
 10
59.41213942459353
 20
120.06796218162
 30
0.0
 10
59.49333543788257
 20
120.1991249723177
 30
0.0
 10
59.57399901829758
 20
120.329427679142
 30
0.0
 10
59.61825238140417
 20
120.4676964008891
 30
0.0
 10
59.61825238140417
 20
120.8424472314539
 30
0.0
 10
59.54017929170316
 20
121.0266997231483
 30
0.0
 10
59.37778726512511
 20
121.1672312846101
 30
0.0
 10
59.21384995599341
 20
121.3091001098202
 30
0.0
 10
58.95931550432776
 20
121.3827130121848
 30
0.0
 10
58.60954806246729
 20
121.3858359357729
 30
0.0
 10
58.11408368461515
 20
121.3902597248608
 30
0.0
 10
57.61854031052929
 20
121.3858359357729
 30
0.0
 10
57.12303643456032
 20
121.3858359357729
 30
0.0
  0
SPLINE
  5
87
330
40
100
AcDbEntity
  8
0012873
  6
Continuous
 62
     7
100
AcDbSpline
210
0.0
220
0.0
230
1.0
 70
     8
 71
     3
 72
    22
 73
    18
 74
     0
 42
0.0000000026460816
 43
0.0000000001
 12
1.0
 22
0.0
 32
0.0
 13
1.0
 23
0.0
 33
0.0
 40
0.0
 40
0.0
 40
0.0
 40
0.0
 40
0.3068698414100483
 40
0.3068698414100483
 40
0.3068698414100483
 40
0.5162606884525387
 40
0.5162606884525387
 40
0.5162606884525387
 40
0.6164695960135068
 40
0.6164695960135068
 40
0.7166785035744724
 40
0.7166785035744724
 40
0.7166785035744724
 40
0.8088759039826804
 40
0.8088759039826804
 40
0.8088759039826804
 40
1.0
 40
1.0
 40
1.0
 40
1.0
 10
59.86184042127127
 20
117.2042412513875
 30
0.0
 10
59.6546864899313
 20
117.530066279073
 30
0.0
 10
59.44753255859131
 20
117.8558913067585
 30
0.0
 10
59.24037862725135
 20
118.181716334444
 30
0.0
 10
59.06008378345451
 20
118.4652956616219
 30
0.0
 10
58.90934872691911
 20
118.6813841085303
 30
0.0
 10
58.7906776305736
 20
118.8312844407563
 30
0.0
 10
58.67352633482162
 20
118.979265024864
 30
0.0
 10
58.56895005582277
 20
119.0842412513875
 30
0.0
 10
58.38157464054036
 20
119.202912347733
 30
0.0
 10
58.28788693289918
 20
119.2435103543775
 30
0.0
 10
58.19107630166994
 20
119.2653708194938
 30
0.0
 10
58.11937892329422
 20
119.2815605500948
 30
0.0
 10
58.00370088638754
 20
119.2872312846101
 30
0.0
 10
57.84443178339752
 20
119.2903542081981
 30
0.0
 10
57.60405908261279
 20
119.2950673984096
 30
0.0
 10
57.36350155083939
 20
119.2903542081981
 30
0.0
 10
57.12303643456032
 20
119.2903542081981
 30
0.0
  0
LINE
  5
88
330
40
100
AcDbEntity
  8
0012873
  6
Continuous
 62
     7
100
AcDbLine
 10
55.6302789595
 20
117.7601216501
 30
0.0
 11
55.6302789595
 21
117.2042412514
 31
0.0
  0
LINE
  5
89
330
40
100
AcDbEntity
  8
0012873
  6
Continuous
 62
     7
100
AcDbLine
 10
55.6302789595
 20
117.2042412514
 30
0.0
 11
52.1450962352
 21
117.2042412514
 31
0.0
  0
LINE
  5
8A
330
40
100
AcDbEntity
  8
0012873
  6
Continuous
 62
     7
100
AcDbLine
 10
52.1450962352
 20
117.2042412514
 30
0.0
 11
52.1450962352
 21
121.9042412514
 31
0.0
  0
LINE
  5
8B
330
40
100
AcDbEntity
  8
0012873
  6
Continuous
 62
     7
100
AcDbLine
 10
52.1450962352
 20
121.9042412514
 30
0.0
 11
55.5209766339
 21
121.9042412514
 31
0.0
  0
LINE
  5
8C
330
40
100
AcDbEntity
  8
0012873
  6
Continuous
 62
     7
100
AcDbLine
 10
55.5209766339
 20
121.9042412514
 30
0.0
 11
55.5209766339
 21
121.3483608527
 31
0.0
  0
LINE
  5
8D
330
40
100
AcDbEntity
  8
0012873
  6
Continuous
 62
     7
100
AcDbLine
 10
55.5209766339
 20
121.3483608527
 30
0.0
 11
52.7665580292
 21
121.3483608527
 31
0.0
  0
LINE
  5
8E
330
40
100
AcDbEntity
  8
0012873
  6
Continuous
 62
     7
100
AcDbLine
 10
52.7665580292
 20
121.3483608527
 30
0.0
 11
52.7665580292
 21
119.921184773
 31
0.0
  0
LINE
  5
8F
330
40
100
AcDbEntity
  8
0012873
  6
Continuous
 62
     7
100
AcDbLine
 10
52.7665580292
 20
119.921184773
 30
0.0
 11
55.346092913
 21
119.921184773
 31
0.0
  0
LINE
  5
90
330
40
100
AcDbEntity
  8
0012873
  6
Continuous
 62
     7
100
AcDbLine
 10
55.346092913
 20
119.921184773
 30
0.0
 11
55.346092913
 21
119.3621814507
 31
0.0
  0
LINE
  5
91
330
40
100
AcDbEntity
  8
0012873
  6
Continuous
 62
     7
100
AcDbLine
 10
55.346092913
 20
119.3621814507
 30
0.0
 11
52.7665580292
 21
119.3621814507
 31
0.0
  0
LINE
  5
92
330
40
100
AcDbEntity
  8
0012873
  6
Continuous
 62
     7
100
AcDbLine
 10
52.7665580292
 20
119.3621814507
 30
0.0
 11
52.7665580292
 21
117.7601216501
 31
0.0
  0
LINE
  5
93
330
40
100
AcDbEntity
  8
0012873
  6
Continuous
 62
     7
100
AcDbLine
 10
52.7665580292
 20
117.7601216501
 30
0.0
 11
55.6302789595
 21
117.7601216501
 31
0.0
  0
LINE
  5
94
330
40
100
AcDbEntity
  8
0012873
  6
Continuous
 62
     7
100
AcDbLine
 10
84.5926957014
 20
120.7245680425
 30
0.0
 11
84.3058451561
 21
120.6962165351
 31
0.0
  0
SPLINE
  5
95
330
40
100
AcDbEntity
  8
0012873
  6
Continuous
 62
     7
100
AcDbSpline
210
0.0
220
0.0
230
1.0
 70
     8
 71
     3
 72
    19
 73
    15
 74
     0
 42
0.0000000058423603
 43
0.0000000001
 12
1.0
 22
0.0
 32
0.0
 13
1.0
 23
0.0
 33
0.0
 40
0.0
 40
0.0
 40
0.0
 40
0.0
 40
0.1904713706158064
 40
0.1904713706158064
 40
0.1904713706158064
 40
0.3508241511245503
 40
0.3508241511245503
 40
0.5202535041149008
 40
0.5202535041149008
 40
0.5202535041149008
 40
0.7606075047821564
 40
0.7606075047821564
 40
0.7606075047821564
 40
1.0
 40
1.0
 40
1.0
 40
1.0
 10
84.3058451561417
 20
120.6962165350743
 30
0.0
 10
84.28916779886138
 20
120.8313031290448
 30
0.0
 10
84.2508098771167
 20
120.9296995369986
 30
0.0
 10
84.18910365517954
 20
120.9897380232077
 30
0.0
 10
84.12656387827438
 20
121.0505875358721
 30
0.0
 10
84.05234932548103
 20
121.0814634882494
 30
0.0
 10
83.87056613112567
 20
121.0814634882494
 30
0.0
 10
83.77717293035595
 20
121.0447733022327
 30
0.0
 10
83.6821119938582
 20
120.9730606659274
 30
0.0
 10
83.58811391993012
 20
120.9021498382273
 30
0.0
 10
83.50699974241496
 20
120.7946129430281
 30
0.0
 10
83.43862257756568
 20
120.6528554061455
 30
0.0
 10
83.37056019643063
 20
120.511750469646
 30
0.0
 10
83.3252165480596
 20
120.3843499539325
 30
0.0
 10
83.29853277641111
 20
120.2742793958825
 30
0.0
  0
SPLINE
  5
96
330
40
100
AcDbEntity
  8
0012873
  6
Continuous
 62
     7
100
AcDbSpline
210
0.0
220
0.0
230
1.0
 70
     8
 71
     3
 72
    41
 73
    37
 74
     0
 42
0.0000000012905879
 43
0.0000000001
 12
1.0
 22
0.0
 32
0.0
 13
1.0
 23
0.0
 33
0.0
 40
0.0
 40
0.0
 40
0.0
 40
0.0
 40
0.0376618416629598
 40
0.0376618416629598
 40
0.075323683325921
 40
0.075323683325921
 40
0.075323683325921
 40
0.1513153771278429
 40
0.1513153771278429
 40
0.2273070709297648
 40
0.2273070709297648
 40
0.3257508560822547
 40
0.3257508560822547
 40
0.3257508560822547
 40
0.4121266158123521
 40
0.4121266158123521
 40
0.489739617308958
 40
0.489739617308958
 40
0.489739617308958
 40
0.5934856050270325
 40
0.5934856050270325
 40
0.6867956058148867
 40
0.6867956058148867
 40
0.6867956058148867
 40
0.7621357031455245
 40
0.7621357031455245
 40
0.7621357031455245
 40
0.8202503061872042
 40
0.8202503061872042
 40
0.8202503061872042
 40
0.8718867174778901
 40
0.8718867174778901
 40
0.9337303263492934
 40
0.9337303263492934
 40
0.9337303263492934
 40
1.0
 40
1.0
 40
1.0
 40
1.0
 10
83.29853277641111
 20
120.2742793958825
 30
0.0
 10
83.38692276999673
 20
120.3459920321878
 30
0.0
 10
83.47364502785435
 20
120.3993595754848
 30
0.0
 10
83.64708954356954
 20
120.4727399475181
 30
0.0
 10
83.73214406569909
 20
120.4894173047985
 30
0.0
 10
83.81719858782868
 20
120.4910850405265
 30
0.0
 10
84.00888179988394
 20
120.4948435348805
 30
0.0
 10
84.16742309071515
 20
120.4243756114053
 30
0.0
 10
84.41758344991976
 20
120.1642088378324
 30
0.0
 10
84.48095740758494
 20
119.9890965863892
 30
0.0
 10
84.48095740758494
 20
119.4837726607959
 30
0.0
 10
84.3875642068152
 20
119.2402832445034
 30
0.0
 10
84.20244554100378
 20
119.0368194856836
 30
0.0
 10
84.04276920900855
 20
118.8613193730402
 30
0.0
 10
83.84721783093325
 20
118.7749849763828
 30
0.0
 10
83.41027107018917
 20
118.7749849763828
 30
0.0
 10
83.23515881874593
 20
118.8517008198722
 30
0.0
 10
83.09673675331938
 20
119.003464771123
 30
0.0
 10
82.9567269858899
 20
119.1569694558951
 30
0.0
 10
82.88826978731554
 20
119.3737021027459
 30
0.0
 10
82.88826978731554
 20
119.9090452714437
 30
0.0
 10
82.93329865197235
 20
120.1692120450165
 30
0.0
 10
83.02168864555797
 20
120.4393852329575
 30
0.0
 10
83.08941485790128
 20
120.6463974291767
 30
0.0
 10
83.17512033253682
 20
120.8162935074925
 30
0.0
 10
83.27685221194669
 20
120.9497123657349
 30
0.0
 10
83.37938821647789
 20
121.0841858143004
 30
0.0
 10
83.48698691367859
 20
121.1831953676593
 30
0.0
 10
83.60039294318466
 20
121.2465693253244
 30
0.0
 10
83.71308878331679
 20
121.3095464124571
 30
0.0
 10
83.84221462374913
 20
121.3399625260942
 30
0.0
 10
84.15741667634697
 20
121.3399625260942
 30
0.0
 10
84.29917421322958
 20
121.2865949827972
 30
0.0
 10
84.40757703555157
 20
121.1815276319312
 30
0.0
 10
84.51681331867492
 20
121.0756524652117
 30
0.0
 10
84.57768607981073
 20
120.9213608583584
 30
0.0
 10
84.59269570136298
 20
120.7245680424508
 30
0.0
  0
SPLINE
  5
97
330
40
100
AcDbEntity
  8
0012873
  6
Continuous
 62
     7
100
AcDbSpline
210
0.0
220
0.0
230
1.0
 70
    11
 71
     3
 72
    26
 73
    22
 74
     0
 42
0.0000000028099162
 43
0.0000000001
 12
1.0
 22
0.0
 32
0.0
 13
1.0
 23
0.0
 33
0.0
 40
0.0
 40
0.0
 40
0.0
 40
0.0
 40
0.1121213094554612
 40
0.1121213094554612
 40
0.1121213094554612
 40
0.2151838605362703
 40
0.2151838605362703
 40
0.2874814709959513
 40
0.2874814709959513
 40
0.2874814709959513
 40
0.3832276489822874
 40
0.3832276489822874
 40
0.4789738269686232
 40
0.4789738269686232
 40
0.5999863574791306
 40
0.5999863574791306
 40
0.7209988879896445
 40
0.7209988879896445
 40
0.8604994439948214
 40
0.8604994439948214
 40
1.0
 40
1.0
 40
1.0
 40
1.0
 10
83.19012995408909
 20
119.5221305825406
 30
0.0
 10
83.19012995408909
 20
119.380373045658
 30
0.0
 10
83.23515881874593
 20
119.2602960732397
 30
0.0
 10
83.32354881233157
 20
119.165235136742
 30
0.0
 10
83.41360213692889
 20
119.0683853348166
 30
0.0
 10
83.51200294959904
 20
119.0201421284033
 30
0.0
 10
83.70212482259457
 20
119.0201421284033
 30
0.0
 10
83.78551160899609
 20
119.0484936357798
 30
0.0
 10
83.87223386685369
 20
119.1068643862609
 30
0.0
 10
83.9608764190441
 20
119.1665276425429
 30
0.0
 10
84.03400423247268
 20
119.2552928660557
 30
0.0
 10
84.15741667634697
 20
119.4954468108921
 30
0.0
 10
84.18743591945152
 20
119.6155237833103
 30
0.0
 10
84.18743591945152
 20
119.8873647069793
 30
0.0
 10
84.14574252625073
 20
120.0107771508536
 30
0.0
 10
83.97563348199161
 20
120.194228080937
 30
0.0
 10
83.87390160258174
 20
120.2409246813219
 30
0.0
 10
83.61540256473695
 20
120.2409246813219
 30
0.0
 10
83.48698691367859
 20
120.1742152522006
 30
0.0
 10
83.2501684402982
 20
119.9040420642596
 30
0.0
 10
83.19012995408909
 20
119.7322652842725
 30
0.0
 10
83.19012995408909
 20
119.5221305825406
 30
0.0
  0
LINE
  5
98
330
40
100
AcDbEntity
  8
0012873
  6
Continuous
 62
     7
100
AcDbLine
 10
82.3312460542
 20
121.3399625261
 30
0.0
 11
81.8042415641
 21
118.820013841
 31
0.0
  0
LINE
  5
99
330
40
100
AcDbEntity
  8
0012873
  6
Continuous
 62
     7
100
AcDbLine
 10
81.8042415641
 20
118.820013841
 30
0.0
 11
81.4957104544
 21
118.820013841
 31
0.0
  0
LINE
  5
9A
330
40
100
AcDbEntity
  8
0012873
  6
Continuous
 62
     7
100
AcDbLine
 10
81.4957104544
 20
118.820013841
 30
0.0
 11
81.890963822
 21
120.7112261566
 31
0.0
  0
SPLINE
  5
9B
330
40
100
AcDbEntity
  8
0012873
  6
Continuous
 62
     7
100
AcDbSpline
210
0.0
220
0.0
230
1.0
 70
     8
 71
     3
 72
     8
 73
     4
 74
     0
 42
0.0000000124629439
 43
0.0000000001
 12
1.0
 22
0.0
 32
0.0
 13
1.0
 23
0.0
 33
0.0
 40
0.0
 40
0.0
 40
0.0
 40
0.0
 40
1.0
 40
1.0
 40
1.0
 40
1.0
 10
81.89096382195312
 20
120.7112261566265
 30
0.0
 10
81.71918704196595
 20
120.576139562656
 30
0.0
 10
81.4790330971295
 20
120.467736740334
 30
0.0
 10
81.16883425171578
 20
120.3876854253886
 30
0.0
  0
LINE
  5
9C
330
40
100
AcDbEntity
  8
0012873
  6
Continuous
 62
     7
100
AcDbLine
 10
81.1688342517
 20
120.3876854254
 30
0.0
 11
81.2272050022
 21
120.666197292
 31
0.0
  0
SPLINE
  5
9D
330
40
100
AcDbEntity
  8
0012873
  6
Continuous
 62
     7
100
AcDbSpline
210
0.0
220
0.0
230
1.0
 70
     8
 71
     3
 72
    12
 73
     8
 74
     0
 42
0.0000000086139736
 43
0.0000000001
 12
1.0
 22
0.0
 32
0.0
 13
1.0
 23
0.0
 33
0.0
 40
0.0
 40
0.0
 40
0.0
 40
0.0
 40
0.38461538461538
 40
0.38461538461538
 40
0.7692307692307601
 40
0.7692307692307601
 40
1.0
 40
1.0
 40
1.0
 40
1.0
 10
81.22720500219685
 20
120.6661972919697
 30
0.0
 10
81.38063668917569
 20
120.7279035139068
 30
0.0
 10
81.53240064042649
 20
120.8096225645804
 30
0.0
 10
81.83259307147203
 20
121.0097508519441
 30
0.0
 10
81.94599910097813
 20
121.0981408455297
 30
0.0
 10
82.06607607339636
 20
121.2182178179479
 30
0.0
 10
82.11110493805319
 20
121.2749208327009
 30
0.0
 10
82.15113059552593
 20
121.3399625260942
 30
0.0
  0
LINE
  5
9E
330
40
100
AcDbEntity
  8
0012873
  6
Continuous
 62
     7
100
AcDbLine
 10
82.1511305955
 20
121.3399625261
 30
0.0
 11
82.3312460542
 21
121.3399625261
 31
0.0
  0
LINE
  5
9F
330
40
100
AcDbEntity
  8
0012873
  6
Continuous
 62
     7
100
AcDbLine
 10
80.6651780619
 20
120.6161652201
 30
0.0
 11
80.3366341234
 21
120.5911491842
 31
0.0
  0
SPLINE
  5
A0
330
40
100
AcDbEntity
  8
0012873
  6
Continuous
 62
     7
100
AcDbSpline
210
0.0
220
0.0
230
1.0
 70
     8
 71
     3
 72
    51
 73
    47
 74
     0
 42
0.0000000015496497
 43
0.0000000001
 12
1.0
 22
0.0
 32
0.0
 13
1.0
 23
0.0
 33
0.0
 40
0.0
 40
0.0
 40
0.0
 40
0.0
 40
0.021567638538243
 40
0.021567638538243
 40
0.0593110059801688
 40
0.0593110059801688
 40
0.0593110059801688
 40
0.0954792894329482
 40
0.0954792894329482
 40
0.0954792894329482
 40
0.1368449708122635
 40
0.1368449708122635
 40
0.2107606965556295
 40
0.2107606965556295
 40
0.2107606965556295
 40
0.2564187340021233
 40
0.2564187340021233
 40
0.2832337718675241
 40
0.2832337718675241
 40
0.2832337718675241
 40
0.3187202206675845
 40
0.3187202206675845
 40
0.3187202206675845
 40
0.3919232479418012
 40
0.3919232479418012
 40
0.3919232479418012
 40
0.4575200365630873
 40
0.4575200365630873
 40
0.4575200365630873
 40
0.5058400090487182
 40
0.5058400090487182
 40
0.5058400090487182
 40
0.5557804750875059
 40
0.5557804750875059
 40
0.6170710470442003
 40
0.6170710470442003
 40
0.6170710470442003
 40
0.68632651474459
 40
0.68632651474459
 40
0.68632651474459
 40
0.7644282827156571
 40
0.7644282827156571
 40
0.8819265177163751
 40
0.8819265177163751
 40
0.8819265177163751
 40
1.0
 40
1.0
 40
1.0
 40
1.0
 10
80.33663412342842
 20
120.5911491842083
 30
0.0
 10
80.33663412342842
 20
120.6611940847856
 30
0.0
 10
80.33163091624432
 20
120.7178970995387
 30
0.0
 10
80.29494073022764
 20
120.8279676575887
 30
0.0
 10
80.26158601566702
 20
120.8863384080698
 30
0.0
 10
80.21322167955414
 20
120.9363704799107
 30
0.0
 10
80.166524121251
 20
120.984678298845
 30
0.0
 10
80.09981565004803
 20
121.0230927377683
 30
0.0
 10
80.01642886364651
 20
121.0514442451448
 30
0.0
 10
79.93253380353796
 20
121.0799685655817
 30
0.0
 10
79.83964887647524
 20
121.0964731098017
 30
0.0
 10
79.55613380271001
 20
121.0964731098017
 30
0.0
 10
79.4143762658274
 20
121.0547797166009
 30
0.0
 10
79.31431212214554
 20
120.9730606659274
 30
0.0
 10
79.23724222177935
 20
120.910120247295
 30
0.0
 10
79.19923835691142
 20
120.8262999218607
 30
0.0
 10
79.19923835691142
 20
120.6595263490576
 30
0.0
 10
79.21424797846369
 20
120.6044910700326
 30
0.0
 10
79.24593495729629
 20
120.5561267339197
 30
0.0
 10
79.27838643062648
 20
120.5065955377841
 30
0.0
 10
79.33599268660993
 20
120.4593980616939
 30
0.0
 10
79.41771173728345
 20
120.412701461309
 30
0.0
 10
79.47733970392873
 20
120.3786283375117
 30
0.0
 10
79.61784002464714
 20
120.3143050533552
 30
0.0
 10
79.83964887647524
 20
120.2159086454014
 30
0.0
 10
80.01842660149852
 20
120.136601233549
 30
0.0
 10
80.14317677897684
 20
120.0724833727908
 30
0.0
 10
80.21155394382612
 20
120.0274545081339
 30
0.0
 10
80.30271403953593
 20
119.9674222499835
 30
0.0
 10
80.37165657371706
 20
119.8923679141634
 30
0.0
 10
80.42002090982997
 20
119.8056456563058
 30
0.0
 10
80.46767581139339
 20
119.7201954879852
 30
0.0
 10
80.4934012818633
 20
119.6221947262224
 30
0.0
 10
80.4934012818633
 20
119.3770375742019
 30
0.0
 10
80.45170788866254
 20
119.2502896588716
 30
0.0
 10
80.36998883798904
 20
119.1368836293655
 30
0.0
 10
80.28611775537608
 20
119.0204911065557
 30
0.0
 10
80.17152828635338
 20
118.9317521348177
 30
0.0
 10
80.0264352780147
 20
118.8700459128806
 30
0.0
 10
79.8793293436261
 20
118.8074836189452
 30
0.0
 10
79.71290096114488
 20
118.7749849763828
 30
0.0
 10
79.24093175011218
 20
118.7749849763828
 30
0.0
 10
79.0091164839159
 20
118.8366911983199
 30
0.0
 10
78.8306687610166
 20
118.9617713779222
 30
0.0
 10
78.65188659234404
 20
119.087085982132
 30
0.0
 10
78.56049557307563
 20
119.3086604093526
 30
0.0
 10
78.55882783734761
 20
119.6305334048626
 30
0.0
  0
LINE
  5
A1
330
40
100
AcDbEntity
  8
0012873
  6
Continuous
 62
     7
100
AcDbLine
 10
78.5588278373
 20
119.6305334049
 30
0.0
 11
78.88570404
 21
119.660552648
 31
0.0
  0
SPLINE
  5
A2
330
40
100
AcDbEntity
  8
0012873
  6
Continuous
 62
     7
100
AcDbSpline
210
0.0
220
0.0
230
1.0
 70
     8
 71
     3
 72
    51
 73
    47
 74
     0
 42
0.0000000015546061
 43
0.0000000001
 12
1.0
 22
0.0
 32
0.0
 13
1.0
 23
0.0
 33
0.0
 40
0.0
 40
0.0
 40
0.0
 40
0.0
 40
0.0139202833043142
 40
0.0139202833043142
 40
0.0139202833043142
 40
0.0590107205957916
 40
0.0590107205957916
 40
0.1041011578872674
 40
0.1041011578872674
 40
0.1041011578872674
 40
0.1517747527218364
 40
0.1517747527218364
 40
0.2190786513118182
 40
0.2190786513118182
 40
0.2863825499018002
 40
0.2863825499018002
 40
0.3329014209860524
 40
0.3329014209860524
 40
0.3329014209860524
 40
0.4178513912987813
 40
0.4178513912987813
 40
0.4178513912987813
 40
0.4885725091405259
 40
0.4885725091405259
 40
0.4885725091405259
 40
0.5436044003554689
 40
0.5436044003554689
 40
0.5436044003554689
 40
0.5941884394790049
 40
0.5941884394790049
 40
0.6514674249571266
 40
0.6514674249571266
 40
0.6514674249571266
 40
0.7203879745771035
 40
0.7203879745771035
 40
0.7893085241970804
 40
0.7893085241970804
 40
0.871742907075878
 40
0.871742907075878
 40
0.871742907075878
 40
0.9374423525786652
 40
0.9374423525786652
 40
0.9374423525786652
 40
0.9945602045720583
 40
0.9945602045720583
 40
1.0
 40
1.0
 40
1.0
 40
1.0
 10
78.88570404004163
 20
119.6605526479671
 30
0.0
 10
78.88459221622293
 20
119.6310893167719
 30
0.0
 10
78.88348039240425
 20
119.6016259855767
 30
0.0
 10
78.88236856858558
 20
119.5721626543815
 30
0.0
 10
78.87872362039647
 20
119.4755715273704
 30
0.0
 10
78.90404913304997
 20
119.3853762528421
 30
0.0
 10
78.99410686236364
 20
119.2252736229511
 30
0.0
 10
79.06748723439699
 20
119.163567401014
 30
0.0
 10
79.17088684953488
 20
119.1202062720852
 30
0.0
 10
79.27488124122006
 20
119.0765957207333
 30
0.0
 10
79.39603117281904
 20
119.0534968429639
 30
0.0
 10
79.73791699706537
 20
119.0534968429639
 30
0.0
 10
79.89301641977222
 20
119.0968579718927
 30
0.0
 10
80.1031511215041
 20
119.273637959064
 30
0.0
 10
80.15651866480108
 20
119.3753698384739
 30
0.0
 10
80.15651866480108
 20
119.5671594471974
 30
0.0
 10
80.12816715742457
 20
119.6388720835027
 30
0.0
 10
80.07313187839954
 20
119.7039137768959
 30
0.0
 10
80.01740075101904
 20
119.7697778365275
 30
0.0
 10
79.85966170521161
 20
119.8556777281467
 30
0.0
 10
79.60449813882289
 20
119.9657482861968
 30
0.0
 10
79.4076458574598
 20
120.0506649565887
 30
0.0
 10
79.2742864646728
 20
120.1158445017196
 30
0.0
 10
79.20090609263944
 20
120.1625411021044
 30
0.0
 10
79.08813772679407
 20
120.2343027894606
 30
0.0
 10
79.00578101245983
 20
120.3176405248113
 30
0.0
 10
78.95241346916288
 20
120.4043627826689
 30
0.0
 10
78.89830152880273
 20
120.4922946857541
 30
0.0
 10
78.87069441848935
 20
120.5911491842083
 30
0.0
 10
78.87069441848935
 20
120.8329708647728
 30
0.0
 10
78.90738460450602
 20
120.9497123657349
 30
0.0
 10
78.97742950508332
 20
121.0531119808728
 30
0.0
 10
79.04824879650153
 20
121.1576547443949
 30
0.0
 10
79.15087402079854
 20
121.2365629109562
 30
0.0
 10
79.42438268019558
 20
121.3466334690063
 30
0.0
 10
79.5778143671744
 20
121.3749849763828
 30
0.0
 10
79.9513871702533
 20
121.3749849763828
 30
0.0
 10
80.12483168596852
 20
121.3399625260942
 30
0.0
 10
80.26492148712308
 20
121.2715853612449
 30
0.0
 10
80.40566868576506
 20
121.2028873238125
 30
0.0
 10
80.50674316768755
 20
121.1098149956259
 30
0.0
 10
80.57011712535272
 20
120.9964089661198
 30
0.0
 10
80.63420127239185
 20
120.8817320714182
 30
0.0
 10
80.66517806185047
 20
120.7729323785637
 30
0.0
 10
80.66517806185047
 20
120.6578586133296
 30
0.0
 10
80.66517806185047
 20
120.6411812560493
 30
0.0
 10
80.66517806185047
 20
120.6161652201288
 30
0.0
  0
LINE
  5
A3
330
40
100
AcDbEntity
  8
0012873
  6
Continuous
 62
     7
100
AcDbLine
 10
75.9404827443
 20
118.820013841
 30
0.0
 11
76.4624840272
 21
121.3299561117
 31
0.0
  0
LINE
  5
A4
330
40
100
AcDbEntity
  8
0012873
  6
Continuous
 62
     7
100
AcDbLine
 10
76.7376604223
 20
121.0481087737
 30
0.0
 11
76.3324006404
 21
119.1035289148
 31
0.0
  0
SPLINE
  5
A5
330
40
100
AcDbEntity
  8
0012873
  6
Continuous
 62
     7
100
AcDbSpline
210
0.0
220
0.0
230
1.0
 70
     8
 71
     3
 72
    33
 73
    29
 74
     0
 42
0.0000000024618748
 43
0.0000000001
 12
1.0
 22
0.0
 32
0.0
 13
1.0
 23
0.0
 33
0.0
 40
0.0
 40
0.0
 40
0.0
 40
0.0
 40
0.098687067175297
 40
0.098687067175297
 40
0.098687067175297
 40
0.2184768563336366
 40
0.2184768563336366
 40
0.2184768563336366
 40
0.2784202651886624
 40
0.2784202651886624
 40
0.2784202651886624
 40
0.3535686568610645
 40
0.3535686568610645
 40
0.3535686568610645
 40
0.4670246171377646
 40
0.4670246171377646
 40
0.5804805774144629
 40
0.5804805774144629
 40
0.7063135515395284
 40
0.7063135515395284
 40
0.7063135515395284
 40
0.7943517716916372
 40
0.7943517716916372
 40
0.7943517716916372
 40
0.8897505886154741
 40
0.8897505886154741
 40
0.8897505886154741
 40
1.0
 40
1.0
 40
1.0
 40
1.0
 10
76.33240064042648
 20
119.1035289148049
 30
0.0
 10
76.46526358675962
 20
119.1035289148049
 30
0.0
 10
76.59812653309272
 20
119.1035289148049
 30
0.0
 10
76.73098947942586
 20
119.1035289148049
 30
0.0
 10
76.91110493805317
 20
119.1035289148049
 30
0.0
 10
77.07120756794414
 20
119.1185385363571
 30
0.0
 10
77.2112973690987
 20
119.1518932509178
 30
0.0
 10
77.29787647367495
 20
119.1725073234359
 30
0.0
 10
77.3730677347177
 20
119.2019253227587
 30
0.0
 10
77.43477395665485
 20
119.2419509802314
 30
0.0
 10
77.5158962237465
 20
119.2945708291557
 30
0.0
 10
77.5898733793617
 20
119.3620279526496
 30
0.0
 10
77.65658280848295
 20
119.4470824747792
 30
0.0
 10
77.74387196151302
 20
119.5583761448926
 30
0.0
 10
77.81334996691783
 20
119.6872364196156
 30
0.0
 10
77.91674958205574
 20
119.9740869648369
 30
0.0
 10
77.94343335370424
 20
120.1375250661839
 30
0.0
 10
77.94343335370424
 20
120.5244397550871
 30
0.0
 10
77.90841090341557
 20
120.681206913522
 30
0.0
 10
77.83669826711026
 20
120.789609735844
 30
0.0
 10
77.76421820878323
 20
120.8991726147104
 30
0.0
 10
77.67492790149127
 20
120.9713929301993
 30
0.0
 10
77.56485734344123
 20
121.008083116216
 30
0.0
 10
77.48330506634055
 20
121.0352672085829
 30
0.0
 10
77.35639037743738
 20
121.0464410379607
 30
0.0
 10
77.1829458617222
 20
121.0481087736888
 30
0.0
 10
77.03453110370612
 20
121.0495358386697
 30
0.0
 10
76.88608890213273
 20
121.0481087736888
 30
0.0
 10
76.73766042233798
 20
121.0481087736888
 30
0.0
  0
SPLINE
  5
A6
330
40
100
AcDbEntity
  8
0012873
  6
Continuous
 62
     7
100
AcDbSpline
210
0.0
220
0.0
230
1.0
 70
     8
 71
     3
 72
    37
 73
    33
 74
     0
 42
0.0000000017498158
 43
0.0000000001
 12
1.0
 22
0.0
 32
0.0
 13
1.0
 23
0.0
 33
0.0
 40
0.0
 40
0.0
 40
0.0
 40
0.0
 40
0.1332789625874584
 40
0.1332789625874584
 40
0.1332789625874584
 40
0.2072857096995324
 40
0.2072857096995324
 40
0.2072857096995324
 40
0.2783067277519796
 40
0.2783067277519796
 40
0.2783067277519796
 40
0.3501293705634422
 40
0.3501293705634422
 40
0.3501293705634422
 40
0.4322565886572695
 40
0.4322565886572695
 40
0.5306466222152209
 40
0.5306466222152209
 40
0.5306466222152209
 40
0.6188274428544835
 40
0.6188274428544835
 40
0.6188274428544835
 40
0.6945446425865484
 40
0.6945446425865484
 40
0.6945446425865484
 40
0.7678266934497303
 40
0.7678266934497303
 40
0.7678266934497303
 40
0.8409412432657454
 40
0.8409412432657454
 40
0.8409412432657454
 40
1.0
 40
1.0
 40
1.0
 40
1.0
 10
76.4624840272129
 20
121.329956111726
 30
0.0
 10
76.71542394596423
 20
121.329956111726
 30
0.0
 10
76.96836386471556
 20
121.329956111726
 30
0.0
 10
77.2213037834669
 20
121.329956111726
 30
0.0
 10
77.40308697782226
 20
121.329956111726
 30
0.0
 10
77.54317677897684
 20
121.3166142259017
 30
0.0
 10
77.63990545120264
 20
121.2915981899813
 30
0.0
 10
77.7769804099489
 20
121.2561477696158
 30
0.0
 10
77.89506901759133
 20
121.1932017820274
 30
0.0
 10
77.99179768981712
 20
121.1014763169857
 30
0.0
 10
78.08769366882451
 20
121.0105404748236
 30
0.0
 10
78.16190673407627
 20
120.898012558166
 30
0.0
 10
78.2119388059172
 20
120.7612582284675
 30
0.0
 10
78.26123588404796
 20
120.6265128815767
 30
0.0
 10
78.28531917795054
 20
120.4727399475181
 30
0.0
 10
78.28531917795054
 20
120.1025026158953
 30
0.0
 10
78.25529993484598
 20
119.9173839500839
 30
0.0
 10
78.19359371290885
 20
119.7522781130088
 30
0.0
 10
78.13134058712465
 20
119.5857089386133
 30
0.0
 10
78.05183617602623
 20
119.4387437961391
 30
0.0
 10
77.95343976807243
 20
119.3136636165367
 30
0.0
 10
77.85423293505858
 20
119.1875532355869
 30
0.0
 10
77.74997600925265
 20
119.0885192932526
 30
0.0
 10
77.6432409226587
 20
119.0168066569473
 30
0.0
 10
77.5353567956035
 20
118.944322009082
 30
0.0
 10
77.40642244927831
 20
118.893394213073
 30
0.0
 10
77.25966170521161
 20
118.8583717627843
 30
0.0
 10
77.14634125285954
 20
118.8313293821094
 30
0.0
 10
77.00950134600699
 20
118.8200138410396
 30
0.0
 10
76.84606324465997
 20
118.8200138410396
 30
0.0
 10
76.5442030778864
 20
118.8200138410396
 30
0.0
 10
76.24234291111281
 20
118.8200138410396
 30
0.0
 10
75.94048274433926
 20
118.8200138410396
 30
0.0
  0
SPLINE
  5
A7
330
40
100
AcDbEntity
  8
0012873
  6
Continuous
 62
     7
100
AcDbSpline
210
0.0
220
0.0
230
1.0
 70
     8
 71
     3
 72
    27
 73
    23
 74
     0
 42
0.000000002679093
 43
0.0000000001
 12
1.0
 22
0.0
 32
0.0
 13
1.0
 23
0.0
 33
0.0
 40
0.0
 40
0.0
 40
0.0
 40
0.0
 40
0.3379250067985383
 40
0.3379250067985383
 40
0.3379250067985383
 40
0.3682196813315312
 40
0.3682196813315312
 40
0.4201534091023785
 40
0.4201534091023785
 40
0.4720871368732298
 40
0.4720871368732298
 40
0.4720871368732298
 40
0.5505950391780757
 40
0.5505950391780757
 40
0.5505950391780757
 40
0.6410999463312399
 40
0.6410999463312399
 40
0.6410999463312399
 40
0.7642962298882137
 40
0.7642962298882137
 40
0.7642962298882137
 40
1.0
 40
1.0
 40
1.0
 40
1.0
 10
71.13240064042647
 20
118.8200138410396
 30
0.0
 10
71.21745516255606
 20
119.2297209182259
 30
0.0
 10
71.30250968468563
 20
119.6394279954121
 30
0.0
 10
71.38756420681518
 20
120.0491350725983
 30
0.0
 10
71.40491789457515
 20
120.1327276731152
 30
0.0
 10
71.41424797846369
 20
120.192560345209
 30
0.0
 10
71.41424797846369
 20
120.2876212817067
 30
0.0
 10
71.39590288545536
 20
120.3343178820916
 30
0.0
 10
71.322522513422
 20
120.4076982541249
 30
0.0
 10
71.27415817730912
 20
120.4260433471333
 30
0.0
 10
71.21411969110001
 20
120.4277110828613
 30
0.0
 10
71.12751058724706
 20
120.4301168913017
 30
0.0
 10
71.03400423247267
 20
120.3976918397567
 30
0.0
 10
70.93894329597491
 20
120.3426565607317
 30
0.0
 10
70.84191014087763
 20
120.2864794709386
 30
0.0
 10
70.76383104453168
 20
120.2075699667612
 30
0.0
 10
70.70379255832258
 20
120.1075058230794
 30
0.0
 10
70.64257684689368
 20
120.0054796373646
 30
0.0
 10
70.59372200027254
 20
119.8640164067869
 30
0.0
 10
70.55369634279981
 20
119.6772300052475
 30
0.0
 10
70.49254332100661
 20
119.3918492368792
 30
0.0
 10
70.43473119420027
 20
119.1057525624422
 30
0.0
 10
70.37524861990052
 20
118.8200138410396
 30
0.0
  0
LINE
  5
A8
330
40
100
AcDbEntity
  8
0012873
  6
Continuous
 62
     7
100
AcDbLine
 10
70.3752486199
 20
118.820013841
 30
0.0
 11
70.0667175102
 21
118.820013841
 31
0.0
  0
LINE
  5
A9
330
40
100
AcDbEntity
  8
0012873
  6
Continuous
 62
     7
100
AcDbLine
 10
70.0667175102
 20
118.820013841
 30
0.0
 11
70.4452935205
 21
120.641181256
 31
0.0
  0
LINE
  5
AA
330
40
100
AcDbEntity
  8
0012873
  6
Continuous
 62
     7
100
AcDbLine
 10
70.4452935205
 20
120.641181256
 30
0.0
 11
70.7538246302
 21
120.641181256
 31
0.0
  0
LINE
  5
AB
330
40
100
AcDbEntity
  8
0012873
  6
Continuous
 62
     7
100
AcDbLine
 10
70.7538246302
 20
120.641181256
 30
0.0
 11
70.6904506725
 21
120.3359856178
 31
0.0
  0
SPLINE
  5
AC
330
40
100
AcDbEntity
  8
0012873
  6
Continuous
 62
     7
100
AcDbSpline
210
0.0
220
0.0
230
1.0
 70
     8
 71
     3
 72
    16
 73
    12
 74
     0
 42
0.0000000074617333
 43
0.0000000001
 12
1.0
 22
0.0
 32
0.0
 13
1.0
 23
0.0
 33
0.0
 40
0.0
 40
0.0
 40
0.0
 40
0.0
 40
0.3122573331295903
 40
0.3122573331295903
 40
0.3122573331295903
 40
0.534872960041034
 40
0.534872960041034
 40
0.7751564938502046
 40
0.7751564938502046
 40
0.7751564938502046
 40
1.0
 40
1.0
 40
1.0
 40
1.0
 10
70.69045067249833
 20
120.3359856178196
 30
0.0
 10
70.80552443773244
 20
120.466069004606
 30
0.0
 10
70.90892405287036
 20
120.5561267339197
 30
0.0
 10
71.00064951791205
 20
120.6061588057606
 30
0.0
 10
71.0910896579659
 20
120.6554897912445
 30
0.0
 10
71.19077139090757
 20
120.681206913522
 30
0.0
 10
71.4092447712796
 20
120.681206913522
 30
0.0
 10
71.50430570777735
 20
120.6511876704174
 30
0.0
 10
71.58102155126677
 20
120.5911491842083
 30
0.0
 10
71.65670312488498
 20
120.5319201265941
 30
0.0
 10
71.70610173086908
 20
120.4477239115977
 30
0.0
 10
71.73111776678954
 20
120.3409888250037
 30
0.0
  0
SPLINE
  5
AD
330
40
100
AcDbEntity
  8
0012873
  6
Continuous
 62
     7
100
AcDbSpline
210
0.0
220
0.0
230
1.0
 70
     8
 71
     3
 72
    20
 73
    16
 74
     0
 42
0.0000000034119438
 43
0.0000000001
 12
1.0
 22
0.0
 32
0.0
 13
1.0
 23
0.0
 33
0.0
 40
0.0
 40
0.0
 40
0.0
 40
0.0
 40
0.1130308046446506
 40
0.1130308046446506
 40
0.2260616092892997
 40
0.2260616092892997
 40
0.3773234213872814
 40
0.3773234213872814
 40
0.3773234213872814
 40
0.5252114115650871
 40
0.5252114115650871
 40
0.5888594073378145
 40
0.5888594073378145
 40
0.5888594073378145
 40
1.0
 40
1.0
 40
1.0
 40
1.0
 10
71.73111776678954
 20
120.3409888250037
 30
0.0
 10
71.82284323183124
 20
120.4543948545098
 30
0.0
 10
71.92123963978506
 20
120.5394493766394
 30
0.0
 10
72.1247033986048
 20
120.6528554061455
 30
0.0
 10
72.2331062209268
 20
120.681206913522
 30
0.0
 10
72.4982762016837
 20
120.681206913522
 30
0.0
 10
72.61334996691782
 20
120.6445167275053
 30
0.0
 10
72.68839807467923
 20
120.5711363554719
 30
0.0
 10
72.76346512919842
 20
120.4977374577198
 30
0.0
 10
72.8018041041853
 20
120.3976918397567
 30
0.0
 10
72.8018041041853
 20
120.2092377024893
 30
0.0
 10
72.7901299540891
 20
120.1175122374476
 30
0.0
 10
72.7634461824406
 20
119.9890965863892
 30
0.0
 10
72.68241696586638
 20
119.5991434816259
 30
0.0
 10
72.59889625727489
 20
119.2097080894895
 30
0.0
 10
72.51662129469206
 20
118.8200138410396
 30
0.0
  0
LINE
  5
AE
330
40
100
AcDbEntity
  8
0012873
  6
Continuous
 62
     7
100
AcDbLine
 10
72.5166212947
 20
118.820013841
 30
0.0
 11
72.2064224493
 21
118.820013841
 31
0.0
  0
SPLINE
  5
AF
330
40
100
AcDbEntity
  8
0012873
  6
Continuous
 62
     7
100
AcDbSpline
210
0.0
220
0.0
230
1.0
 70
     8
 71
     3
 72
    27
 73
    23
 74
     0
 42
0.0000000026637805
 43
0.0000000001
 12
1.0
 22
0.0
 32
0.0
 13
1.0
 23
0.0
 33
0.0
 40
0.0
 40
0.0
 40
0.0
 40
0.0
 40
0.3291852717410325
 40
0.3291852717410325
 40
0.3291852717410325
 40
0.369833675813411
 40
0.369833675813411
 40
0.4283673776776371
 40
0.4283673776776371
 40
0.4283673776776371
 40
0.4743836868896336
 40
0.4743836868896336
 40
0.4743836868896336
 40
0.5546028510964042
 40
0.5546028510964042
 40
0.5546028510964042
 40
0.6569205378769023
 40
0.6569205378769023
 40
0.759238224657399
 40
0.759238224657399
 40
0.759238224657399
 40
1.0
 40
1.0
 40
1.0
 40
1.0
 10
72.20642244927834
 20
118.8200138410396
 30
0.0
 10
72.28980923567985
 20
119.2213822395857
 30
0.0
 10
72.37319602208139
 20
119.6227506381318
 30
0.0
 10
72.45658280848293
 20
120.0241190366779
 30
0.0
 10
72.47707650392424
 20
120.1227620240686
 30
0.0
 10
72.48993752304355
 20
120.192560345209
 30
0.0
 10
72.48993752304355
 20
120.2942922246188
 30
0.0
 10
72.4715924300352
 20
120.3409888250037
 30
0.0
 10
72.43323450829051
 20
120.3760112752924
 30
0.0
 10
72.39570701577944
 20
120.4102755075851
 30
0.0
 10
72.34150904324882
 20
120.4260433471333
 30
0.0
 10
72.27313187839954
 20
120.4277110828613
 30
0.0
 10
72.17983485501722
 20
120.429986620017
 30
0.0
 10
72.0863454768601
 20
120.3976918397567
 30
0.0
 10
71.98961680463431
 20
120.3426565607317
 30
0.0
 10
71.89217130191594
 20
120.2872134298747
 30
0.0
 10
71.81784002464714
 20
120.2125731739453
 30
0.0
 10
71.71110493805315
 20
120.0291222438619
 30
0.0
 10
71.66440833766829
 20
119.8890324427074
 30
0.0
 10
71.62438268019558
 20
119.7005783054399
 30
0.0
 10
71.56209321939424
 20
119.4072987608336
 30
0.0
 10
71.50208206013997
 20
119.113535329173
 30
0.0
 10
71.44093175011218
 20
118.8200138410396
 30
0.0
  0
LINE
  5
B0
330
40
100
AcDbEntity
  8
0012873
  6
Continuous
 62
     7
100
AcDbLine
 10
71.4409317501
 20
118.820013841
 30
0.0
 11
71.1324006404
 21
118.820013841
 31
0.0
  0
SPLINE
  5
B1
330
40
100
AcDbEntity
  8
0012873
  6
Continuous
 62
     7
100
AcDbSpline
210
0.0
220
0.0
230
1.0
 70
     8
 71
     3
 72
    18
 73
    14
 74
     0
 42
0.0000000058801963
 43
0.0000000001
 12
1.0
 22
0.0
 32
0.0
 13
1.0
 23
0.0
 33
0.0
 40
0.0
 40
0.0
 40
0.0
 40
0.0
 40
0.021681309424402
 40
0.021681309424402
 40
0.2710163678050181
 40
0.2710163678050181
 40
0.2710163678050181
 40
0.4831047770934324
 40
0.4831047770934324
 40
0.7095234843067311
 40
0.7095234843067311
 40
0.7095234843067311
 40
1.0
 40
1.0
 40
1.0
 40
1.0
 10
69.57139999898968
 20
119.8940356498914
 30
0.0
 10
69.5730677347177
 20
119.925722628724
 30
0.0
 10
69.5730677347177
 20
119.9490709289165
 30
0.0
 10
69.5730677347177
 20
120.1158445017196
 30
0.0
 10
69.53470981297299
 20
120.2359214741378
 30
0.0
 10
69.45632623375556
 20
120.3176405248113
 30
0.0
 10
69.37874179298132
 20
120.3985264311504
 30
0.0
 10
69.27954624658427
 20
120.4410529686856
 30
0.0
 10
69.02438268019556
 20
120.4410529686856
 30
0.0
 10
68.90263797204932
 20
120.3960241040287
 30
0.0
 10
68.79256741399928
 20
120.304298638987
 30
0.0
 10
68.68430129132713
 20
120.2140768700935
 30
0.0
 10
68.60244554100377
 20
120.0774865799748
 30
0.0
 10
68.54907799770679
 20
119.8940356498914
 30
0.0
  0
LINE
  5
B2
330
40
100
AcDbEntity
  8
0012873
  6
Continuous
 62
     7
100
AcDbLine
 10
69.8432409227
 20
119.6555494408
 30
0.0
 11
68.4990459259
 21
119.6555494408
 31
0.0
  0
SPLINE
  5
B3
330
40
100
AcDbEntity
  8
0012873
  6
Continuous
 62
     7
100
AcDbSpline
210
0.0
220
0.0
230
1.0
 70
     8
 71
     3
 72
    17
 73
    13
 74
     0
 42
0.0000000062717675
 43
0.0000000001
 12
1.0
 22
0.0
 32
0.0
 13
1.0
 23
0.0
 33
0.0
 40
0.0
 40
0.0
 40
0.0
 40
0.0
 40
0.0413881499234958
 40
0.0413881499234958
 40
0.289717049464475
 40
0.289717049464475
 40
0.5380459490054541
 40
0.5380459490054541
 40
0.5380459490054541
 40
0.769022974502731
 40
0.769022974502731
 40
1.0
 40
1.0
 40
1.0
 40
1.0
 10
68.49904592586586
 20
119.655549440783
 30
0.0
 10
68.4957104544098
 20
119.6188592547664
 30
0.0
 10
68.49404271868178
 20
119.5871722759338
 30
0.0
 10
68.49404271868178
 20
119.3887117242981
 30
0.0
 10
68.53240064042649
 20
119.2586283375117
 30
0.0
 10
68.68916779886139
 20
119.0785128788844
 30
0.0
 10
68.78589647108716
 20
119.0334840142276
 30
0.0
 10
68.89930250059325
 20
119.0351517499556
 30
0.0
 10
69.00598998910809
 20
119.0367206836102
 30
0.0
 10
69.10943720232515
 20
119.0685064645162
 30
0.0
 10
69.31623643260096
 20
119.2052607942147
 30
0.0
 10
69.39628774754644
 20
119.3053249378966
 30
0.0
 10
69.45299076229949
 20
119.435408324683
 30
0.0
  0
LINE
  5
B4
330
40
100
AcDbEntity
  8
0012873
  6
Continuous
 62
     7
100
AcDbLine
 10
69.4529907623
 20
119.4354083247
 30
0.0
 11
69.7548509291
 21
119.4053890816
 31
0.0
  0
SPLINE
  5
B5
330
40
100
AcDbEntity
  8
0012873
  6
Continuous
 62
     7
100
AcDbSpline
210
0.0
220
0.0
230
1.0
 70
     8
 71
     3
 72
    34
 73
    30
 74
     0
 42
0.0000000018158964
 43
0.0000000001
 12
1.0
 22
0.0
 32
0.0
 13
1.0
 23
0.0
 33
0.0
 40
0.0
 40
0.0
 40
0.0
 40
0.0
 40
0.0971041639436981
 40
0.0971041639436981
 40
0.0971041639436981
 40
0.2099423133125268
 40
0.2099423133125268
 40
0.2802491602269507
 40
0.2802491602269507
 40
0.2802491602269507
 40
0.3503317846186258
 40
0.3503317846186258
 40
0.3503317846186258
 40
0.4317482831038177
 40
0.4317482831038177
 40
0.5382160118921456
 40
0.5382160118921456
 40
0.5382160118921456
 40
0.6404936102112896
 40
0.6404936102112896
 40
0.6404936102112896
 40
0.7273285918861374
 40
0.7273285918861374
 40
0.8388519507038368
 40
0.8388519507038368
 40
0.8388519507038368
 40
0.9549119447565139
 40
0.9549119447565139
 40
1.0
 40
1.0
 40
1.0
 40
1.0
 10
69.75485092907304
 20
119.4053890815784
 30
0.0
 10
69.71148980014425
 20
119.2569606017837
 30
0.0
 10
69.61142565646242
 20
119.1152030649011
 30
0.0
 10
69.45465849802751
 20
118.9817842066586
 30
0.0
 10
69.29803538922627
 20
118.848487943849
 30
0.0
 10
69.11444040950923
 20
118.7799881835669
 30
0.0
 10
68.76254817089475
 20
118.7799881835669
 30
0.0
 10
68.63913572702046
 20
118.8116751623995
 30
0.0
 10
68.52572969751436
 20
118.8733813843366
 30
0.0
 10
68.41361043757382
 20
118.9343874522454
 30
0.0
 10
68.32893688160674
 20
119.0251453355874
 30
0.0
 10
68.26889839539763
 20
119.1452223080056
 30
0.0
 10
68.20986055062534
 20
119.2632979975502
 30
0.0
 10
68.180508401812
 20
119.3987181386663
 30
0.0
 10
68.180508401812
 20
119.7489426415528
 30
0.0
 10
68.22720500219684
 20
119.9423999860043
 30
0.0
 10
68.31893046723856
 20
120.1291863875438
 30
0.0
 10
68.40999607923351
 20
120.3146290883335
 30
0.0
 10
68.53073290469847
 20
120.4527271187818
 30
0.0
 10
68.67582591303714
 20
120.5444525838235
 30
0.0
 10
68.82135718607913
 20
120.6364551127581
 30
0.0
 10
68.98102155126676
 20
120.681206913522
 30
0.0
 10
69.36960397589795
 20
120.681206913522
 30
0.0
 10
69.54304849161313
 20
120.6128297486727
 30
0.0
 10
69.6714641426715
 20
120.4794108904303
 30
0.0
 10
69.80151506481563
 20
120.3442930492416
 30
0.0
 10
69.8665892228511
 20
120.1608733663764
 30
0.0
 10
69.8665892228511
 20
119.8390003708664
 30
0.0
 10
69.85825054421096
 20
119.7472749058247
 30
0.0
 10
69.8432409226587
 20
119.655549440783
 30
0.0
  0
LINE
  5
B6
330
40
100
AcDbEntity
  8
0012873
  6
Continuous
 62
     7
100
AcDbLine
 10
68.5490779977
 20
119.8940356499
 30
0.0
 11
69.571399999
 21
119.8940356499
 31
0.0
  0
LINE
  5
B7
330
40
100
AcDbEntity
  8
0012873
  6
Continuous
 62
     7
100
AcDbLine
 10
68.1021248226
 20
120.4026950469
 30
0.0
 11
67.8002646558
 21
120.4026950469
 31
0.0
  0
SPLINE
  5
B8
330
40
100
AcDbEntity
  8
0012873
  6
Continuous
 62
     7
100
AcDbSpline
210
0.0
220
0.0
230
1.0
 70
     8
 71
     3
 72
    18
 73
    14
 74
     0
 42
0.0000000060431638
 43
0.0000000001
 12
1.0
 22
0.0
 32
0.0
 13
1.0
 23
0.0
 33
0.0
 40
0.0
 40
0.0
 40
0.0
 40
0.0
 40
0.623077154773411
 40
0.623077154773411
 40
0.623077154773411
 40
0.7034771442276955
 40
0.7034771442276955
 40
0.8213971287606437
 40
0.8213971287606437
 40
0.8213971287606437
 40
0.8938736562200886
 40
0.8938736562200886
 40
1.0
 40
1.0
 40
1.0
 40
1.0
 10
67.80026465582098
 20
120.4026950469408
 30
0.0
 10
67.73021975524368
 20
120.0674801656067
 30
0.0
 10
67.66017485466638
 20
119.7322652842725
 30
0.0
 10
67.59012995408908
 20
119.3970504029383
 30
0.0
 10
67.56330308110387
 20
119.2686646536518
 30
0.0
 10
67.55010429661634
 20
119.1919189083905
 30
0.0
 10
67.55010429661634
 20
119.1302126864533
 30
0.0
 10
67.56177844671257
 20
119.1018611790768
 30
0.0
 10
67.58179127544895
 20
119.0818483503405
 30
0.0
 10
67.60180410418532
 20
119.0618355216041
 30
0.0
 10
67.63849429020199
 20
119.0534968429639
 30
0.0
 10
67.75356805543612
 20
119.0534968429639
 30
0.0
 10
67.81527427737325
 20
119.060167785876
 30
0.0
 10
67.86864182067023
 20
119.0718419359723
 30
0.0
  0
LINE
  5
B9
330
40
100
AcDbEntity
  8
0012873
  6
Continuous
 62
     7
100
AcDbLine
 10
67.8686418207
 20
119.071841936
 30
0.0
 11
67.8169420131
 21
118.820013841
 31
0.0
  0
SPLINE
  5
BA
330
40
100
AcDbEntity
  8
0012873
  6
Continuous
 62
     7
100
AcDbSpline
210
0.0
220
0.0
230
1.0
 70
     8
 71
     3
 72
    18
 73
    14
 74
     0
 42
0.0000000047232998
 43
0.0000000001
 12
1.0
 22
0.0
 32
0.0
 13
1.0
 23
0.0
 33
0.0
 40
0.0
 40
0.0
 40
0.0
 40
0.0
 40
0.0919913534692661
 40
0.0919913534692661
 40
0.2518810868801273
 40
0.2518810868801273
 40
0.2518810868801273
 40
0.4099000133378546
 40
0.4099000133378546
 40
0.4856174155988487
 40
0.4856174155988487
 40
0.4856174155988487
 40
1.0
 40
1.0
 40
1.0
 40
1.0
 10
67.81694201310128
 20
118.8200138410396
 30
0.0
 10
67.74356164106793
 20
118.8000010123033
 30
0.0
 10
67.6718490047626
 20
118.7899945979351
 30
0.0
 10
67.48005939603907
 20
118.7899945979351
 30
0.0
 10
67.38166298808524
 20
118.8200138410396
 30
0.0
 10
67.30995035177992
 20
118.8800523272487
 30
0.0
 10
67.25460963053573
 20
118.9263840938718
 30
0.0
 10
67.22823130110642
 20
118.9884551495707
 30
0.0
 10
67.22823130110642
 20
119.1068643862609
 30
0.0
 10
67.24324092265869
 20
119.2002575870306
 30
0.0
 10
67.27159243003523
 20
119.3436828596413
 30
0.0
 10
67.34150770222713
 20
119.697371883671
 30
0.0
 10
67.41835317410191
 20
120.0496909845077
 30
0.0
 10
67.49173354613528
 20
120.4026950469408
 30
0.0
  0
LINE
  5
BB
330
40
100
AcDbEntity
  8
0012873
  6
Continuous
 62
     7
100
AcDbLine
 10
67.4917335461
 20
120.4026950469
 30
0.0
 11
67.2482441298
 21
120.4026950469
 31
0.0
  0
LINE
  5
BC
330
40
100
AcDbEntity
  8
0012873
  6
Continuous
 62
     7
100
AcDbLine
 10
67.2482441298
 20
120.4026950469
 30
0.0
 11
67.296608466
 21
120.641181256
 31
0.0
  0
LINE
  5
BD
330
40
100
AcDbEntity
  8
0012873
  6
Continuous
 62
     7
100
AcDbLine
 10
67.296608466
 20
120.641181256
 30
0.0
 11
67.541765618
 21
120.641181256
 31
0.0
  0
LINE
  5
BE
330
40
100
AcDbEntity
  8
0012873
  6
Continuous
 62
     7
100
AcDbLine
 10
67.541765618
 20
120.641181256
 30
0.0
 11
67.633491083
 21
121.0847989597
 31
0.0
  0
LINE
  5
BF
330
40
100
AcDbEntity
  8
0012873
  6
Continuous
 62
     7
100
AcDbLine
 10
67.633491083
 20
121.0847989597
 30
0.0
 11
67.9853833216
 21
121.2966013972
 31
0.0
  0
LINE
  5
C0
330
40
100
AcDbEntity
  8
0012873
  6
Continuous
 62
     7
100
AcDbLine
 10
67.9853833216
 20
121.2966013972
 30
0.0
 11
67.8486289919
 21
120.641181256
 31
0.0
  0
LINE
  5
C1
330
40
100
AcDbEntity
  8
0012873
  6
Continuous
 62
     7
100
AcDbLine
 10
67.8486289919
 20
120.641181256
 30
0.0
 11
68.1521568944
 21
120.641181256
 31
0.0
  0
LINE
  5
C2
330
40
100
AcDbEntity
  8
0012873
  6
Continuous
 62
     7
100
AcDbLine
 10
68.1521568944
 20
120.641181256
 30
0.0
 11
68.1021248226
 21
120.4026950469
 31
0.0
  0
LINE
  5
C3
330
40
100
AcDbEntity
  8
0012873
  6
Continuous
 62
     7
100
AcDbLine
 10
67.0331062209
 20
120.1041703516
 30
0.0
 11
66.7245751112
 21
120.0841575229
 31
0.0
  0
SPLINE
  5
C4
330
40
100
AcDbEntity
  8
0012873
  6
Continuous
 62
     7
100
AcDbSpline
210
0.0
220
0.0
230
1.0
 70
     8
 71
     3
 72
    38
 73
    34
 74
     0
 42
0.0000000021250207
 43
0.0000000001
 12
1.0
 22
0.0
 32
0.0
 13
1.0
 23
0.0
 33
0.0
 40
0.0
 40
0.0
 40
0.0
 40
0.0
 40
0.0637829389361784
 40
0.0637829389361784
 40
0.0637829389361784
 40
0.1346526294780085
 40
0.1346526294780085
 40
0.1929631343541977
 40
0.1929631343541977
 40
0.1929631343541977
 40
0.2323447494221138
 40
0.2323447494221138
 40
0.2717263644900311
 40
0.2717263644900311
 40
0.2717263644900311
 40
0.3365437187236586
 40
0.3365437187236586
 40
0.3365437187236586
 40
0.4477445621872881
 40
0.4477445621872881
 40
0.4477445621872881
 40
0.5405398669022407
 40
0.5405398669022407
 40
0.6024034033788759
 40
0.6024034033788759
 40
0.6642669398555118
 40
0.6642669398555118
 40
0.6642669398555118
 40
0.755296603393231
 40
0.755296603393231
 40
0.8776483016966153
 40
0.8776483016966153
 40
1.0
 40
1.0
 40
1.0
 40
1.0
 10
66.72457511124111
 20
120.084157522887
 30
0.0
 10
66.72123963978504
 20
120.194228080937
 30
0.0
 10
66.6812139823123
 20
120.2809503387946
 30
0.0
 10
66.609501346007
 20
120.3459920321878
 30
0.0
 10
66.53770359084551
 20
120.411110926404
 30
0.0
 10
66.4327213588357
 20
120.4410529686856
 30
0.0
 10
66.19256741399929
 20
120.4410529686856
 30
0.0
 10
66.11084836332579
 20
120.4160369327651
 30
0.0
 10
66.05080987711668
 20
120.3676725966522
 30
0.0
 10
65.99096805417545
 20
120.3194666837273
 30
0.0
 10
65.96241988353106
 20
120.2642729815143
 30
0.0
 10
65.96241988353106
 20
120.1508669520082
 30
0.0
 10
65.98910365517955
 20
120.1008348801673
 30
0.0
 10
66.03913572702047
 20
120.0574737512385
 30
0.0
 10
66.073993096869
 20
120.0272640307031
 30
0.0
 10
66.16254817089472
 20
119.9807579077491
 30
0.0
 10
66.30430570777735
 20
119.92071942154
 30
0.0
 10
66.54283634547514
 20
119.8196946808679
 30
0.0
 10
66.68955266095247
 20
119.7356007557285
 30
0.0
 10
66.75292661861765
 20
119.6755622695194
 30
0.0
 10
66.85224332453524
 20
119.5814727586501
 30
0.0
 10
66.90135509841238
 20
119.4654275677875
 30
0.0
 10
66.90135509841238
 20
119.2402832445034
 30
0.0
 10
66.87300359103584
 20
119.1518932509178
 30
0.0
 10
66.76293303298583
 20
118.9784487352025
 30
0.0
 10
66.67787851085625
 20
118.9100715703533
 30
0.0
 10
66.56614021707819
 20
118.8583717627843
 30
0.0
 10
66.45302825987204
 20
118.8060363795994
 30
0.0
 10
66.31931532932964
 20
118.7799881835669
 30
0.0
 10
65.95574894061892
 20
118.7799881835669
 30
0.0
 10
65.77730121771963
 20
118.8316879911359
 30
0.0
 10
65.48377972958622
 20
119.0384872214117
 30
0.0
 10
65.41373482900892
 20
119.2069285299428
 30
0.0
 10
65.42040577192104
 20
119.4404115318671
 30
0.0
  0
LINE
  5
C5
330
40
100
AcDbEntity
  8
0012873
  6
Continuous
 62
     7
100
AcDbLine
 10
65.4204057719
 20
119.4404115319
 30
0.0
 11
65.7339400888
 21
119.4587566249
 31
0.0
  0
SPLINE
  5
C6
330
40
100
AcDbEntity
  8
0012873
  6
Continuous
 62
     7
100
AcDbSpline
210
0.0
220
0.0
230
1.0
 70
     8
 71
     3
 72
    41
 73
    37
 74
     0
 42
0.0000000021481696
 43
0.0000000001
 12
1.0
 22
0.0
 32
0.0
 13
1.0
 23
0.0
 33
0.0
 40
0.0
 40
0.0
 40
0.0
 40
0.0
 40
0.0507161692857751
 40
0.0507161692857751
 40
0.0507161692857751
 40
0.1030511479805811
 40
0.1030511479805811
 40
0.1553861266753851
 40
0.1553861266753851
 40
0.2272358431885903
 40
0.2272358431885903
 40
0.2272358431885903
 40
0.2769645081253547
 40
0.2769645081253547
 40
0.3131308098975469
 40
0.3131308098975469
 40
0.3131308098975469
 40
0.3915194288406554
 40
0.3915194288406554
 40
0.3915194288406554
 40
0.4674355675235907
 40
0.4674355675235907
 40
0.4674355675235907
 40
0.5193141120191225
 40
0.5193141120191225
 40
0.5711926565146559
 40
0.5711926565146559
 40
0.6622447958333469
 40
0.6622447958333469
 40
0.6622447958333469
 40
0.7738226346552763
 40
0.7738226346552763
 40
0.8970981501278948
 40
0.8970981501278948
 40
0.8970981501278948
 40
1.0
 40
1.0
 40
1.0
 40
1.0
 10
65.73394008879083
 20
119.4587566248754
 30
0.0
 10
65.73394008879083
 20
119.3703666312898
 30
0.0
 10
65.74728197461508
 20
119.2953185235284
 30
0.0
 10
65.77396574626357
 20
119.2319445658632
 30
0.0
 10
65.80005305713405
 20
119.1699872025459
 30
0.0
 10
65.850681589753
 20
119.1185385363571
 30
0.0
 10
65.99744233381968
 20
119.0384872214117
 30
0.0
 10
66.08249685594924
 20
119.0201421284033
 30
0.0
 10
66.31597985787357
 20
119.0201421284033
 30
0.0
 10
66.41771173728344
 20
119.0468259000518
 30
0.0
 10
66.4860889021327
 20
119.1018611790768
 30
0.0
 10
66.55365146537909
 20
119.1562408031532
 30
0.0
 10
66.5878207815426
 20
119.220270415767
 30
0.0
 10
66.5878207815426
 20
119.3470183310974
 30
0.0
 10
66.56780795280623
 20
119.3987181386663
 30
0.0
 10
66.52611455960545
 20
119.4454147390512
 30
0.0
 10
66.48359262487905
 20
119.4930393059447
 30
0.0
 10
66.38102155126677
 20
119.5521498256451
 30
0.0
 10
66.21758344991976
 20
119.6238624619505
 30
0.0
 10
66.05475897280725
 20
119.6953058549692
 30
0.0
 10
65.95074573343481
 20
119.7439394343687
 30
0.0
 10
65.90404913304995
 20
119.7722909417452
 30
0.0
 10
65.82849899486907
 20
119.8181606684979
 30
0.0
 10
65.7706302748075
 20
119.8740228211551
 30
0.0
 10
65.69391443131808
 20
120.0007707364854
 30
0.0
 10
65.67390160258171
 20
120.0741511085188
 30
0.0
 10
65.67390160258171
 20
120.2992954318029
 30
0.0
 10
65.73227235306278
 20
120.4227078756772
 30
0.0
 10
65.84567838256888
 20
120.5261074908151
 30
0.0
 10
65.95999508874084
 20
120.6303374287954
 30
0.0
 10
66.11918704196593
 20
120.681206913522
 30
0.0
 10
66.55446606698199
 20
120.681206913522
 30
0.0
 10
66.72791058269716
 20
120.627839370225
 30
0.0
 10
66.84631981938735
 20
120.521104283631
 30
0.0
 10
66.9648197712638
 20
120.4142874256016
 30
0.0
 10
67.02810301374271
 20
120.2759471316105
 30
0.0
 10
67.03310622092681
 20
120.1041703516233
 30
0.0
  0
LINE
  5
C7
330
40
100
AcDbEntity
  8
0012873
  6
Continuous
 62
     7
100
AcDbLine
 10
65.1619067341
 20
120.641181256
 30
0.0
 11
65.4854474653
 21
120.641181256
 31
0.0
  0
SPLINE
  5
C8
330
40
100
AcDbEntity
  8
0012873
  6
Continuous
 62
     7
100
AcDbSpline
210
0.0
220
0.0
230
1.0
 70
     8
 71
     3
 72
    15
 73
    11
 74
     0
 42
0.0000000029305112
 43
0.0000000001
 12
1.0
 22
0.0
 32
0.0
 13
1.0
 23
0.0
 33
0.0
 40
0.0
 40
0.0
 40
0.0
 40
0.0
 40
0.6944103924140682
 40
0.6944103924140682
 40
0.6944103924140682
 40
0.8100855546076127
 40
0.8100855546076127
 40
0.9257607168011571
 40
0.9257607168011571
 40
1.0
 40
1.0
 40
1.0
 40
1.0
 10
65.48544746531424
 20
120.6411812560493
 30
0.0
 10
65.09964460022977
 20
119.9546300480099
 30
0.0
 10
64.71384173514532
 20
119.2680788399706
 30
0.0
 10
64.32803887006087
 20
118.5815276319312
 30
0.0
 10
64.2150392461239
 20
118.3804404048964
 30
0.0
 10
64.11623643260094
 20
118.244645014869
 30
0.0
 10
63.94279191688576
 20
118.1145616280826
 30
0.0
 10
63.8427277732039
 20
118.081206913522
 30
0.0
 10
63.65927684312053
 20
118.081206913522
 30
0.0
 10
63.58756420681519
 20
118.0928810636182
 30
0.0
 10
63.51918704196594
 20
118.1178970995387
 30
0.0
  0
LINE
  5
C9
330
40
100
AcDbEntity
  8
0012873
  6
Continuous
 62
     7
100
AcDbLine
 10
63.519187042
 20
118.1178970995
 30
0.0
 11
63.5391998707
 21
118.4114185877
 31
0.0
  0
SPLINE
  5
CA
330
40
100
AcDbEntity
  8
0012873
  6
Continuous
 62
     7
100
AcDbSpline
210
0.0
220
0.0
230
1.0
 70
     8
 71
     3
 72
    16
 73
    12
 74
     0
 42
0.0000000120625217
 43
0.0000000001
 12
1.0
 22
0.0
 32
0.0
 13
1.0
 23
0.0
 33
0.0
 40
0.0
 40
0.0
 40
0.0
 40
0.0
 40
0.209593350378497
 40
0.209593350378497
 40
0.4250087382675023
 40
0.4250087382675023
 40
0.4250087382675023
 40
0.7516385063522175
 40
0.7516385063522175
 40
0.7516385063522175
 40
1.0
 40
1.0
 40
1.0
 40
1.0
 10
63.5391998707023
 20
118.4114185876721
 30
0.0
 10
63.60257382836748
 20
118.3930734946637
 30
0.0
 10
63.66594778603265
 20
118.3847348160236
 30
0.0
 10
63.7876924941789
 20
118.3847348160236
 30
0.0
 10
63.83939230174784
 20
118.3980767018478
 30
0.0
 10
63.87775022349257
 20
118.4280959449524
 30
0.0
 10
63.92658574871501
 20
118.4663150516482
 30
0.0
 10
63.9828175743585
 20
118.5364987672744
 30
0.0
 10
64.04118832483957
 20
118.6398983824123
 30
0.0
 10
64.07471302627324
 20
118.6992849963805
 30
0.0
 10
64.10789775396081
 20
118.7588635310118
 30
0.0
 10
64.14125246852143
 20
118.8183461053116
 30
0.0
  0
LINE
  5
CB
330
40
100
AcDbEntity
  8
0012873
  6
Continuous
 62
     7
100
AcDbLine
 10
64.1412524685
 20
118.8183461053
 30
0.0
 11
63.837724566
 21
120.641181256
 31
0.0
  0
LINE
  5
CC
330
40
100
AcDbEntity
  8
0012873
  6
Continuous
 62
     7
100
AcDbLine
 10
63.837724566
 20
120.641181256
 30
0.0
 11
64.1395847328
 21
120.641181256
 31
0.0
  0
SPLINE
  5
CD
330
40
100
AcDbEntity
  8
0012873
  6
Continuous
 62
     7
100
AcDbSpline
210
0.0
220
0.0
230
1.0
 70
     8
 71
     3
 72
    11
 73
     7
 74
     0
 42
0.0000000067604395
 43
0.0000000001
 12
1.0
 22
0.0
 32
0.0
 13
1.0
 23
0.0
 33
0.0
 40
0.0
 40
0.0
 40
0.0
 40
0.0
 40
0.6282567672362598
 40
0.6282567672362598
 40
0.6282567672362598
 40
1.0
 40
1.0
 40
1.0
 40
1.0
 10
64.13958473279338
 20
120.6411812560493
 30
0.0
 10
64.18572542126891
 20
120.3348737940009
 30
0.0
 10
64.23186610974443
 20
120.0285663319526
 30
0.0
 10
64.27800679821993
 20
119.7222588699043
 30
0.0
 10
64.305374234628
 20
119.5405786595327
 30
0.0
 10
64.32803887006087
 20
119.3586924811936
 30
0.0
 10
64.34805169879724
 20
119.1769092868382
 30
0.0
  0
LINE
  5
CE
330
40
100
AcDbEntity
  8
0012873
  6
Continuous
 62
     7
100
AcDbLine
 10
64.3480516988
 20
119.1769092868
 30
0.0
 11
65.1619067341
 21
120.641181256
 31
0.0
  0
LINE
  5
CF
330
40
100
AcDbEntity
  8
0012873
  6
Continuous
 62
     7
100
AcDbLine
 10
63.5341966635
 20
120.6161652201
 30
0.0
 11
63.2073204608
 21
120.5911491842
 31
0.0
  0
SPLINE
  5
D0
330
40
100
AcDbEntity
  8
0012873
  6
Continuous
 62
     7
100
AcDbSpline
210
0.0
220
0.0
230
1.0
 70
     8
 71
     3
 72
    52
 73
    48
 74
     0
 42
0.0000000015488647
 43
0.0000000001
 12
1.0
 22
0.0
 32
0.0
 13
1.0
 23
0.0
 33
0.0
 40
0.0
 40
0.0
 40
0.0
 40
0.0
 40
0.0264433110871848
 40
0.0264433110871848
 40
0.0264433110871848
 40
0.0592893318230163
 40
0.0592893318230163
 40
0.0592893318230163
 40
0.0954649509175291
 40
0.0954649509175291
 40
0.0954649509175291
 40
0.1375755765023403
 40
0.1375755765023403
 40
0.2109295694565281
 40
0.2109295694565281
 40
0.2109295694565281
 40
0.2566304236944026
 40
0.2566304236944026
 40
0.2834706079293463
 40
0.2834706079293463
 40
0.2834706079293463
 40
0.3189590920973951
 40
0.3189590920973951
 40
0.3189590920973951
 40
0.3918908840021619
 40
0.3918908840021619
 40
0.3918908840021619
 40
0.4574597730848553
 40
0.4574597730848553
 40
0.4574597730848553
 40
0.5059181728425454
 40
0.5059181728425454
 40
0.5059181728425454
 40
0.5559035550512078
 40
0.5559035550512078
 40
0.6172492513982039
 40
0.6172492513982039
 40
0.6172492513982039
 40
0.6864613307814719
 40
0.6864613307814719
 40
0.6864613307814719
 40
0.7645155415926762
 40
0.7645155415926762
 40
0.881942230423691
 40
0.881942230423691
 40
0.881942230423691
 40
1.0
 40
1.0
 40
1.0
 40
1.0
 10
63.20732046082417
 20
120.5911491842083
 30
0.0
 10
63.20732046082417
 20
120.6611940847856
 30
0.0
 10
63.20064951791204
 20
120.7178970995387
 30
0.0
 10
63.18897536781584
 20
120.7579227570114
 30
0.0
 10
63.16831679180557
 20
120.8287521604752
 30
0.0
 10
63.13060461733478
 20
120.8863384080698
 30
0.0
 10
63.08390801694991
 20
120.9363704799107
 30
0.0
 10
63.03809876289063
 20
120.9854518235456
 30
0.0
 10
62.9705019874438
 20
121.0230927377683
 30
0.0
 10
62.88711520104226
 20
121.0514442451448
 30
0.0
 10
62.80322014093373
 20
121.0799685655817
 30
0.0
 10
62.71033521387101
 20
121.0964731098017
 30
0.0
 10
62.42682014010578
 20
121.0964731098017
 30
0.0
 10
62.28506260322314
 20
121.0547797166009
 30
0.0
 10
62.18333072381327
 20
120.9730606659274
 30
0.0
 10
62.10576058119888
 20
120.9107502234994
 30
0.0
 10
62.06825695857915
 20
120.8262999218607
 30
0.0
 10
62.06825695857915
 20
120.6595263490576
 30
0.0
 10
62.08493431585946
 20
120.6044910700326
 30
0.0
 10
62.11662129469203
 20
120.5561267339197
 30
0.0
 10
62.14907276802226
 20
120.5065955377841
 30
0.0
 10
62.20501128827768
 20
120.4593980616939
 30
0.0
 10
62.2883980746792
 20
120.412701461309
 30
0.0
 10
62.34705321371317
 20
120.37985458345
 30
0.0
 10
62.48685862631487
 20
120.3143050533552
 30
0.0
 10
62.70866747814296
 20
120.2159086454014
 30
0.0
 10
62.88883871177717
 20
120.1359830605561
 30
0.0
 10
63.01219538064456
 20
120.0724833727908
 30
0.0
 10
63.08057254549384
 20
120.0274545081339
 30
0.0
 10
63.17289590417413
 20
119.9666561987591
 30
0.0
 10
63.24067517538479
 20
119.8923679141634
 30
0.0
 10
63.29070724722571
 20
119.8056456563058
 30
0.0
 10
63.3396009644909
 20
119.7208965463795
 30
0.0
 10
63.36408761925907
 20
119.6221947262224
 30
0.0
 10
63.36408761925907
 20
119.3770375742019
 30
0.0
 10
63.32239422605831
 20
119.2502896588716
 30
0.0
 10
63.23900743965677
 20
119.1368836293655
 30
0.0
 10
63.15461401883207
 20
119.0221085770439
 30
0.0
 10
63.04221462374912
 20
118.9317521348177
 30
0.0
 10
62.89545387968243
 20
118.8700459128806
 30
0.0
 10
62.74951446755331
 20
118.8086850236899
 30
0.0
 10
62.58358729854066
 20
118.7749849763828
 30
0.0
 10
62.11161808750795
 20
118.7749849763828
 30
0.0
 10
61.87980282131167
 20
118.8366911983199
 30
0.0
 10
61.69968736268436
 20
118.9617713779222
 30
0.0
 10
61.52035324822943
 20
119.0863089574048
 30
0.0
 10
61.42951417474335
 20
119.3086604093526
 30
0.0
 10
61.42784643901533
 20
119.6305334048626
 30
0.0
  0
LINE
  5
D1
330
40
100
AcDbEntity
  8
0012873
  6
Continuous
 62
     7
100
AcDbLine
 10
61.427846439
 20
119.6305334049
 30
0.0
 11
61.7563903774
 21
119.660552648
 31
0.0
  0
SPLINE
  5
D2
330
40
100
AcDbEntity
  8
0012873
  6
Continuous
 62
     7
100
AcDbSpline
210
0.0
220
0.0
230
1.0
 70
     8
 71
     3
 72
    53
 73
    49
 74
     0
 42
0.0000000015555073
 43
0.0000000001
 12
1.0
 22
0.0
 32
0.0
 13
1.0
 23
0.0
 33
0.0
 40
0.0
 40
0.0
 40
0.0
 40
0.0
 40
0.0139279295162094
 40
0.0139279295162094
 40
0.0139279295162094
 40
0.0577976464619988
 40
0.0577976464619988
 40
0.0577976464619988
 40
0.103929277082425
 40
0.103929277082425
 40
0.103929277082425
 40
0.1600699665979061
 40
0.1600699665979061
 40
0.2399878893199438
 40
0.2399878893199438
 40
0.2399878893199438
 40
0.3145741291728388
 40
0.3145741291728388
 40
0.3661263831888102
 40
0.3661263831888102
 40
0.4176786372047809
 40
0.4176786372047809
 40
0.4176786372047809
 40
0.4884441251585013
 40
0.4884441251585013
 40
0.4884441251585013
 40
0.5436731416407822
 40
0.5436731416407822
 40
0.5436731416407822
 40
0.5942702858438731
 40
0.5942702858438731
 40
0.6515641108973732
 40
0.6515641108973732
 40
0.6515641108973732
 40
0.7140850984472994
 40
0.7140850984472994
 40
0.7140850984472994
 40
0.7862250893864359
 40
0.7862250893864359
 40
0.8716724572949268
 40
0.8716724572949268
 40
0.8716724572949268
 40
0.9374079905604934
 40
0.9374079905604934
 40
0.9374079905604934
 40
0.9945572165704774
 40
0.9945572165704774
 40
1.0
 40
1.0
 40
1.0
 40
1.0
 10
61.75639037743738
 20
119.6605526479671
 30
0.0
 10
61.7552785536187
 20
119.6310893167719
 30
0.0
 10
61.75416672980003
 20
119.6016259855767
 30
0.0
 10
61.75305490598132
 20
119.5721626543815
 30
0.0
 10
61.74940995779224
 20
119.4755715273704
 30
0.0
 10
61.77473547044573
 20
119.3853762528421
 30
0.0
 10
61.81976433510255
 20
119.3053249378966
 30
0.0
 10
61.86439234933219
 20
119.2259862459328
 30
0.0
 10
61.93817357179274
 20
119.163567401014
 30
0.0
 10
62.03990545120264
 20
119.1202062720852
 30
0.0
 10
62.14365021974341
 20
119.075987190412
 30
0.0
 10
62.26504977448677
 20
119.0534968429639
 30
0.0
 10
62.60860333446114
 20
119.0534968429639
 30
0.0
 10
62.76203502143996
 20
119.0968579718927
 30
0.0
 10
62.86710237230589
 20
119.1852479654784
 30
0.0
 10
62.97314630079129
 20
119.2744595243629
 30
0.0
 10
63.02553726646881
 20
119.3753698384739
 30
0.0
 10
63.02553726646881
 20
119.5671594471974
 30
0.0
 10
62.99885349482032
 20
119.6388720835027
 30
0.0
 10
62.88544746531424
 20
119.7689554702892
 30
0.0
 10
62.73034804260738
 20
119.8556777281467
 30
0.0
 10
62.47518447621866
 20
119.9657482861968
 30
0.0
 10
62.27833219485557
 20
120.0506649565887
 30
0.0
 10
62.14330506634052
 20
120.1158445017196
 30
0.0
 10
62.07159243003521
 20
120.1625411021044
 30
0.0
 10
61.95839922210322
 20
120.2362483072694
 30
0.0
 10
61.87479961412759
 20
120.3176405248113
 30
0.0
 10
61.8214320708306
 20
120.4043627826689
 30
0.0
 10
61.76732013047045
 20
120.4922946857541
 30
0.0
 10
61.74138075588512
 20
120.5911491842083
 30
0.0
 10
61.74138075588512
 20
120.8329708647728
 30
0.0
 10
61.77640320617375
 20
120.9497123657349
 30
0.0
 10
61.8481158424791
 20
121.0531119808728
 30
0.0
 10
61.92006781482689
 20
121.1568566851883
 30
0.0
 10
62.02156035819429
 20
121.2365629109562
 30
0.0
 10
62.15831468789282
 20
121.2915981899813
 30
0.0
 10
62.29363373600486
 20
121.3460558556849
 30
0.0
 10
62.44683296884212
 20
121.3749849763828
 30
0.0
 10
62.82207350764907
 20
121.3749849763828
 30
0.0
 10
62.99385028763623
 20
121.3399625260942
 30
0.0
 10
63.13394008879084
 20
121.2715853612449
 30
0.0
 10
63.2746872874328
 20
121.2028873238125
 30
0.0
 10
63.37576176935528
 20
121.1098149956259
 30
0.0
 10
63.43913572702045
 20
120.9964089661198
 30
0.0
 10
63.5032198740596
 20
120.8817320714182
 30
0.0
 10
63.5341966635182
 20
120.7729323785637
 30
0.0
 10
63.5341966635182
 20
120.6578586133296
 30
0.0
 10
63.5341966635182
 20
120.6411812560493
 30
0.0
 10
63.5341966635182
 20
120.6161652201288
 30
0.0
  0
LINE
  5
D3
330
40
100
AcDbEntity
  8
0012873
  6
Continuous
 62
     7
100
AcDbLine
 10
72.333382996
 20
117.2042412514
 30
0.0
 11
72.4895128923
 21
117.7042412514
 31
0.0
  0
LINE
  5
D4
330
40
100
AcDbEntity
  8
0012873
  6
Continuous
 62
     7
100
AcDbLine
 10
72.4895128923
 20
117.7042412514
 30
0.0
 11
60.3236975033
 21
117.7042412514
 31
0.0
  0
ENDBLK
  5
D6
330
40
100
AcDbEntity
  8
0
100
AcDbBlockEnd
  0
BLOCK
  5
DD
330
D7
100
AcDbEntity
  8
0
100
AcDbBlockBegin
  2
SE1
 70
     0
 10
0.0
 20
0.0
 30
0.0
  3
SE1
  1

  0
LINE
  5
D9
330
D7
100
AcDbEntity
  8
0012873
  6
Continuous
 62
     7
100
AcDbLine
 10
259.5419928383
 20
67.3656242197
 30
0.0
 11
49.5419928383
 21
67.3656242197
 31
0.0
  0
LINE
  5
DA
330
D7
100
AcDbEntity
  8
0012873
  6
Continuous
 62
     7
100
AcDbLine
 10
259.5419928383
 20
79.3656242197
 30
0.0
 11
49.5419928383
 21
79.3656242197
 31
0.0
  0
LINE
  5
DB
330
D7
100
AcDbEntity
  8
0012873
  6
Continuous
 62
     7
100
AcDbLine
 10
49.5419928383
 20
67.3656242197
 30
0.0
 11
49.5419928383
 21
79.3656242197
 31
0.0
  0
LINE
  5
DC
330
D7
100
AcDbEntity
  8
0012873
  6
Continuous
 62
     7
100
AcDbLine
 10
259.5419928383
 20
67.3656242197
 30
0.0
 11
259.5419928383
 21
79.3656242197
 31
0.0
  0
ENDBLK
  5
DE
330
D7
100
AcDbEntity
  8
0
100
AcDbBlockEnd
  0
BLOCK
  5
E1
330
E0
100
AcDbEntity
  8
0
100
AcDbBlockBegin
  2
_OBLIQUE
 70
     0
 10
0.0
 20
0.0
 30
0.0
  3
_OBLIQUE
  1

  0
LINE
  5
E3
330
E0
100
AcDbEntity
  8
0
  6
ByBlock
 62
     0
370
    -2
100
AcDbLine
 10
-0.5
 20
-0.5
 30
0.0
 11
0.5
 21
0.5
 31
0.0
  0
ENDBLK
  5
E2
330
E0
100
AcDbEntity
  8
0
100
AcDbBlockEnd
  0
BLOCK
  5
E5
330
E4
100
AcDbEntity
  8
0
100
AcDbBlockBegin
  2
_DOT
 70
     0
 10
0.0
 20
0.0
 30
0.0
  3
_DOT
  1

  0
POLYLINE
  5
E7
330
E4
100
AcDbEntity
  8
0
  6
ByBlock
 62
     0
100
AcDb2dPolyline
 66
     1
 10
0.0
 20
0.0
 30
0.0
 70
     1
 40
0.5
 41
0.5
  0
VERTEX
  5
E9
330
E7
100
AcDbEntity
  8
0
  6
ByBlock
 62
     0
100
AcDbVertex
100
AcDb2dVertex
 10
-0.25
 20
0.0
 30
0.0
 42
1.0
  0
VERTEX
  5
EA
330
E7
100
AcDbEntity
  8
0
  6
ByBlock
 62
     0
100
AcDbVertex
100
AcDb2dVertex
 10
0.25
 20
0.0
 30
0.0
 42
1.0
  0
SEQEND
  5
EB
330
E7
100
AcDbEntity
  8
0
  6
ByBlock
 62
     0
  0
LINE
  5
E8
330
E4
100
AcDbEntity
  8
0
  6
ByBlock
 62
     0
370
    -2
100
AcDbLine
 10
-0.5
 20
0.0
 30
0.0
 11
-1.0
 21
0.0
 31
0.0
  0
ENDBLK
  5
E6
330
E4
100
AcDbEntity
  8
0
100
AcDbBlockEnd
  0
BLOCK
  5
EF
330
EC
100
AcDbEntity
  8
0
100
AcDbBlockBegin
  2
_SE_FILLED
 70
     0
 10
0.0
 20
0.0
 30
0.0
  3
_SE_FILLED
  1

  0
SOLID
  5
ED
330
EC
100
AcDbEntity
  8
0
 62
     0
100
AcDbTrace
 10
0.0
 20
0.0
 30
0.0
 11
-1.0
 21
-0.1665
 31
0.0
 12
-1.0
 22
0.1665
 32
0.0
 13
0.0
 23
0.0
 33
0.0
  0
LINE
  5
EE
330
EC
100
AcDbEntity
  8
0
 62
     0
100
AcDbLine
 10
0.0
 20
0.0
 30
0.0
 11
-1.0
 21
0.0
 31
0.0
  0
ENDBLK
  5
F0
330
EC
100
AcDbEntity
  8
0
100
AcDbBlockEnd
  0
BLOCK
  5
FB
330
F4
100
AcDbEntity
  8
0
100
AcDbBlockBegin
  2
DMBLK459
 70
     0
 10
0.0
 20
0.0
 30
0.0
  3
DMBLK459
  1

  0
HATCH
  5
F5
330
F4
100
AcDbEntity
  8
Default
  6
Continuous
 62
     7
100
AcDbHatch
 10
0.0
 20
0.0
 30
0.0
210
0.0
220
0.0
230
1.0
  2
SOLID
 70
     1
 71
     0
 91
        1
 92
        1
 93
        3
 72
     1
 10
53.04199294632478
 20
154.4135279660833
 11
49.54199283829136
 21
153.8301946147444
 72
     1
 10
49.54199283829136
 20
153.8301946147444
 11
53.04199294632478
 21
153.2468612634055
 72
     1
 10
53.04199294632478
 20
153.2468612634055
 11
53.04199294632478
 21
154.4135279660833
 97
        0
 75
     0
 76
     1
 98
        0
  0
HATCH
  5
F6
330
F4
100
AcDbEntity
  8
Default
  6
Continuous
 62
     7
100
AcDbHatch
 10
0.0
 20
0.0
 30
0.0
210
0.0
220
0.0
230
1.0
  2
SOLID
 70
     1
 71
     0
 91
        1
 92
        1
 93
        3
 72
     1
 10
256.041986173747
 20
154.4135279660833
 11
256.041986173747
 21
153.2468612634055
 72
     1
 10
256.041986173747
 20
153.2468612634055
 11
259.5419862817805
 21
153.8301946147444
 72
     1
 10
259.5419862817805
 20
153.8301946147444
 11
256.041986173747
 21
154.4135279660833
 97
        0
 75
     0
 76
     1
 98
        0
  0
LINE
  5
F7
330
F4
100
AcDbEntity
  8
Default
  6
Continuous
 62
     7
100
AcDbLine
 10
49.5419928383
 20
128.9596946462
 30
0.0
 11
49.5419928383
 21
155.5801946688
 31
0.0
  0
LINE
  5
F8
330
F4
100
AcDbEntity
  8
Default
  6
Continuous
 62
     7
100
AcDbLine
 10
259.5419928383
 20
128.9596946462
 30
0.0
 11
259.5419928383
 21
155.5801946688
 31
0.0
  0
LINE
  5
F9
330
F4
100
AcDbEntity
  8
Default
  6
Continuous
 62
     7
100
AcDbLine
 10
49.5419928383
 20
153.8301946147
 30
0.0
 11
259.5419862818
 21
153.8301946147
 31
0.0
  0
TEXT
  5
FA
330
F4
100
AcDbEntity
  8
Default
  6
Continuous
 62
     7
100
AcDbText
 10
151.7181259237
 20
154.7051946147
 30
0.0
 40
3.5
  1
210
  7
SEACAD_Solid_Edge_ISO
 11
151.7181259237
 21
158.2051946147
 31
0.0
100
AcDbText
 73
     3
  0
ENDBLK
  5
FC
330
F4
100
AcDbEntity
  8
0
100
AcDbBlockEnd
  0
BLOCK
  5
105
330
FE
100
AcDbEntity
  8
0
100
AcDbBlockBegin
  2
DMBLK460
 70
     0
 10
0.0
 20
0.0
 30
0.0
  3
DMBLK460
  1

  0
HATCH
  5
FF
330
FE
100
AcDbEntity
  8
Default
  6
Continuous
 62
     7
100
AcDbHatch
 10
0.0
 20
0.0
 30
0.0
210
0.0
220
0.0
230
1.0
  2
SOLID
 70
     1
 71
     0
 91
        1
 92
        1
 93
        3
 72
     1
 10
36.62554299283329
 20
140.4596945381822
 11
37.79220969551109
 21
140.4596945381822
 72
     1
 10
37.79220969551109
 20
140.4596945381822
 11
37.20887634417219
 21
143.9596946462156
 72
     1
 10
37.20887634417219
 20
143.9596946462156
 11
36.62554299283329
 21
140.4596945381822
 97
        0
 75
     0
 76
     1
 98
        0
  0
HATCH
  5
100
330
FE
100
AcDbEntity
  8
Default
  6
Continuous
 62
     7
100
AcDbHatch
 10
0.0
 20
0.0
 30
0.0
210
0.0
220
0.0
230
1.0
  2
SOLID
 70
     1
 71
     0
 91
        1
 92
        1
 93
        3
 72
     1
 10
36.62554299283329
 20
117.4596954248013
 11
37.20887634417219
 21
113.9596953167679
 72
     1
 10
37.20887634417219
 20
113.9596953167679
 11
37.79220969551109
 21
117.4596954248013
 72
     1
 10
37.79220969551109
 20
117.4596954248013
 11
36.62554299283329
 21
117.4596954248013
 97
        0
 75
     0
 76
     1
 98
        0
  0
LINE
  5
101
330
FE
100
AcDbEntity
  8
Default
  6
Continuous
 62
     7
100
AcDbLine
 10
49.5419928383
 20
143.9596946462
 30
0.0
 11
35.4588762902
 21
143.9596946462
 31
0.0
  0
LINE
  5
102
330
FE
100
AcDbEntity
  8
Default
  6
Continuous
 62
     7
100
AcDbLine
 10
49.5419928383
 20
113.9596946462
 30
0.0
 11
35.4588762902
 21
113.9596946462
 31
0.0
  0
LINE
  5
103
330
FE
100
AcDbEntity
  8
Default
  6
Continuous
 62
     7
100
AcDbLine
 10
37.2088763442
 20
143.9596946462
 30
0.0
 11
37.2088763442
 21
113.9596953168
 31
0.0
  0
TEXT
  5
104
330
FE
100
AcDbEntity
  8
Default
  6
Continuous
 62
     7
100
AcDbText
 10
36.3338763442
 20
127.0108313451
 30
0.0
 40
3.5
  1
30
 50
90.0
  7
SEACAD_Solid_Edge_ISO
 11
32.8338763442
 21
127.0108313451
 31
0.0
100
AcDbText
 73
     3
  0
ENDBLK
  5
106
330
FE
100
AcDbEntity
  8
0
100
AcDbBlockEnd
  0
BLOCK
  5
10F
330
108
100
AcDbEntity
  8
0
100
AcDbBlockBegin
  2
DMBLK461
 70
     0
 10
0.0
 20
0.0
 30
0.0
  3
DMBLK461
  1

  0
HATCH
  5
109
330
108
100
AcDbEntity
  8
Default
  6
Continuous
 62
     7
100
AcDbHatch
 10
0.0
 20
0.0
 30
0.0
210
0.0
220
0.0
230
1.0
  2
SOLID
 70
     1
 71
     0
 91
        1
 92
        1
 93
        3
 72
     1
 10
36.62554299283329
 20
70.86562432768812
 11
37.20887634417219
 21
67.3656242196547
 72
     1
 10
37.20887634417219
 20
67.3656242196547
 11
37.79220969551109
 21
70.86562432768812
 72
     1
 10
37.79220969551109
 20
70.86562432768812
 11
36.62554299283329
 21
70.86562432768812
 97
        0
 75
     0
 76
     1
 98
        0
  0
HATCH
  5
10A
330
108
100
AcDbEntity
  8
Default
  6
Continuous
 62
     7
100
AcDbHatch
 10
0.0
 20
0.0
 30
0.0
210
0.0
220
0.0
230
1.0
  2
SOLID
 70
     1
 71
     0
 91
        1
 92
        1
 93
        3
 72
     1
 10
36.62554299283329
 20
75.86562421592942
 11
37.79220969551109
 21
75.86562421592942
 72
     1
 10
37.79220969551109
 20
75.86562421592942
 11
37.20887634417219
 21
79.36562432396283
 72
     1
 10
37.20887634417219
 20
79.36562432396283
 11
36.62554299283329
 21
75.86562421592942
 97
        0
 75
     0
 76
     1
 98
        0
  0
LINE
  5
10B
330
108
100
AcDbEntity
  8
Default
  6
Continuous
 62
     7
100
AcDbLine
 10
49.5419928383
 20
67.3656242197
 30
0.0
 11
35.4588762902
 21
67.3656242197
 31
0.0
  0
LINE
  5
10C
330
108
100
AcDbEntity
  8
Default
  6
Continuous
 62
     7
100
AcDbLine
 10
49.5419928383
 20
79.3656242197
 30
0.0
 11
35.4588762902
 21
79.3656242197
 31
0.0
  0
LINE
  5
10D
330
108
100
AcDbEntity
  8
Default
  6
Continuous
 62
     7
100
AcDbLine
 10
37.2088763442
 20
67.3656242197
 30
0.0
 11
37.2088763442
 21
79.365624324
 31
0.0
  0
TEXT
  5
10E
330
108
100
AcDbEntity
  8
Default
  6
Continuous
 62
     7
100
AcDbText
 10
36.3338763442
 20
71.5758515445
 30
0.0
 40
3.5
  1
12
 50
90.0
  7
SEACAD_Solid_Edge_ISO
 11
32.8338763442
 21
71.5758515445
 31
0.0
100
AcDbText
 73
     3
  0
ENDBLK
  5
110
330
108
100
AcDbEntity
  8
0
100
AcDbBlockEnd
  0
BLOCK
  5
114
330
111
100
AcDbEntity
  8
0
100
AcDbBlockBegin
  2
SEANNOT_GROUP
 70
     0
 10
0.0
 20
0.0
 30
0.0
  3
SEANNOT_GROUP
  1

  0
TEXT
  5
113
330
111
100
AcDbEntity
  8
Default
  6
Continuous
 62
     7
100
AcDbText
 10
243.1483969886
 20
25.7525109624
 30
0.0
 40
3.5
  1
712216000
  7
SEACAD_Solid_Edge_ANSIB
 11
243.1483969886
 21
29.2525109624
 31
0.0
100
AcDbText
 73
     3
  0
ENDBLK
  5
115
330
111
100
AcDbEntity
  8
0
100
AcDbBlockEnd
  0
BLOCK
  5
119
330
116
100
AcDbEntity
  8
0
100
AcDbBlockBegin
  2
SEANNOT_GROUP1
 70
     0
 10
0.0
 20
0.0
 30
0.0
  3
SEANNOT_GROUP1
  1

  0
TEXT
  5
118
330
116
100
AcDbEntity
  8
Default
  6
Continuous
 62
     7
100
AcDbText
 10
243.1477357349
 20
20.0537100543
 30
0.0
 40
3.5
  1
14.10.2015
  7
SEACAD_Solid_Edge_ANSI
 11
243.1477357349
 21
23.5537100543
 31
0.0
100
AcDbText
 73
     3
  0
ENDBLK
  5
11A
330
116
100
AcDbEntity
  8
0
100
AcDbBlockEnd
  0
BLOCK
  5
11D
330
11B
100
AcDbEntity
  8
0
100
AcDbBlockBegin
  2
SEANNOT_GROUP2
 70
     0
 10
0.0
 20
0.0
 30
0.0
  3
SEANNOT_GROUP2
  1

  0
TEXT
  5
11C
330
11B
100
AcDbEntity
  8
Default
  6
Continuous
 62
     7
100
AcDbText
 10
243.1795282745
 20
31.5598894014
 30
0.0
 40
3.5
  1
DSR 16
  7
SEACAD_Solid_Edge_ANSIB
 11
243.1795282745
 21
35.0598894014
 31
0.0
100
AcDbText
 73
     3
  0
ENDBLK
  5
11E
330
11B
100
AcDbEntity
  8
0
100
AcDbBlockEnd
  0
BLOCK
  5
121
330
11F
100
AcDbEntity
  8
0
100
AcDbBlockBegin
  2
SEANNOT_GROUP3
 70
     0
 10
0.0
 20
0.0
 30
0.0
  3
SEANNOT_GROUP3
  1

  0
TEXT
  5
120
330
11F
100
AcDbEntity
  8
Default
  6
Continuous
 62
     7
100
AcDbText
 10
243.2357917511
 20
14.1955389783
 30
0.0
 40
3.5
  1
1:1
  7
SEACAD_Solid_Edge_ANSI
 11
243.2357917511
 21
17.6955389783
 31
0.0
100
AcDbText
 73
     3
  0
ENDBLK
  5
122
330
11F
100
AcDbEntity
  8
0
100
AcDbBlockEnd
  0
BLOCK
  5
169
330
123
100
AcDbEntity
  8
0
100
AcDbBlockBegin
  2
Block1
 70
     0
 10
0.0
 20
0.0
 30
0.0
  3
Block1
  1

  0
LINE
  5
124
330
123
100
AcDbEntity
  8
Default
  6
Continuous
 62
     7
100
AcDbLine
 10
42.3415792923
 20
6.5926277851
 30
0.0
 11
40.225655308
 21
3.525
 31
0.0
  0
LINE
  5
125
330
123
100
AcDbEntity
  8
Default
  6
Continuous
 62
     7
100
AcDbLine
 10
40.225655308
 20
3.525
 30
0.0
 11
41.2882372215
 21
1.9958060288
 31
0.0
  0
LINE
  5
126
330
123
100
AcDbEntity
  8
Default
  6
Continuous
 62
     7
100
AcDbLine
 10
41.2882372215
 20
1.9958060288
 30
0.0
 11
40.2556847969
 21
0.5266710354
 31
0.0
  0
LINE
  5
127
330
123
100
AcDbEntity
  8
Default
  6
Continuous
 62
     7
100
AcDbLine
 10
40.2556847969
 20
0.5266710354
 30
0.0
 11
39.2231323722
 21
2.1459534731
 31
0.0
  0
LINE
  5
128
330
123
100
AcDbEntity
  8
Default
  6
Continuous
 62
     7
100
AcDbLine
 10
39.2231323722
 20
2.1459534731
 30
0.0
 11
37.7031782438
 21
0.0
 31
0.0
  0
LINE
  5
129
330
123
100
AcDbEntity
  8
Default
  6
Continuous
 62
     7
100
AcDbLine
 10
37.7031782438
 20
0.0
 30
0.0
 11
35.6265235911
 21
0.0
 31
0.0
  0
LINE
  5
12A
330
123
100
AcDbEntity
  8
Default
  6
Continuous
 62
     7
100
AcDbLine
 10
35.6265235911
 20
0.0
 30
0.0
 11
38.209059633
 21
3.525
 31
0.0
  0
LINE
  5
12B
330
123
100
AcDbEntity
  8
Default
  6
Continuous
 62
     7
100
AcDbLine
 10
38.209059633
 20
3.525
 30
0.0
 11
36.1046854522
 21
6.5926277851
 31
0.0
  0
LINE
  5
12C
330
123
100
AcDbEntity
  8
Default
  6
Continuous
 62
     7
100
AcDbLine
 10
36.1046854522
 20
6.5926277851
 30
0.0
 11
38.209059633
 21
6.5926277851
 31
0.0
  0
LINE
  5
12D
330
123
100
AcDbEntity
  8
Default
  6
Continuous
 62
     7
100
AcDbLine
 10
38.209059633
 20
6.5926277851
 30
0.0
 11
39.2231323722
 21
4.8855668414
 31
0.0
  0
LINE
  5
12E
330
123
100
AcDbEntity
  8
Default
  6
Continuous
 62
     7
100
AcDbLine
 10
39.2231323722
 20
4.8855668414
 30
0.0
 11
40.225655308
 21
6.5926277851
 31
0.0
  0
LINE
  5
12F
330
123
100
AcDbEntity
  8
Default
  6
Continuous
 62
     7
100
AcDbLine
 10
40.225655308
 20
6.5926277851
 30
0.0
 11
42.3415792923
 21
6.5926277851
 31
0.0
  0
SPLINE
  5
130
330
123
100
AcDbEntity
  8
Default
  6
Continuous
 62
     7
100
AcDbSpline
210
0.0
220
0.0
230
1.0
 70
     8
 71
     3
 72
    13
 73
     9
 74
     0
 42
0.0000000012369638
 43
0.0000000001
 12
1.0
 22
0.0
 32
0.0
 13
1.0
 23
0.0
 33
0.0
 40
0.0
 40
0.0
 40
0.0
 40
0.0
 40
0.9091644120227717
 40
0.9091644120227717
 40
0.9091644120227717
 40
0.9554905618911577
 40
0.9554905618911577
 40
1.0
 40
1.0
 40
1.0
 40
1.0
 10
40.88399410222804
 20
0.427342726081259
 30
0.0
 10
42.29076015727392
 20
2.423148754914811
 30
0.0
 10
43.69752621231979
 20
4.418954783748362
 30
0.0
 10
45.10429226736566
 20
6.414760812581914
 30
0.0
 10
45.18660375034128
 20
6.531537694833034
 30
0.0
 10
45.28446920052424
 20
6.592627785058978
 30
0.0
 10
45.51546526867628
 20
6.592627785058978
 30
0.0
 10
45.61941349934469
 20
6.53256880733945
 30
0.0
 10
45.71181192660551
 20
6.414760812581914
 30
0.0
  0
SPLINE
  5
131
330
123
100
AcDbEntity
  8
Default
  6
Continuous
 62
     7
100
AcDbSpline
210
0.0
220
0.0
230
1.0
 70
     8
 71
     3
 72
    16
 73
    12
 74
     0
 42
0.0000000006014133
 43
0.0000000001
 12
1.0
 22
0.0
 32
0.0
 13
1.0
 23
0.0
 33
0.0
 40
0.0
 40
0.0
 40
0.0
 40
0.0
 40
0.4418652593848311
 40
0.4418652593848311
 40
0.4418652593848311
 40
0.455090010411123
 40
0.455090010411123
 40
0.4811129075918901
 40
0.4811129075918901
 40
0.4811129075918901
 40
1.0
 40
1.0
 40
1.0
 40
1.0
 10
45.71181192660551
 20
6.414760812581914
 30
0.0
 10
47.11857798165137
 20
4.418954783748362
 30
0.0
 10
48.52534403669725
 20
2.42314875491481
 30
0.0
 10
49.93211009174313
 20
0.427342726081259
 30
0.0
 10
49.98455330475264
 20
0.352940532254955
 30
0.0
 10
50.01295871559633
 20
0.281815203145479
 30
0.0
 10
50.01295871559633
 20
0.0692988204456104
 30
0.0
 10
49.91363040629096
 20
0.0000000000000009
 30
0.0
 10
49.71497378768021
 20
0.0000000000000009
 30
0.0
 10
46.84754259501965
 20
0.0000000000000009
 30
0.0
 10
43.98011140235911
 20
0.0000000000000009
 30
0.0
 10
41.11268020969855
 20
0.0000000000000009
 30
0.0
  0
SPLINE
  5
132
330
123
100
AcDbEntity
  8
Default
  6
Continuous
 62
     7
100
AcDbSpline
210
0.0
220
0.0
230
1.0
 70
     8
 71
     3
 72
    11
 73
     7
 74
     0
 42
0.0000000141737466
 43
0.0000000001
 12
1.0
 22
0.0
 32
0.0
 13
1.0
 23
0.0
 33
0.0
 40
0.0
 40
0.0
 40
0.0
 40
0.0
 40
0.6560933575639865
 40
0.6560933575639865
 40
0.6560933575639865
 40
1.0
 40
1.0
 40
1.0
 40
1.0
 10
41.11268020969855
 20
0.0000000000000009
 30
0.0
 10
40.90709370904325
 20
0.0000000000000009
 30
0.0
 10
40.80545543905635
 20
0.0739187418086509
 30
0.0
 10
40.80314547837483
 20
0.2194462647444313
 30
0.0
 10
40.80230295367286
 20
0.2725253209688669
 30
0.0
 10
40.83086500655307
 20
0.3418741808650076
 30
0.0
 10
40.88399410222804
 20
0.427342726081259
 30
0.0
  0
LINE
  5
133
330
123
100
AcDbEntity
  8
Default
  6
Continuous
 62
     7
100
AcDbLine
 10
35.1853211009
 20
6.6087975098
 30
0.0
 11
35.1853211009
 21
0.0
 31
0.0
  0
SPLINE
  5
134
330
123
100
AcDbEntity
  8
Default
  6
Continuous
 62
     7
100
AcDbSpline
210
0.0
220
0.0
230
1.0
 70
     8
 71
     3
 72
    14
 73
    10
 74
     0
 42
0.0000000052950889
 43
0.0000000001
 12
1.0
 22
0.0
 32
0.0
 13
1.0
 23
0.0
 33
0.0
 40
0.0
 40
0.0
 40
0.0
 40
0.0
 40
0.1210177131110554
 40
0.1210177131110554
 40
0.1210177131110554
 40
0.2419901306838391
 40
0.2419901306838391
 40
0.2419901306838391
 40
1.0
 40
1.0
 40
1.0
 40
1.0
 10
33.47364023591088
 20
6.320052424639582
 30
0.0
 10
33.47364023591088
 20
6.400901048492791
 30
0.0
 10
33.50135976408912
 20
6.467889908256881
 30
0.0
 10
33.55910878112713
 20
6.523328964613368
 30
0.0
 10
33.61680971405436
 20
6.578721860223512
 30
0.0
 10
33.68153669724771
 20
6.608797509829621
 30
0.0
 10
33.76238532110091
 20
6.608797509829621
 30
0.0
 10
34.23669724770642
 20
6.608797509829621
 30
0.0
 10
34.71100917431193
 20
6.608797509829621
 30
0.0
 10
35.18532110091743
 20
6.608797509829621
 30
0.0
  0
LINE
  5
135
330
123
100
AcDbEntity
  8
Default
  6
Continuous
 62
     7
100
AcDbLine
 10
33.4736402359
 20
0.0
 30
0.0
 11
33.4736402359
 21
6.3200524246
 31
0.0
  0
LINE
  5
136
330
123
100
AcDbEntity
  8
Default
  6
Continuous
 62
     7
100
AcDbLine
 10
35.1853211009
 20
0.0
 30
0.0
 11
33.4736402359
 21
0.0
 31
0.0
  0
SPLINE
  5
137
330
123
100
AcDbEntity
  8
Default
  6
Continuous
 62
     7
100
AcDbSpline
210
0.0
220
0.0
230
1.0
 70
     8
 71
     3
 72
    16
 73
    12
 74
     0
 42
0.0000000009758823
 43
0.0000000001
 12
1.0
 22
0.0
 32
0.0
 13
1.0
 23
0.0
 33
0.0
 40
0.0
 40
0.0
 40
0.0
 40
0.0
 40
0.6159054655977501
 40
0.6159054655977501
 40
0.6159054655977501
 40
0.6376683166669079
 40
0.6376683166669079
 40
0.6603379531972834
 40
0.6603379531972834
 40
0.6603379531972834
 40
1.0
 40
1.0
 40
1.0
 40
1.0
 10
28.82137942332896
 20
0.0
 30
0.0
 10
28.82137942332896
 20
2.101294233289646
 30
0.0
 10
28.82137942332896
 20
4.202588466579293
 30
0.0
 10
28.82137942332896
 20
6.303882699868939
 30
0.0
 10
28.82137942332896
 20
6.38473132372215
 30
0.0
 10
28.84909895150721
 20
6.451720183486239
 30
0.0
 10
28.96228702490171
 20
6.564908256880734
 30
0.0
 10
29.02927588466579
 20
6.592627785058978
 30
0.0
 10
29.110124508519
 20
6.592627785058978
 30
0.0
 10
30.26895478374836
 20
6.592627785058978
 30
0.0
 10
31.42778505897771
 20
6.592627785058978
 30
0.0
 10
32.58661533420707
 20
6.592627785058978
 30
0.0
  0
LINE
  5
138
330
123
100
AcDbEntity
  8
Default
  6
Continuous
 62
     7
100
AcDbLine
 10
30.5399901704
 20
0.0
 30
0.0
 11
28.8213794233
 21
0.0
 31
0.0
  0
LINE
  5
139
330
123
100
AcDbEntity
  8
Default
  6
Continuous
 62
     7
100
AcDbLine
 10
30.5399901704
 20
2.5848460026
 30
0.0
 11
30.5399901704
 21
0.0
 31
0.0
  0
LINE
  5
13A
330
123
100
AcDbEntity
  8
Default
  6
Continuous
 62
     7
100
AcDbLine
 10
32.4872870249
 20
2.5848460026
 30
0.0
 11
30.5399901704
 21
2.5848460026
 31
0.0
  0
LINE
  5
13B
330
123
100
AcDbEntity
  8
Default
  6
Continuous
 62
     7
100
AcDbLine
 10
32.4872870249
 20
4.0424311927
 30
0.0
 11
32.4872870249
 21
2.5848460026
 31
0.0
  0
LINE
  5
13C
330
123
100
AcDbEntity
  8
Default
  6
Continuous
 62
     7
100
AcDbLine
 10
30.5399901704
 20
4.0424311927
 30
0.0
 11
32.4872870249
 21
4.0424311927
 31
0.0
  0
LINE
  5
13D
330
123
100
AcDbEntity
  8
Default
  6
Continuous
 62
     7
100
AcDbLine
 10
30.5399901704
 20
5.1419724771
 30
0.0
 11
30.5399901704
 21
4.0424311927
 31
0.0
  0
LINE
  5
13E
330
123
100
AcDbEntity
  8
Default
  6
Continuous
 62
     7
100
AcDbLine
 10
32.5866153342
 20
5.1419724771
 30
0.0
 11
30.5399901704
 21
5.1419724771
 31
0.0
  0
LINE
  5
13F
330
123
100
AcDbEntity
  8
Default
  6
Continuous
 62
     7
100
AcDbLine
 10
32.5866153342
 20
6.5926277851
 30
0.0
 11
32.5866153342
 21
5.1419724771
 31
0.0
  0
LINE
  5
140
330
123
100
AcDbEntity
  8
Default
  6
Continuous
 62
     7
100
AcDbLine
 10
28.0706422018
 20
4.0424311927
 30
0.0
 11
28.0706422018
 21
2.5848460026
 31
0.0
  0
LINE
  5
141
330
123
100
AcDbEntity
  8
Default
  6
Continuous
 62
     7
100
AcDbLine
 10
25.9362385321
 20
4.0424311927
 30
0.0
 11
28.0706422018
 21
4.0424311927
 31
0.0
  0
LINE
  5
142
330
123
100
AcDbEntity
  8
Default
  6
Continuous
 62
     7
100
AcDbLine
 10
25.9362385321
 20
2.5848460026
 30
0.0
 11
25.9362385321
 21
4.0424311927
 31
0.0
  0
LINE
  5
143
330
123
100
AcDbEntity
  8
Default
  6
Continuous
 62
     7
100
AcDbLine
 10
28.0706422018
 20
2.5848460026
 30
0.0
 11
25.9362385321
 21
2.5848460026
 31
0.0
  0
SPLINE
  5
144
330
123
100
AcDbEntity
  8
Default
  6
Continuous
 62
     7
100
AcDbSpline
210
0.0
220
0.0
230
1.0
 70
    11
 71
     3
 72
    47
 73
    43
 74
     0
 42
0.0000000008494054
 43
0.0000000001
 12
1.0
 22
0.0
 32
0.0
 13
1.0
 23
0.0
 33
0.0
 40
0.0
 40
0.0
 40
0.0
 40
0.0
 40
0.0637917384076936
 40
0.0637917384076936
 40
0.0637917384076936
 40
0.1265834997779105
 40
0.1265834997779105
 40
0.1893752611481286
 40
0.1893752611481286
 40
0.1893752611481286
 40
0.2604081010642026
 40
0.2604081010642026
 40
0.3159741129340349
 40
0.3159741129340349
 40
0.3159741129340349
 40
0.3751091105868484
 40
0.3751091105868484
 40
0.3751091105868484
 40
0.435995169879425
 40
0.435995169879425
 40
0.435995169879425
 40
0.4997689343159713
 40
0.4997689343159713
 40
0.5635426987525196
 40
0.5635426987525196
 40
0.5635426987525196
 40
0.624232315369434
 40
0.624232315369434
 40
0.624232315369434
 40
0.6835869381889372
 40
0.6835869381889372
 40
0.6835869381889372
 40
0.7357943705008892
 40
0.7357943705008892
 40
0.8025337685079206
 40
0.8025337685079206
 40
0.8692731665149518
 40
0.8692731665149518
 40
0.9360125645219831
 40
0.9360125645219831
 40
0.9360125645219831
 40
1.0
 40
1.0
 40
1.0
 40
1.0
 10
21.44336500655308
 20
1.450655307994758
 30
0.0
 10
21.70208060288335
 20
1.450655307994758
 30
0.0
 10
21.94462647444299
 20
1.501474442988205
 30
0.0
 10
22.16869266055046
 20
1.600802752293579
 30
0.0
 10
22.39468942225328
 20
1.700986883770089
 30
0.0
 10
22.5937254259502
 20
1.836418741808651
 30
0.0
 10
22.93097968545217
 20
2.187532765399738
 30
0.0
 10
23.06495740498034
 20
2.395429226736567
 30
0.0
 10
23.15966579292267
 20
2.63335517693316
 30
0.0
 10
23.25469013236262
 20
2.87207485894082
 30
0.0
 10
23.30519331585845
 20
3.132306684141548
 30
0.0
 10
23.30519331585845
 20
3.642807994757537
 30
0.0
 10
23.25668414154652
 20
3.862254259501967
 30
0.0
 10
23.15966579292267
 20
4.074770642201835
 30
0.0
 10
23.06391850987524
 20
4.284502786020031
 30
0.0
 10
22.93097968545217
 20
4.472083879423329
 30
0.0
 10
22.76235255570118
 20
4.636091087811272
 30
0.0
 10
22.59487996078263
 20
4.798975392458079
 30
0.0
 10
22.39506880733945
 20
4.927146133682831
 30
0.0
 10
22.16869266055046
 20
5.021854521625164
 30
0.0
 10
21.94345992894685
 20
5.116084541989939
 30
0.0
 10
21.70208060288335
 20
5.167382044560944
 30
0.0
 10
21.18464941022281
 20
5.167382044560944
 30
0.0
 10
20.94210353866317
 20
5.118872870249017
 30
0.0
 10
20.71572739187418
 20
5.021854521625164
 30
0.0
 10
20.49213912866634
 20
4.926030980250372
 30
0.0
 10
20.29300458715597
 20
4.797788335517694
 30
0.0
 10
20.12437745740498
 20
4.636091087811272
 30
0.0
 10
19.95459636352431
 20
4.473287299158574
 30
0.0
 10
19.82177260812581
 20
4.284977064220183
 30
0.0
 10
19.72244429882045
 20
4.074770642201835
 30
0.0
 10
19.62222370164274
 20
3.86267589003505
 30
0.0
 10
19.57229685452162
 20
3.642807994757537
 30
0.0
 10
19.57229685452162
 20
3.132306684141548
 30
0.0
 10
19.62311598951508
 20
2.871281127129752
 30
0.0
 10
19.82177260812581
 20
2.395429226736567
 30
0.0
 10
19.95575032765399
 20
2.187532765399738
 30
0.0
 10
20.29300458715597
 20
1.836418741808651
 30
0.0
 10
20.49166120576671
 20
1.700131061598952
 30
0.0
 10
20.71572739187418
 20
1.600802752293579
 30
0.0
 10
20.941724153577
 20
1.500618620817073
 30
0.0
 10
21.18464941022281
 20
1.450655307994758
 30
0.0
 10
21.44336500655308
 20
1.450655307994758
 30
0.0
  0
SPLINE
  5
145
330
123
100
AcDbEntity
  8
Default
  6
Continuous
 62
     7
100
AcDbSpline
210
0.0
220
0.0
230
1.0
 70
    11
 71
     3
 72
    49
 73
    45
 74
     0
 42
0.0000000004385322
 43
0.0000000001
 12
1.0
 22
0.0
 32
0.0
 13
1.0
 23
0.0
 33
0.0
 40
0.0
 40
0.0
 40
0.0
 40
0.0
 40
0.0617996483207596
 40
0.0617996483207596
 40
0.0617996483207596
 40
0.1220737652654132
 40
0.1220737652654132
 40
0.1220737652654132
 40
0.1820249318660078
 40
0.1820249318660078
 40
0.1820249318660078
 40
0.2438982680995642
 40
0.2438982680995642
 40
0.3109516975991858
 40
0.3109516975991858
 40
0.3109516975991858
 40
0.3722543214771952
 40
0.3722543214771952
 40
0.3722543214771952
 40
0.4335172266527087
 40
0.4335172266527087
 40
0.4335172266527087
 40
0.4994898970728853
 40
0.4994898970728853
 40
0.5657506577569065
 40
0.5657506577569065
 40
0.5657506577569065
 40
0.626961718898901
 40
0.626961718898901
 40
0.6886100019061948
 40
0.6886100019061948
 40
0.6886100019061948
 40
0.7556907268882871
 40
0.7556907268882871
 40
0.8175892499404324
 40
0.8175892499404324
 40
0.8175892499404324
 40
0.8774725210786118
 40
0.8774725210786118
 40
0.8774725210786118
 40
0.9379094648157675
 40
0.9379094648157675
 40
0.9379094648157675
 40
1.0
 40
1.0
 40
1.0
 40
1.0
 10
21.44336500655308
 20
6.83055373525557
 30
0.0
 10
21.91919464291449
 20
6.832852429151036
 30
0.0
 10
22.37658912188729
 20
6.745085190039319
 30
0.0
 10
22.81317169069462
 20
6.581077981651377
 30
0.0
 10
23.25051470703607
 20
6.416785102496653
 30
0.0
 10
23.63782765399738
 20
6.181454783748363
 30
0.0
 10
23.97508191349934
 20
5.878849934469201
 30
0.0
 10
24.31246764930903
 20
5.576127116722139
 30
0.0
 10
24.58491153342071
 20
5.218201179554391
 30
0.0
 10
24.78587811271298
 20
4.800098296199214
 30
0.0
 10
24.9863762849025
 20
4.38296991497732
 30
0.0
 10
25.08848296199213
 20
3.926933158584535
 30
0.0
 10
25.08848296199213
 20
2.892070773263434
 30
0.0
 10
24.99839449541284
 20
2.402359108781128
 30
0.0
 10
24.81590760157274
 20
1.958846657929228
 30
0.0
 10
24.63260786737497
 20
1.513358696334639
 30
0.0
 10
24.38163499344692
 20
1.129570773263435
 30
0.0
 10
24.06055045871559
 20
0.8038663171690699
 30
0.0
 10
23.7406207864759
 20
0.4793333402928437
 30
0.0
 10
23.3560124508519
 20
0.2286861074705122
 30
0.0
 10
22.90788007863696
 20
0.0485091743119273
 30
0.0
 10
22.46253572118054
 20
-0.1305468044592142
 30
0.0
 10
21.97234600262123
 20
-0.2194462647444295
 30
0.0
 10
20.91207404980341
 20
-0.2194462647444295
 30
0.0
 10
20.42467234600262
 20
-0.1293577981651364
 30
0.0
 10
19.9788499344692
 20
0.0485091743119273
 30
0.0
 10
19.53023971314575
 20
0.2274883817829441
 30
0.0
 10
19.14495412844037
 20
0.4804718217562263
 30
0.0
 10
18.49585517693316
 20
1.129570773263435
 30
0.0
 10
18.24406946264745
 20
1.513024246395807
 30
0.0
 10
18.06158256880734
 20
1.958846657929228
 30
0.0
 10
17.87990551563201
 20
2.402690597965156
 30
0.0
 10
17.78669724770642
 20
2.892070773263434
 30
0.0
 10
17.78669724770642
 20
3.926933158584535
 30
0.0
 10
17.88833551769332
 20
4.384305373525557
 30
0.0
 10
18.0916120576671
 20
4.800098296199214
 30
0.0
 10
18.2953544565906
 20
5.21684411217912
 30
0.0
 10
18.56284403669725
 20
5.57855504587156
 30
0.0
 10
18.90009829619921
 20
5.878849934469201
 30
0.0
 10
19.23849979910015
 20
6.18016634116182
 30
0.0
 10
19.62773591087812
 20
6.414760812581914
 30
0.0
 10
20.06662844036697
 20
6.581077981651377
 30
0.0
 10
20.50677543450266
 20
6.747870526797538
 30
0.0
 10
20.96520314547837
 20
6.82824377457405
 30
0.0
 10
21.44336500655308
 20
6.83055373525557
 30
0.0
  0
LINE
  5
146
330
123
100
AcDbEntity
  8
Default
  6
Continuous
 62
     7
100
AcDbLine
 10
15.3335190039
 20
2.3145806029
 30
0.0
 11
13.8343545216
 21
2.3145806029
 31
0.0
  0
SPLINE
  5
147
330
123
100
AcDbEntity
  8
Default
  6
Continuous
 62
     7
100
AcDbSpline
210
0.0
220
0.0
230
1.0
 70
     8
 71
     3
 72
    43
 73
    39
 74
     0
 42
0.0000000009932047
 43
0.0000000001
 12
1.0
 22
0.0
 32
0.0
 13
1.0
 23
0.0
 33
0.0
 40
0.0
 40
0.0
 40
0.0
 40
0.0
 40
0.0949373847537602
 40
0.0949373847537602
 40
0.0949373847537602
 40
0.1911787086491429
 40
0.1911787086491429
 40
0.2677918678027036
 40
0.2677918678027036
 40
0.2677918678027036
 40
0.3406026976746725
 40
0.3406026976746725
 40
0.3406026976746725
 40
0.4151543081273698
 40
0.4151543081273698
 40
0.4151543081273698
 40
0.4895478942304584
 40
0.4895478942304584
 40
0.5659890102262922
 40
0.5659890102262922
 40
0.6424301262221261
 40
0.6424301262221261
 40
0.6424301262221261
 40
0.714798401889747
 40
0.714798401889747
 40
0.714798401889747
 40
0.7953127750919691
 40
0.7953127750919691
 40
0.8472575319966263
 40
0.8472575319966263
 40
0.8472575319966263
 40
0.898191982468852
 40
0.898191982468852
 40
0.898191982468852
 40
0.9471592991231073
 40
0.9471592991231073
 40
0.9471592991231073
 40
1.0
 40
1.0
 40
1.0
 40
1.0
 10
15.25498034076016
 20
4.25956749672346
 30
0.0
 10
15.1348623853211
 20
4.578342070773264
 30
0.0
 10
14.95468545216252
 20
4.832437745740499
 30
0.0
 10
14.7144495412844
 20
5.024164482306685
 30
0.0
 10
14.47167626156505
 20
5.217916234390401
 30
0.0
 10
14.17622870249017
 20
5.312909567496725
 30
0.0
 10
13.54560943643512
 20
5.312909567496725
 30
0.0
 10
13.30075360419397
 20
5.252850589777196
 30
0.0
 10
13.08361730013106
 20
5.13042267365662
 30
0.0
 10
12.86823374940279
 20
5.008983012075785
 30
0.0
 10
12.69092398427261
 20
4.84629750982962
 30
0.0
 10
12.54770642201835
 20
4.647640891218874
 30
0.0
 10
12.40527884987617
 20
4.450080065344236
 30
0.0
 10
12.29823066841416
 20
4.227228047182176
 30
0.0
 10
12.22662188728703
 20
3.980062254259503
 30
0.0
 10
12.15421681189757
 20
3.730147961786198
 30
0.0
 10
12.11574377457405
 20
3.481110747051115
 30
0.0
 10
12.11574377457405
 20
2.970609436435126
 30
0.0
 10
12.15501310615989
 20
2.721133682830931
 30
0.0
 10
12.30747051114023
 20
2.231422018348625
 30
0.0
 10
12.41834862385321
 20
2.009665792922674
 30
0.0
 10
12.56387614678899
 20
1.815629095674968
 30
0.0
 10
12.7105124508519
 20
1.620114023591089
 30
0.0
 10
12.88958060288335
 20
1.46220511140236
 30
0.0
 10
13.10440694626475
 20
1.344397116644824
 30
0.0
 10
13.32020716906946
 20
1.226055058977723
 30
0.0
 10
13.56870904325033
 20
1.16653014416776
 30
0.0
 10
14.03994102228047
 20
1.16653014416776
 30
0.0
 10
14.21780799475754
 20
1.189629750982963
 30
0.0
 10
14.39105504587156
 20
1.240448885976409
 30
0.0
 10
14.5615512434976
 20
1.290461103946714
 30
0.0
 10
14.7144495412844
 20
1.362876802096987
 30
0.0
 10
14.84842726081258
 20
1.457585190039319
 30
0.0
 10
14.98086470130555
 20
1.551204760042966
 30
0.0
 10
15.08866317169069
 20
1.672411533420708
 30
0.0
 10
15.17644167758847
 20
1.815629095674968
 30
0.0
 10
15.26256022686942
 20
1.956138307659666
 30
0.0
 10
15.31503931847969
 20
2.12285386631717
 30
0.0
 10
15.33351900393184
 20
2.314580602883356
 30
0.0
  0
LINE
  5
148
330
123
100
AcDbEntity
  8
Default
  6
Continuous
 62
     7
100
AcDbLine
 10
16.8835026212
 20
4.9456258191
 30
0.0
 11
15.2549803408
 21
4.2595674967
 31
0.0
  0
SPLINE
  5
149
330
123
100
AcDbEntity
  8
Default
  6
Continuous
 62
     7
100
AcDbSpline
210
0.0
220
0.0
230
1.0
 70
     8
 71
     3
 72
    51
 73
    47
 74
     0
 42
0.0000000004766382
 43
0.0000000001
 12
1.0
 22
0.0
 32
0.0
 13
1.0
 23
0.0
 33
0.0
 40
0.0
 40
0.0
 40
0.0
 40
0.0
 40
0.0095402040290222
 40
0.0095402040290222
 40
0.0095402040290222
 40
0.0400756007423482
 40
0.0400756007423482
 40
0.0400756007423482
 40
0.0693620114069116
 40
0.0693620114069116
 40
0.0986484220714753
 40
0.0986484220714753
 40
0.0986484220714753
 40
0.1302632519246672
 40
0.1302632519246672
 40
0.1302632519246672
 40
0.2055179711079718
 40
0.2055179711079718
 40
0.2055179711079718
 40
0.281182745691462
 40
0.281182745691462
 40
0.3511962093102096
 40
0.3511962093102096
 40
0.3511962093102096
 40
0.4149417185613706
 40
0.4149417185613706
 40
0.4149417185613706
 40
0.4786592191897758
 40
0.4786592191897758
 40
0.4786592191897758
 40
0.5478830793697405
 40
0.5478830793697405
 40
0.6199007276287178
 40
0.6199007276287178
 40
0.6199007276287178
 40
0.6846819262147057
 40
0.6846819262147057
 40
0.6846819262147057
 40
0.7494892886116509
 40
0.7494892886116509
 40
0.7494892886116509
 40
0.8193637744922013
 40
0.8193637744922013
 40
0.9096818872461009
 40
0.9096818872461009
 40
1.0
 40
1.0
 40
1.0
 40
1.0
 10
17.14221821756225
 20
3.658977719528179
 30
0.0
 10
17.14221821756225
 20
3.59275884665793
 30
0.0
 10
17.14221821756225
 20
3.526539973787681
 30
0.0
 10
17.14221821756225
 20
3.460321100917432
 30
0.0
 10
17.14221821756225
 20
3.243184796854522
 30
0.0
 10
17.12835845347313
 20
3.030668414154654
 30
0.0
 10
17.11680865006553
 20
2.825081913499345
 30
0.0
 10
17.10526611434193
 20
2.619624777619178
 30
0.0
 10
17.08446920052425
 20
2.41852883355177
 30
0.0
 10
17.01055045871559
 20
2.021215596330276
 30
0.0
 10
16.95742136304062
 20
1.824868938401049
 30
0.0
 10
16.88350262123198
 20
1.633142201834863
 30
0.0
 10
16.80988280520848
 20
1.442190804023907
 30
0.0
 10
16.70563564875491
 20
1.249688728702491
 30
0.0
 10
16.5670380078637
 20
1.057961992136305
 30
0.0
 10
16.23809819736261
 20
0.6029285876097794
 30
0.0
 10
15.84633027522936
 20
0.2679554390563577
 30
0.0
 10
15.37971821756225
 20
0.06467889908257
 30
0.0
 10
14.91226036066398
 20
-0.1389661078830131
 30
0.0
 10
14.40029488859764
 20
-0.2425458715596323
 30
0.0
 10
13.32847313237222
 20
-0.2425458715596323
 30
0.0
 10
12.85262123197903
 20
-0.1593872870249009
 30
0.0
 10
12.41834862385321
 20
0.0092398427260818
 30
0.0
 10
11.9860833240235
 20
0.1770875389365569
 30
0.0
 10
11.61448230668415
 20
0.4157929226736576
 30
0.0
 10
11.30725753604194
 20
0.7183977719528185
 30
0.0
 10
10.99887791762487
 20
1.022140102874894
 30
0.0
 10
10.76210681520315
 20
1.39059633027523
 30
0.0
 10
10.58885976408912
 20
1.822558977719529
 30
0.0
 10
10.41673087643255
 20
2.251733670943243
 30
0.0
 10
10.33245412844037
 20
2.725753604193972
 30
0.0
 10
10.33245412844037
 20
3.776785714285715
 30
0.0
 10
10.41792267365662
 20
4.264187418086501
 30
0.0
 10
10.58885976408912
 20
4.700769986893841
 30
0.0
 10
10.76010389980871
 20
5.138136765961434
 30
0.0
 10
11.00465268676278
 20
5.511566186107471
 30
0.0
 10
11.31880733944954
 20
5.823410878112714
 30
0.0
 10
11.6318070432484
 20
6.134109113501288
 30
0.0
 10
12.00948558322411
 20
6.373181520314549
 30
0.0
 10
12.44837811271297
 20
6.544118610747052
 30
0.0
 10
12.88849518360602
 20
6.715532627831713
 30
0.0
 10
13.37467234600262
 20
6.795904325032767
 30
0.0
 10
14.58740170380079
 20
6.795904325032767
 30
0.0
 10
15.18106159895151
 20
6.643446920052426
 30
0.0
 10
16.20206422018348
 20
6.033617300131063
 30
0.0
 10
16.59937745740498
 20
5.56931520314548
 30
0.0
 10
16.88350262123198
 20
4.945625819134994
 30
0.0
  0
LINE
  5
14A
330
123
100
AcDbEntity
  8
Default
  6
Continuous
 62
     7
100
AcDbLine
 10
13.8343545216
 20
3.6589777195
 30
0.0
 11
17.1422182176
 21
3.6589777195
 31
0.0
  0
LINE
  5
14B
330
123
100
AcDbEntity
  8
Default
  6
Continuous
 62
     7
100
AcDbLine
 10
13.8343545216
 20
2.3145806029
 30
0.0
 11
13.8343545216
 21
3.6589777195
 31
0.0
  0
SPLINE
  5
14C
330
123
100
AcDbEntity
  8
Default
  6
Continuous
 62
     7
100
AcDbSpline
210
0.0
220
0.0
230
1.0
 70
     8
 71
     3
 72
    16
 73
    12
 74
     0
 42
0.000000000976763
 43
0.0000000001
 12
1.0
 22
0.0
 32
0.0
 13
1.0
 23
0.0
 33
0.0
 40
0.0
 40
0.0
 40
0.0
 40
0.0
 40
0.6164577788718584
 40
0.6164577788718584
 40
0.6164577788718584
 40
0.6381328433885463
 40
0.6381328433885463
 40
0.6607110355934293
 40
0.6607110355934293
 40
0.6607110355934293
 40
1.0
 40
1.0
 40
1.0
 40
1.0
 10
6.022067496723459
 20
0.0000000000000018
 30
0.0
 10
6.022067496723459
 20
2.101294233289647
 30
0.0
 10
6.022067496723459
 20
4.202588466579293
 30
0.0
 10
6.022067496723459
 20
6.303882699868939
 30
0.0
 10
6.022067496723459
 20
6.38473132372215
 30
0.0
 10
6.049787024901704
 20
6.451720183486239
 30
0.0
 10
6.162975098296197
 20
6.564908256880734
 30
0.0
 10
6.229963958060289
 20
6.592627785058978
 30
0.0
 10
6.30850262123198
 20
6.592627785058978
 30
0.0
 10
7.465022935779817
 20
6.592627785058978
 30
0.0
 10
8.621543250327658
 20
6.592627785058978
 30
0.0
 10
9.778063564875495
 20
6.592627785058978
 30
0.0
  0
LINE
  5
14D
330
123
100
AcDbEntity
  8
Default
  6
Continuous
 62
     7
100
AcDbLine
 10
9.7780635649
 20
0.0
 30
0.0
 11
6.0220674967
 21
0.0
 31
0.0
  0
LINE
  5
14E
330
123
100
AcDbEntity
  8
Default
  6
Continuous
 62
     7
100
AcDbLine
 10
9.7780635649
 20
1.450655308
 30
0.0
 11
9.7780635649
 21
0.0
 31
0.0
  0
LINE
  5
14F
330
123
100
AcDbEntity
  8
Default
  6
Continuous
 62
     7
100
AcDbLine
 10
7.731438401
 20
1.450655308
 30
0.0
 11
9.7780635649
 21
1.450655308
 31
0.0
  0
LINE
  5
150
330
123
100
AcDbEntity
  8
Default
  6
Continuous
 62
     7
100
AcDbLine
 10
7.731438401
 20
2.5848460026
 30
0.0
 11
7.731438401
 21
1.450655308
 31
0.0
  0
LINE
  5
151
330
123
100
AcDbEntity
  8
Default
  6
Continuous
 62
     7
100
AcDbLine
 10
9.6787352556
 20
2.5848460026
 30
0.0
 11
7.731438401
 21
2.5848460026
 31
0.0
  0
LINE
  5
152
330
123
100
AcDbEntity
  8
Default
  6
Continuous
 62
     7
100
AcDbLine
 10
9.6787352556
 20
4.0424311927
 30
0.0
 11
9.6787352556
 21
2.5848460026
 31
0.0
  0
LINE
  5
153
330
123
100
AcDbEntity
  8
Default
  6
Continuous
 62
     7
100
AcDbLine
 10
7.731438401
 20
4.0424311927
 30
0.0
 11
9.6787352556
 21
4.0424311927
 31
0.0
  0
LINE
  5
154
330
123
100
AcDbEntity
  8
Default
  6
Continuous
 62
     7
100
AcDbLine
 10
7.731438401
 20
5.1419724771
 30
0.0
 11
7.731438401
 21
4.0424311927
 31
0.0
  0
LINE
  5
155
330
123
100
AcDbEntity
  8
Default
  6
Continuous
 62
     7
100
AcDbLine
 10
9.7780635649
 20
5.1419724771
 30
0.0
 11
7.731438401
 21
5.1419724771
 31
0.0
  0
LINE
  5
156
330
123
100
AcDbEntity
  8
Default
  6
Continuous
 62
     7
100
AcDbLine
 10
9.7780635649
 20
6.5926277851
 30
0.0
 11
9.7780635649
 21
5.1419724771
 31
0.0
  0
LINE
  5
157
330
123
100
AcDbEntity
  8
Default
  6
Continuous
 62
     7
100
AcDbLine
 10
1.7093709043
 20
5.280570118
 30
0.0
 11
1.7093709043
 21
3.6312581913
 31
0.0
  0
LINE
  5
158
330
123
100
AcDbEntity
  8
Default
  6
Continuous
 62
     7
100
AcDbLine
 10
1.7093709043
 20
3.6312581913
 30
0.0
 11
1.8803079948
 21
3.6312581913
 31
0.0
  0
SPLINE
  5
159
330
123
100
AcDbEntity
  8
Default
  6
Continuous
 62
     7
100
AcDbSpline
210
0.0
220
0.0
230
1.0
 70
     8
 71
     3
 72
    29
 73
    25
 74
     0
 42
0.0000000028633018
 43
0.0000000001
 12
1.0
 22
0.0
 32
0.0
 13
1.0
 23
0.0
 33
0.0
 40
0.0
 40
0.0
 40
0.0
 40
0.0
 40
0.1203556671631279
 40
0.1203556671631279
 40
0.1203556671631279
 40
0.2363519504887718
 40
0.2363519504887718
 40
0.2363519504887718
 40
0.3551316836966588
 40
0.3551316836966588
 40
0.4739114169045465
 40
0.4739114169045465
 40
0.5942337440501996
 40
0.5942337440501996
 40
0.7145560711958533
 40
0.7145560711958533
 40
0.7145560711958533
 40
0.8303426976884648
 40
0.8303426976884648
 40
0.8303426976884648
 40
0.9506957818555967
 40
0.9506957818555967
 40
0.9506957818555967
 40
1.0
 40
1.0
 40
1.0
 40
1.0
 10
1.880307994757537
 20
3.631258191349935
 30
0.0
 10
2.018905635648757
 20
3.631258191349935
 30
0.0
 10
2.157503276539977
 20
3.640498034076017
 30
0.0
 10
2.296100917431193
 20
3.661287680209699
 30
0.0
 10
2.436957688573287
 20
3.682416195881014
 30
0.0
 10
2.564056356487548
 20
3.719036697247708
 30
0.0
 10
2.679554390563567
 20
3.776785714285715
 30
0.0
 10
2.795976408912189
 20
3.834996723460025
 30
0.0
 10
2.889760812581915
 20
3.915383355176934
 30
0.0
 10
3.028358453473135
 20
4.132519659239843
 30
0.0
 10
3.063007863695937
 20
4.278047182175624
 30
0.0
 10
3.063007863695937
 20
4.636091087811272
 30
0.0
 10
3.028358453473135
 20
4.779308650065532
 30
0.0
 10
2.889760812581915
 20
4.996444954128441
 30
0.0
 10
2.797362385321101
 20
5.079603538663172
 30
0.0
 10
2.679554390563567
 20
5.13735255570118
 30
0.0
 10
2.564521785639126
 20
5.193741087526886
 30
0.0
 10
2.437008519003932
 20
5.229750982961993
 30
0.0
 10
2.296100917431193
 20
5.250540629095676
 30
0.0
 10
2.157454063805833
 20
5.270996722253517
 30
0.0
 10
2.018905635648757
 20
5.28057011795544
 30
0.0
 10
1.880307994757537
 20
5.28057011795544
 30
0.0
 10
1.823328964613371
 20
5.28057011795544
 30
0.0
 10
1.766349934469201
 20
5.28057011795544
 30
0.0
 10
1.709370904325031
 20
5.28057011795544
 30
0.0
  0
LINE
  5
15A
330
123
100
AcDbEntity
  8
Default
  6
Continuous
 62
     7
100
AcDbLine
 10
1.7093709043
 20
0.0
 30
0.0
 11
0.0
 21
0.0
 31
0.0
  0
LINE
  5
15B
330
123
100
AcDbEntity
  8
Default
  6
Continuous
 62
     7
100
AcDbLine
 10
1.7093709043
 20
2.5340268676
 30
0.0
 11
1.7093709043
 21
0.0
 31
0.0
  0
LINE
  5
15C
330
123
100
AcDbEntity
  8
Default
  6
Continuous
 62
     7
100
AcDbLine
 10
3.3402031455
 20
0.0
 30
0.0
 11
1.7093709043
 21
2.5340268676
 31
0.0
  0
LINE
  5
15D
330
123
100
AcDbEntity
  8
Default
  6
Continuous
 62
     7
100
AcDbLine
 10
5.4769167759
 20
0.0
 30
0.0
 11
3.3402031455
 21
0.0
 31
0.0
  0
LINE
  5
15E
330
123
100
AcDbEntity
  8
Default
  6
Continuous
 62
     7
100
AcDbLine
 10
3.4002621232
 20
2.7003440367
 30
0.0
 11
5.4769167759
 21
0.0
 31
0.0
  0
SPLINE
  5
15F
330
123
100
AcDbEntity
  8
Default
  6
Continuous
 62
     7
100
AcDbSpline
210
0.0
220
0.0
230
1.0
 70
     8
 71
     3
 72
    39
 73
    35
 74
     0
 42
0.0000000006617465
 43
0.0000000001
 12
1.0
 22
0.0
 32
0.0
 13
1.0
 23
0.0
 33
0.0
 40
0.0
 40
0.0
 40
0.0
 40
0.0
 40
0.4184837171182216
 40
0.4184837171182216
 40
0.4184837171182216
 40
0.4329116956232541
 40
0.4329116956232541
 40
0.447940839899329
 40
0.447940839899329
 40
0.447940839899329
 40
0.5989875461512338
 40
0.5989875461512338
 40
0.5989875461512338
 40
0.65983019696195
 40
0.65983019696195
 40
0.65983019696195
 40
0.7141636694202442
 40
0.7141636694202442
 40
0.7141636694202442
 40
0.7672492360561214
 40
0.7672492360561214
 40
0.7672492360561214
 40
0.8311842098663922
 40
0.8311842098663922
 40
0.8732466926363075
 40
0.8732466926363075
 40
0.8732466926363075
 40
0.9147241024096695
 40
0.9147241024096695
 40
0.9147241024096695
 40
0.9560702513872078
 40
0.9560702513872078
 40
0.9560702513872078
 40
1.0
 40
1.0
 40
1.0
 40
1.0
 10
0.0
 20
0.0
 30
0.0
 10
0.0
 20
2.101294233289646
 30
0.0
 10
0.0
 20
4.202588466579293
 30
0.0
 10
0.0
 20
6.303882699868939
 30
0.0
 10
0.0
 20
6.38473132372215
 30
0.0
 10
0.0277195281782454
 20
6.451720183486239
 30
0.0
 10
0.1409076015727422
 20
6.564908256880734
 30
0.0
 10
0.2055865006553077
 20
6.592627785058978
 30
0.0
 10
0.2771952817824364
 20
6.592627785058978
 30
0.0
 10
1.035632372214941
 20
6.592627785058978
 30
0.0
 10
1.794069462647446
 20
6.592627785058977
 30
0.0
 10
2.552506553079947
 20
6.592627785058978
 30
0.0
 10
2.878211009174311
 20
6.592627785058978
 30
0.0
 10
3.180815858453474
 20
6.553358453473132
 30
0.0
 10
3.458011140235911
 20
6.472509829619922
 30
0.0
 10
3.736714364351247
 20
6.39122138925295
 30
0.0
 10
3.977752293577982
 20
6.271543250327655
 30
0.0
 10
4.18333879423329
 20
6.105226081258192
 30
0.0
 10
4.387795784926965
 20
5.939822673056568
 30
0.0
 10
4.550622542595022
 20
5.731012450851901
 30
0.0
 10
4.666120576671034
 20
5.476916775884666
 30
0.0
 10
4.782488801414747
 20
5.220906681448501
 30
0.0
 10
4.839367627785059
 20
4.917906290956751
 30
0.0
 10
4.839367627785059
 20
4.335796199213631
 30
0.0
 10
4.809338138925298
 20
4.116349934469202
 30
0.0
 10
4.744659239842726
 20
3.913073394495413
 30
0.0
 10
4.679525282839784
 20
3.708366672486163
 30
0.0
 10
4.589891874180864
 20
3.520380078636961
 30
0.0
 10
4.467463958060289
 20
3.356372870249018
 30
0.0
 10
4.343928732125118
 20
3.19088228456228
 30
0.0
 10
4.19488859764089
 20
3.049148099606816
 30
0.0
 10
4.014711664482306
 20
2.9336500655308
 30
0.0
 10
3.836171940175813
 20
2.819201524308691
 30
0.0
 10
3.631258191349932
 20
2.739613368283093
 30
0.0
 10
3.400262123197905
 20
2.700344036697248
 30
0.0
  0
HATCH
  5
160
330
123
100
AcDbEntity
  8
Default
  6
Continuous
 62
     7
100
AcDbHatch
 10
0.0
 20
0.0
 30
0.0
210
0.0
220
0.0
230
1.0
  2
SOLID
 70
     1
 71
     0
 91
        2
 92
        1
 93
        6
 72
     4
 94
        3
 73
     0
 74
     0
 95
       39
 96
       35
 40
0.0
 40
0.0
 40
0.0
 40
0.0
 40
0.0439297486127922
 40
0.0439297486127922
 40
0.0439297486127922
 40
0.0852758975903305
 40
0.0852758975903305
 40
0.0852758975903305
 40
0.1267533073636925
 40
0.1267533073636925
 40
0.1267533073636925
 40
0.1688157901336078
 40
0.1688157901336078
 40
0.2327507639438786
 40
0.2327507639438786
 40
0.2327507639438786
 40
0.2858363305797558
 40
0.2858363305797558
 40
0.2858363305797558
 40
0.34016980303805
 40
0.34016980303805
 40
0.34016980303805
 40
0.4010124538487662
 40
0.4010124538487662
 40
0.4010124538487662
 40
0.552059160100671
 40
0.552059160100671
 40
0.552059160100671
 40
0.5670883043767458
 40
0.5670883043767458
 40
0.5815162828817784
 40
0.5815162828817784
 40
0.5815162828817784
 40
1.0
 40
1.0
 40
1.0
 40
1.0
 10
3.400262123197905
 20
2.700344036697248
 10
3.631258191349932
 20
2.739613368283093
 10
3.836171940175813
 20
2.819201524308691
 10
4.014711664482306
 20
2.9336500655308
 10
4.19488859764089
 20
3.049148099606816
 10
4.343928732125118
 20
3.19088228456228
 10
4.467463958060289
 20
3.356372870249018
 10
4.589891874180864
 20
3.520380078636961
 10
4.679525282839784
 20
3.708366672486163
 10
4.744659239842726
 20
3.913073394495413
 10
4.809338138925298
 20
4.116349934469202
 10
4.839367627785059
 20
4.335796199213631
 10
4.839367627785059
 20
4.917906290956751
 10
4.782488801414747
 20
5.220906681448501
 10
4.666120576671034
 20
5.476916775884666
 10
4.550622542595022
 20
5.731012450851901
 10
4.387795784926965
 20
5.939822673056568
 10
4.18333879423329
 20
6.105226081258192
 10
3.977752293577982
 20
6.271543250327655
 10
3.736714364351247
 20
6.39122138925295
 10
3.458011140235911
 20
6.472509829619922
 10
3.180815858453474
 20
6.553358453473132
 10
2.878211009174311
 20
6.592627785058978
 10
2.552506553079947
 20
6.592627785058978
 10
1.794069462647446
 20
6.592627785058977
 10
1.035632372214941
 20
6.592627785058978
 10
0.2771952817824364
 20
6.592627785058978
 10
0.2055865006553077
 20
6.592627785058978
 10
0.1409076015727422
 20
6.564908256880734
 10
0.0277195281782454
 20
6.451720183486239
 10
0.0
 20
6.38473132372215
 10
0.0
 20
6.303882699868939
 10
0.0
 20
4.202588466579293
 10
0.0
 20
2.101294233289646
 10
0.0
 20
0.0
 72
     1
 10
0.0
 20
0.0
 11
1.709370904325033
 21
0.0000000000000009
 72
     1
 10
1.709370904325031
 20
0.0000000000000009
 11
1.709370904325031
 21
2.534026867627786
 72
     1
 10
1.709370904325031
 20
2.534026867627786
 11
3.340203145478373
 21
0.0000000000000004
 72
     1
 10
3.340203145478373
 20
0.0000000000000009
 11
5.476916775884664
 21
0.0000000000000009
 72
     1
 10
5.476916775884668
 20
0.0000000000000009
 11
3.400262123197905
 21
2.700344036697248
 97
        0
 92
        1
 93
        3
 72
     1
 10
1.709370904325031
 20
5.28057011795544
 11
1.709370904325031
 21
3.631258191349935
 72
     1
 10
1.709370904325031
 20
3.631258191349935
 11
1.880307994757535
 21
3.631258191349935
 72
     4
 94
        3
 73
     0
 74
     0
 95
       29
 96
       25
 40
0.0
 40
0.0
 40
0.0
 40
0.0
 40
0.120355667163128
 40
0.120355667163128
 40
0.120355667163128
 40
0.2363519504887718
 40
0.2363519504887718
 40
0.2363519504887718
 40
0.3551316836966587
 40
0.3551316836966587
 40
0.4739114169045465
 40
0.4739114169045465
 40
0.5942337440501996
 40
0.5942337440501996
 40
0.7145560711958533
 40
0.7145560711958533
 40
0.7145560711958533
 40
0.8303426976884648
 40
0.8303426976884648
 40
0.8303426976884648
 40
0.9506957818555967
 40
0.9506957818555967
 40
0.9506957818555967
 40
1.0
 40
1.0
 40
1.0
 40
1.0
 10
1.880307994757537
 20
3.631258191349935
 10
2.018905635648757
 20
3.631258191349935
 10
2.157503276539977
 20
3.640498034076017
 10
2.296100917431193
 20
3.661287680209699
 10
2.436957688573287
 20
3.682416195881014
 10
2.564056356487548
 20
3.719036697247708
 10
2.679554390563567
 20
3.776785714285715
 10
2.795976408912189
 20
3.834996723460025
 10
2.889760812581915
 20
3.915383355176934
 10
3.028358453473135
 20
4.132519659239843
 10
3.063007863695937
 20
4.278047182175624
 10
3.063007863695937
 20
4.636091087811272
 10
3.028358453473135
 20
4.779308650065532
 10
2.889760812581915
 20
4.996444954128441
 10
2.797362385321101
 20
5.079603538663172
 10
2.679554390563567
 20
5.13735255570118
 10
2.564521785639126
 20
5.193741087526886
 10
2.437008519003932
 20
5.229750982961993
 10
2.296100917431193
 20
5.250540629095676
 10
2.157454063805833
 20
5.270996722253517
 10
2.018905635648757
 20
5.28057011795544
 10
1.880307994757537
 20
5.28057011795544
 10
1.823328964613371
 20
5.28057011795544
 10
1.766349934469201
 20
5.28057011795544
 10
1.709370904325031
 20
5.28057011795544
 97
        0
 75
     0
 76
     1
 98
        0
  0
HATCH
  5
161
330
123
100
AcDbEntity
  8
Default
  6
Continuous
 62
     7
100
AcDbHatch
 10
0.0
 20
0.0
 30
0.0
210
0.0
220
0.0
230
1.0
  2
SOLID
 70
     1
 71
     0
 91
        1
 92
        1
 93
       11
 72
     4
 94
        3
 73
     0
 74
     0
 95
       16
 96
       12
 40
0.0
 40
0.0
 40
0.0
 40
0.0
 40
0.3392889644065707
 40
0.3392889644065707
 40
0.3392889644065707
 40
0.3618671566114537
 40
0.3618671566114537
 40
0.3835422211281416
 40
0.3835422211281416
 40
0.3835422211281416
 40
1.0
 40
1.0
 40
1.0
 40
1.0
 10
9.778063564875495
 20
6.592627785058978
 10
8.621543250327658
 20
6.592627785058978
 10
7.465022935779817
 20
6.592627785058978
 10
6.30850262123198
 20
6.592627785058978
 10
6.229963958060289
 20
6.592627785058978
 10
6.162975098296197
 20
6.564908256880734
 10
6.049787024901704
 20
6.451720183486239
 10
6.022067496723459
 20
6.38473132372215
 10
6.022067496723459
 20
6.303882699868939
 10
6.022067496723459
 20
4.202588466579293
 10
6.022067496723459
 20
2.101294233289647
 10
6.022067496723459
 20
0.0000000000000018
 72
     1
 10
6.022067496723459
 20
0.0000000000000018
 11
9.778063564875495
 21
0.0000000000000009
 72
     1
 10
9.778063564875495
 20
0.0000000000000009
 11
9.778063564875495
 21
1.450655307994759
 72
     1
 10
9.778063564875495
 20
1.450655307994758
 11
7.731438401048491
 21
1.450655307994758
 72
     1
 10
7.731438401048493
 20
1.450655307994758
 11
7.731438401048493
 21
2.584846002621233
 72
     1
 10
7.731438401048493
 20
2.584846002621233
 11
9.678735255570121
 21
2.584846002621233
 72
     1
 10
9.678735255570121
 20
2.584846002621233
 11
9.678735255570121
 21
4.042431192660551
 72
     1
 10
9.678735255570121
 20
4.042431192660551
 11
7.731438401048493
 21
4.042431192660551
 72
     1
 10
7.731438401048493
 20
4.042431192660551
 11
7.731438401048493
 21
5.141972477064221
 72
     1
 10
7.731438401048493
 20
5.141972477064221
 11
9.778063564875497
 21
5.141972477064221
 72
     1
 10
9.778063564875495
 20
5.141972477064221
 11
9.778063564875495
 21
6.592627785058978
 97
        0
 75
     0
 76
     1
 98
        0
  0
HATCH
  5
162
330
123
100
AcDbEntity
  8
Default
  6
Continuous
 62
     7
100
AcDbHatch
 10
0.0
 20
0.0
 30
0.0
210
0.0
220
0.0
230
1.0
  2
SOLID
 70
     1
 71
     0
 91
        1
 92
        1
 93
        6
 72
     4
 94
        3
 73
     0
 74
     0
 95
       51
 96
       47
 40
0.0
 40
0.0
 40
0.0
 40
0.0
 40
0.0903181127538991
 40
0.0903181127538991
 40
0.1806362255077987
 40
0.1806362255077987
 40
0.2505107113883491
 40
0.2505107113883491
 40
0.2505107113883491
 40
0.3153180737852943
 40
0.3153180737852943
 40
0.3153180737852943
 40
0.3800992723712822
 40
0.3800992723712822
 40
0.3800992723712822
 40
0.4521169206302595
 40
0.4521169206302595
 40
0.5213407808102242
 40
0.5213407808102242
 40
0.5213407808102242
 40
0.5850582814386294
 40
0.5850582814386294
 40
0.5850582814386294
 40
0.6488037906897904
 40
0.6488037906897904
 40
0.6488037906897904
 40
0.718817254308538
 40
0.718817254308538
 40
0.7944820288920282
 40
0.7944820288920282
 40
0.7944820288920282
 40
0.8697367480753329
 40
0.8697367480753329
 40
0.8697367480753329
 40
0.9013515779285247
 40
0.9013515779285247
 40
0.9013515779285247
 40
0.9306379885930884
 40
0.9306379885930884
 40
0.9599243992576518
 40
0.9599243992576518
 40
0.9599243992576518
 40
0.9904597959709778
 40
0.9904597959709778
 40
0.9904597959709778
 40
1.0
 40
1.0
 40
1.0
 40
1.0
 10
16.88350262123198
 20
4.945625819134994
 10
16.59937745740498
 20
5.56931520314548
 10
16.20206422018348
 20
6.033617300131063
 10
15.18106159895151
 20
6.643446920052426
 10
14.58740170380079
 20
6.795904325032767
 10
13.37467234600262
 20
6.795904325032767
 10
12.88849518360602
 20
6.715532627831713
 10
12.44837811271297
 20
6.544118610747052
 10
12.00948558322411
 20
6.373181520314549
 10
11.6318070432484
 20
6.134109113501288
 10
11.31880733944954
 20
5.823410878112714
 10
11.00465268676278
 20
5.511566186107471
 10
10.76010389980871
 20
5.138136765961434
 10
10.58885976408912
 20
4.700769986893841
 10
10.41792267365662
 20
4.264187418086501
 10
10.33245412844037
 20
3.776785714285715
 10
10.33245412844037
 20
2.725753604193972
 10
10.41673087643255
 20
2.251733670943243
 10
10.58885976408912
 20
1.822558977719529
 10
10.76210681520315
 20
1.39059633027523
 10
10.99887791762487
 20
1.022140102874894
 10
11.30725753604194
 20
0.7183977719528185
 10
11.61448230668415
 20
0.4157929226736576
 10
11.9860833240235
 20
0.1770875389365569
 10
12.41834862385321
 20
0.0092398427260818
 10
12.85262123197903
 20
-0.1593872870249009
 10
13.32847313237222
 20
-0.2425458715596323
 10
14.40029488859764
 20
-0.2425458715596323
 10
14.91226036066398
 20
-0.1389661078830131
 10
15.37971821756225
 20
0.06467889908257
 10
15.84633027522936
 20
0.2679554390563577
 10
16.23809819736261
 20
0.6029285876097794
 10
16.5670380078637
 20
1.057961992136305
 10
16.70563564875491
 20
1.249688728702491
 10
16.80988280520848
 20
1.442190804023907
 10
16.88350262123198
 20
1.633142201834863
 10
16.95742136304062
 20
1.824868938401049
 10
17.01055045871559
 20
2.021215596330276
 10
17.08446920052425
 20
2.41852883355177
 10
17.10526611434193
 20
2.619624777619178
 10
17.11680865006553
 20
2.825081913499345
 10
17.12835845347313
 20
3.030668414154654
 10
17.14221821756225
 20
3.243184796854522
 10
17.14221821756225
 20
3.460321100917432
 10
17.14221821756225
 20
3.526539973787681
 10
17.14221821756225
 20
3.59275884665793
 10
17.14221821756225
 20
3.658977719528179
 72
     1
 10
17.14221821756225
 20
3.658977719528179
 11
13.83435452162517
 21
3.658977719528179
 72
     1
 10
13.83435452162517
 20
3.658977719528179
 11
13.83435452162517
 21
2.314580602883356
 72
     1
 10
13.83435452162517
 20
2.314580602883356
 11
15.33351900393184
 21
2.314580602883356
 72
     4
 94
        3
 73
     0
 74
     0
 95
       43
 96
       39
 40
0.0
 40
0.0
 40
0.0
 40
0.0
 40
0.0528407008768927
 40
0.0528407008768927
 40
0.0528407008768927
 40
0.101808017531148
 40
0.101808017531148
 40
0.101808017531148
 40
0.1527424680033737
 40
0.1527424680033737
 40
0.1527424680033737
 40
0.2046872249080309
 40
0.2046872249080309
 40
0.285201598110253
 40
0.285201598110253
 40
0.285201598110253
 40
0.3575698737778739
 40
0.3575698737778739
 40
0.3575698737778739
 40
0.4340109897737078
 40
0.4340109897737078
 40
0.5104521057695417
 40
0.5104521057695417
 40
0.5848456918726302
 40
0.5848456918726302
 40
0.5848456918726302
 40
0.6593973023253275
 40
0.6593973023253275
 40
0.6593973023253275
 40
0.7322081321972964
 40
0.7322081321972964
 40
0.7322081321972964
 40
0.808821291350857
 40
0.808821291350857
 40
0.9050626152462398
 40
0.9050626152462398
 40
0.9050626152462398
 40
1.0
 40
1.0
 40
1.0
 40
1.0
 10
15.33351900393184
 20
2.314580602883356
 10
15.31503931847969
 20
2.12285386631717
 10
15.26256022686942
 20
1.956138307659666
 10
15.17644167758847
 20
1.815629095674968
 10
15.08866317169069
 20
1.672411533420708
 10
14.98086470130555
 20
1.551204760042966
 10
14.84842726081258
 20
1.457585190039319
 10
14.7144495412844
 20
1.362876802096987
 10
14.5615512434976
 20
1.290461103946714
 10
14.39105504587156
 20
1.240448885976409
 10
14.21780799475754
 20
1.189629750982963
 10
14.03994102228047
 20
1.16653014416776
 10
13.56870904325033
 20
1.16653014416776
 10
13.32020716906946
 20
1.226055058977723
 10
13.10440694626475
 20
1.344397116644824
 10
12.88958060288335
 20
1.46220511140236
 10
12.7105124508519
 20
1.620114023591089
 10
12.56387614678899
 20
1.815629095674968
 10
12.41834862385321
 20
2.009665792922674
 10
12.30747051114023
 20
2.231422018348625
 10
12.15501310615989
 20
2.721133682830931
 10
12.11574377457405
 20
2.970609436435126
 10
12.11574377457405
 20
3.481110747051115
 10
12.15421681189757
 20
3.730147961786198
 10
12.22662188728703
 20
3.980062254259503
 10
12.29823066841416
 20
4.227228047182176
 10
12.40527884987617
 20
4.450080065344236
 10
12.54770642201835
 20
4.647640891218874
 10
12.69092398427261
 20
4.84629750982962
 10
12.86823374940279
 20
5.008983012075785
 10
13.08361730013106
 20
5.13042267365662
 10
13.30075360419397
 20
5.252850589777196
 10
13.54560943643512
 20
5.312909567496725
 10
14.17622870249017
 20
5.312909567496725
 10
14.47167626156505
 20
5.217916234390401
 10
14.7144495412844
 20
5.024164482306685
 10
14.95468545216252
 20
4.832437745740499
 10
15.1348623853211
 20
4.578342070773264
 10
15.25498034076016
 20
4.25956749672346
 72
     1
 10
15.25498034076016
 20
4.25956749672346
 11
16.88350262123198
 21
4.945625819134994
 97
        0
 75
     0
 76
     1
 98
        0
  0
HATCH
  5
163
330
123
100
AcDbEntity
  8
Default
  6
Continuous
 62
     7
100
AcDbHatch
 10
0.0
 20
0.0
 30
0.0
210
0.0
220
0.0
230
1.0
  2
SOLID
 70
     1
 71
     0
 91
        2
 92
        1
 93
        1
 72
     4
 94
        3
 73
     0
 74
     0
 95
       49
 96
       45
 40
0.0
 40
0.0
 40
0.0
 40
0.0
 40
0.0620905351842325
 40
0.0620905351842325
 40
0.0620905351842325
 40
0.1225274789213882
 40
0.1225274789213882
 40
0.1225274789213882
 40
0.1824107500595676
 40
0.1824107500595676
 40
0.1824107500595676
 40
0.2443092731117129
 40
0.2443092731117129
 40
0.3113899980938052
 40
0.3113899980938052
 40
0.3113899980938052
 40
0.373038281101099
 40
0.373038281101099
 40
0.4342493422430935
 40
0.4342493422430935
 40
0.4342493422430935
 40
0.5005101029271146
 40
0.5005101029271146
 40
0.5664827733472912
 40
0.5664827733472912
 40
0.5664827733472912
 40
0.6277456785228048
 40
0.6277456785228048
 40
0.6277456785228048
 40
0.6890483024008142
 40
0.6890483024008142
 40
0.6890483024008142
 40
0.7561017319004357
 40
0.7561017319004357
 40
0.8179750681339922
 40
0.8179750681339922
 40
0.8179750681339922
 40
0.8779262347345869
 40
0.8779262347345869
 40
0.8779262347345869
 40
0.9382003516792404
 40
0.9382003516792404
 40
0.9382003516792404
 40
1.0
 40
1.0
 40
1.0
 40
1.0
 10
21.44336500655308
 20
6.83055373525557
 10
20.96520314547837
 20
6.82824377457405
 10
20.50677543450266
 20
6.747870526797538
 10
20.06662844036697
 20
6.581077981651377
 10
19.62773591087812
 20
6.414760812581914
 10
19.23849979910015
 20
6.18016634116182
 10
18.90009829619921
 20
5.878849934469201
 10
18.56284403669725
 20
5.57855504587156
 10
18.2953544565906
 20
5.21684411217912
 10
18.0916120576671
 20
4.800098296199214
 10
17.88833551769332
 20
4.384305373525557
 10
17.78669724770642
 20
3.926933158584535
 10
17.78669724770642
 20
2.892070773263434
 10
17.87990551563201
 20
2.402690597965156
 10
18.06158256880734
 20
1.958846657929228
 10
18.24406946264745
 20
1.513024246395807
 10
18.49585517693316
 20
1.129570773263435
 10
19.14495412844037
 20
0.4804718217562263
 10
19.53023971314575
 20
0.2274883817829441
 10
19.9788499344692
 20
0.0485091743119273
 10
20.42467234600262
 20
-0.1293577981651364
 10
20.91207404980341
 20
-0.2194462647444295
 10
21.97234600262123
 20
-0.2194462647444295
 10
22.46253572118054
 20
-0.1305468044592142
 10
22.90788007863696
 20
0.0485091743119273
 10
23.3560124508519
 20
0.2286861074705122
 10
23.7406207864759
 20
0.4793333402928437
 10
24.06055045871559
 20
0.8038663171690699
 10
24.38163499344692
 20
1.129570773263435
 10
24.63260786737497
 20
1.513358696334639
 10
24.81590760157274
 20
1.958846657929228
 10
24.99839449541284
 20
2.402359108781128
 10
25.08848296199213
 20
2.892070773263434
 10
25.08848296199213
 20
3.926933158584535
 10
24.9863762849025
 20
4.38296991497732
 10
24.78587811271298
 20
4.800098296199214
 10
24.58491153342071
 20
5.218201179554391
 10
24.31246764930903
 20
5.576127116722139
 10
23.97508191349934
 20
5.878849934469201
 10
23.63782765399738
 20
6.181454783748363
 10
23.25051470703607
 20
6.416785102496653
 10
22.81317169069462
 20
6.581077981651377
 10
22.37658912188729
 20
6.745085190039319
 10
21.91919464291449
 20
6.832852429151036
 10
21.44336500655308
 20
6.83055373525557
 97
        0
 92
        1
 93
        1
 72
     4
 94
        3
 73
     0
 74
     0
 95
       47
 96
       43
 40
0.0
 40
0.0
 40
0.0
 40
0.0
 40
0.0637917384076936
 40
0.0637917384076936
 40
0.0637917384076936
 40
0.1265834997779105
 40
0.1265834997779105
 40
0.1893752611481285
 40
0.1893752611481285
 40
0.1893752611481285
 40
0.2604081010642026
 40
0.2604081010642026
 40
0.3159741129340349
 40
0.3159741129340349
 40
0.3159741129340349
 40
0.3751091105868485
 40
0.3751091105868485
 40
0.3751091105868485
 40
0.435995169879425
 40
0.435995169879425
 40
0.435995169879425
 40
0.4997689343159712
 40
0.4997689343159712
 40
0.5635426987525196
 40
0.5635426987525196
 40
0.5635426987525196
 40
0.624232315369434
 40
0.624232315369434
 40
0.624232315369434
 40
0.6835869381889372
 40
0.6835869381889372
 40
0.6835869381889372
 40
0.7357943705008892
 40
0.7357943705008892
 40
0.8025337685079206
 40
0.8025337685079206
 40
0.8692731665149518
 40
0.8692731665149518
 40
0.9360125645219831
 40
0.9360125645219831
 40
0.9360125645219831
 40
1.0
 40
1.0
 40
1.0
 40
1.0
 10
21.44336500655308
 20
1.450655307994758
 10
21.70208060288335
 20
1.450655307994758
 10
21.94462647444299
 20
1.501474442988205
 10
22.16869266055046
 20
1.600802752293579
 10
22.39468942225328
 20
1.700986883770089
 10
22.5937254259502
 20
1.836418741808651
 10
22.93097968545217
 20
2.187532765399738
 10
23.06495740498034
 20
2.395429226736567
 10
23.15966579292267
 20
2.63335517693316
 10
23.25469013236262
 20
2.87207485894082
 10
23.30519331585845
 20
3.132306684141548
 10
23.30519331585845
 20
3.642807994757537
 10
23.25668414154652
 20
3.862254259501967
 10
23.15966579292267
 20
4.074770642201835
 10
23.06391850987524
 20
4.284502786020031
 10
22.93097968545217
 20
4.472083879423329
 10
22.76235255570118
 20
4.636091087811272
 10
22.59487996078263
 20
4.798975392458079
 10
22.39506880733945
 20
4.927146133682831
 10
22.16869266055046
 20
5.021854521625164
 10
21.94345992894685
 20
5.116084541989939
 10
21.70208060288335
 20
5.167382044560944
 10
21.18464941022281
 20
5.167382044560944
 10
20.94210353866317
 20
5.118872870249017
 10
20.71572739187418
 20
5.021854521625164
 10
20.49213912866634
 20
4.926030980250372
 10
20.29300458715597
 20
4.797788335517694
 10
20.12437745740498
 20
4.636091087811272
 10
19.95459636352431
 20
4.473287299158574
 10
19.82177260812581
 20
4.284977064220183
 10
19.72244429882045
 20
4.074770642201835
 10
19.62222370164274
 20
3.86267589003505
 10
19.57229685452162
 20
3.642807994757537
 10
19.57229685452162
 20
3.132306684141548
 10
19.62311598951508
 20
2.871281127129752
 10
19.82177260812581
 20
2.395429226736567
 10
19.95575032765399
 20
2.187532765399738
 10
20.29300458715597
 20
1.836418741808651
 10
20.49166120576671
 20
1.700131061598952
 10
20.71572739187418
 20
1.600802752293579
 10
20.941724153577
 20
1.500618620817073
 10
21.18464941022281
 20
1.450655307994758
 10
21.44336500655308
 20
1.450655307994758
 97
        0
 75
     0
 76
     1
 98
        0
  0
HATCH
  5
164
330
123
100
AcDbEntity
  8
Default
  6
Continuous
 62
     7
100
AcDbHatch
 10
0.0
 20
0.0
 30
0.0
210
0.0
220
0.0
230
1.0
  2
SOLID
 70
     1
 71
     0
 91
        1
 92
        1
 93
        4
 72
     1
 10
28.07064220183486
 20
2.584846002621233
 11
28.07064220183486
 21
4.042431192660551
 72
     1
 10
28.07064220183486
 20
4.042431192660551
 11
25.93623853211009
 21
4.042431192660551
 72
     1
 10
25.93623853211009
 20
4.042431192660551
 11
25.93623853211009
 21
2.584846002621233
 72
     1
 10
25.93623853211009
 20
2.584846002621233
 11
28.07064220183486
 21
2.584846002621233
 97
        0
 75
     0
 76
     1
 98
        0
  0
HATCH
  5
165
330
123
100
AcDbEntity
  8
Default
  6
Continuous
 62
     7
100
AcDbHatch
 10
0.0
 20
0.0
 30
0.0
210
0.0
220
0.0
230
1.0
  2
SOLID
 70
     1
 71
     0
 91
        1
 92
        1
 93
        9
 72
     4
 94
        3
 73
     0
 74
     0
 95
       16
 96
       12
 40
0.0
 40
0.0
 40
0.0
 40
0.0
 40
0.3396620468027166
 40
0.3396620468027166
 40
0.3396620468027166
 40
0.3623316833330921
 40
0.3623316833330921
 40
0.3840945344022499
 40
0.3840945344022499
 40
0.3840945344022499
 40
1.0
 40
1.0
 40
1.0
 40
1.0
 10
32.58661533420707
 20
6.592627785058978
 10
31.42778505897771
 20
6.592627785058978
 10
30.26895478374836
 20
6.592627785058978
 10
29.110124508519
 20
6.592627785058978
 10
29.02927588466579
 20
6.592627785058978
 10
28.96228702490171
 20
6.564908256880734
 10
28.84909895150721
 20
6.451720183486239
 10
28.82137942332896
 20
6.38473132372215
 10
28.82137942332896
 20
6.303882699868939
 10
28.82137942332896
 20
4.202588466579293
 10
28.82137942332896
 20
2.101294233289646
 10
28.82137942332896
 20
0.0
 72
     1
 10
28.82137942332896
 20
0.0
 11
30.53999017038007
 21
0.0000000000000009
 72
     1
 10
30.53999017038007
 20
0.0000000000000009
 11
30.53999017038007
 21
2.584846002621234
 72
     1
 10
30.53999017038007
 20
2.584846002621234
 11
32.4872870249017
 21
2.584846002621233
 72
     1
 10
32.4872870249017
 20
2.584846002621233
 11
32.4872870249017
 21
4.042431192660551
 72
     1
 10
32.4872870249017
 20
4.042431192660551
 11
30.53999017038007
 21
4.042431192660551
 72
     1
 10
30.53999017038007
 20
4.042431192660551
 11
30.53999017038007
 21
5.141972477064221
 72
     1
 10
30.53999017038007
 20
5.141972477064221
 11
32.58661533420707
 21
5.141972477064221
 72
     1
 10
32.58661533420707
 20
5.141972477064221
 11
32.58661533420707
 21
6.592627785058978
 97
        0
 75
     0
 76
     1
 98
        0
  0
HATCH
  5
166
330
123
100
AcDbEntity
  8
Default
  6
Continuous
 62
     7
100
AcDbHatch
 10
0.0
 20
0.0
 30
0.0
210
0.0
220
0.0
230
1.0
  2
SOLID
 70
     1
 71
     0
 91
        1
 92
        1
 93
        4
 72
     4
 94
        3
 73
     0
 74
     0
 95
       14
 96
       10
 40
0.0
 40
0.0
 40
0.0
 40
0.0
 40
0.7580098693161609
 40
0.7580098693161609
 40
0.7580098693161609
 40
0.8789822868889446
 40
0.8789822868889446
 40
0.8789822868889446
 40
1.0
 40
1.0
 40
1.0
 40
1.0
 10
35.18532110091743
 20
6.608797509829621
 10
34.71100917431193
 20
6.608797509829621
 10
34.23669724770642
 20
6.608797509829621
 10
33.76238532110091
 20
6.608797509829621
 10
33.68153669724771
 20
6.608797509829621
 10
33.61680971405436
 20
6.578721860223512
 10
33.55910878112713
 20
6.523328964613368
 10
33.50135976408912
 20
6.467889908256881
 10
33.47364023591088
 20
6.400901048492791
 10
33.47364023591088
 20
6.320052424639582
 72
     1
 10
33.47364023591088
 20
6.320052424639582
 11
33.47364023591088
 21
0.0000000000000009
 72
     1
 10
33.47364023591088
 20
0.0000000000000009
 11
35.18532110091743
 21
0.0000000000000009
 72
     1
 10
35.18532110091743
 20
0.0000000000000009
 11
35.18532110091743
 21
6.608797509829621
 97
        0
 75
     0
 76
     1
 98
        0
  0
HATCH
  5
167
330
123
100
AcDbEntity
  8
Default
  6
Continuous
 62
     7
100
AcDbHatch
 10
0.0
 20
0.0
 30
0.0
210
0.0
220
0.0
230
1.0
  2
SOLID
 70
     1
 71
     0
 91
        1
 92
        1
 93
       12
 72
     1
 10
39.22313237221493
 20
4.885566841415466
 11
38.20905963302751
 21
6.592627785058978
 72
     1
 10
38.20905963302752
 20
6.592627785058978
 11
36.10468545216251
 21
6.592627785058978
 72
     1
 10
36.10468545216251
 20
6.592627785058978
 11
38.20905963302751
 21
3.525
 72
     1
 10
38.20905963302752
 20
3.525000000000001
 11
35.62652359108781
 21
0.0000000000000013
 72
     1
 10
35.6265235910878
 20
0.0000000000000009
 11
37.70317824377457
 21
0.0000000000000009
 72
     1
 10
37.70317824377457
 20
0.0000000000000009
 11
39.22313237221493
 21
2.145953473132373
 72
     1
 10
39.22313237221493
 20
2.145953473132373
 11
40.25568479685452
 21
0.5266710353866326
 72
     1
 10
40.25568479685452
 20
0.5266710353866322
 11
41.28823722149409
 21
1.995806028833553
 72
     1
 10
41.28823722149409
 20
1.995806028833553
 11
40.22565530799475
 21
3.525000000000001
 72
     1
 10
40.22565530799475
 20
3.525000000000001
 11
42.34157929226736
 21
6.592627785058978
 72
     1
 10
42.34157929226736
 20
6.592627785058978
 11
40.22565530799475
 21
6.592627785058978
 72
     1
 10
40.22565530799475
 20
6.592627785058978
 11
39.22313237221493
 21
4.885566841415466
 97
        0
 75
     0
 76
     1
 98
        0
  0
HATCH
  5
168
330
123
100
AcDbEntity
  8
Default
  6
Continuous
 62
     7
100
AcDbHatch
 10
0.0
 20
0.0
 30
0.0
210
0.0
220
0.0
230
1.0
  2
SOLID
 70
     1
 71
     0
 91
        1
 92
        1
 93
        3
 72
     4
 94
        3
 73
     0
 74
     0
 95
       13
 96
        9
 40
0.0
 40
0.0
 40
0.0
 40
0.0
 40
0.0445094381088423
 40
0.0445094381088423
 40
0.0908355879772283
 40
0.0908355879772283
 40
0.0908355879772283
 40
1.0
 40
1.0
 40
1.0
 40
1.0
 10
45.71181192660551
 20
6.414760812581914
 10
45.61941349934469
 20
6.53256880733945
 10
45.51546526867628
 20
6.592627785058978
 10
45.28446920052424
 20
6.592627785058978
 10
45.18660375034128
 20
6.531537694833034
 10
45.10429226736566
 20
6.414760812581914
 10
43.69752621231979
 20
4.418954783748362
 10
42.29076015727392
 20
2.423148754914811
 10
40.88399410222804
 20
0.427342726081259
 72
     4
 94
        3
 73
     0
 74
     0
 95
       11
 96
        7
 40
0.0
 40
0.0
 40
0.0
 40
0.0
 40
0.3439066424360135
 40
0.3439066424360135
 40
0.3439066424360135
 40
1.0
 40
1.0
 40
1.0
 40
1.0
 10
40.88399410222804
 20
0.427342726081259
 10
40.83086500655307
 20
0.3418741808650076
 10
40.80230295367286
 20
0.2725253209688669
 10
40.80314547837483
 20
0.2194462647444313
 10
40.80545543905635
 20
0.0739187418086509
 10
40.90709370904325
 20
0.0000000000000009
 10
41.11268020969855
 20
0.0000000000000009
 72
     4
 94
        3
 73
     0
 74
     0
 95
       16
 96
       12
 40
0.0
 40
0.0
 40
0.0
 40
0.0
 40
0.5188870924081099
 40
0.5188870924081099
 40
0.5188870924081099
 40
0.544909989588877
 40
0.544909989588877
 40
0.5581347406151689
 40
0.5581347406151689
 40
0.5581347406151689
 40
1.0
 40
1.0
 40
1.0
 40
1.0
 10
41.11268020969855
 20
0.0000000000000009
 10
43.98011140235911
 20
0.0000000000000009
 10
46.84754259501965
 20
0.0000000000000009
 10
49.71497378768021
 20
0.0000000000000009
 10
49.91363040629096
 20
0.0000000000000009
 10
50.01295871559633
 20
0.0692988204456104
 10
50.01295871559633
 20
0.281815203145479
 10
49.98455330475264
 20
0.352940532254955
 10
49.93211009174313
 20
0.427342726081259
 10
48.52534403669725
 20
2.42314875491481
 10
47.11857798165137
 20
4.418954783748362
 10
45.71181192660551
 20
6.414760812581914
 97
        0
 75
     0
 76
     1
 98
        0
  0
ENDBLK
  5
16A
330
123
100
AcDbEntity
  8
0
100
AcDbBlockEnd
  0
BLOCK
  5
174
330
16B
100
AcDbEntity
  8
0
100
AcDbBlockBegin
  2
RF-Massblatt_2016
 70
     0
 10
0.0
 20
0.0
 30
0.0
  3
RF-Massblatt_2016
  1

  0
MTEXT
  5
16C
102
{ACAD_XDICTIONARY
360
17E
102
}
330
16B
100
AcDbEntity
  8
Default
100
AcDbMText
 10
15.2206856049
 20
34.8070876502
 30
0.0
 40
2.5
 41
48.9706096033
 71
     1
 72
     1
  3
{\fVectora Com 45 Light|b1||i0||c0|p34;\C7;\H2.5;\W1.;REGO-FIX AG\P}{\fVectora Com 45 Light|b0||i0||c0|p34;\C7;\H2.5;\W1.;Obermattweg 60\P}{\fVectora Com 45 Light|b0||i0||c0|p34;\C7;\H2.5;\W1.;4456 Tenniken / Switzerland\P}{\fVectora Com 45 Light|b0
  3
||i0||c0|p34;\C7;\H2.5;\W1.;\P}{\fVectora Com 45 Light|b0||i0||c0|p34;\C7;\H2.5;\W1.;P +41 61 976 14 66\P}{\fVectora Com 45 Light|b0||i0||c0|p34;\C7;\H2.5;\W1.;F +41 61 976 14 14\P}{\fVectora Com 45 Light|b1||i0||c0|p34;\C7;\H2.5;\W1.;www.rego-fix.c
  1
om}
 73
     1
 44
1.0
1001
ACAD
1000
ACAD_MTEXT_DEFINED_HEIGHT_BEGIN
1070
    46
1040
31.3191355437
1000
ACAD_MTEXT_DEFINED_HEIGHT_END
  0
MTEXT
  5
16D
102
{ACAD_XDICTIONARY
360
180
102
}
330
16B
100
AcDbEntity
  8
Default
100
AcDbMText
 10
90.3836341545
 20
34.4892285804
 30
0.0
 40
2.5
 41
104.0282149141
 71
     1
 72
     1
  3
{\fSolid Edge ISO|b0||i0||c0|p34;\C7;\H2.;\W1.;This is a non-controlled copy. All information given herein is subject to change without notice\P}{\fSolid Edge ISO|b0||i0||c0|p34;\C7;\H2.;\W1.;\P}{\fSolid Edge ISO|b0||i0||c0|p34;\C7;\H2.;\W1.;The inf
  3
ormation given herein has been carefully checked and is believed to be correct. REGO-FIX,\P}{\fSolid Edge ISO|b0||i0||c0|p34;\C7;\H2.;\W1.;however, assumes no responsibility or liability for any errors, inaccuracies or omissions that may appear\P}{\
  3
fSolid Edge ISO|b0||i0||c0|p34;\C7;\H2.;\W1.;in this drawing\P}{\fSolid Edge ISO|b0||i0||c0|p34;\C7;\H2.;\W1.;\P}{\fSolid Edge ISO|b0||i0||c0|p34;\C7;\H2.;\W1.;This document is subject to copyright laws. No part of this document may be reproduced or
  3
 transmitted\P}{\fSolid Edge ISO|b0||i0||c0|p34;\C7;\H2.;\W1.;in any form or any means, electronic or mechanic, for any purpose, without the express written permission\P}{\fSolid Edge ISO|b0||i0||c0|p34;\C7;\H2.;\W1.;of REGO-FIX\P}{\fSolid Edge ISO|
  1
b0||i0||c0|p34;\C7;\H1.5;\W1.;\P}
 73
     1
 44
1.0
1001
ACAD
1000
ACAD_MTEXT_DEFINED_HEIGHT_BEGIN
1070
    46
1040
38.4545554545
1000
ACAD_MTEXT_DEFINED_HEIGHT_END
  0
INSERT
  5
16E
330
16B
100
AcDbEntity
  8
Default
100
AcDbBlockReference
  2
SEANNOT_GROUP
 10
0.0
 20
0.0
 30
0.0
  0
INSERT
  5
16F
330
16B
100
AcDbEntity
  8
Default
100
AcDbBlockReference
  2
SEANNOT_GROUP1
 10
0.0
 20
0.0
 30
0.0
  0
MTEXT
  5
170
102
{ACAD_XDICTIONARY
360
182
102
}
330
16B
100
AcDbEntity
  8
Default
100
AcDbMText
 10
219.0323311835
 20
34.8066733186
 30
0.0
 40
2.5
 41
20.1335141444
 71
     1
 72
     1
  3
{\fVectora Com 45 Light|b0||i0||c0|p34;\C7;\H3.5;\W1.;Type :\P}{\fVectora Com 45 Light|b0||i0||c0|p34;\C7;\H3.5;\W1.;Part No. :\P}{\fVectora Com 45 Light|b0||i0||c0|p34;\C7;\H3.5;\W1.;Date : \P}{\fVectora Com 45 Light|b0||i0||c0|p34;\C7;\H3.5;\W1.;S
  1
cale :}
 73
     1
 44
1.0
1001
ACAD
1000
ACAD_MTEXT_DEFINED_HEIGHT_BEGIN
1070
    46
1040
23.6666666667
1000
ACAD_MTEXT_DEFINED_HEIGHT_END
  0
INSERT
  5
171
330
16B
100
AcDbEntity
  8
Default
100
AcDbBlockReference
  2
SEANNOT_GROUP2
 10
0.0
 20
0.0
 30
0.0
  0
INSERT
  5
172
330
16B
100
AcDbEntity
  8
Default
100
AcDbBlockReference
  2
SEANNOT_GROUP3
 10
0.0
 20
0.0
 30
0.0
  0
INSERT
  5
173
330
16B
100
AcDbEntity
  8
Default
 62
     7
100
AcDbBlockReference
  2
Block1
 10
227.000440997
 20
183.1186606679
 30
0.0
  0
ENDBLK
  5
175
330
16B
100
AcDbEntity
  8
0
100
AcDbBlockEnd
  0
ENDSEC
  0
SECTION
  2
ENTITIES
  0
INSERT
  5
41
330
1F
100
AcDbEntity
  8
Default
100
AcDbBlockReference
  2
SE
 10
0.0
 20
0.0
 30
0.0
  0
INSERT
  5
D8
330
1F
100
AcDbEntity
  8
Default
100
AcDbBlockReference
  2
SE1
 10
0.0
 20
0.0
 30
0.0
  0
DIMENSION
  5
F3
330
1F
100
AcDbEntity
  8
Default
  6
Continuous
 62
     7
100
AcDbDimension
  2
DMBLK459
 10
49.5419928383
 20
153.8301946147
 30
0.0
 11
154.54198956
 21
153.8301946147
 31
0.0
 70
   161
  1
\A1;<>
 71
     5
 42
-1.0
  3
DIN
100
AcDbAlignedDimension
 13
49.5419928383
 23
128.9596946462
 33
0.0
 14
259.5419928383
 24
128.9596946462
 34
0.0
  0
DIMENSION
  5
FD
330
1F
100
AcDbEntity
  8
Default
  6
Continuous
 62
     7
100
AcDbDimension
  2
DMBLK460
 10
37.2088763442
 20
143.9596946462
 30
0.0
 11
37.2088763442
 21
128.9596949815
 31
0.0
 70
   161
  1
\A1;<>
 71
     5
 42
-1.0
  3
DIN
100
AcDbAlignedDimension
 13
49.5419928383
 23
143.9596946462
 33
0.0
 14
49.5419928383
 24
113.9596946462
 34
0.0
  0
DIMENSION
  5
107
330
1F
100
AcDbEntity
  8
Default
  6
Continuous
 62
     7
100
AcDbDimension
  2
DMBLK461
 10
37.2088763442
 20
67.3656242197
 30
0.0
 11
37.2088763442
 21
73.3656242718
 31
0.0
 70
   161
  1
\A1;<>
 71
     5
 42
-1.0
  3
DIN
100
AcDbAlignedDimension
 13
49.5419928383
 23
67.3656242197
 33
0.0
 14
49.5419928383
 24
79.3656242197
 34
0.0
  0
INSERT
  5
176
330
1F
100
AcDbEntity
  8
Default
 62
     7
100
AcDbBlockReference
  2
RF-Massblatt_2016
 10
0.0
 20
0.0
 30
0.0
  0
ENDSEC
  0
SECTION
  2
OBJECTS
  0
DICTIONARY
  5
C
330
0
100
AcDbDictionary
281
     1
  3
ACAD_GROUP
350
D
  3
ACAD_LAYOUT
350
1A
  3
ACAD_MATERIAL
350
3B
  3
ACAD_MLEADERSTYLE
350
179
  3
ACAD_MLINESTYLE
350
17
  3
ACAD_PLOTSETTINGS
350
19
  3
ACAD_PLOTSTYLENAME
350
E
  3
ACAD_VISUALSTYLE
350
2A
  3
AcDbVariableDictionary
350
177
  0
DICTIONARY
  5
17E
330
16C
100
AcDbDictionary
280
     1
281
     1
  3
ACAD_MTEXT_RT
360
17F
  0
DICTIONARY
  5
180
330
16D
100
AcDbDictionary
280
     1
281
     1
  3
ACAD_MTEXT_RT
360
181
  0
DICTIONARY
  5
182
330
170
100
AcDbDictionary
280
     1
281
     1
  3
ACAD_MTEXT_RT
360
183
  0
DICTIONARY
  5
D
102
{ACAD_REACTORS
330
C
102
}
330
C
100
AcDbDictionary
281
     1
  0
DICTIONARY
  5
1A
102
{ACAD_REACTORS
330
C
102
}
330
C
100
AcDbDictionary
281
     1
  3
Layout1
350
1E
  3
Model
350
22
  0
DICTIONARY
  5
3B
102
{ACAD_REACTORS
330
C
102
}
330
C
100
AcDbDictionary
281
     1
  3
ByBlock
350
3D
  3
ByLayer
350
3C
  3
Global
350
3E
  0
DICTIONARY
  5
179
102
{ACAD_REACTORS
330
C
102
}
330
C
100
AcDbDictionary
281
     1
  0
DICTIONARY
  5
17
102
{ACAD_REACTORS
330
C
102
}
330
C
100
AcDbDictionary
281
     1
  3
Standard
350
18
  0
DICTIONARY
  5
19
102
{ACAD_REACTORS
330
C
102
}
330
C
100
AcDbDictionary
281
     1
  0
ACDBDICTIONARYWDFLT
  5
E
102
{ACAD_REACTORS
330
C
102
}
330
C
100
AcDbDictionary
281
     1
  3
Normal
350
F
100
AcDbDictionaryWithDefault
340
F
  0
DICTIONARY
  5
2A
102
{ACAD_REACTORS
330
C
102
}
330
C
100
AcDbDictionary
281
     1
  3
2dWireframe
350
2F
  3
3D Hidden
350
31
  3
3dWireframe
350
30
  3
Basic
350
32
  3
Brighten
350
36
  3
ColorChange
350
3A
  3
Conceptual
350
34
  3
Dim
350
35
  3
Facepattern
350
39
  3
Flat
350
2B
  3
FlatWithEdges
350
2C
  3
Gouraud
350
2D
  3
GouraudWithEdges
350
2E
  3
Linepattern
350
38
  3
Realistic
350
33
  3
Thicken
350
37
  0
DICTIONARY
  5
177
102
{ACAD_REACTORS
330
C
102
}
330
C
100
AcDbDictionary
281
     1
  3
DIMASSOC
350
17C
  3
HIDETEXT
350
17D
  3
PSOLHEIGHT
350
17B
  3
PSOLWIDTH
350
17A
  0
XRECORD
  5
17F
102
{ACAD_REACTORS
330
17E
102
}
330
17E
100
AcDbXrecord
280
     1
 40
10118767.0
  1
\pxsm1.;{\fVectora Com 45 Light|b1||i0||c0|p34;\C7;\H2.5;\W1.;REGO-FIX AG\P}{\fVectora Com 45 Light|b0||i0||c0|p34;\C7;\H2.5;\W1.;Obermattweg 60\P}{\fVectora Com 45 Light|b0||i0||c0|p34;\C7;\H2.5;\W1.;4456 Tenniken / Switzerland\P}{\fVectora Com 45 L
  1
ight|b0||i0||c0|p34;\C7;\H2.5;\W1.;\P}{\fVectora Com 45 Light|b0||i0||c0|p34;\C7;\H2.5;\W1.;P +41 61 976 14 66\P}{\fVectora Com 45 Light|b0||i0||c0|p34;\C7;\H2.5;\W1.;F +41 61 976 14 14\P}{\fVectora Com 45 Light|b1||i0||c0|p34;\C7;\H2.5;\W1.;www.rego
  1
-fix.com}
  0
XRECORD
  5
181
102
{ACAD_REACTORS
330
180
102
}
330
180
100
AcDbXrecord
280
     1
 40
47111022.0
  1
\pxsm1.;{\fSolid Edge ISO|b0||i0||c0|p34;\C7;\H2.;\W1.;This is a non-controlled copy. All information given herein is subject to change without notice\P}{\fSolid Edge ISO|b0||i0||c0|p34;\C7;\H2.;\W1.;\P}{\fSolid Edge ISO|b0||i0||c0|p34;\C7;\H2.;\W1.;
  1
The information given herein has been carefully checked and is believed to be correct. REGO-FIX,\P}{\fSolid Edge ISO|b0||i0||c0|p34;\C7;\H2.;\W1.;however, assumes no responsibility or liability for any errors, inaccuracies or omissions that may appea
  1
r\P}{\fSolid Edge ISO|b0||i0||c0|p34;\C7;\H2.;\W1.;in this drawing\P}{\fSolid Edge ISO|b0||i0||c0|p34;\C7;\H2.;\W1.;\P}{\fSolid Edge ISO|b0||i0||c0|p34;\C7;\H2.;\W1.;This document is subject to copyright laws. No part of this document may be reproduc
  1
ed or transmitted\P}{\fSolid Edge ISO|b0||i0||c0|p34;\C7;\H2.;\W1.;in any form or any means, electronic or mechanic, for any purpose, without the express written permission\P}{\fSolid Edge ISO|b0||i0||c0|p34;\C7;\H2.;\W1.;of REGO-FIX\P}{\fSolid Edge 
  1
ISO|b0||i0||c0|p34;\C7;\H1.5;\W1.;\P}
  0
XRECORD
  5
183
102
{ACAD_REACTORS
330
182
102
}
330
182
100
AcDbXrecord
280
     1
 40
2697483.0
  1
\pxsm1.;{\fVectora Com 45 Light|b0||i0||c0|p34;\C7;\H3.5;\W1.;Type :\P}{\fVectora Com 45 Light|b0||i0||c0|p34;\C7;\H3.5;\W1.;Part No. :\P}{\fVectora Com 45 Light|b0||i0||c0|p34;\C7;\H3.5;\W1.;Date : \P}{\fVectora Com 45 Light|b0||i0||c0|p34;\C7;\H3.5
  1
;\W1.;Scale :}
  0
LAYOUT
  5
1E
102
{ACAD_REACTORS
330
1A
102
}
330
1A
100
AcDbPlotSettings
  1

  2
none_device
  4

  6

 40
0.0
 41
0.0
 42
0.0
 43
0.0
 44
0.0
 45
0.0
 46
0.0
 47
0.0
 48
0.0
 49
0.0
140
0.0
141
0.0
142
1.0
143
1.0
 70
   688
 72
     0
 73
     0
 74
     5
  7

 75
    16
147
1.0
148
0.0
149
0.0
100
AcDbLayout
  1
Layout1
 70
     1
 71
     1
 10
0.0
 20
0.0
 11
297.0
 21
210.0
 12
0.0
 22
0.0
 32
0.0
 14
0.0
 24
0.0
 34
0.0
 15
297.0
 25
210.0
 35
0.0
146
0.0
 13
0.0
 23
0.0
 33
0.0
 16
1.0
 26
0.0
 36
0.0
 17
0.0
 27
1.0
 37
0.0
 76
     0
330
1B
  0
LAYOUT
  5
22
102
{ACAD_REACTORS
330
1A
102
}
330
1A
100
AcDbPlotSettings
  1

  2
none_device
  4

  6

 40
0.0
 41
0.0
 42
0.0
 43
0.0
 44
0.0
 45
0.0
 46
0.0
 47
0.0
 48
0.0
 49
0.0
140
0.0
141
0.0
142
1.0
143
1.0
 70
  1712
 72
     0
 73
     0
 74
     0
  7

 75
     0
147
1.0
148
0.0
149
0.0
100
AcDbLayout
  1
Model
 70
     1
 71
     0
 10
0.0
 20
0.0
 11
297.0
 21
210.0
 12
0.0
 22
0.0
 32
0.0
 14
0.0
 24
0.0
 34
0.0
 15
297.0
 25
210.0
 35
0.0
146
0.0
 13
0.0
 23
0.0
 33
0.0
 16
1.0
 26
0.0
 36
0.0
 17
0.0
 27
1.0
 37
0.0
 76
     0
330
1F
331
29
  0
MATERIAL
  5
3D
102
{ACAD_REACTORS
330
3B
102
}
102
{ACAD_XDICTIONARY
360
1A6
102
}
330
3B
100
AcDbMaterial
  1
ByBlock
  0
MATERIAL
  5
3C
102
{ACAD_REACTORS
330
3B
102
}
102
{ACAD_XDICTIONARY
360
1A4
102
}
330
3B
100
AcDbMaterial
  1
ByLayer
  0
MATERIAL
  5
3E
102
{ACAD_REACTORS
330
3B
102
}
102
{ACAD_XDICTIONARY
360
1A8
102
}
330
3B
100
AcDbMaterial
  1
Global
  0
MLINESTYLE
  5
18
102
{ACAD_REACTORS
330
17
102
}
330
17
100
AcDbMlineStyle
  2
Standard
 70
     0
  3

 62
   256
 51
90.0
 52
90.0
 71
     2
 49
0.5
 62
   256
  6
BYLAYER
 49
-0.5
 62
   256
  6
BYLAYER
  0
ACDBPLACEHOLDER
  5
F
102
{ACAD_REACTORS
330
E
102
}
330
E
  0
VISUALSTYLE
  5
2F
102
{ACAD_REACTORS
330
2A
102
}
102
{ACAD_XDICTIONARY
360
18C
102
}
330
2A
100
AcDbVisualStyle
  2
2dWireframe
 70
     4
 71
     0
 72
     2
 73
     0
 90
        0
 40
-0.6
 41
-30.0
 62
     5
 63
     7
 74
     1
 91
        4
 64
     7
 65
   257
 75
     1
175
     1
 42
1.0
 92
        0
 66
   257
 43
1.0
 76
     1
 77
     6
 78
     2
 67
     7
 79
     5
170
     0
171
     0
290
     0
174
     0
 93
        1
 44
0.0
173
     0
291
     0
 45
0.0
1001
ACAD
1000
AcDbSavedByObjectVersion
1070
     0
  0
VISUALSTYLE
  5
31
102
{ACAD_REACTORS
330
2A
102
}
102
{ACAD_XDICTIONARY
360
190
102
}
330
2A
100
AcDbVisualStyle
  2
3D Hidden
 70
     6
 71
     1
 72
     2
 73
     2
 90
        0
 40
-0.6
 41
-30.0
 62
     5
 63
     7
 74
     2
 91
        2
 64
     7
 65
   257
 75
     2
175
     1
 42
40.0
 92
        0
 66
   257
 43
1.0
 76
     1
 77
     6
 78
     2
 67
     7
 79
     3
170
     0
171
     0
290
     0
174
     0
 93
        1
 44
0.0
173
     0
291
     0
 45
0.0
1001
ACAD
1000
AcDbSavedByObjectVersion
1070
     0
  0
VISUALSTYLE
  5
30
102
{ACAD_REACTORS
330
2A
102
}
102
{ACAD_XDICTIONARY
360
18E
102
}
330
2A
100
AcDbVisualStyle
  2
3dWireframe
 70
     5
 71
     0
 72
     2
 73
     0
 90
        0
 40
-0.6
 41
-30.0
 62
     5
 63
     7
 74
     1
 91
        4
 64
     7
 65
   257
 75
     1
175
     1
 42
1.0
 92
        0
 66
   257
 43
1.0
 76
     1
 77
     6
 78
     2
 67
     7
 79
     5
170
     0
171
     0
290
     0
174
     0
 93
        1
 44
0.0
173
     0
291
     0
 45
0.0
1001
ACAD
1000
AcDbSavedByObjectVersion
1070
     0
  0
VISUALSTYLE
  5
32
102
{ACAD_REACTORS
330
2A
102
}
102
{ACAD_XDICTIONARY
360
192
102
}
330
2A
100
AcDbVisualStyle
  2
Basic
 70
     7
 71
     1
 72
     0
 73
     1
 90
        0
 40
-0.6
 41
-30.0
 62
     5
 63
     7
 74
     0
 91
        4
 64
     7
 65
   257
 75
     1
175
     1
 42
1.0
 92
        8
 66
     7
 43
1.0
 76
     1
 77
     6
 78
     2
 67
     7
 79
     5
170
     0
171
     0
290
     0
174
     0
 93
        1
 44
0.0
173
     0
291
     1
 45
0.0
1001
ACAD
1000
AcDbSavedByObjectVersion
1070
     0
  0
VISUALSTYLE
  5
36
102
{ACAD_REACTORS
330
2A
102
}
102
{ACAD_XDICTIONARY
360
19A
102
}
330
2A
100
AcDbVisualStyle
  2
Brighten
 70
    12
 71
     2
 72
     2
 73
     0
 90
        0
 40
-0.6
 41
-30.0
 62
     5
 63
     7
 74
     1
 91
        4
 64
     7
 65
   257
 75
     1
175
     1
 42
1.0
 92
        8
 66
     7
 43
1.0
 76
     1
 77
     6
 78
     2
 67
     7
 79
     5
170
     0
171
     0
290
     0
174
     0
 93
        1
 44
50.0
173
     0
291
     1
 45
0.0
1001
ACAD
1000
AcDbSavedByObjectVersion
1070
     0
  0
VISUALSTYLE
  5
3A
102
{ACAD_REACTORS
330
2A
102
}
102
{ACAD_XDICTIONARY
360
1A2
102
}
330
2A
100
AcDbVisualStyle
  2
ColorChange
 70
    16
 71
     2
 72
     2
 73
     3
 90
        0
 40
-0.6
 41
-30.0
 62
     5
 63
     8
 74
     1
 91
        4
 64
     7
 65
   257
 75
     1
175
     1
 42
1.0
 92
        8
 66
     8
 43
1.0
 76
     1
 77
     6
 78
     2
 67
     7
 79
     5
170
     0
171
     0
290
     0
174
     0
 93
        1
 44
0.0
173
     0
291
     1
 45
0.0
1001
ACAD
1000
AcDbSavedByObjectVersion
1070
     0
  0
VISUALSTYLE
  5
34
102
{ACAD_REACTORS
330
2A
102
}
102
{ACAD_XDICTIONARY
360
196
102
}
330
2A
100
AcDbVisualStyle
  2
Conceptual
 70
     9
 71
     3
 72
     2
 73
     0
 90
        0
 40
-0.6
 41
-30.0
 62
     5
 63
     7
 74
     2
 91
        2
 64
     7
 65
   257
 75
     1
175
     1
 42
40.0
 92
        8
 66
     7
 43
1.0
 76
     1
 77
     6
 78
     2
 67
     7
 79
     3
170
     0
171
     0
290
     0
174
     0
 93
        1
 44
0.0
173
     0
291
     0
 45
0.0
1001
ACAD
1000
AcDbSavedByObjectVersion
1070
     0
  0
VISUALSTYLE
  5
35
102
{ACAD_REACTORS
330
2A
102
}
102
{ACAD_XDICTIONARY
360
198
102
}
330
2A
100
AcDbVisualStyle
  2
Dim
 70
    11
 71
     2
 72
     2
 73
     0
 90
        0
 40
-0.6
 41
-30.0
 62
     5
 63
     7
 74
     1
 91
        4
 64
     7
 65
   257
 75
     1
175
     1
 42
1.0
 92
        8
 66
     7
 43
1.0
 76
     1
 77
     6
 78
     2
 67
     7
 79
     5
170
     0
171
     0
290
     0
174
     0
 93
        1
 44
-50.0
173
     0
291
     1
 45
0.0
1001
ACAD
1000
AcDbSavedByObjectVersion
1070
     0
  0
VISUALSTYLE
  5
39
102
{ACAD_REACTORS
330
2A
102
}
102
{ACAD_XDICTIONARY
360
1A0
102
}
330
2A
100
AcDbVisualStyle
  2
Facepattern
 70
    15
 71
     2
 72
     2
 73
     0
 90
        0
 40
-0.6
 41
-30.0
 62
     5
 63
     7
 74
     1
 91
        4
 64
     7
 65
   257
 75
     1
175
     1
 42
1.0
 92
        8
 66
     7
 43
1.0
 76
     1
 77
     6
 78
     2
 67
     7
 79
     5
170
     0
171
     0
290
     0
174
     0
 93
        1
 44
0.0
173
     0
291
     1
 45
0.0
1001
ACAD
1000
AcDbSavedByObjectVersion
1070
     0
  0
VISUALSTYLE
  5
2B
102
{ACAD_REACTORS
330
2A
102
}
102
{ACAD_XDICTIONARY
360
184
102
}
330
2A
100
AcDbVisualStyle
  2
Flat
 70
     0
 71
     2
 72
     1
 73
     1
 90
        2
 40
-0.6
 41
30.0
 62
     5
 63
     7
 74
     0
 91
        4
 64
     7
 65
   257
 75
     1
175
     1
 42
1.0
 92
        8
 66
     7
 43
1.0
 76
     1
 77
     6
 78
     2
 67
     7
 79
     5
170
     0
171
     0
290
     0
174
     0
 93
       13
 44
0.0
173
     0
291
     1
 45
0.0
1001
ACAD
1000
AcDbSavedByObjectVersion
1070
     0
  0
VISUALSTYLE
  5
2C
102
{ACAD_REACTORS
330
2A
102
}
102
{ACAD_XDICTIONARY
360
186
102
}
330
2A
100
AcDbVisualStyle
  2
FlatWithEdges
 70
     1
 71
     2
 72
     1
 73
     1
 90
        2
 40
-0.6
 41
30.0
 62
     5
 63
     7
 74
     1
 91
        4
 64
     7
 65
   257
 75
     1
175
     1
 42
1.0
 92
        0
 66
   257
 43
1.0
 76
     1
 77
     6
 78
     2
 67
     7
 79
     5
170
     0
171
     0
290
     0
174
     0
 93
       13
 44
0.0
173
     0
291
     1
 45
0.0
1001
ACAD
1000
AcDbSavedByObjectVersion
1070
     0
  0
VISUALSTYLE
  5
2D
102
{ACAD_REACTORS
330
2A
102
}
102
{ACAD_XDICTIONARY
360
188
102
}
330
2A
100
AcDbVisualStyle
  2
Gouraud
 70
     2
 71
     2
 72
     2
 73
     1
 90
        2
 40
-0.6
 41
30.0
 62
     5
 63
     7
 74
     0
 91
        4
 64
     7
 65
   257
 75
     1
175
     1
 42
1.0
 92
        0
 66
     7
 43
1.0
 76
     1
 77
     6
 78
     2
 67
     7
 79
     5
170
     0
171
     0
290
     0
174
     0
 93
       13
 44
0.0
173
     0
291
     1
 45
0.0
1001
ACAD
1000
AcDbSavedByObjectVersion
1070
     0
  0
VISUALSTYLE
  5
2E
102
{ACAD_REACTORS
330
2A
102
}
102
{ACAD_XDICTIONARY
360
18A
102
}
330
2A
100
AcDbVisualStyle
  2
GouraudWithEdges
 70
     3
 71
     2
 72
     2
 73
     1
 90
        2
 40
-0.6
 41
30.0
 62
     5
 63
     7
 74
     1
 91
        4
 64
     7
 65
   257
 75
     1
175
     1
 42
1.0
 92
        0
 66
   257
 43
1.0
 76
     1
 77
     6
 78
     2
 67
     7
 79
     5
170
     0
171
     0
290
     0
174
     0
 93
       13
 44
0.0
173
     0
291
     1
 45
0.0
1001
ACAD
1000
AcDbSavedByObjectVersion
1070
     0
  0
VISUALSTYLE
  5
38
102
{ACAD_REACTORS
330
2A
102
}
102
{ACAD_XDICTIONARY
360
19E
102
}
330
2A
100
AcDbVisualStyle
  2
Linepattern
 70
    14
 71
     2
 72
     2
 73
     0
 90
        0
 40
-0.6
 41
-30.0
 62
     5
 63
     7
 74
     1
 91
        4
 64
     7
 65
   257
 75
     7
175
     7
 42
1.0
 92
        8
 66
     7
 43
1.0
 76
     1
 77
     6
 78
     2
 67
     7
 79
     5
170
     0
171
     0
290
     0
174
     0
 93
        1
 44
0.0
173
     0
291
     1
 45
0.0
1001
ACAD
1000
AcDbSavedByObjectVersion
1070
     0
  0
VISUALSTYLE
  5
33
102
{ACAD_REACTORS
330
2A
102
}
102
{ACAD_XDICTIONARY
360
194
102
}
330
2A
100
AcDbVisualStyle
  2
Realistic
 70
     8
 71
     2
 72
     2
 73
     0
 90
        0
 40
-0.6
 41
-30.0
 62
     5
 63
     7
 74
     1
 91
        0
 64
     7
 65
   257
 75
     1
175
     1
 42
1.0
 92
        8
 66
     8
 43
1.0
 76
     1
 77
     6
 78
     2
 67
     7
 79
     5
170
     0
171
     0
290
     0
174
     0
 93
       13
 44
0.0
173
     0
291
     0
 45
0.0
1001
ACAD
1000
AcDbSavedByObjectVersion
1070
     0
  0
VISUALSTYLE
  5
37
102
{ACAD_REACTORS
330
2A
102
}
102
{ACAD_XDICTIONARY
360
19C
102
}
330
2A
100
AcDbVisualStyle
  2
Thicken
 70
    13
 71
     2
 72
     2
 73
     0
 90
        0
 40
-0.6
 41
-30.0
 62
     5
 63
     7
 74
     1
 91
        4
 64
     7
 65
   257
 75
     1
175
     1
 42
1.0
 92
       12
 66
     7
 43
1.0
 76
     1
 77
     6
 78
     2
 67
     7
 79
     5
170
     0
171
     0
290
     0
174
     0
 93
        1
 44
0.0
173
     0
291
     1
 45
0.0
1001
ACAD
1000
AcDbSavedByObjectVersion
1070
     0
  0
DICTIONARYVAR
  5
17C
102
{ACAD_REACTORS
330
177
102
}
330
177
100
DictionaryVariables
280
     0
  1
2
  0
DICTIONARYVAR
  5
17D
102
{ACAD_REACTORS
330
177
102
}
330
177
100
DictionaryVariables
280
     0
  1
1
  0
DICTIONARYVAR
  5
17B
102
{ACAD_REACTORS
330
177
102
}
330
177
100
DictionaryVariables
280
     0
  1
80.000000
  0
DICTIONARYVAR
  5
17A
102
{ACAD_REACTORS
330
177
102
}
330
177
100
DictionaryVariables
280
     0
  1
5.000000
  0
DICTIONARY
  5
1A6
330
3D
100
AcDbDictionary
280
     1
281
     1
  3
ACAD_XREC_ROUNDTRIP
360
1A7
  0
DICTIONARY
  5
1A4
330
3C
100
AcDbDictionary
280
     1
281
     1
  3
ACAD_XREC_ROUNDTRIP
360
1A5
  0
DICTIONARY
  5
1A8
330
3E
100
AcDbDictionary
280
     1
281
     1
  3
ACAD_XREC_ROUNDTRIP
360
1A9
  0
DICTIONARY
  5
18C
330
2F
100
AcDbDictionary
280
     1
281
     1
  3
ACAD_XREC_ROUNDTRIP
360
18D
  0
DICTIONARY
  5
190
330
31
100
AcDbDictionary
280
     1
281
     1
  3
ACAD_XREC_ROUNDTRIP
360
191
  0
DICTIONARY
  5
18E
330
30
100
AcDbDictionary
280
     1
281
     1
  3
ACAD_XREC_ROUNDTRIP
360
18F
  0
DICTIONARY
  5
192
330
32
100
AcDbDictionary
280
     1
281
     1
  3
ACAD_XREC_ROUNDTRIP
360
193
  0
DICTIONARY
  5
19A
330
36
100
AcDbDictionary
280
     1
281
     1
  3
ACAD_XREC_ROUNDTRIP
360
19B
  0
DICTIONARY
  5
1A2
330
3A
100
AcDbDictionary
280
     1
281
     1
  3
ACAD_XREC_ROUNDTRIP
360
1A3
  0
DICTIONARY
  5
196
330
34
100
AcDbDictionary
280
     1
281
     1
  3
ACAD_XREC_ROUNDTRIP
360
197
  0
DICTIONARY
  5
198
330
35
100
AcDbDictionary
280
     1
281
     1
  3
ACAD_XREC_ROUNDTRIP
360
199
  0
DICTIONARY
  5
1A0
330
39
100
AcDbDictionary
280
     1
281
     1
  3
ACAD_XREC_ROUNDTRIP
360
1A1
  0
DICTIONARY
  5
184
330
2B
100
AcDbDictionary
280
     1
281
     1
  3
ACAD_XREC_ROUNDTRIP
360
185
  0
DICTIONARY
  5
186
330
2C
100
AcDbDictionary
280
     1
281
     1
  3
ACAD_XREC_ROUNDTRIP
360
187
  0
DICTIONARY
  5
188
330
2D
100
AcDbDictionary
280
     1
281
     1
  3
ACAD_XREC_ROUNDTRIP
360
189
  0
DICTIONARY
  5
18A
330
2E
100
AcDbDictionary
280
     1
281
     1
  3
ACAD_XREC_ROUNDTRIP
360
18B
  0
DICTIONARY
  5
19E
330
38
100
AcDbDictionary
280
     1
281
     1
  3
ACAD_XREC_ROUNDTRIP
360
19F
  0
DICTIONARY
  5
194
330
33
100
AcDbDictionary
280
     1
281
     1
  3
ACAD_XREC_ROUNDTRIP
360
195
  0
DICTIONARY
  5
19C
330
37
100
AcDbDictionary
280
     1
281
     1
  3
ACAD_XREC_ROUNDTRIP
360
19D
  0
XRECORD
  5
1A7
102
{ACAD_REACTORS
330
1A6
102
}
330
1A6
100
AcDbXrecord
280
     1
102
MATERIAL
148
0.0
149
0.0
149
0.0
 93
        0
 94
      127
282
     0
 72
     1
 77
     1
171
     1
175
     1
179
     1
273
     0
  0
XRECORD
  5
1A5
102
{ACAD_REACTORS
330
1A4
102
}
330
1A4
100
AcDbXrecord
280
     1
102
MATERIAL
148
0.0
149
0.0
149
0.0
 93
        0
 94
      127
282
     0
 72
     1
 77
     1
171
     1
175
     1
179
     1
273
     0
  0
XRECORD
  5
1A9
102
{ACAD_REACTORS
330
1A8
102
}
330
1A8
100
AcDbXrecord
280
     1
102
MATERIAL
148
0.0
149
0.0
149
0.0
 93
        0
 94
      127
282
     0
 72
     1
 77
     1
171
     1
175
     1
179
     1
273
     0
  0
XRECORD
  5
18D
102
{ACAD_REACTORS
330
18C
102
}
330
18C
100
AcDbXrecord
280
     1
102
RTVSPropertyOp0
 70
     1
102
RTVSPropertyOp1
 70
     1
102
RTVSPropertyOp2
 70
     1
102
RTVSPropertyOp3
 70
     1
102
RTVSPropertyOp4
 70
     1
102
RTVSPropertyOp5
 70
     1
102
RTVSPropertyOp6
 70
     1
102
RTVSPropertyOp7
 70
     1
102
RTVSPropertyOp8
 70
     1
102
RTVSPropertyOp9
 70
     1
102
RTVSPropertyOp10
 70
     1
102
RTVSPropertyOp11
 70
     1
102
RTVSPropertyOp12
 70
     1
102
RTVSPropertyOp13
 70
     1
102
RTVSPropertyOp14
 70
     1
102
RTVSPropertyOp15
 70
     1
102
RTVSPropertyOp16
 70
     1
102
RTVSPropertyOp17
 70
     1
102
RTVSPropertyOp18
 70
     1
102
RTVSPropertyOp19
 70
     1
102
RTVSPropertyOp20
 70
     1
102
RTVSPropertyOp21
 70
     1
102
RTVSPropertyOp22
 70
     1
102
RTVSPropertyOp23
 70
     1
102
RTVSPropertyOp24
 70
     1
102
RTVSPropertyOp25
 70
     1
102
RTVSPropertyOp26
 70
     1
102
RTVSPropertyOp27
 70
     1
102
RTVSPropertyOp28
 70
     1
102
RTVSPropertyOp29
 70
     1
102
RTVSPropertyOp30
 70
     1
102
RTVSPropertyOp31
 70
     1
102
RTVSPropertyOp32
 70
     1
  0
XRECORD
  5
191
102
{ACAD_REACTORS
330
190
102
}
330
190
100
AcDbXrecord
280
     1
102
RTVSPropertyOp0
 70
     1
102
RTVSPropertyOp1
 70
     1
102
RTVSPropertyOp2
 70
     1
102
RTVSPropertyOp3
 70
     1
102
RTVSPropertyOp4
 70
     1
102
RTVSPropertyOp5
 70
     1
102
RTVSPropertyOp6
 70
     1
102
RTVSPropertyOp7
 70
     1
102
RTVSPropertyOp8
 70
     1
102
RTVSPropertyOp9
 70
     1
102
RTVSPropertyOp10
 70
     1
102
RTVSPropertyOp11
 70
     1
102
RTVSPropertyOp12
 70
     1
102
RTVSPropertyOp13
 70
     1
102
RTVSPropertyOp14
 70
     1
102
RTVSPropertyOp15
 70
     1
102
RTVSPropertyOp16
 70
     1
102
RTVSPropertyOp17
 70
     1
102
RTVSPropertyOp18
 70
     1
102
RTVSPropertyOp19
 70
     1
102
RTVSPropertyOp20
 70
     1
102
RTVSPropertyOp21
 70
     1
102
RTVSPropertyOp22
 70
     1
102
RTVSPropertyOp23
 70
     1
102
RTVSPropertyOp24
 70
     1
102
RTVSPropertyOp25
 70
     1
102
RTVSPropertyOp26
 70
     1
102
RTVSPropertyOp27
 70
     1
102
RTVSPropertyOp28
 70
     1
102
RTVSPropertyOp29
 70
     1
102
RTVSPropertyOp30
 70
     1
102
RTVSPropertyOp31
 70
     1
102
RTVSPropertyOp32
 70
     1
  0
XRECORD
  5
18F
102
{ACAD_REACTORS
330
18E
102
}
330
18E
100
AcDbXrecord
280
     1
102
RTVSPropertyOp0
 70
     1
102
RTVSPropertyOp1
 70
     1
102
RTVSPropertyOp2
 70
     1
102
RTVSPropertyOp3
 70
     1
102
RTVSPropertyOp4
 70
     1
102
RTVSPropertyOp5
 70
     1
102
RTVSPropertyOp6
 70
     1
102
RTVSPropertyOp7
 70
     1
102
RTVSPropertyOp8
 70
     1
102
RTVSPropertyOp9
 70
     1
102
RTVSPropertyOp10
 70
     1
102
RTVSPropertyOp11
 70
     1
102
RTVSPropertyOp12
 70
     1
102
RTVSPropertyOp13
 70
     1
102
RTVSPropertyOp14
 70
     1
102
RTVSPropertyOp15
 70
     1
102
RTVSPropertyOp16
 70
     1
102
RTVSPropertyOp17
 70
     1
102
RTVSPropertyOp18
 70
     1
102
RTVSPropertyOp19
 70
     1
102
RTVSPropertyOp20
 70
     1
102
RTVSPropertyOp21
 70
     1
102
RTVSPropertyOp22
 70
     1
102
RTVSPropertyOp23
 70
     1
102
RTVSPropertyOp24
 70
     1
102
RTVSPropertyOp25
 70
     1
102
RTVSPropertyOp26
 70
     1
102
RTVSPropertyOp27
 70
     1
102
RTVSPropertyOp28
 70
     1
102
RTVSPropertyOp29
 70
     1
102
RTVSPropertyOp30
 70
     1
102
RTVSPropertyOp31
 70
     1
102
RTVSPropertyOp32
 70
     1
  0
XRECORD
  5
193
102
{ACAD_REACTORS
330
192
102
}
330
192
100
AcDbXrecord
280
     1
102
RTVSPropertyOp0
 70
     1
102
RTVSPropertyOp1
 70
     1
102
RTVSPropertyOp2
 70
     1
102
RTVSPropertyOp3
 70
     1
102
RTVSPropertyOp4
 70
     1
102
RTVSPropertyOp5
 70
     1
102
RTVSPropertyOp6
 70
     1
102
RTVSPropertyOp7
 70
     1
102
RTVSPropertyOp8
 70
     1
102
RTVSPropertyOp9
 70
     1
102
RTVSPropertyOp10
 70
     1
102
RTVSPropertyOp11
 70
     1
102
RTVSPropertyOp12
 70
     1
102
RTVSPropertyOp13
 70
     1
102
RTVSPropertyOp14
 70
     1
102
RTVSPropertyOp15
 70
     1
102
RTVSPropertyOp16
 70
     1
102
RTVSPropertyOp17
 70
     1
102
RTVSPropertyOp18
 70
     1
102
RTVSPropertyOp19
 70
     1
102
RTVSPropertyOp20
 70
     1
102
RTVSPropertyOp21
 70
     1
102
RTVSPropertyOp22
 70
     1
102
RTVSPropertyOp23
 70
     1
102
RTVSPropertyOp24
 70
     1
102
RTVSPropertyOp25
 70
     1
102
RTVSPropertyOp26
 70
     1
102
RTVSPropertyOp27
 70
     1
102
RTVSPropertyOp28
 70
     1
102
RTVSPropertyOp29
 70
     1
102
RTVSPropertyOp30
 70
     1
102
RTVSPropertyOp31
 70
     1
102
RTVSPropertyOp32
 70
     1
  0
XRECORD
  5
19B
102
{ACAD_REACTORS
330
19A
102
}
330
19A
100
AcDbXrecord
280
     1
102
RTVSPropertyOp0
 70
     1
102
RTVSPropertyOp1
 70
     1
102
RTVSPropertyOp2
 70
     1
102
RTVSPropertyOp3
 70
     1
102
RTVSPropertyOp4
 70
     1
102
RTVSPropertyOp5
 70
     1
102
RTVSPropertyOp6
 70
     1
102
RTVSPropertyOp7
 70
     1
102
RTVSPropertyOp8
 70
     1
102
RTVSPropertyOp9
 70
     1
102
RTVSPropertyOp10
 70
     1
102
RTVSPropertyOp11
 70
     1
102
RTVSPropertyOp12
 70
     1
102
RTVSPropertyOp13
 70
     1
102
RTVSPropertyOp14
 70
     1
102
RTVSPropertyOp15
 70
     1
102
RTVSPropertyOp16
 70
     1
102
RTVSPropertyOp17
 70
     1
102
RTVSPropertyOp18
 70
     1
102
RTVSPropertyOp19
 70
     1
102
RTVSPropertyOp20
 70
     1
102
RTVSPropertyOp21
 70
     1
102
RTVSPropertyOp22
 70
     1
102
RTVSPropertyOp23
 70
     1
102
RTVSPropertyOp24
 70
     1
102
RTVSPropertyOp25
 70
     1
102
RTVSPropertyOp26
 70
     1
102
RTVSPropertyOp27
 70
     1
102
RTVSPropertyOp28
 70
     1
102
RTVSPropertyOp29
 70
     1
102
RTVSPropertyOp30
 70
     1
102
RTVSPropertyOp31
 70
     1
102
RTVSPropertyOp32
 70
     1
  0
XRECORD
  5
1A3
102
{ACAD_REACTORS
330
1A2
102
}
330
1A2
100
AcDbXrecord
280
     1
102
RTVSPropertyOp0
 70
     1
102
RTVSPropertyOp1
 70
     1
102
RTVSPropertyOp2
 70
     1
102
RTVSPropertyOp3
 70
     1
102
RTVSPropertyOp4
 70
     1
102
RTVSPropertyOp5
 70
     1
102
RTVSPropertyOp6
 70
     1
102
RTVSPropertyOp7
 70
     1
102
RTVSPropertyOp8
 70
     1
102
RTVSPropertyOp9
 70
     1
102
RTVSPropertyOp10
 70
     1
102
RTVSPropertyOp11
 70
     1
102
RTVSPropertyOp12
 70
     1
102
RTVSPropertyOp13
 70
     1
102
RTVSPropertyOp14
 70
     1
102
RTVSPropertyOp15
 70
     1
102
RTVSPropertyOp16
 70
     1
102
RTVSPropertyOp17
 70
     1
102
RTVSPropertyOp18
 70
     1
102
RTVSPropertyOp19
 70
     1
102
RTVSPropertyOp20
 70
     1
102
RTVSPropertyOp21
 70
     1
102
RTVSPropertyOp22
 70
     1
102
RTVSPropertyOp23
 70
     1
102
RTVSPropertyOp24
 70
     1
102
RTVSPropertyOp25
 70
     1
102
RTVSPropertyOp26
 70
     1
102
RTVSPropertyOp27
 70
     1
102
RTVSPropertyOp28
 70
     1
102
RTVSPropertyOp29
 70
     1
102
RTVSPropertyOp30
 70
     1
102
RTVSPropertyOp31
 70
     1
102
RTVSPropertyOp32
 70
     1
  0
XRECORD
  5
197
102
{ACAD_REACTORS
330
196
102
}
330
196
100
AcDbXrecord
280
     1
102
RTVSPropertyOp0
 70
     1
102
RTVSPropertyOp1
 70
     1
102
RTVSPropertyOp2
 70
     1
102
RTVSPropertyOp3
 70
     1
102
RTVSPropertyOp4
 70
     1
102
RTVSPropertyOp5
 70
     1
102
RTVSPropertyOp6
 70
     1
102
RTVSPropertyOp7
 70
     1
102
RTVSPropertyOp8
 70
     1
102
RTVSPropertyOp9
 70
     1
102
RTVSPropertyOp10
 70
     1
102
RTVSPropertyOp11
 70
     1
102
RTVSPropertyOp12
 70
     1
102
RTVSPropertyOp13
 70
     1
102
RTVSPropertyOp14
 70
     1
102
RTVSPropertyOp15
 70
     1
102
RTVSPropertyOp16
 70
     1
102
RTVSPropertyOp17
 70
     1
102
RTVSPropertyOp18
 70
     1
102
RTVSPropertyOp19
 70
     1
102
RTVSPropertyOp20
 70
     1
102
RTVSPropertyOp21
 70
     1
102
RTVSPropertyOp22
 70
     1
102
RTVSPropertyOp23
 70
     1
102
RTVSPropertyOp24
 70
     1
102
RTVSPropertyOp25
 70
     1
102
RTVSPropertyOp26
 70
     1
102
RTVSPropertyOp27
 70
     1
102
RTVSPropertyOp28
 70
     1
102
RTVSPropertyOp29
 70
     1
102
RTVSPropertyOp30
 70
     1
102
RTVSPropertyOp31
 70
     1
102
RTVSPropertyOp32
 70
     1
  0
XRECORD
  5
199
102
{ACAD_REACTORS
330
198
102
}
330
198
100
AcDbXrecord
280
     1
102
RTVSPropertyOp0
 70
     1
102
RTVSPropertyOp1
 70
     1
102
RTVSPropertyOp2
 70
     1
102
RTVSPropertyOp3
 70
     1
102
RTVSPropertyOp4
 70
     1
102
RTVSPropertyOp5
 70
     1
102
RTVSPropertyOp6
 70
     1
102
RTVSPropertyOp7
 70
     1
102
RTVSPropertyOp8
 70
     1
102
RTVSPropertyOp9
 70
     1
102
RTVSPropertyOp10
 70
     1
102
RTVSPropertyOp11
 70
     1
102
RTVSPropertyOp12
 70
     1
102
RTVSPropertyOp13
 70
     1
102
RTVSPropertyOp14
 70
     1
102
RTVSPropertyOp15
 70
     1
102
RTVSPropertyOp16
 70
     1
102
RTVSPropertyOp17
 70
     1
102
RTVSPropertyOp18
 70
     1
102
RTVSPropertyOp19
 70
     1
102
RTVSPropertyOp20
 70
     1
102
RTVSPropertyOp21
 70
     1
102
RTVSPropertyOp22
 70
     1
102
RTVSPropertyOp23
 70
     1
102
RTVSPropertyOp24
 70
     1
102
RTVSPropertyOp25
 70
     1
102
RTVSPropertyOp26
 70
     1
102
RTVSPropertyOp27
 70
     1
102
RTVSPropertyOp28
 70
     1
102
RTVSPropertyOp29
 70
     1
102
RTVSPropertyOp30
 70
     1
102
RTVSPropertyOp31
 70
     1
102
RTVSPropertyOp32
 70
     1
  0
XRECORD
  5
1A1
102
{ACAD_REACTORS
330
1A0
102
}
330
1A0
100
AcDbXrecord
280
     1
102
RTVSPropertyOp0
 70
     1
102
RTVSPropertyOp1
 70
     1
102
RTVSPropertyOp2
 70
     1
102
RTVSPropertyOp3
 70
     1
102
RTVSPropertyOp4
 70
     1
102
RTVSPropertyOp5
 70
     1
102
RTVSPropertyOp6
 70
     1
102
RTVSPropertyOp7
 70
     1
102
RTVSPropertyOp8
 70
     1
102
RTVSPropertyOp9
 70
     1
102
RTVSPropertyOp10
 70
     1
102
RTVSPropertyOp11
 70
     1
102
RTVSPropertyOp12
 70
     1
102
RTVSPropertyOp13
 70
     1
102
RTVSPropertyOp14
 70
     1
102
RTVSPropertyOp15
 70
     1
102
RTVSPropertyOp16
 70
     1
102
RTVSPropertyOp17
 70
     1
102
RTVSPropertyOp18
 70
     1
102
RTVSPropertyOp19
 70
     1
102
RTVSPropertyOp20
 70
     1
102
RTVSPropertyOp21
 70
     1
102
RTVSPropertyOp22
 70
     1
102
RTVSPropertyOp23
 70
     1
102
RTVSPropertyOp24
 70
     1
102
RTVSPropertyOp25
 70
     1
102
RTVSPropertyOp26
 70
     1
102
RTVSPropertyOp27
 70
     1
102
RTVSPropertyOp28
 70
     1
102
RTVSPropertyOp29
 70
     1
102
RTVSPropertyOp30
 70
     1
102
RTVSPropertyOp31
 70
     1
102
RTVSPropertyOp32
 70
     1
  0
XRECORD
  5
185
102
{ACAD_REACTORS
330
184
102
}
330
184
100
AcDbXrecord
280
     1
102
RTVSPropertyOp0
 70
     1
102
RTVSPropertyOp1
 70
     1
102
RTVSPropertyOp2
 70
     1
102
RTVSPropertyOp3
 70
     1
102
RTVSPropertyOp4
 70
     1
102
RTVSPropertyOp5
 70
     1
102
RTVSPropertyOp6
 70
     1
102
RTVSPropertyOp7
 70
     1
102
RTVSPropertyOp8
 70
     1
102
RTVSPropertyOp9
 70
     1
102
RTVSPropertyOp10
 70
     1
102
RTVSPropertyOp11
 70
     1
102
RTVSPropertyOp12
 70
     1
102
RTVSPropertyOp13
 70
     1
102
RTVSPropertyOp14
 70
     1
102
RTVSPropertyOp15
 70
     1
102
RTVSPropertyOp16
 70
     1
102
RTVSPropertyOp17
 70
     1
102
RTVSPropertyOp18
 70
     1
102
RTVSPropertyOp19
 70
     1
102
RTVSPropertyOp20
 70
     1
102
RTVSPropertyOp21
 70
     1
102
RTVSPropertyOp22
 70
     1
102
RTVSPropertyOp23
 70
     1
102
RTVSPropertyOp24
 70
     1
102
RTVSPropertyOp25
 70
     1
102
RTVSPropertyOp26
 70
     1
102
RTVSPropertyOp27
 70
     1
102
RTVSPropertyOp28
 70
     1
102
RTVSPropertyOp29
 70
     1
102
RTVSPropertyOp30
 70
     1
102
RTVSPropertyOp31
 70
     1
102
RTVSPropertyOp32
 70
     1
  0
XRECORD
  5
187
102
{ACAD_REACTORS
330
186
102
}
330
186
100
AcDbXrecord
280
     1
102
RTVSPropertyOp0
 70
     1
102
RTVSPropertyOp1
 70
     1
102
RTVSPropertyOp2
 70
     1
102
RTVSPropertyOp3
 70
     1
102
RTVSPropertyOp4
 70
     1
102
RTVSPropertyOp5
 70
     1
102
RTVSPropertyOp6
 70
     1
102
RTVSPropertyOp7
 70
     1
102
RTVSPropertyOp8
 70
     1
102
RTVSPropertyOp9
 70
     1
102
RTVSPropertyOp10
 70
     1
102
RTVSPropertyOp11
 70
     1
102
RTVSPropertyOp12
 70
     1
102
RTVSPropertyOp13
 70
     1
102
RTVSPropertyOp14
 70
     1
102
RTVSPropertyOp15
 70
     1
102
RTVSPropertyOp16
 70
     1
102
RTVSPropertyOp17
 70
     1
102
RTVSPropertyOp18
 70
     1
102
RTVSPropertyOp19
 70
     1
102
RTVSPropertyOp20
 70
     1
102
RTVSPropertyOp21
 70
     1
102
RTVSPropertyOp22
 70
     1
102
RTVSPropertyOp23
 70
     1
102
RTVSPropertyOp24
 70
     1
102
RTVSPropertyOp25
 70
     1
102
RTVSPropertyOp26
 70
     1
102
RTVSPropertyOp27
 70
     1
102
RTVSPropertyOp28
 70
     1
102
RTVSPropertyOp29
 70
     1
102
RTVSPropertyOp30
 70
     1
102
RTVSPropertyOp31
 70
     1
102
RTVSPropertyOp32
 70
     1
  0
XRECORD
  5
189
102
{ACAD_REACTORS
330
188
102
}
330
188
100
AcDbXrecord
280
     1
102
RTVSPropertyOp0
 70
     1
102
RTVSPropertyOp1
 70
     1
102
RTVSPropertyOp2
 70
     1
102
RTVSPropertyOp3
 70
     1
102
RTVSPropertyOp4
 70
     1
102
RTVSPropertyOp5
 70
     1
102
RTVSPropertyOp6
 70
     1
102
RTVSPropertyOp7
 70
     1
102
RTVSPropertyOp8
 70
     1
102
RTVSPropertyOp9
 70
     1
102
RTVSPropertyOp10
 70
     1
102
RTVSPropertyOp11
 70
     1
102
RTVSPropertyOp12
 70
     1
102
RTVSPropertyOp13
 70
     1
102
RTVSPropertyOp14
 70
     1
102
RTVSPropertyOp15
 70
     1
102
RTVSPropertyOp16
 70
     1
102
RTVSPropertyOp17
 70
     1
102
RTVSPropertyOp18
 70
     1
102
RTVSPropertyOp19
 70
     1
102
RTVSPropertyOp20
 70
     1
102
RTVSPropertyOp21
 70
     1
102
RTVSPropertyOp22
 70
     1
102
RTVSPropertyOp23
 70
     1
102
RTVSPropertyOp24
 70
     1
102
RTVSPropertyOp25
 70
     1
102
RTVSPropertyOp26
 70
     1
102
RTVSPropertyOp27
 70
     1
102
RTVSPropertyOp28
 70
     1
102
RTVSPropertyOp29
 70
     1
102
RTVSPropertyOp30
 70
     1
102
RTVSPropertyOp31
 70
     1
102
RTVSPropertyOp32
 70
     1
  0
XRECORD
  5
18B
102
{ACAD_REACTORS
330
18A
102
}
330
18A
100
AcDbXrecord
280
     1
102
RTVSPropertyOp0
 70
     1
102
RTVSPropertyOp1
 70
     1
102
RTVSPropertyOp2
 70
     1
102
RTVSPropertyOp3
 70
     1
102
RTVSPropertyOp4
 70
     1
102
RTVSPropertyOp5
 70
     1
102
RTVSPropertyOp6
 70
     1
102
RTVSPropertyOp7
 70
     1
102
RTVSPropertyOp8
 70
     1
102
RTVSPropertyOp9
 70
     1
102
RTVSPropertyOp10
 70
     1
102
RTVSPropertyOp11
 70
     1
102
RTVSPropertyOp12
 70
     1
102
RTVSPropertyOp13
 70
     1
102
RTVSPropertyOp14
 70
     1
102
RTVSPropertyOp15
 70
     1
102
RTVSPropertyOp16
 70
     1
102
RTVSPropertyOp17
 70
     1
102
RTVSPropertyOp18
 70
     1
102
RTVSPropertyOp19
 70
     1
102
RTVSPropertyOp20
 70
     1
102
RTVSPropertyOp21
 70
     1
102
RTVSPropertyOp22
 70
     1
102
RTVSPropertyOp23
 70
     1
102
RTVSPropertyOp24
 70
     1
102
RTVSPropertyOp25
 70
     1
102
RTVSPropertyOp26
 70
     1
102
RTVSPropertyOp27
 70
     1
102
RTVSPropertyOp28
 70
     1
102
RTVSPropertyOp29
 70
     1
102
RTVSPropertyOp30
 70
     1
102
RTVSPropertyOp31
 70
     1
102
RTVSPropertyOp32
 70
     1
  0
XRECORD
  5
19F
102
{ACAD_REACTORS
330
19E
102
}
330
19E
100
AcDbXrecord
280
     1
102
RTVSPropertyOp0
 70
     1
102
RTVSPropertyOp1
 70
     1
102
RTVSPropertyOp2
 70
     1
102
RTVSPropertyOp3
 70
     1
102
RTVSPropertyOp4
 70
     1
102
RTVSPropertyOp5
 70
     1
102
RTVSPropertyOp6
 70
     1
102
RTVSPropertyOp7
 70
     1
102
RTVSPropertyOp8
 70
     1
102
RTVSPropertyOp9
 70
     1
102
RTVSPropertyOp10
 70
     1
102
RTVSPropertyOp11
 70
     1
102
RTVSPropertyOp12
 70
     1
102
RTVSPropertyOp13
 70
     1
102
RTVSPropertyOp14
 70
     1
102
RTVSPropertyOp15
 70
     1
102
RTVSPropertyOp16
 70
     1
102
RTVSPropertyOp17
 70
     1
102
RTVSPropertyOp18
 70
     1
102
RTVSPropertyOp19
 70
     1
102
RTVSPropertyOp20
 70
     1
102
RTVSPropertyOp21
 70
     1
102
RTVSPropertyOp22
 70
     1
102
RTVSPropertyOp23
 70
     1
102
RTVSPropertyOp24
 70
     1
102
RTVSPropertyOp25
 70
     1
102
RTVSPropertyOp26
 70
     1
102
RTVSPropertyOp27
 70
     1
102
RTVSPropertyOp28
 70
     1
102
RTVSPropertyOp29
 70
     1
102
RTVSPropertyOp30
 70
     1
102
RTVSPropertyOp31
 70
     1
102
RTVSPropertyOp32
 70
     1
  0
XRECORD
  5
195
102
{ACAD_REACTORS
330
194
102
}
330
194
100
AcDbXrecord
280
     1
102
RTVSPropertyOp0
 70
     1
102
RTVSPropertyOp1
 70
     1
102
RTVSPropertyOp2
 70
     1
102
RTVSPropertyOp3
 70
     1
102
RTVSPropertyOp4
 70
     1
102
RTVSPropertyOp5
 70
     1
102
RTVSPropertyOp6
 70
     1
102
RTVSPropertyOp7
 70
     1
102
RTVSPropertyOp8
 70
     1
102
RTVSPropertyOp9
 70
     1
102
RTVSPropertyOp10
 70
     1
102
RTVSPropertyOp11
 70
     1
102
RTVSPropertyOp12
 70
     1
102
RTVSPropertyOp13
 70
     1
102
RTVSPropertyOp14
 70
     1
102
RTVSPropertyOp15
 70
     1
102
RTVSPropertyOp16
 70
     1
102
RTVSPropertyOp17
 70
     1
102
RTVSPropertyOp18
 70
     1
102
RTVSPropertyOp19
 70
     1
102
RTVSPropertyOp20
 70
     1
102
RTVSPropertyOp21
 70
     1
102
RTVSPropertyOp22
 70
     1
102
RTVSPropertyOp23
 70
     1
102
RTVSPropertyOp24
 70
     1
102
RTVSPropertyOp25
 70
     1
102
RTVSPropertyOp26
 70
     1
102
RTVSPropertyOp27
 70
     1
102
RTVSPropertyOp28
 70
     1
102
RTVSPropertyOp29
 70
     1
102
RTVSPropertyOp30
 70
     1
102
RTVSPropertyOp31
 70
     1
102
RTVSPropertyOp32
 70
     1
  0
XRECORD
  5
19D
102
{ACAD_REACTORS
330
19C
102
}
330
19C
100
AcDbXrecord
280
     1
102
RTVSPropertyOp0
 70
     1
102
RTVSPropertyOp1
 70
     1
102
RTVSPropertyOp2
 70
     1
102
RTVSPropertyOp3
 70
     1
102
RTVSPropertyOp4
 70
     1
102
RTVSPropertyOp5
 70
     1
102
RTVSPropertyOp6
 70
     1
102
RTVSPropertyOp7
 70
     1
102
RTVSPropertyOp8
 70
     1
102
RTVSPropertyOp9
 70
     1
102
RTVSPropertyOp10
 70
     1
102
RTVSPropertyOp11
 70
     1
102
RTVSPropertyOp12
 70
     1
102
RTVSPropertyOp13
 70
     1
102
RTVSPropertyOp14
 70
     1
102
RTVSPropertyOp15
 70
     1
102
RTVSPropertyOp16
 70
     1
102
RTVSPropertyOp17
 70
     1
102
RTVSPropertyOp18
 70
     1
102
RTVSPropertyOp19
 70
     1
102
RTVSPropertyOp20
 70
     1
102
RTVSPropertyOp21
 70
     1
102
RTVSPropertyOp22
 70
     1
102
RTVSPropertyOp23
 70
     1
102
RTVSPropertyOp24
 70
     1
102
RTVSPropertyOp25
 70
     1
102
RTVSPropertyOp26
 70
     1
102
RTVSPropertyOp27
 70
     1
102
RTVSPropertyOp28
 70
     1
102
RTVSPropertyOp29
 70
     1
102
RTVSPropertyOp30
 70
     1
102
RTVSPropertyOp31
 70
     1
102
RTVSPropertyOp32
 70
     1
  0
ENDSEC
  0
EOF
