  0
SECTION
  2
HEADER
  9
$ACADVER
  1
AC1015
  9
$ACADMAINTVER
 70
     6
  9
$DWGCODEPAGE
  3
ANSI_1252
  9
$INSBASE
 10
0.0
 20
0.0
 30
0.0
  9
$EXTMIN
 10
0.0
 20
0.0
 30
0.0
  9
$EXTMAX
 10
297.0
 20
210.0
 30
0.0
  9
$LIMMIN
 10
0.0
 20
0.0
  9
$LIMMAX
 10
297.0
 20
210.0
  9
$ORTHOMODE
 70
     0
  9
$REGENMODE
 70
     1
  9
$FILLMODE
 70
     1
  9
$QTEXTMODE
 70
     0
  9
$MIRRTEXT
 70
     1
  9
$LTSCALE
 40
1.0
  9
$ATTMODE
 70
     1
  9
$TEXTSIZE
 40
2.5
  9
$TRACEWID
 40
1.0
  9
$TEXTSTYLE
  7
Standard
  9
$CLAYER
  8
0
  9
$CELTYPE
  6
ByLayer
  9
$CECOLOR
 62
   256
  9
$CELTSCALE
 40
1.0
  9
$DISPSILH
 70
     0
  9
$DIMSCALE
 40
1.0
  9
$DIMASZ
 40
2.5
  9
$DIMEXO
 40
0.625
  9
$DIMDLI
 40
3.75
  9
$DIMRND
 40
0.0
  9
$DIMDLE
 40
0.0
  9
$DIMEXE
 40
1.25
  9
$DIMTP
 40
0.0
  9
$DIMTM
 40
0.0
  9
$DIMTXT
 40
2.5
  9
$DIMCEN
 40
2.5
  9
$DIMTSZ
 40
0.0
  9
$DIMTOL
 70
     0
  9
$DIMLIM
 70
     0
  9
$DIMTIH
 70
     0
  9
$DIMTOH
 70
     0
  9
$DIMSE1
 70
     0
  9
$DIMSE2
 70
     0
  9
$DIMTAD
 70
     1
  9
$DIMZIN
 70
     8
  9
$DIMBLK
  1

  9
$DIMASO
 70
     1
  9
$DIMSHO
 70
     1
  9
$DIMPOST
  1

  9
$DIMAPOST
  1

  9
$DIMALT
 70
     0
  9
$DIMALTD
 70
     3
  9
$DIMALTF
 40
0.0393700787
  9
$DIMLFAC
 40
1.0
  9
$DIMTOFL
 70
     1
  9
$DIMTVP
 40
0.0
  9
$DIMTIX
 70
     0
  9
$DIMSOXD
 70
     0
  9
$DIMSAH
 70
     0
  9
$DIMBLK1
  1

  9
$DIMBLK2
  1

  9
$DIMSTYLE
  2
ISO-25
  9
$DIMCLRD
 70
     0
  9
$DIMCLRE
 70
     0
  9
$DIMCLRT
 70
     0
  9
$DIMTFAC
 40
1.0
  9
$DIMGAP
 40
0.625
  9
$DIMJUST
 70
     0
  9
$DIMSD1
 70
     0
  9
$DIMSD2
 70
     0
  9
$DIMTOLJ
 70
     0
  9
$DIMTZIN
 70
     8
  9
$DIMALTZ
 70
     0
  9
$DIMALTTZ
 70
     0
  9
$DIMUPT
 70
     0
  9
$DIMDEC
 70
     2
  9
$DIMTDEC
 70
     2
  9
$DIMALTU
 70
     2
  9
$DIMALTTD
 70
     3
  9
$DIMTXSTY
  7
Standard
  9
$DIMAUNIT
 70
     0
  9
$DIMADEC
 70
     0
  9
$DIMALTRND
 40
0.0
  9
$DIMAZIN
 70
     0
  9
$DIMDSEP
 70
    44
  9
$DIMATFIT
 70
     3
  9
$DIMFRAC
 70
     0
  9
$DIMLDRBLK
  1

  9
$DIMLUNIT
 70
     2
  9
$DIMLWD
 70
    -2
  9
$DIMLWE
 70
    -2
  9
$DIMTMOVE
 70
     0
  9
$LUNITS
 70
     2
  9
$LUPREC
 70
     4
  9
$SKETCHINC
 40
1.0
  9
$FILLETRAD
 40
10.0
  9
$AUNITS
 70
     0
  9
$AUPREC
 70
     0
  9
$MENU
  1
.
  9
$ELEVATION
 40
0.0
  9
$PELEVATION
 40
0.0
  9
$THICKNESS
 40
0.0
  9
$LIMCHECK
 70
     0
  9
$CHAMFERA
 40
10.0
  9
$CHAMFERB
 40
10.0
  9
$CHAMFERC
 40
20.0
  9
$CHAMFERD
 40
0.0
  9
$SKPOLY
 70
     0
  9
$TDCREATE
 40
2457625.607238657
  9
$TDUCREATE
 40
2457625.523905324
  9
$TDUPDATE
 40
2457625.607239746
  9
$TDUUPDATE
 40
2457625.523906412
  9
$TDINDWG
 40
0.0000000116
  9
$TDUSRTIMER
 40
0.0000000116
  9
$USRTIMER
 70
     1
  9
$ANGBASE
 50
0.0
  9
$ANGDIR
 70
     0
  9
$PDMODE
 70
     0
  9
$PDSIZE
 40
0.0
  9
$PLINEWID
 40
0.0
  9
$SPLFRAME
 70
     0
  9
$SPLINETYPE
 70
     6
  9
$SPLINESEGS
 70
     8
  9
$HANDSEED
  5
3FA
  9
$SURFTAB1
 70
     6
  9
$SURFTAB2
 70
     6
  9
$SURFTYPE
 70
     6
  9
$SURFU
 70
     6
  9
$SURFV
 70
     6
  9
$UCSBASE
  2

  9
$UCSNAME
  2

  9
$UCSORG
 10
0.0
 20
0.0
 30
0.0
  9
$UCSXDIR
 10
1.0
 20
0.0
 30
0.0
  9
$UCSYDIR
 10
0.0
 20
1.0
 30
0.0
  9
$UCSORTHOREF
  2

  9
$UCSORTHOVIEW
 70
     0
  9
$UCSORGTOP
 10
0.0
 20
0.0
 30
0.0
  9
$UCSORGBOTTOM
 10
0.0
 20
0.0
 30
0.0
  9
$UCSORGLEFT
 10
0.0
 20
0.0
 30
0.0
  9
$UCSORGRIGHT
 10
0.0
 20
0.0
 30
0.0
  9
$UCSORGFRONT
 10
0.0
 20
0.0
 30
0.0
  9
$UCSORGBACK
 10
0.0
 20
0.0
 30
0.0
  9
$PUCSBASE
  2

  9
$PUCSNAME
  2

  9
$PUCSORG
 10
0.0
 20
0.0
 30
0.0
  9
$PUCSXDIR
 10
1.0
 20
0.0
 30
0.0
  9
$PUCSYDIR
 10
0.0
 20
1.0
 30
0.0
  9
$PUCSORTHOREF
  2

  9
$PUCSORTHOVIEW
 70
     0
  9
$PUCSORGTOP
 10
0.0
 20
0.0
 30
0.0
  9
$PUCSORGBOTTOM
 10
0.0
 20
0.0
 30
0.0
  9
$PUCSORGLEFT
 10
0.0
 20
0.0
 30
0.0
  9
$PUCSORGRIGHT
 10
0.0
 20
0.0
 30
0.0
  9
$PUCSORGFRONT
 10
0.0
 20
0.0
 30
0.0
  9
$PUCSORGBACK
 10
0.0
 20
0.0
 30
0.0
  9
$USERI1
 70
     0
  9
$USERI2
 70
     0
  9
$USERI3
 70
     0
  9
$USERI4
 70
     0
  9
$USERI5
 70
     0
  9
$USERR1
 40
0.0
  9
$USERR2
 40
0.0
  9
$USERR3
 40
0.0
  9
$USERR4
 40
0.0
  9
$USERR5
 40
0.0
  9
$WORLDVIEW
 70
     1
  9
$SHADEDGE
 70
     3
  9
$SHADEDIF
 70
    70
  9
$TILEMODE
 70
     1
  9
$MAXACTVP
 70
    64
  9
$PINSBASE
 10
0.0
 20
0.0
 30
0.0
  9
$PLIMCHECK
 70
     0
  9
$PEXTMIN
 10
0.0
 20
0.0
 30
0.0
  9
$PEXTMAX
 10
297.0
 20
210.0
 30
0.0
  9
$PLIMMIN
 10
0.0
 20
0.0
  9
$PLIMMAX
 10
297.0
 20
210.0
  9
$UNITMODE
 70
     0
  9
$VISRETAIN
 70
     1
  9
$PLINEGEN
 70
     0
  9
$PSLTSCALE
 70
     1
  9
$TREEDEPTH
 70
  3020
  9
$CMLSTYLE
  2
Standard
  9
$CMLJUST
 70
     0
  9
$CMLSCALE
 40
20.0
  9
$PROXYGRAPHICS
 70
     1
  9
$MEASUREMENT
 70
     1
  9
$CELWEIGHT
370
    -1
  9
$ENDCAPS
280
     0
  9
$JOINSTYLE
280
     0
  9
$LWDISPLAY
290
     0
  9
$INSUNITS
 70
     4
  9
$HYPERLINKBASE
  1

  9
$STYLESHEET
  1

  9
$XEDIT
290
     1
  9
$CEPSNTYPE
380
     0
  9
$PSTYLEMODE
290
     1
  9
$FINGERPRINTGUID
  2
{E0E25285-3E34-4DDE-BEC4-9D5CE560309A}
  9
$VERSIONGUID
  2
{FAEB1C32-E019-11D5-929B-00C0DF256EC4}
  9
$EXTNAMES
290
     1
  9
$PSVPSCALE
 40
0.0
  9
$OLESTARTUP
290
     0
  0
ENDSEC
  0
SECTION
  2
CLASSES
  0
CLASS
  1
ACDBDICTIONARYWDFLT
  2
AcDbDictionaryWithDefault
  3
ObjectDBX Classes
 90
        0
280
     0
281
     0
  0
CLASS
  1
VISUALSTYLE
  2
AcDbVisualStyle
  3
ObjectDBX Classes
 90
     4095
280
     0
281
     0
  0
CLASS
  1
MATERIAL
  2
AcDbMaterial
  3
ObjectDBX Classes
 90
     1153
280
     0
281
     0
  0
CLASS
  1
DICTIONARYVAR
  2
AcDbDictionaryVar
  3
ObjectDBX Classes
 90
        0
280
     0
281
     0
  0
CLASS
  1
ACDBPLACEHOLDER
  2
AcDbPlaceHolder
  3
ObjectDBX Classes
 90
        0
280
     0
281
     0
  0
CLASS
  1
LAYOUT
  2
AcDbLayout
  3
ObjectDBX Classes
 90
        0
280
     0
281
     0
  0
ENDSEC
  0
SECTION
  2
TABLES
  0
TABLE
  2
VPORT
  5
8
330
0
100
AcDbSymbolTable
 70
     1
  0
VPORT
  5
29
330
8
100
AcDbSymbolTableRecord
100
AcDbViewportTableRecord
  2
*Active
 70
     0
 10
0.0
 20
0.0
 11
1.0
 21
1.0
 12
344.1869158879
 22
148.5
 13
0.0
 23
0.0
 14
10.0
 24
10.0
 15
10.0
 25
10.0
 16
0.0
 26
0.0
 36
1.0
 17
0.0
 27
0.0
 37
0.0
 40
297.0
 41
1.9729729729
 42
50.0
 43
0.0
 44
0.0
 50
0.0
 51
0.0
 71
     0
 72
   100
 73
     1
 74
     3
 75
     0
 76
     0
 77
     0
 78
     0
281
     0
 65
     1
110
0.0
120
0.0
130
0.0
111
1.0
121
0.0
131
0.0
112
0.0
122
1.0
132
0.0
 79
     0
146
0.0
  0
ENDTAB
  0
TABLE
  2
LTYPE
  5
5
330
0
100
AcDbSymbolTable
 70
     1
  0
LTYPE
  5
14
330
5
100
AcDbSymbolTableRecord
100
AcDbLinetypeTableRecord
  2
ByBlock
 70
     0
  3

 72
    65
 73
     0
 40
0.0
  0
LTYPE
  5
15
330
5
100
AcDbSymbolTableRecord
100
AcDbLinetypeTableRecord
  2
ByLayer
 70
     0
  3

 72
    65
 73
     0
 40
0.0
  0
LTYPE
  5
16
330
5
100
AcDbSymbolTableRecord
100
AcDbLinetypeTableRecord
  2
Continuous
 70
     0
  3
Solid line
 72
    65
 73
     0
 40
0.0
  0
ENDTAB
  0
TABLE
  2
LAYER
  5
2
330
0
100
AcDbSymbolTable
 70
     7
  0
LAYER
  5
10
330
2
100
AcDbSymbolTableRecord
100
AcDbLayerTableRecord
  2
0
 70
     0
 62
     7
  6
Continuous
370
    -3
390
F
  0
LAYER
  5
3F
330
2
100
AcDbSymbolTableRecord
100
AcDbLayerTableRecord
  2
Default
 70
     0
 62
     7
  6
Continuous
370
    -3
390
F
  0
LAYER
  5
42
330
2
100
AcDbSymbolTableRecord
100
AcDbLayerTableRecord
  2
0003758
 70
     0
 62
     7
  6
Continuous
370
    -3
390
F
  0
LAYER
  5
6A
330
2
100
AcDbSymbolTableRecord
100
AcDbLayerTableRecord
  2
0007713
 70
     0
 62
     7
  6
Continuous
370
    -3
390
F
  0
LAYER
  5
2E6
330
2
100
AcDbSymbolTableRecord
100
AcDbLayerTableRecord
  2
0007709
 70
     0
 62
     7
  6
Continuous
370
    -3
390
F
  0
LAYER
  5
2FE
330
2
100
AcDbSymbolTableRecord
100
AcDbLayerTableRecord
  2
0006110
 70
     0
 62
     7
  6
Continuous
370
    -3
390
F
  0
LAYER
  5
310
330
2
100
AcDbSymbolTableRecord
100
AcDbLayerTableRecord
  2
0007750
 70
     0
 62
     7
  6
Continuous
370
    -3
390
F
  0
ENDTAB
  0
TABLE
  2
STYLE
  5
3
330
0
100
AcDbSymbolTable
 70
     5
  0
STYLE
  5
11
330
3
100
AcDbSymbolTableRecord
100
AcDbTextStyleTableRecord
  2
Standard
 70
     0
 40
0.0
 41
1.0
 50
0.0
 71
     0
 42
2.5
  3
txt
  4

  0
STYLE
  5
338
330
3
100
AcDbSymbolTableRecord
100
AcDbTextStyleTableRecord
  2
SEACAD_Solid_Edge_ISO
 70
     0
 40
0.0
 41
1.0
 50
0.0
 71
     0
 42
0.2
  3
seiso.ttf
  4

1001
ACAD
1000
Solid Edge ISO
1071
        0
  0
STYLE
  5
34F
330
3
100
AcDbSymbolTableRecord
100
AcDbTextStyleTableRecord
  2
SEACAD_Solid_Edge_ISO1_Symbols
 70
     0
 40
0.0
 41
1.0
 50
0.0
 71
     0
 42
0.2
  3
semeci1.ttf
  4

1001
ACAD
1000
Solid Edge ISO1 Symbols
1071
        0
  0
STYLE
  5
366
330
3
100
AcDbSymbolTableRecord
100
AcDbTextStyleTableRecord
  2
SEACAD_Solid_Edge_ANSIB
 70
     0
 40
0.0
 41
1.0
 50
0.0
 71
     0
 42
0.2
  3
seansbd.ttf
  4

1001
ACAD
1000
Solid Edge ANSI
1071
 33554432
  0
STYLE
  5
36B
330
3
100
AcDbSymbolTableRecord
100
AcDbTextStyleTableRecord
  2
SEACAD_Solid_Edge_ANSI
 70
     0
 40
0.0
 41
1.0
 50
0.0
 71
     0
 42
0.2
  3
seans.ttf
  4

1001
ACAD
1000
Solid Edge ANSI
1071
        0
  0
ENDTAB
  0
TABLE
  2
VIEW
  5
6
330
0
100
AcDbSymbolTable
 70
     0
  0
ENDTAB
  0
TABLE
  2
UCS
  5
7
330
0
100
AcDbSymbolTable
 70
     0
  0
ENDTAB
  0
TABLE
  2
APPID
  5
9
330
0
100
AcDbSymbolTable
 70
     1
  0
APPID
  5
12
330
9
100
AcDbSymbolTableRecord
100
AcDbRegAppTableRecord
  2
ACAD
 70
     0
  0
ENDTAB
  0
TABLE
  2
DIMSTYLE
  5
A
330
0
100
AcDbSymbolTable
 70
     3
100
AcDbDimStyleTable
  0
DIMSTYLE
105
27
330
A
100
AcDbSymbolTableRecord
100
AcDbDimStyleTableRecord
  2
ISO-25
 70
     0
 41
2.5
 42
0.625
 43
3.75
 44
1.25
 73
     0
 74
     0
 77
     1
 78
     8
140
2.5
141
2.5
143
0.0393700787
147
0.625
171
     3
172
     1
178
     0
271
     2
272
     2
274
     3
278
    44
283
     0
284
     8
340
11
  0
DIMSTYLE
105
326
330
A
100
AcDbSymbolTableRecord
100
AcDbDimStyleTableRecord
  2
Standard
 70
     0
178
     0
340
11
  0
DIMSTYLE
105
339
102
{ACAD_REACTORS
330
33A
330
344
330
34E
330
35A
102
}
330
A
100
AcDbSymbolTableRecord
100
AcDbDimStyleTableRecord
  2
DIN
 70
     0
 41
3.5
 42
0.0
 44
1.75
 73
     0
 74
     0
 77
     1
 78
     8
140
3.5
141
1.75
147
1.75
172
     1
173
     1
178
     0
179
     3
271
     3
272
     3
278
    44
284
     8
340
338
343
333
344
333
  0
ENDTAB
  0
TABLE
  2
BLOCK_RECORD
  5
1
330
0
100
AcDbSymbolTable
 70
    14
  0
BLOCK_RECORD
  5
1F
330
1
100
AcDbSymbolTableRecord
100
AcDbBlockTableRecord
  2
*Model_Space
340
22
  0
BLOCK_RECORD
  5
1B
330
1
100
AcDbSymbolTableRecord
100
AcDbBlockTableRecord
  2
*Paper_Space
340
1E
  0
BLOCK_RECORD
  5
40
330
1
100
AcDbSymbolTableRecord
100
AcDbBlockTableRecord
  2
SE
340
0
102
{BLKREFS
331
41
102
}
  0
BLOCK_RECORD
  5
327
330
1
100
AcDbSymbolTableRecord
100
AcDbBlockTableRecord
  2
_OBLIQUE
340
0
  0
BLOCK_RECORD
  5
32B
330
1
100
AcDbSymbolTableRecord
100
AcDbBlockTableRecord
  2
_DOT
340
0
  0
BLOCK_RECORD
  5
333
330
1
100
AcDbSymbolTableRecord
100
AcDbBlockTableRecord
  2
_SE_FILLED
340
0
  0
BLOCK_RECORD
  5
33B
330
1
100
AcDbSymbolTableRecord
100
AcDbBlockTableRecord
  2
DMBLK379
340
0
  0
BLOCK_RECORD
  5
345
330
1
100
AcDbSymbolTableRecord
100
AcDbBlockTableRecord
  2
DMBLK380
340
0
  0
BLOCK_RECORD
  5
350
330
1
100
AcDbSymbolTableRecord
100
AcDbBlockTableRecord
  2
DMBLK381
340
0
  0
BLOCK_RECORD
  5
35B
330
1
100
AcDbSymbolTableRecord
100
AcDbBlockTableRecord
  2
DMBLK382
340
0
  0
BLOCK_RECORD
  5
365
330
1
100
AcDbSymbolTableRecord
100
AcDbBlockTableRecord
  2
SEANNOT_GROUP
340
0
102
{BLKREFS
331
37A
102
}
  0
BLOCK_RECORD
  5
36A
330
1
100
AcDbSymbolTableRecord
100
AcDbBlockTableRecord
  2
SEANNOT_GROUP1
340
0
102
{BLKREFS
331
37B
102
}
  0
BLOCK_RECORD
  5
36F
330
1
100
AcDbSymbolTableRecord
100
AcDbBlockTableRecord
  2
SEANNOT_GROUP2
340
0
102
{BLKREFS
331
37D
102
}
  0
BLOCK_RECORD
  5
373
330
1
100
AcDbSymbolTableRecord
100
AcDbBlockTableRecord
  2
SEANNOT_GROUP3
340
0
102
{BLKREFS
331
37E
102
}
  0
BLOCK_RECORD
  5
377
330
1
100
AcDbSymbolTableRecord
100
AcDbBlockTableRecord
  2
RF-Massblatt_2016
340
0
102
{BLKREFS
331
3C6
102
}
  0
ENDTAB
  0
ENDSEC
  0
SECTION
  2
BLOCKS
  0
BLOCK
  5
20
330
1F
100
AcDbEntity
  8
0
100
AcDbBlockBegin
  2
*Model_Space
 70
     0
 10
0.0
 20
0.0
 30
0.0
  3
*Model_Space
  1

  0
ENDBLK
  5
21
330
1F
100
AcDbEntity
  8
0
100
AcDbBlockEnd
  0
BLOCK
  5
1C
330
1B
100
AcDbEntity
 67
     1
  8
0
100
AcDbBlockBegin
  2
*Paper_Space
 70
     0
 10
0.0
 20
0.0
 30
0.0
  3
*Paper_Space
  1

  0
ENDBLK
  5
1D
330
1B
100
AcDbEntity
 67
     1
  8
0
100
AcDbBlockEnd
  0
BLOCK
  5
324
330
40
100
AcDbEntity
  8
0
100
AcDbBlockBegin
  2
SE
 70
     0
 10
0.0
 20
0.0
 30
0.0
  3
SE
  1

  0
ARC
  5
43
330
40
100
AcDbEntity
  8
0003758
  6
Continuous
 62
     7
100
AcDbCircle
 10
151.5378394249
 20
100.1362959356
 30
0.0
 40
15.99999999999996
100
AcDbArc
 50
75.6384884371
 51
104.3615115629
  0
LINE
  5
44
330
40
100
AcDbEntity
  8
0003758
  6
Continuous
 62
     7
100
AcDbLine
 10
135.2897626156
 20
88.6362959356
 30
0.0
 11
135.2897626156
 21
112.6362959356
 31
0.0
  0
ARC
  5
45
330
40
100
AcDbEntity
  8
0003758
  6
Continuous
 62
     7
100
AcDbCircle
 10
151.5378394249
 20
101.1362959356
 30
0.0
 40
20.5
100
AcDbArc
 50
217.5718693197
 51
322.4281306803
  0
ARC
  5
46
330
40
100
AcDbEntity
  8
0003758
  6
Continuous
 62
     7
100
AcDbCircle
 10
151.5378394249
 20
100.1362959356
 30
0.0
 40
20.49999999999999
100
AcDbArc
 50
37.5718693197
 51
142.4281306803
  0
LINE
  5
47
330
40
100
AcDbEntity
  8
0003758
  6
Continuous
 62
     7
100
AcDbLine
 10
135.2897626156
 20
88.6362959356
 30
0.0
 11
135.9552637299
 21
88.6362959356
 31
0.0
  0
LINE
  5
48
330
40
100
AcDbEntity
  8
0003758
  6
Continuous
 62
     7
100
AcDbLine
 10
135.2897626156
 20
112.6362959356
 30
0.0
 11
135.9552637299
 21
112.6362959356
 31
0.0
  0
LINE
  5
49
330
40
100
AcDbEntity
  8
0003758
  6
Continuous
 62
     7
100
AcDbLine
 10
167.7859162342
 20
88.6362959356
 30
0.0
 11
167.7859162342
 21
112.6362959356
 31
0.0
  0
LINE
  5
4A
330
40
100
AcDbEntity
  8
0003758
  6
Continuous
 62
     7
100
AcDbLine
 10
167.1204151199
 20
88.6362959356
 30
0.0
 11
167.7859162342
 21
88.6362959356
 31
0.0
  0
LINE
  5
4B
330
40
100
AcDbEntity
  8
0003758
  6
Continuous
 62
     7
100
AcDbLine
 10
167.1204151199
 20
112.6362959356
 30
0.0
 11
167.7859162342
 21
112.6362959356
 31
0.0
  0
ARC
  5
4C
330
40
100
AcDbEntity
  8
0003758
  6
Continuous
 62
     7
100
AcDbCircle
 10
140.5378394249
 20
110.6362959356
 30
0.0
 40
5.000000000000003
100
AcDbArc
 50
90.0
 51
156.4218215218
  0
ARC
  5
4D
330
40
100
AcDbEntity
  8
0003758
  6
Continuous
 62
     7
100
AcDbCircle
 10
140.5378394249
 20
110.6362959356
 30
0.0
 40
4.999999999999999
100
AcDbArc
 50
156.4218215218
 51
180.0
  0
LINE
  5
4E
330
40
100
AcDbEntity
  8
0003758
  6
Continuous
 62
     7
100
AcDbLine
 10
135.5378394249
 20
110.6362959356
 30
0.0
 11
135.5378394249
 21
90.6362959356
 31
0.0
  0
ARC
  5
4F
330
40
100
AcDbEntity
  8
0003758
  6
Continuous
 62
     7
100
AcDbCircle
 10
140.5378394249
 20
90.6362959356
 30
0.0
 40
4.999999999999997
100
AcDbArc
 50
180.0
 51
203.5781784782
  0
ARC
  5
50
330
40
100
AcDbEntity
  8
0003758
  6
Continuous
 62
     7
100
AcDbCircle
 10
140.5378394249
 20
90.6362959356
 30
0.0
 40
5.000000000000004
100
AcDbArc
 50
203.5781784782
 51
270.0
  0
ARC
  5
51
330
40
100
AcDbEntity
  8
0003758
  6
Continuous
 62
     7
100
AcDbCircle
 10
162.5378394249
 20
90.6362959356
 30
0.0
 40
4.999999999999997
100
AcDbArc
 50
270.0
 51
336.4218215218
  0
ARC
  5
52
330
40
100
AcDbEntity
  8
0003758
  6
Continuous
 62
     7
100
AcDbCircle
 10
162.5378394249
 20
90.6362959356
 30
0.0
 40
5.0
100
AcDbArc
 50
336.4218215218
 51
0.0
  0
LINE
  5
53
330
40
100
AcDbEntity
  8
0003758
  6
Continuous
 62
     7
100
AcDbLine
 10
167.5378394249
 20
90.6362959356
 30
0.0
 11
167.5378394249
 21
110.6362959356
 31
0.0
  0
ARC
  5
54
330
40
100
AcDbEntity
  8
0003758
  6
Continuous
 62
     7
100
AcDbCircle
 10
162.5378394249
 20
110.6362959356
 30
0.0
 40
4.999999999999999
100
AcDbArc
 50
0.0
 51
23.5781784782
  0
ARC
  5
55
330
40
100
AcDbEntity
  8
0003758
  6
Continuous
 62
     7
100
AcDbCircle
 10
162.5378394249
 20
110.6362959356
 30
0.0
 40
4.999999999999998
100
AcDbArc
 50
23.5781784782
 51
90.0
  0
LINE
  5
56
330
40
100
AcDbEntity
  8
0003758
  6
Continuous
 62
     7
100
AcDbLine
 10
162.5378394249
 20
115.6362959356
 30
0.0
 11
155.5064663915
 21
115.6362959356
 31
0.0
  0
LINE
  5
57
330
40
100
AcDbEntity
  8
0003758
  6
Continuous
 62
     7
100
AcDbLine
 10
147.5692124583
 20
115.6362959356
 30
0.0
 11
140.5378394249
 21
115.6362959356
 31
0.0
  0
LINE
  5
58
330
40
100
AcDbEntity
  8
0003758
  6
Continuous
 62
     7
100
AcDbLine
 10
140.5378394249
 20
85.6362959356
 30
0.0
 11
162.5378394249
 21
85.6362959356
 31
0.0
  0
LINE
  5
59
330
40
100
AcDbEntity
  8
0003758
  6
Continuous
 62
     7
100
AcDbLine
 10
131.0378394249
 20
170.1413410967
 30
0.0
 11
172.0378394249
 21
170.1413410967
 31
0.0
  0
LINE
  5
5A
330
40
100
AcDbEntity
  8
0003758
  6
Continuous
 62
     7
100
AcDbLine
 10
133.0378394249
 20
175.6362959356
 30
0.0
 11
170.0378394249
 21
175.6362959356
 31
0.0
  0
LINE
  5
5B
330
40
100
AcDbEntity
  8
0003758
  6
Continuous
 62
     7
100
AcDbLine
 10
133.0378394249
 20
75.6362959356
 30
0.0
 11
170.0378394249
 21
75.6362959356
 31
0.0
  0
LINE
  5
5C
330
40
100
AcDbEntity
  8
0003758
  6
Continuous
 62
     7
100
AcDbLine
 10
131.0378394249
 20
77.6362959356
 30
0.0
 11
172.0378394249
 21
77.6362959356
 31
0.0
  0
LINE
  5
5D
330
40
100
AcDbEntity
  8
0003758
  6
Continuous
 62
     7
100
AcDbLine
 10
136.7109215957
 20
55.6362959356
 30
0.0
 11
166.3647572541
 21
55.6362959356
 31
0.0
  0
LINE
  5
5E
330
40
100
AcDbEntity
  8
0003758
  6
Continuous
 62
     7
100
AcDbLine
 10
135.6135066592
 20
75.2383903211
 30
0.0
 11
135.7109353035
 21
56.6310599718
 31
0.0
  0
LINE
  5
5F
330
40
100
AcDbEntity
  8
0003758
  6
Continuous
 62
     7
100
AcDbLine
 10
167.3647435463
 20
56.6310599718
 30
0.0
 11
167.4621721906
 21
75.2383903211
 31
0.0
  0
LINE
  5
60
330
40
100
AcDbEntity
  8
0003758
  6
Continuous
 62
     7
100
AcDbLine
 10
172.0378394249
 20
77.6362959356
 30
0.0
 11
172.0378394249
 21
170.1413410967
 31
0.0
  0
LINE
  5
61
330
40
100
AcDbEntity
  8
0003758
  6
Continuous
 62
     7
100
AcDbLine
 10
131.0378394249
 20
170.1413410967
 30
0.0
 11
131.0378394249
 21
77.6362959356
 31
0.0
  0
LINE
  5
62
330
40
100
AcDbEntity
  8
0003758
  6
Continuous
 62
     7
100
AcDbLine
 10
172.0378394249
 20
170.1413410967
 30
0.0
 11
170.0378394249
 21
175.6362959356
 31
0.0
  0
LINE
  5
63
330
40
100
AcDbEntity
  8
0003758
  6
Continuous
 62
     7
100
AcDbLine
 10
133.0378394249
 20
175.6362959356
 30
0.0
 11
131.0378394249
 21
170.1413410967
 31
0.0
  0
LINE
  5
64
330
40
100
AcDbEntity
  8
0003758
  6
Continuous
 62
     7
100
AcDbLine
 10
131.0378394249
 20
77.6362959356
 30
0.0
 11
133.0378394249
 21
75.6362959356
 31
0.0
  0
LINE
  5
65
330
40
100
AcDbEntity
  8
0003758
  6
Continuous
 62
     7
100
AcDbLine
 10
170.0378394249
 20
75.6362959356
 30
0.0
 11
172.0378394249
 21
77.6362959356
 31
0.0
  0
ARC
  5
66
330
40
100
AcDbEntity
  8
0003758
  6
Continuous
 62
     7
100
AcDbCircle
 10
135.2135121423
 20
75.2362959356
 30
0.0
 40
0.3999999999999976
100
AcDbArc
 50
0.3
 51
90.0
  0
ARC
  5
67
330
40
100
AcDbEntity
  8
0003758
  6
Continuous
 62
     7
100
AcDbCircle
 10
167.8621667075
 20
75.2362959356
 30
0.0
 40
0.4000000000000016
100
AcDbArc
 50
90.0
 51
179.7
  0
ARC
  5
68
330
40
100
AcDbEntity
  8
0003758
  6
Continuous
 62
     7
100
AcDbCircle
 10
136.7109215957
 20
56.6362959356
 30
0.0
 40
1.000000000000001
100
AcDbArc
 50
180.3
 51
270.0
  0
ARC
  5
69
330
40
100
AcDbEntity
  8
0003758
  6
Continuous
 62
     7
100
AcDbCircle
 10
166.3647572541
 20
56.6362959356
 30
0.0
 40
1.000000000000001
100
AcDbArc
 50
270.0
 51
359.7
  0
LINE
  5
6B
330
40
100
AcDbEntity
  8
0007713
  6
Continuous
 62
     7
100
AcDbLine
 10
136.5378394249
 20
110.3862959356
 30
0.0
 11
166.5378394249
 21
110.3862959356
 31
0.0
  0
LINE
  5
6C
330
40
100
AcDbEntity
  8
0007713
  6
Continuous
 62
     7
100
AcDbLine
 10
136.5378394249
 20
105.3862959356
 30
0.0
 11
166.5378394249
 21
105.3862959356
 31
0.0
  0
LINE
  5
6D
330
40
100
AcDbEntity
  8
0007713
  6
Continuous
 62
     7
100
AcDbLine
 10
136.03793848
 20
105.8862959356
 30
0.0
 11
136.0378394246
 21
105.8862959356
 31
0.0
  0
LINE
  5
6E
330
40
100
AcDbEntity
  8
0007713
  6
Continuous
 62
     7
100
AcDbLine
 10
136.03793848
 20
109.8862959356
 30
0.0
 11
136.0378394246
 21
109.8862959356
 31
0.0
  0
LINE
  5
6F
330
40
100
AcDbEntity
  8
0007713
  6
Continuous
 62
     7
100
AcDbLine
 10
136.0492140337
 20
105.8862959356
 30
0.0
 11
136.0538550195
 21
105.8862959356
 31
0.0
  0
LINE
  5
70
330
40
100
AcDbEntity
  8
0007713
  6
Continuous
 62
     7
100
AcDbLine
 10
136.0492140337
 20
105.8862959356
 30
0.0
 11
136.0492140337
 21
109.8862959356
 31
0.0
  0
LINE
  5
71
330
40
100
AcDbEntity
  8
0007713
  6
Continuous
 62
     7
100
AcDbLine
 10
136.0492140337
 20
109.8862959356
 30
0.0
 11
136.5097484758
 21
110.3549083548
 31
0.0
  0
LINE
  5
72
330
40
100
AcDbEntity
  8
0007713
  6
Continuous
 62
     7
100
AcDbLine
 10
136.0492140337
 20
105.8862959356
 30
0.0
 11
136.5097484758
 21
105.4176835164
 31
0.0
  0
LINE
  5
73
330
40
100
AcDbEntity
  8
0007713
  6
Continuous
 62
     7
100
AcDbLine
 10
136.03793848
 20
109.8862959356
 30
0.0
 11
136.03793848
 21
105.8862959356
 31
0.0
  0
LINE
  5
74
330
40
100
AcDbEntity
  8
0007713
  6
Continuous
 62
     7
100
AcDbLine
 10
136.5097484758
 20
105.4176835164
 30
0.0
 11
136.03793848
 21
105.8862959356
 31
0.0
  0
LINE
  5
75
330
40
100
AcDbEntity
  8
0007713
  6
Continuous
 62
     7
100
AcDbLine
 10
136.5097484758
 20
110.3549083548
 30
0.0
 11
136.03793848
 21
109.8862959356
 31
0.0
  0
LINE
  5
76
330
40
100
AcDbEntity
  8
0007713
  6
Continuous
 62
     7
100
AcDbLine
 10
136.0538550195
 20
109.8862959356
 30
0.0
 11
136.0492140337
 21
109.8862959356
 31
0.0
  0
LINE
  5
77
330
40
100
AcDbEntity
  8
0007713
  6
Continuous
 62
     7
100
AcDbLine
 10
136.0876618995
 20
105.8862959356
 30
0.0
 11
136.0969357291
 21
105.8862959356
 31
0.0
  0
LINE
  5
78
330
40
100
AcDbEntity
  8
0007713
  6
Continuous
 62
     7
100
AcDbLine
 10
136.0876618995
 20
105.8862959356
 30
0.0
 11
136.0876618995
 21
109.8862959356
 31
0.0
  0
LINE
  5
79
330
40
100
AcDbEntity
  8
0007713
  6
Continuous
 62
     7
100
AcDbLine
 10
136.0876618995
 20
109.8862959356
 30
0.0
 11
136.5361128539
 21
110.3549083548
 31
0.0
  0
LINE
  5
7A
330
40
100
AcDbEntity
  8
0007713
  6
Continuous
 62
     7
100
AcDbLine
 10
136.0876618995
 20
105.8862959356
 30
0.0
 11
136.5361128539
 21
105.4176835164
 31
0.0
  0
LINE
  5
7B
330
40
100
AcDbEntity
  8
0007713
  6
Continuous
 62
     7
100
AcDbLine
 10
136.0538550195
 20
109.8862959356
 30
0.0
 11
136.0538550195
 21
105.8862959356
 31
0.0
  0
LINE
  5
7C
330
40
100
AcDbEntity
  8
0007713
  6
Continuous
 62
     7
100
AcDbLine
 10
136.5361128539
 20
105.4176835164
 30
0.0
 11
136.0538550195
 21
105.8862959356
 31
0.0
  0
LINE
  5
7D
330
40
100
AcDbEntity
  8
0007713
  6
Continuous
 62
     7
100
AcDbLine
 10
136.5361128539
 20
110.3549083548
 30
0.0
 11
136.0538550195
 21
109.8862959356
 31
0.0
  0
LINE
  5
7E
330
40
100
AcDbEntity
  8
0007713
  6
Continuous
 62
     7
100
AcDbLine
 10
136.0969357291
 20
109.8862959356
 30
0.0
 11
136.0876618995
 21
109.8862959356
 31
0.0
  0
LINE
  5
7F
330
40
100
AcDbEntity
  8
0007713
  6
Continuous
 62
     7
100
AcDbLine
 10
136.1532146266
 20
105.8862959356
 30
0.0
 11
136.1671050306
 21
105.8862959356
 31
0.0
  0
LINE
  5
80
330
40
100
AcDbEntity
  8
0007713
  6
Continuous
 62
     7
100
AcDbLine
 10
136.1532146266
 20
105.8862959356
 30
0.0
 11
136.1532146266
 21
109.8862959356
 31
0.0
  0
LINE
  5
81
330
40
100
AcDbEntity
  8
0007713
  6
Continuous
 62
     7
100
AcDbLine
 10
136.1532146266
 20
109.8862959356
 30
0.0
 11
136.5887953581
 21
110.3549083548
 31
0.0
  0
LINE
  5
82
330
40
100
AcDbEntity
  8
0007713
  6
Continuous
 62
     7
100
AcDbLine
 10
136.1532146266
 20
105.8862959356
 30
0.0
 11
136.5887953581
 21
105.4176835164
 31
0.0
  0
LINE
  5
83
330
40
100
AcDbEntity
  8
0007713
  6
Continuous
 62
     7
100
AcDbLine
 10
136.0969357291
 20
109.8862959356
 30
0.0
 11
136.0969357291
 21
105.8862959356
 31
0.0
  0
LINE
  5
84
330
40
100
AcDbEntity
  8
0007713
  6
Continuous
 62
     7
100
AcDbLine
 10
136.5887953581
 20
105.4176835164
 30
0.0
 11
136.0969357291
 21
105.8862959356
 31
0.0
  0
LINE
  5
85
330
40
100
AcDbEntity
  8
0007713
  6
Continuous
 62
     7
100
AcDbLine
 10
136.5887953581
 20
110.3549083548
 30
0.0
 11
136.0969357291
 21
109.8862959356
 31
0.0
  0
LINE
  5
86
330
40
100
AcDbEntity
  8
0007713
  6
Continuous
 62
     7
100
AcDbLine
 10
136.1671050306
 20
109.8862959356
 30
0.0
 11
136.1532146266
 21
109.8862959356
 31
0.0
  0
LINE
  5
87
330
40
100
AcDbEntity
  8
0007713
  6
Continuous
 62
     7
100
AcDbLine
 10
136.2457572133
 20
105.8862959356
 30
0.0
 11
136.2642398233
 21
105.8862959356
 31
0.0
  0
LINE
  5
88
330
40
100
AcDbEntity
  8
0007713
  6
Continuous
 62
     7
100
AcDbLine
 10
136.2457572133
 20
105.8862959356
 30
0.0
 11
136.2457572133
 21
109.8862959356
 31
0.0
  0
LINE
  5
89
330
40
100
AcDbEntity
  8
0007713
  6
Continuous
 62
     7
100
AcDbLine
 10
136.2457572133
 20
109.8862959356
 30
0.0
 11
136.6677035652
 21
110.3549083548
 31
0.0
  0
LINE
  5
8A
330
40
100
AcDbEntity
  8
0007713
  6
Continuous
 62
     7
100
AcDbLine
 10
136.2457572133
 20
105.8862959356
 30
0.0
 11
136.6677035652
 21
105.4176835164
 31
0.0
  0
LINE
  5
8B
330
40
100
AcDbEntity
  8
0007713
  6
Continuous
 62
     7
100
AcDbLine
 10
136.1671050306
 20
109.8862959356
 30
0.0
 11
136.1671050306
 21
105.8862959356
 31
0.0
  0
LINE
  5
8C
330
40
100
AcDbEntity
  8
0007713
  6
Continuous
 62
     7
100
AcDbLine
 10
136.6677035652
 20
105.4176835164
 30
0.0
 11
136.1671050306
 21
105.8862959356
 31
0.0
  0
LINE
  5
8D
330
40
100
AcDbEntity
  8
0007713
  6
Continuous
 62
     7
100
AcDbLine
 10
136.6677035652
 20
110.3549083548
 30
0.0
 11
136.1671050306
 21
109.8862959356
 31
0.0
  0
LINE
  5
8E
330
40
100
AcDbEntity
  8
0007713
  6
Continuous
 62
     7
100
AcDbLine
 10
136.2642398233
 20
109.8862959356
 30
0.0
 11
136.2457572133
 21
109.8862959356
 31
0.0
  0
LINE
  5
8F
330
40
100
AcDbEntity
  8
0007713
  6
Continuous
 62
     7
100
AcDbLine
 10
136.3651273085
 20
105.8862959356
 30
0.0
 11
136.3881696996
 21
105.8862959356
 31
0.0
  0
LINE
  5
90
330
40
100
AcDbEntity
  8
0007713
  6
Continuous
 62
     7
100
AcDbLine
 10
136.3651273085
 20
105.8862959356
 30
0.0
 11
136.3651273085
 21
109.8862959356
 31
0.0
  0
LINE
  5
91
330
40
100
AcDbEntity
  8
0007713
  6
Continuous
 62
     7
100
AcDbLine
 10
136.3651273085
 20
109.8862959356
 30
0.0
 11
136.7726990435
 21
110.3549083548
 31
0.0
  0
LINE
  5
92
330
40
100
AcDbEntity
  8
0007713
  6
Continuous
 62
     7
100
AcDbLine
 10
136.3651273085
 20
105.8862959356
 30
0.0
 11
136.7726990435
 21
105.4176835164
 31
0.0
  0
LINE
  5
93
330
40
100
AcDbEntity
  8
0007713
  6
Continuous
 62
     7
100
AcDbLine
 10
136.2642398233
 20
109.8862959356
 30
0.0
 11
136.2642398233
 21
105.8862959356
 31
0.0
  0
LINE
  5
94
330
40
100
AcDbEntity
  8
0007713
  6
Continuous
 62
     7
100
AcDbLine
 10
136.7726990435
 20
105.4176835164
 30
0.0
 11
136.2642398233
 21
105.8862959356
 31
0.0
  0
LINE
  5
95
330
40
100
AcDbEntity
  8
0007713
  6
Continuous
 62
     7
100
AcDbLine
 10
136.7726990435
 20
110.3549083548
 30
0.0
 11
136.2642398233
 21
109.8862959356
 31
0.0
  0
LINE
  5
96
330
40
100
AcDbEntity
  8
0007713
  6
Continuous
 62
     7
100
AcDbLine
 10
136.3881696996
 20
109.8862959356
 30
0.0
 11
136.3651273085
 21
109.8862959356
 31
0.0
  0
LINE
  5
97
330
40
100
AcDbEntity
  8
0007713
  6
Continuous
 62
     7
100
AcDbLine
 10
136.5111154965
 20
105.8862959356
 30
0.0
 11
136.5386772446
 21
105.8862959356
 31
0.0
  0
LINE
  5
98
330
40
100
AcDbEntity
  8
0007713
  6
Continuous
 62
     7
100
AcDbLine
 10
136.5111154965
 20
105.8862959356
 30
0.0
 11
136.5111154965
 21
109.8862959356
 31
0.0
  0
LINE
  5
99
330
40
100
AcDbEntity
  8
0007713
  6
Continuous
 62
     7
100
AcDbLine
 10
136.5111154965
 20
109.8862959356
 30
0.0
 11
136.9035975954
 21
110.3549083548
 31
0.0
  0
LINE
  5
9A
330
40
100
AcDbEntity
  8
0007713
  6
Continuous
 62
     7
100
AcDbLine
 10
136.5111154965
 20
105.8862959356
 30
0.0
 11
136.9035975954
 21
105.4176835164
 31
0.0
  0
LINE
  5
9B
330
40
100
AcDbEntity
  8
0007713
  6
Continuous
 62
     7
100
AcDbLine
 10
136.3881696996
 20
109.8862959356
 30
0.0
 11
136.3881696996
 21
105.8862959356
 31
0.0
  0
LINE
  5
9C
330
40
100
AcDbEntity
  8
0007713
  6
Continuous
 62
     7
100
AcDbLine
 10
136.9035975954
 20
105.4176835164
 30
0.0
 11
136.3881696996
 21
105.8862959356
 31
0.0
  0
LINE
  5
9D
330
40
100
AcDbEntity
  8
0007713
  6
Continuous
 62
     7
100
AcDbLine
 10
136.9035975954
 20
110.3549083548
 30
0.0
 11
136.3881696996
 21
109.8862959356
 31
0.0
  0
LINE
  5
9E
330
40
100
AcDbEntity
  8
0007713
  6
Continuous
 62
     7
100
AcDbLine
 10
136.5386772446
 20
109.8862959356
 30
0.0
 11
136.5111154965
 21
109.8862959356
 31
0.0
  0
LINE
  5
9F
330
40
100
AcDbEntity
  8
0007713
  6
Continuous
 62
     7
100
AcDbLine
 10
136.6834656644
 20
105.8862959356
 30
0.0
 11
136.7154984168
 21
105.8862959356
 31
0.0
  0
LINE
  5
A0
330
40
100
AcDbEntity
  8
0007713
  6
Continuous
 62
     7
100
AcDbLine
 10
136.6834656644
 20
105.8862959356
 30
0.0
 11
136.6834656644
 21
109.8862959356
 31
0.0
  0
LINE
  5
A1
330
40
100
AcDbEntity
  8
0007713
  6
Continuous
 62
     7
100
AcDbLine
 10
136.6834656644
 20
109.8862959356
 30
0.0
 11
137.0601695801
 21
110.3549083548
 31
0.0
  0
LINE
  5
A2
330
40
100
AcDbEntity
  8
0007713
  6
Continuous
 62
     7
100
AcDbLine
 10
136.6834656644
 20
105.8862959356
 30
0.0
 11
137.0601695801
 21
105.4176835164
 31
0.0
  0
LINE
  5
A3
330
40
100
AcDbEntity
  8
0007713
  6
Continuous
 62
     7
100
AcDbLine
 10
136.5386772446
 20
109.8862959356
 30
0.0
 11
136.5386772446
 21
105.8862959356
 31
0.0
  0
LINE
  5
A4
330
40
100
AcDbEntity
  8
0007713
  6
Continuous
 62
     7
100
AcDbLine
 10
137.0601695801
 20
105.4176835164
 30
0.0
 11
136.5386772446
 21
105.8862959356
 31
0.0
  0
LINE
  5
A5
330
40
100
AcDbEntity
  8
0007713
  6
Continuous
 62
     7
100
AcDbLine
 10
137.0601695801
 20
110.3549083548
 30
0.0
 11
136.5386772446
 21
109.8862959356
 31
0.0
  0
LINE
  5
A6
330
40
100
AcDbEntity
  8
0007713
  6
Continuous
 62
     7
100
AcDbLine
 10
136.7154984168
 20
109.8862959356
 30
0.0
 11
136.6834656644
 21
109.8862959356
 31
0.0
  0
LINE
  5
A7
330
40
100
AcDbEntity
  8
0007713
  6
Continuous
 62
     7
100
AcDbLine
 10
136.8818754514
 20
105.8862959356
 30
0.0
 11
136.9183230117
 21
105.8862959356
 31
0.0
  0
LINE
  5
A8
330
40
100
AcDbEntity
  8
0007713
  6
Continuous
 62
     7
100
AcDbLine
 10
136.8818754514
 20
105.8862959356
 30
0.0
 11
136.8818754514
 21
109.8862959356
 31
0.0
  0
LINE
  5
A9
330
40
100
AcDbEntity
  8
0007713
  6
Continuous
 62
     7
100
AcDbLine
 10
136.8818754514
 20
109.8862959356
 30
0.0
 11
137.2421403172
 21
110.3549083548
 31
0.0
  0
LINE
  5
AA
330
40
100
AcDbEntity
  8
0007713
  6
Continuous
 62
     7
100
AcDbLine
 10
136.8818754514
 20
105.8862959356
 30
0.0
 11
137.2421403172
 21
105.4176835164
 31
0.0
  0
LINE
  5
AB
330
40
100
AcDbEntity
  8
0007713
  6
Continuous
 62
     7
100
AcDbLine
 10
136.7154984168
 20
109.8862959356
 30
0.0
 11
136.7154984168
 21
105.8862959356
 31
0.0
  0
LINE
  5
AC
330
40
100
AcDbEntity
  8
0007713
  6
Continuous
 62
     7
100
AcDbLine
 10
137.2421403172
 20
105.4176835164
 30
0.0
 11
136.7154984168
 21
105.8862959356
 31
0.0
  0
LINE
  5
AD
330
40
100
AcDbEntity
  8
0007713
  6
Continuous
 62
     7
100
AcDbLine
 10
137.2421403172
 20
110.3549083548
 30
0.0
 11
136.7154984168
 21
109.8862959356
 31
0.0
  0
LINE
  5
AE
330
40
100
AcDbEntity
  8
0007713
  6
Continuous
 62
     7
100
AcDbLine
 10
136.9183230117
 20
109.8862959356
 30
0.0
 11
136.8818754514
 21
109.8862959356
 31
0.0
  0
LINE
  5
AF
330
40
100
AcDbEntity
  8
0007713
  6
Continuous
 62
     7
100
AcDbLine
 10
137.1059967793
 20
105.8862959356
 30
0.0
 11
137.1467952062
 21
105.8862959356
 31
0.0
  0
LINE
  5
B0
330
40
100
AcDbEntity
  8
0007713
  6
Continuous
 62
     7
100
AcDbLine
 10
137.1059967793
 20
105.8862959356
 30
0.0
 11
137.1059967793
 21
109.8862959356
 31
0.0
  0
LINE
  5
B1
330
40
100
AcDbEntity
  8
0007713
  6
Continuous
 62
     7
100
AcDbLine
 10
137.1059967793
 20
109.8862959356
 30
0.0
 11
137.4491905684
 21
110.3549083548
 31
0.0
  0
LINE
  5
B2
330
40
100
AcDbEntity
  8
0007713
  6
Continuous
 62
     7
100
AcDbLine
 10
137.1059967793
 20
105.8862959356
 30
0.0
 11
137.4491905684
 21
105.4176835164
 31
0.0
  0
LINE
  5
B3
330
40
100
AcDbEntity
  8
0007713
  6
Continuous
 62
     7
100
AcDbLine
 10
136.9183230117
 20
109.8862959356
 30
0.0
 11
136.9183230117
 21
105.8862959356
 31
0.0
  0
LINE
  5
B4
330
40
100
AcDbEntity
  8
0007713
  6
Continuous
 62
     7
100
AcDbLine
 10
137.4491905684
 20
105.4176835164
 30
0.0
 11
136.9183230117
 21
105.8862959356
 31
0.0
  0
LINE
  5
B5
330
40
100
AcDbEntity
  8
0007713
  6
Continuous
 62
     7
100
AcDbLine
 10
137.4491905684
 20
110.3549083548
 30
0.0
 11
136.9183230117
 21
109.8862959356
 31
0.0
  0
LINE
  5
B6
330
40
100
AcDbEntity
  8
0007713
  6
Continuous
 62
     7
100
AcDbLine
 10
137.1467952062
 20
109.8862959356
 30
0.0
 11
137.1059967793
 21
109.8862959356
 31
0.0
  0
LINE
  5
B7
330
40
100
AcDbEntity
  8
0007713
  6
Continuous
 62
     7
100
AcDbLine
 10
137.3554364632
 20
105.8862959356
 30
0.0
 11
137.4005141824
 21
105.8862959356
 31
0.0
  0
LINE
  5
B8
330
40
100
AcDbEntity
  8
0007713
  6
Continuous
 62
     7
100
AcDbLine
 10
137.3554364632
 20
105.8862959356
 30
0.0
 11
137.3554364632
 21
109.8862959356
 31
0.0
  0
LINE
  5
B9
330
40
100
AcDbEntity
  8
0007713
  6
Continuous
 62
     7
100
AcDbLine
 10
137.3554364632
 20
109.8862959356
 30
0.0
 11
137.6809570969
 21
110.3549083548
 31
0.0
  0
LINE
  5
BA
330
40
100
AcDbEntity
  8
0007713
  6
Continuous
 62
     7
100
AcDbLine
 10
137.3554364632
 20
105.8862959356
 30
0.0
 11
137.6809570969
 21
105.4176835164
 31
0.0
  0
LINE
  5
BB
330
40
100
AcDbEntity
  8
0007713
  6
Continuous
 62
     7
100
AcDbLine
 10
137.1467952062
 20
109.8862959356
 30
0.0
 11
137.1467952062
 21
105.8862959356
 31
0.0
  0
LINE
  5
BC
330
40
100
AcDbEntity
  8
0007713
  6
Continuous
 62
     7
100
AcDbLine
 10
137.6809570969
 20
105.4176835164
 30
0.0
 11
137.1467952062
 21
105.8862959356
 31
0.0
  0
LINE
  5
BD
330
40
100
AcDbEntity
  8
0007713
  6
Continuous
 62
     7
100
AcDbLine
 10
137.6809570969
 20
110.3549083548
 30
0.0
 11
137.1467952062
 21
109.8862959356
 31
0.0
  0
LINE
  5
BE
330
40
100
AcDbEntity
  8
0007713
  6
Continuous
 62
     7
100
AcDbLine
 10
137.4005141824
 20
109.8862959356
 30
0.0
 11
137.3554364632
 21
109.8862959356
 31
0.0
  0
LINE
  5
BF
330
40
100
AcDbEntity
  8
0007713
  6
Continuous
 62
     7
100
AcDbLine
 10
137.6297569011
 20
105.8862959356
 30
0.0
 11
137.6790348309
 21
105.8862959356
 31
0.0
  0
LINE
  5
C0
330
40
100
AcDbEntity
  8
0007713
  6
Continuous
 62
     7
100
AcDbLine
 10
137.6297569011
 20
105.8862959356
 30
0.0
 11
137.6297569011
 21
109.8862959356
 31
0.0
  0
LINE
  5
C1
330
40
100
AcDbEntity
  8
0007713
  6
Continuous
 62
     7
100
AcDbLine
 10
137.6297569011
 20
109.8862959356
 30
0.0
 11
137.9370333057
 21
110.3549083548
 31
0.0
  0
LINE
  5
C2
330
40
100
AcDbEntity
  8
0007713
  6
Continuous
 62
     7
100
AcDbLine
 10
137.6297569011
 20
105.8862959356
 30
0.0
 11
137.9370333057
 21
105.4176835164
 31
0.0
  0
LINE
  5
C3
330
40
100
AcDbEntity
  8
0007713
  6
Continuous
 62
     7
100
AcDbLine
 10
137.4005141824
 20
109.8862959356
 30
0.0
 11
137.4005141824
 21
105.8862959356
 31
0.0
  0
LINE
  5
C4
330
40
100
AcDbEntity
  8
0007713
  6
Continuous
 62
     7
100
AcDbLine
 10
137.9370333057
 20
105.4176835164
 30
0.0
 11
137.4005141824
 21
105.8862959356
 31
0.0
  0
LINE
  5
C5
330
40
100
AcDbEntity
  8
0007713
  6
Continuous
 62
     7
100
AcDbLine
 10
137.9370333057
 20
110.3549083548
 30
0.0
 11
137.4005141824
 21
109.8862959356
 31
0.0
  0
LINE
  5
C6
330
40
100
AcDbEntity
  8
0007713
  6
Continuous
 62
     7
100
AcDbLine
 10
137.6790348309
 20
109.8862959356
 30
0.0
 11
137.6297569011
 21
109.8862959356
 31
0.0
  0
LINE
  5
C7
330
40
100
AcDbEntity
  8
0007713
  6
Continuous
 62
     7
100
AcDbLine
 10
137.9284768418
 20
105.8862959356
 30
0.0
 11
137.981868532
 21
105.8862959356
 31
0.0
  0
LINE
  5
C8
330
40
100
AcDbEntity
  8
0007713
  6
Continuous
 62
     7
100
AcDbLine
 10
137.9284768418
 20
105.8862959356
 30
0.0
 11
137.9284768418
 21
109.8862959356
 31
0.0
  0
LINE
  5
C9
330
40
100
AcDbEntity
  8
0007713
  6
Continuous
 62
     7
100
AcDbLine
 10
137.9284768418
 20
109.8862959356
 30
0.0
 11
138.21696995
 21
110.3549083548
 31
0.0
  0
LINE
  5
CA
330
40
100
AcDbEntity
  8
0007713
  6
Continuous
 62
     7
100
AcDbLine
 10
137.9284768418
 20
105.8862959356
 30
0.0
 11
138.21696995
 21
105.4176835164
 31
0.0
  0
LINE
  5
CB
330
40
100
AcDbEntity
  8
0007713
  6
Continuous
 62
     7
100
AcDbLine
 10
137.6790348309
 20
109.8862959356
 30
0.0
 11
137.6790348309
 21
105.8862959356
 31
0.0
  0
LINE
  5
CC
330
40
100
AcDbEntity
  8
0007713
  6
Continuous
 62
     7
100
AcDbLine
 10
138.21696995
 20
105.4176835164
 30
0.0
 11
137.6790348309
 21
105.8862959356
 31
0.0
  0
LINE
  5
CD
330
40
100
AcDbEntity
  8
0007713
  6
Continuous
 62
     7
100
AcDbLine
 10
138.21696995
 20
110.3549083548
 30
0.0
 11
137.6790348309
 21
109.8862959356
 31
0.0
  0
LINE
  5
CE
330
40
100
AcDbEntity
  8
0007713
  6
Continuous
 62
     7
100
AcDbLine
 10
137.981868532
 20
109.8862959356
 30
0.0
 11
137.9284768418
 21
109.8862959356
 31
0.0
  0
LINE
  5
CF
330
40
100
AcDbEntity
  8
0007713
  6
Continuous
 62
     7
100
AcDbLine
 10
138.2510722289
 20
105.8862959356
 30
0.0
 11
138.3084840123
 21
105.8862959356
 31
0.0
  0
LINE
  5
D0
330
40
100
AcDbEntity
  8
0007713
  6
Continuous
 62
     7
100
AcDbLine
 10
138.2510722289
 20
105.8862959356
 30
0.0
 11
138.2510722289
 21
109.8862959356
 31
0.0
  0
LINE
  5
D1
330
40
100
AcDbEntity
  8
0007713
  6
Continuous
 62
     7
100
AcDbLine
 10
138.2510722289
 20
109.8862959356
 30
0.0
 11
138.5202759258
 21
110.3549083548
 31
0.0
  0
LINE
  5
D2
330
40
100
AcDbEntity
  8
0007713
  6
Continuous
 62
     7
100
AcDbLine
 10
138.2510722289
 20
105.8862959356
 30
0.0
 11
138.5202759258
 21
105.4176835164
 31
0.0
  0
LINE
  5
D3
330
40
100
AcDbEntity
  8
0007713
  6
Continuous
 62
     7
100
AcDbLine
 10
137.981868532
 20
109.8862959356
 30
0.0
 11
137.981868532
 21
105.8862959356
 31
0.0
  0
LINE
  5
D4
330
40
100
AcDbEntity
  8
0007713
  6
Continuous
 62
     7
100
AcDbLine
 10
138.5202759258
 20
105.4176835164
 30
0.0
 11
137.981868532
 21
105.8862959356
 31
0.0
  0
LINE
  5
D5
330
40
100
AcDbEntity
  8
0007713
  6
Continuous
 62
     7
100
AcDbLine
 10
138.5202759258
 20
110.3549083548
 30
0.0
 11
137.981868532
 21
109.8862959356
 31
0.0
  0
LINE
  5
D6
330
40
100
AcDbEntity
  8
0007713
  6
Continuous
 62
     7
100
AcDbLine
 10
138.3084840123
 20
109.8862959356
 30
0.0
 11
138.2510722289
 21
109.8862959356
 31
0.0
  0
LINE
  5
D7
330
40
100
AcDbEntity
  8
0007713
  6
Continuous
 62
     7
100
AcDbLine
 10
138.5969771206
 20
105.8862959356
 30
0.0
 11
138.6583082775
 21
105.8862959356
 31
0.0
  0
LINE
  5
D8
330
40
100
AcDbEntity
  8
0007713
  6
Continuous
 62
     7
100
AcDbLine
 10
138.5969771206
 20
105.8862959356
 30
0.0
 11
138.5969771206
 21
109.8862959356
 31
0.0
  0
LINE
  5
D9
330
40
100
AcDbEntity
  8
0007713
  6
Continuous
 62
     7
100
AcDbLine
 10
138.5969771206
 20
109.8862959356
 30
0.0
 11
138.8464191314
 21
110.3549083548
 31
0.0
  0
LINE
  5
DA
330
40
100
AcDbEntity
  8
0007713
  6
Continuous
 62
     7
100
AcDbLine
 10
138.5969771206
 20
105.8862959356
 30
0.0
 11
138.8464191314
 21
105.4176835164
 31
0.0
  0
LINE
  5
DB
330
40
100
AcDbEntity
  8
0007713
  6
Continuous
 62
     7
100
AcDbLine
 10
138.3084840123
 20
109.8862959356
 30
0.0
 11
138.3084840123
 21
105.8862959356
 31
0.0
  0
LINE
  5
DC
330
40
100
AcDbEntity
  8
0007713
  6
Continuous
 62
     7
100
AcDbLine
 10
138.8464191314
 20
105.4176835164
 30
0.0
 11
138.3084840123
 21
105.8862959356
 31
0.0
  0
LINE
  5
DD
330
40
100
AcDbEntity
  8
0007713
  6
Continuous
 62
     7
100
AcDbLine
 10
138.8464191314
 20
110.3549083548
 30
0.0
 11
138.3084840123
 21
109.8862959356
 31
0.0
  0
LINE
  5
DE
330
40
100
AcDbEntity
  8
0007713
  6
Continuous
 62
     7
100
AcDbLine
 10
138.6583082775
 20
109.8862959356
 30
0.0
 11
138.5969771206
 21
109.8862959356
 31
0.0
  0
LINE
  5
DF
330
40
100
AcDbEntity
  8
0007713
  6
Continuous
 62
     7
100
AcDbLine
 10
138.9655846821
 20
105.8862959356
 30
0.0
 11
139.0307276167
 21
105.8862959356
 31
0.0
  0
LINE
  5
E0
330
40
100
AcDbEntity
  8
0007713
  6
Continuous
 62
     7
100
AcDbLine
 10
138.9655846821
 20
105.8862959356
 30
0.0
 11
138.9655846821
 21
109.8862959356
 31
0.0
  0
LINE
  5
E1
330
40
100
AcDbEntity
  8
0007713
  6
Continuous
 62
     7
100
AcDbLine
 10
138.9655846821
 20
109.8862959356
 30
0.0
 11
139.1948274008
 21
110.3549083548
 31
0.0
  0
LINE
  5
E2
330
40
100
AcDbEntity
  8
0007713
  6
Continuous
 62
     7
100
AcDbLine
 10
138.9655846821
 20
105.8862959356
 30
0.0
 11
139.1948274008
 21
105.4176835164
 31
0.0
  0
LINE
  5
E3
330
40
100
AcDbEntity
  8
0007713
  6
Continuous
 62
     7
100
AcDbLine
 10
138.6583082775
 20
109.8862959356
 30
0.0
 11
138.6583082775
 21
105.8862959356
 31
0.0
  0
LINE
  5
E4
330
40
100
AcDbEntity
  8
0007713
  6
Continuous
 62
     7
100
AcDbLine
 10
139.1948274008
 20
105.4176835164
 30
0.0
 11
138.6583082775
 21
105.8862959356
 31
0.0
  0
LINE
  5
E5
330
40
100
AcDbEntity
  8
0007713
  6
Continuous
 62
     7
100
AcDbLine
 10
139.1948274008
 20
110.3549083548
 30
0.0
 11
138.6583082775
 21
109.8862959356
 31
0.0
  0
LINE
  5
E6
330
40
100
AcDbEntity
  8
0007713
  6
Continuous
 62
     7
100
AcDbLine
 10
139.0307276167
 20
109.8862959356
 30
0.0
 11
138.9655846821
 21
109.8862959356
 31
0.0
  0
LINE
  5
E7
330
40
100
AcDbEntity
  8
0007713
  6
Continuous
 62
     7
100
AcDbLine
 10
139.3562482504
 20
105.8862959356
 30
0.0
 11
139.42508868
 21
105.8862959356
 31
0.0
  0
LINE
  5
E8
330
40
100
AcDbEntity
  8
0007713
  6
Continuous
 62
     7
100
AcDbLine
 10
139.3562482504
 20
105.8862959356
 30
0.0
 11
139.3562482504
 21
109.8862959356
 31
0.0
  0
LINE
  5
E9
330
40
100
AcDbEntity
  8
0007713
  6
Continuous
 62
     7
100
AcDbLine
 10
139.3562482504
 20
109.8862959356
 30
0.0
 11
139.5648895074
 21
110.3549083548
 31
0.0
  0
LINE
  5
EA
330
40
100
AcDbEntity
  8
0007713
  6
Continuous
 62
     7
100
AcDbLine
 10
139.3562482504
 20
105.8862959356
 30
0.0
 11
139.5648895074
 21
105.4176835164
 31
0.0
  0
LINE
  5
EB
330
40
100
AcDbEntity
  8
0007713
  6
Continuous
 62
     7
100
AcDbLine
 10
139.0307276167
 20
109.8862959356
 30
0.0
 11
139.0307276167
 21
105.8862959356
 31
0.0
  0
LINE
  5
EC
330
40
100
AcDbEntity
  8
0007713
  6
Continuous
 62
     7
100
AcDbLine
 10
139.5648895074
 20
105.4176835164
 30
0.0
 11
139.0307276167
 21
105.8862959356
 31
0.0
  0
LINE
  5
ED
330
40
100
AcDbEntity
  8
0007713
  6
Continuous
 62
     7
100
AcDbLine
 10
139.5648895074
 20
110.3549083548
 30
0.0
 11
139.0307276167
 21
109.8862959356
 31
0.0
  0
LINE
  5
EE
330
40
100
AcDbEntity
  8
0007713
  6
Continuous
 62
     7
100
AcDbLine
 10
139.42508868
 20
109.8862959356
 30
0.0
 11
139.3562482504
 21
109.8862959356
 31
0.0
  0
LINE
  5
EF
330
40
100
AcDbEntity
  8
0007713
  6
Continuous
 62
     7
100
AcDbLine
 10
139.7682824691
 20
105.8862959356
 30
0.0
 11
139.840699624
 21
105.8862959356
 31
0.0
  0
LINE
  5
F0
330
40
100
AcDbEntity
  8
0007713
  6
Continuous
 62
     7
100
AcDbLine
 10
139.7682824691
 20
105.8862959356
 30
0.0
 11
139.7682824691
 21
109.8862959356
 31
0.0
  0
LINE
  5
F1
330
40
100
AcDbEntity
  8
0007713
  6
Continuous
 62
     7
100
AcDbLine
 10
139.7682824691
 20
109.8862959356
 30
0.0
 11
139.9559562366
 21
110.3549083548
 31
0.0
  0
LINE
  5
F2
330
40
100
AcDbEntity
  8
0007713
  6
Continuous
 62
     7
100
AcDbLine
 10
139.7682824691
 20
105.8862959356
 30
0.0
 11
139.9559562366
 21
105.4176835164
 31
0.0
  0
LINE
  5
F3
330
40
100
AcDbEntity
  8
0007713
  6
Continuous
 62
     7
100
AcDbLine
 10
139.42508868
 20
109.8862959356
 30
0.0
 11
139.42508868
 21
105.8862959356
 31
0.0
  0
LINE
  5
F4
330
40
100
AcDbEntity
  8
0007713
  6
Continuous
 62
     7
100
AcDbLine
 10
139.9559562366
 20
105.4176835164
 30
0.0
 11
139.42508868
 21
105.8862959356
 31
0.0
  0
LINE
  5
F5
330
40
100
AcDbEntity
  8
0007713
  6
Continuous
 62
     7
100
AcDbLine
 10
139.9559562366
 20
110.3549083548
 30
0.0
 11
139.42508868
 21
109.8862959356
 31
0.0
  0
LINE
  5
F6
330
40
100
AcDbEntity
  8
0007713
  6
Continuous
 62
     7
100
AcDbLine
 10
139.840699624
 20
109.8862959356
 30
0.0
 11
139.7682824691
 21
109.8862959356
 31
0.0
  0
LINE
  5
F7
330
40
100
AcDbEntity
  8
0007713
  6
Continuous
 62
     7
100
AcDbLine
 10
140.2009644899
 20
105.8862959356
 30
0.0
 11
140.276831326
 21
105.8862959356
 31
0.0
  0
LINE
  5
F8
330
40
100
AcDbEntity
  8
0007713
  6
Continuous
 62
     7
100
AcDbLine
 10
140.2009644899
 20
105.8862959356
 30
0.0
 11
140.2009644899
 21
109.8862959356
 31
0.0
  0
LINE
  5
F9
330
40
100
AcDbEntity
  8
0007713
  6
Continuous
 62
     7
100
AcDbLine
 10
140.2009644899
 20
109.8862959356
 30
0.0
 11
140.3673415245
 21
110.3549083548
 31
0.0
  0
LINE
  5
FA
330
40
100
AcDbEntity
  8
0007713
  6
Continuous
 62
     7
100
AcDbLine
 10
140.2009644899
 20
105.8862959356
 30
0.0
 11
140.3673415245
 21
105.4176835164
 31
0.0
  0
LINE
  5
FB
330
40
100
AcDbEntity
  8
0007713
  6
Continuous
 62
     7
100
AcDbLine
 10
139.840699624
 20
109.8862959356
 30
0.0
 11
139.840699624
 21
105.8862959356
 31
0.0
  0
LINE
  5
FC
330
40
100
AcDbEntity
  8
0007713
  6
Continuous
 62
     7
100
AcDbLine
 10
140.3673415245
 20
105.4176835164
 30
0.0
 11
139.840699624
 21
105.8862959356
 31
0.0
  0
LINE
  5
FD
330
40
100
AcDbEntity
  8
0007713
  6
Continuous
 62
     7
100
AcDbLine
 10
140.3673415245
 20
110.3549083548
 30
0.0
 11
139.840699624
 21
109.8862959356
 31
0.0
  0
LINE
  5
FE
330
40
100
AcDbEntity
  8
0007713
  6
Continuous
 62
     7
100
AcDbLine
 10
140.276831326
 20
109.8862959356
 30
0.0
 11
140.2009644899
 21
109.8862959356
 31
0.0
  0
LINE
  5
FF
330
40
100
AcDbEntity
  8
0007713
  6
Continuous
 62
     7
100
AcDbLine
 10
140.6535352417
 20
105.8862959356
 30
0.0
 11
140.7327186627
 21
105.8862959356
 31
0.0
  0
LINE
  5
100
330
40
100
AcDbEntity
  8
0007713
  6
Continuous
 62
     7
100
AcDbLine
 10
140.6535352417
 20
105.8862959356
 30
0.0
 11
140.6535352417
 21
109.8862959356
 31
0.0
  0
LINE
  5
101
330
40
100
AcDbEntity
  8
0007713
  6
Continuous
 62
     7
100
AcDbLine
 10
140.6535352417
 20
109.8862959356
 30
0.0
 11
140.7983236615
 21
110.3549083548
 31
0.0
  0
LINE
  5
102
330
40
100
AcDbEntity
  8
0007713
  6
Continuous
 62
     7
100
AcDbLine
 10
140.6535352417
 20
105.8862959356
 30
0.0
 11
140.7983236615
 21
105.4176835164
 31
0.0
  0
LINE
  5
103
330
40
100
AcDbEntity
  8
0007713
  6
Continuous
 62
     7
100
AcDbLine
 10
140.276831326
 20
109.8862959356
 30
0.0
 11
140.276831326
 21
105.8862959356
 31
0.0
  0
LINE
  5
104
330
40
100
AcDbEntity
  8
0007713
  6
Continuous
 62
     7
100
AcDbLine
 10
140.7983236615
 20
105.4176835164
 30
0.0
 11
140.276831326
 21
105.8862959356
 31
0.0
  0
LINE
  5
105
330
40
100
AcDbEntity
  8
0007713
  6
Continuous
 62
     7
100
AcDbLine
 10
140.7983236615
 20
110.3549083548
 30
0.0
 11
140.276831326
 21
109.8862959356
 31
0.0
  0
LINE
  5
106
330
40
100
AcDbEntity
  8
0007713
  6
Continuous
 62
     7
100
AcDbLine
 10
140.7327186627
 20
109.8862959356
 30
0.0
 11
140.6535352417
 21
109.8862959356
 31
0.0
  0
LINE
  5
107
330
40
100
AcDbEntity
  8
0007713
  6
Continuous
 62
     7
100
AcDbLine
 10
141.1252007615
 20
105.8862959356
 30
0.0
 11
141.2075618528
 21
105.8862959356
 31
0.0
  0
LINE
  5
108
330
40
100
AcDbEntity
  8
0007713
  6
Continuous
 62
     7
100
AcDbLine
 10
141.1252007615
 20
105.8862959356
 30
0.0
 11
141.1252007615
 21
109.8862959356
 31
0.0
  0
LINE
  5
109
330
40
100
AcDbEntity
  8
0007713
  6
Continuous
 62
     7
100
AcDbLine
 10
141.1252007615
 20
109.8862959356
 30
0.0
 11
141.2481465584
 21
110.3549083548
 31
0.0
  0
LINE
  5
10A
330
40
100
AcDbEntity
  8
0007713
  6
Continuous
 62
     7
100
AcDbLine
 10
141.1252007615
 20
105.8862959356
 30
0.0
 11
141.2481465584
 21
105.4176835164
 31
0.0
  0
LINE
  5
10B
330
40
100
AcDbEntity
  8
0007713
  6
Continuous
 62
     7
100
AcDbLine
 10
140.7327186627
 20
109.8862959356
 30
0.0
 11
140.7327186627
 21
105.8862959356
 31
0.0
  0
LINE
  5
10C
330
40
100
AcDbEntity
  8
0007713
  6
Continuous
 62
     7
100
AcDbLine
 10
141.2481465584
 20
105.4176835164
 30
0.0
 11
140.7327186627
 21
105.8862959356
 31
0.0
  0
LINE
  5
10D
330
40
100
AcDbEntity
  8
0007713
  6
Continuous
 62
     7
100
AcDbLine
 10
141.2481465584
 20
110.3549083548
 30
0.0
 11
140.7327186627
 21
109.8862959356
 31
0.0
  0
LINE
  5
10E
330
40
100
AcDbEntity
  8
0007713
  6
Continuous
 62
     7
100
AcDbLine
 10
141.2075618528
 20
109.8862959356
 30
0.0
 11
141.1252007615
 21
109.8862959356
 31
0.0
  0
LINE
  5
10F
330
40
100
AcDbEntity
  8
0007713
  6
Continuous
 62
     7
100
AcDbLine
 10
141.6151335878
 20
105.8862959356
 30
0.0
 11
141.70052786
 21
105.8862959356
 31
0.0
  0
LINE
  5
110
330
40
100
AcDbEntity
  8
0007713
  6
Continuous
 62
     7
100
AcDbLine
 10
141.6151335878
 20
105.8862959356
 30
0.0
 11
141.6151335878
 21
109.8862959356
 31
0.0
  0
LINE
  5
111
330
40
100
AcDbEntity
  8
0007713
  6
Continuous
 62
     7
100
AcDbLine
 10
141.6151335878
 20
109.8862959356
 30
0.0
 11
141.7160210731
 21
110.3549083548
 31
0.0
  0
LINE
  5
112
330
40
100
AcDbEntity
  8
0007713
  6
Continuous
 62
     7
100
AcDbLine
 10
141.6151335878
 20
105.8862959356
 30
0.0
 11
141.7160210731
 21
105.4176835164
 31
0.0
  0
LINE
  5
113
330
40
100
AcDbEntity
  8
0007713
  6
Continuous
 62
     7
100
AcDbLine
 10
141.2075618528
 20
109.8862959356
 30
0.0
 11
141.2075618528
 21
105.8862959356
 31
0.0
  0
LINE
  5
114
330
40
100
AcDbEntity
  8
0007713
  6
Continuous
 62
     7
100
AcDbLine
 10
141.7160210731
 20
105.4176835164
 30
0.0
 11
141.2075618528
 21
105.8862959356
 31
0.0
  0
LINE
  5
115
330
40
100
AcDbEntity
  8
0007713
  6
Continuous
 62
     7
100
AcDbLine
 10
141.7160210731
 20
110.3549083548
 30
0.0
 11
141.2075618528
 21
109.8862959356
 31
0.0
  0
LINE
  5
116
330
40
100
AcDbEntity
  8
0007713
  6
Continuous
 62
     7
100
AcDbLine
 10
141.70052786
 20
109.8862959356
 30
0.0
 11
141.6151335878
 21
109.8862959356
 31
0.0
  0
LINE
  5
117
330
40
100
AcDbEntity
  8
0007713
  6
Continuous
 62
     7
100
AcDbLine
 10
142.1224742119
 20
105.8862959356
 30
0.0
 11
142.2107518544
 21
105.8862959356
 31
0.0
  0
LINE
  5
118
330
40
100
AcDbEntity
  8
0007713
  6
Continuous
 62
     7
100
AcDbLine
 10
142.1224742119
 20
105.8862959356
 30
0.0
 11
142.1224742119
 21
109.8862959356
 31
0.0
  0
LINE
  5
119
330
40
100
AcDbEntity
  8
0007713
  6
Continuous
 62
     7
100
AcDbLine
 10
142.1224742119
 20
109.8862959356
 30
0.0
 11
142.2011263946
 21
110.3549083548
 31
0.0
  0
LINE
  5
11A
330
40
100
AcDbEntity
  8
0007713
  6
Continuous
 62
     7
100
AcDbLine
 10
142.1224742119
 20
105.8862959356
 30
0.0
 11
142.2011263946
 21
105.4176835164
 31
0.0
  0
LINE
  5
11B
330
40
100
AcDbEntity
  8
0007713
  6
Continuous
 62
     7
100
AcDbLine
 10
141.70052786
 20
109.8862959356
 30
0.0
 11
141.70052786
 21
105.8862959356
 31
0.0
  0
LINE
  5
11C
330
40
100
AcDbEntity
  8
0007713
  6
Continuous
 62
     7
100
AcDbLine
 10
142.2011263946
 20
105.4176835164
 30
0.0
 11
141.70052786
 21
105.8862959356
 31
0.0
  0
LINE
  5
11D
330
40
100
AcDbEntity
  8
0007713
  6
Continuous
 62
     7
100
AcDbLine
 10
142.2011263946
 20
110.3549083548
 30
0.0
 11
141.70052786
 21
109.8862959356
 31
0.0
  0
LINE
  5
11E
330
40
100
AcDbEntity
  8
0007713
  6
Continuous
 62
     7
100
AcDbLine
 10
142.2107518544
 20
109.8862959356
 30
0.0
 11
142.1224742119
 21
109.8862959356
 31
0.0
  0
LINE
  5
11F
330
40
100
AcDbEntity
  8
0007713
  6
Continuous
 62
     7
100
AcDbLine
 10
142.6463325859
 20
105.8862959356
 30
0.0
 11
142.7373387299
 21
105.8862959356
 31
0.0
  0
LINE
  5
120
330
40
100
AcDbEntity
  8
0007713
  6
Continuous
 62
     7
100
AcDbLine
 10
142.6463325859
 20
105.8862959356
 30
0.0
 11
142.6463325859
 21
109.8862959356
 31
0.0
  0
LINE
  5
121
330
40
100
AcDbEntity
  8
0007713
  6
Continuous
 62
     7
100
AcDbLine
 10
142.6463325859
 20
109.8862959356
 30
0.0
 11
142.7026114834
 21
110.3549083548
 31
0.0
  0
LINE
  5
122
330
40
100
AcDbEntity
  8
0007713
  6
Continuous
 62
     7
100
AcDbLine
 10
142.6463325859
 20
105.8862959356
 30
0.0
 11
142.7026114834
 21
105.4176835164
 31
0.0
  0
LINE
  5
123
330
40
100
AcDbEntity
  8
0007713
  6
Continuous
 62
     7
100
AcDbLine
 10
142.2107518544
 20
109.8862959356
 30
0.0
 11
142.2107518544
 21
105.8862959356
 31
0.0
  0
LINE
  5
124
330
40
100
AcDbEntity
  8
0007713
  6
Continuous
 62
     7
100
AcDbLine
 10
142.7026114834
 20
105.4176835164
 30
0.0
 11
142.2107518544
 21
105.8862959356
 31
0.0
  0
LINE
  5
125
330
40
100
AcDbEntity
  8
0007713
  6
Continuous
 62
     7
100
AcDbLine
 10
142.7026114834
 20
110.3549083548
 30
0.0
 11
142.2107518544
 21
109.8862959356
 31
0.0
  0
LINE
  5
126
330
40
100
AcDbEntity
  8
0007713
  6
Continuous
 62
     7
100
AcDbLine
 10
142.7373387299
 20
109.8862959356
 30
0.0
 11
142.6463325859
 21
109.8862959356
 31
0.0
  0
LINE
  5
127
330
40
100
AcDbEntity
  8
0007713
  6
Continuous
 62
     7
100
AcDbLine
 10
143.1857896843
 20
105.8862959356
 30
0.0
 11
143.2793646739
 21
105.8862959356
 31
0.0
  0
LINE
  5
128
330
40
100
AcDbEntity
  8
0007713
  6
Continuous
 62
     7
100
AcDbLine
 10
143.1857896843
 20
105.8862959356
 30
0.0
 11
143.1857896843
 21
109.8862959356
 31
0.0
  0
LINE
  5
129
330
40
100
AcDbEntity
  8
0007713
  6
Continuous
 62
     7
100
AcDbLine
 10
143.1857896843
 20
109.8862959356
 30
0.0
 11
143.2195965643
 21
110.3549083548
 31
0.0
  0
LINE
  5
12A
330
40
100
AcDbEntity
  8
0007713
  6
Continuous
 62
     7
100
AcDbLine
 10
143.1857896843
 20
105.8862959356
 30
0.0
 11
143.2195965643
 21
105.4176835164
 31
0.0
  0
LINE
  5
12B
330
40
100
AcDbEntity
  8
0007713
  6
Continuous
 62
     7
100
AcDbLine
 10
142.7373387299
 20
109.8862959356
 30
0.0
 11
142.7373387299
 21
105.8862959356
 31
0.0
  0
LINE
  5
12C
330
40
100
AcDbEntity
  8
0007713
  6
Continuous
 62
     7
100
AcDbLine
 10
143.2195965643
 20
105.4176835164
 30
0.0
 11
142.7373387299
 21
105.8862959356
 31
0.0
  0
LINE
  5
12D
330
40
100
AcDbEntity
  8
0007713
  6
Continuous
 62
     7
100
AcDbLine
 10
143.2195965643
 20
110.3549083548
 30
0.0
 11
142.7373387299
 21
109.8862959356
 31
0.0
  0
LINE
  5
12E
330
40
100
AcDbEntity
  8
0007713
  6
Continuous
 62
     7
100
AcDbLine
 10
143.2793646739
 20
109.8862959356
 30
0.0
 11
143.1857896843
 21
109.8862959356
 31
0.0
  0
LINE
  5
12F
330
40
100
AcDbEntity
  8
0007713
  6
Continuous
 62
     7
100
AcDbLine
 10
143.739899116
 20
105.8862959356
 30
0.0
 11
143.8358787889
 21
105.8862959356
 31
0.0
  0
LINE
  5
130
330
40
100
AcDbEntity
  8
0007713
  6
Continuous
 62
     7
100
AcDbLine
 10
143.739899116
 20
105.8862959356
 30
0.0
 11
143.739899116
 21
109.8862959356
 31
0.0
  0
LINE
  5
131
330
40
100
AcDbEntity
  8
0007713
  6
Continuous
 62
     7
100
AcDbLine
 10
143.739899116
 20
109.8862959356
 30
0.0
 11
143.7511746697
 21
110.3549083548
 31
0.0
  0
LINE
  5
132
330
40
100
AcDbEntity
  8
0007713
  6
Continuous
 62
     7
100
AcDbLine
 10
143.739899116
 20
105.8862959356
 30
0.0
 11
143.7511746697
 21
105.4176835164
 31
0.0
  0
LINE
  5
133
330
40
100
AcDbEntity
  8
0007713
  6
Continuous
 62
     7
100
AcDbLine
 10
143.2793646739
 20
109.8862959356
 30
0.0
 11
143.2793646739
 21
105.8862959356
 31
0.0
  0
LINE
  5
134
330
40
100
AcDbEntity
  8
0007713
  6
Continuous
 62
     7
100
AcDbLine
 10
143.7511746697
 20
105.4176835164
 30
0.0
 11
143.2793646739
 21
105.8862959356
 31
0.0
  0
LINE
  5
135
330
40
100
AcDbEntity
  8
0007713
  6
Continuous
 62
     7
100
AcDbLine
 10
143.7511746697
 20
110.3549083548
 30
0.0
 11
143.2793646739
 21
109.8862959356
 31
0.0
  0
LINE
  5
136
330
40
100
AcDbEntity
  8
0007713
  6
Continuous
 62
     7
100
AcDbLine
 10
143.8358787889
 20
109.8862959356
 30
0.0
 11
143.739899116
 21
109.8862959356
 31
0.0
  0
LINE
  5
137
330
40
100
AcDbEntity
  8
0007713
  6
Continuous
 62
     7
100
AcDbLine
 10
144.3076887847
 20
105.8862959356
 30
0.0
 11
144.4059047601
 21
105.8862959356
 31
0.0
  0
LINE
  5
138
330
40
100
AcDbEntity
  8
0007713
  6
Continuous
 62
     7
100
AcDbLine
 10
144.3076887847
 20
105.8862959356
 30
0.0
 11
144.3076887847
 21
109.8862959356
 31
0.0
  0
LINE
  5
139
330
40
100
AcDbEntity
  8
0007713
  6
Continuous
 62
     7
100
AcDbLine
 10
144.3076887847
 20
109.8862959356
 30
0.0
 11
144.296413231
 21
110.3549083548
 31
0.0
  0
LINE
  5
13A
330
40
100
AcDbEntity
  8
0007713
  6
Continuous
 62
     7
100
AcDbLine
 10
144.296413231
 20
105.4176835164
 30
0.0
 11
144.296413231
 21
110.3549083548
 31
0.0
  0
LINE
  5
13B
330
40
100
AcDbEntity
  8
0007713
  6
Continuous
 62
     7
100
AcDbLine
 10
144.3076887847
 20
105.8862959356
 30
0.0
 11
144.296413231
 21
105.4176835164
 31
0.0
  0
LINE
  5
13C
330
40
100
AcDbEntity
  8
0007713
  6
Continuous
 62
     7
100
AcDbLine
 10
143.8358787889
 20
109.8862959356
 30
0.0
 11
143.8358787889
 21
105.8862959356
 31
0.0
  0
LINE
  5
13D
330
40
100
AcDbEntity
  8
0007713
  6
Continuous
 62
     7
100
AcDbLine
 10
144.296413231
 20
105.4176835164
 30
0.0
 11
143.8358787889
 21
105.8862959356
 31
0.0
  0
LINE
  5
13E
330
40
100
AcDbEntity
  8
0007713
  6
Continuous
 62
     7
100
AcDbLine
 10
144.296413231
 20
110.3549083548
 30
0.0
 11
143.8358787889
 21
109.8862959356
 31
0.0
  0
LINE
  5
13F
330
40
100
AcDbEntity
  8
0007713
  6
Continuous
 62
     7
100
AcDbLine
 10
144.4059047601
 20
109.8862959356
 30
0.0
 11
144.3076887847
 21
109.8862959356
 31
0.0
  0
LINE
  5
140
330
40
100
AcDbEntity
  8
0007713
  6
Continuous
 62
     7
100
AcDbLine
 10
144.8881625945
 20
105.8862959356
 30
0.0
 11
144.988442568
 21
105.8862959356
 31
0.0
  0
LINE
  5
141
330
40
100
AcDbEntity
  8
0007713
  6
Continuous
 62
     7
100
AcDbLine
 10
144.8881625945
 20
105.8862959356
 30
0.0
 11
144.8881625945
 21
109.8862959356
 31
0.0
  0
LINE
  5
142
330
40
100
AcDbEntity
  8
0007713
  6
Continuous
 62
     7
100
AcDbLine
 10
144.8881625945
 20
109.8862959356
 30
0.0
 11
144.8543557145
 21
110.3549083548
 31
0.0
  0
LINE
  5
143
330
40
100
AcDbEntity
  8
0007713
  6
Continuous
 62
     7
100
AcDbLine
 10
144.8543557145
 20
105.4176835164
 30
0.0
 11
144.8543557145
 21
110.3549083548
 31
0.0
  0
LINE
  5
144
330
40
100
AcDbEntity
  8
0007713
  6
Continuous
 62
     7
100
AcDbLine
 10
144.8881625945
 20
105.8862959356
 30
0.0
 11
144.8543557145
 21
105.4176835164
 31
0.0
  0
LINE
  5
145
330
40
100
AcDbEntity
  8
0007713
  6
Continuous
 62
     7
100
AcDbLine
 10
144.4059047601
 20
109.8862959356
 30
0.0
 11
144.4059047601
 21
105.8862959356
 31
0.0
  0
LINE
  5
146
330
40
100
AcDbEntity
  8
0007713
  6
Continuous
 62
     7
100
AcDbLine
 10
144.8543557145
 20
105.4176835164
 30
0.0
 11
144.4059047601
 21
105.8862959356
 31
0.0
  0
LINE
  5
147
330
40
100
AcDbEntity
  8
0007713
  6
Continuous
 62
     7
100
AcDbLine
 10
144.8543557145
 20
110.3549083548
 30
0.0
 11
144.4059047601
 21
109.8862959356
 31
0.0
  0
LINE
  5
148
330
40
100
AcDbEntity
  8
0007713
  6
Continuous
 62
     7
100
AcDbLine
 10
144.988442568
 20
109.8862959356
 30
0.0
 11
144.8881625945
 21
109.8862959356
 31
0.0
  0
LINE
  5
149
330
40
100
AcDbEntity
  8
0007713
  6
Continuous
 62
     7
100
AcDbLine
 10
145.480302197
 20
105.8862959356
 30
0.0
 11
145.5824702436
 21
105.8862959356
 31
0.0
  0
LINE
  5
14A
330
40
100
AcDbEntity
  8
0007713
  6
Continuous
 62
     7
100
AcDbLine
 10
145.480302197
 20
105.8862959356
 30
0.0
 11
145.480302197
 21
109.8862959356
 31
0.0
  0
LINE
  5
14B
330
40
100
AcDbEntity
  8
0007713
  6
Continuous
 62
     7
100
AcDbLine
 10
145.480302197
 20
109.8862959356
 30
0.0
 11
145.4240232995
 21
110.3549083548
 31
0.0
  0
LINE
  5
14C
330
40
100
AcDbEntity
  8
0007713
  6
Continuous
 62
     7
100
AcDbLine
 10
145.4240232995
 20
105.4176835164
 30
0.0
 11
145.4240232995
 21
110.3549083548
 31
0.0
  0
LINE
  5
14D
330
40
100
AcDbEntity
  8
0007713
  6
Continuous
 62
     7
100
AcDbLine
 10
145.480302197
 20
105.8862959356
 30
0.0
 11
145.4240232995
 21
105.4176835164
 31
0.0
  0
LINE
  5
14E
330
40
100
AcDbEntity
  8
0007713
  6
Continuous
 62
     7
100
AcDbLine
 10
144.988442568
 20
109.8862959356
 30
0.0
 11
144.988442568
 21
105.8862959356
 31
0.0
  0
LINE
  5
14F
330
40
100
AcDbEntity
  8
0007713
  6
Continuous
 62
     7
100
AcDbLine
 10
145.4240232995
 20
105.4176835164
 30
0.0
 11
144.988442568
 21
105.8862959356
 31
0.0
  0
LINE
  5
150
330
40
100
AcDbEntity
  8
0007713
  6
Continuous
 62
     7
100
AcDbLine
 10
145.4240232995
 20
110.3549083548
 30
0.0
 11
144.988442568
 21
109.8862959356
 31
0.0
  0
LINE
  5
151
330
40
100
AcDbEntity
  8
0007713
  6
Continuous
 62
     7
100
AcDbLine
 10
145.5824702436
 20
109.8862959356
 30
0.0
 11
145.480302197
 21
109.8862959356
 31
0.0
  0
LINE
  5
152
330
40
100
AcDbEntity
  8
0007713
  6
Continuous
 62
     7
100
AcDbLine
 10
146.0830687782
 20
105.8862959356
 30
0.0
 11
146.1869456603
 21
105.8862959356
 31
0.0
  0
LINE
  5
153
330
40
100
AcDbEntity
  8
0007713
  6
Continuous
 62
     7
100
AcDbLine
 10
146.0830687782
 20
105.8862959356
 30
0.0
 11
146.0830687782
 21
109.8862959356
 31
0.0
  0
LINE
  5
154
330
40
100
AcDbEntity
  8
0007713
  6
Continuous
 62
     7
100
AcDbLine
 10
146.0830687782
 20
109.8862959356
 30
0.0
 11
146.0044165955
 21
110.3549083548
 31
0.0
  0
LINE
  5
155
330
40
100
AcDbEntity
  8
0007713
  6
Continuous
 62
     7
100
AcDbLine
 10
146.0044165955
 20
105.4176835164
 30
0.0
 11
146.0044165955
 21
110.3549083548
 31
0.0
  0
LINE
  5
156
330
40
100
AcDbEntity
  8
0007713
  6
Continuous
 62
     7
100
AcDbLine
 10
146.0830687782
 20
105.8862959356
 30
0.0
 11
146.0044165955
 21
105.4176835164
 31
0.0
  0
LINE
  5
157
330
40
100
AcDbEntity
  8
0007713
  6
Continuous
 62
     7
100
AcDbLine
 10
145.5824702436
 20
109.8862959356
 30
0.0
 11
145.5824702436
 21
105.8862959356
 31
0.0
  0
LINE
  5
158
330
40
100
AcDbEntity
  8
0007713
  6
Continuous
 62
     7
100
AcDbLine
 10
146.0044165955
 20
105.4176835164
 30
0.0
 11
145.5824702436
 21
105.8862959356
 31
0.0
  0
LINE
  5
159
330
40
100
AcDbEntity
  8
0007713
  6
Continuous
 62
     7
100
AcDbLine
 10
146.0044165955
 20
110.3549083548
 30
0.0
 11
145.5824702436
 21
109.8862959356
 31
0.0
  0
LINE
  5
15A
330
40
100
AcDbEntity
  8
0007713
  6
Continuous
 62
     7
100
AcDbLine
 10
146.1869456603
 20
109.8862959356
 30
0.0
 11
146.0830687782
 21
109.8862959356
 31
0.0
  0
LINE
  5
15B
330
40
100
AcDbEntity
  8
0007713
  6
Continuous
 62
     7
100
AcDbLine
 10
146.6954048806
 20
105.8862959356
 30
0.0
 11
146.800808363
 21
105.8862959356
 31
0.0
  0
LINE
  5
15C
330
40
100
AcDbEntity
  8
0007713
  6
Continuous
 62
     7
100
AcDbLine
 10
146.6954048806
 20
105.8862959356
 30
0.0
 11
146.6954048806
 21
109.8862959356
 31
0.0
  0
LINE
  5
15D
330
40
100
AcDbEntity
  8
0007713
  6
Continuous
 62
     7
100
AcDbLine
 10
146.6954048806
 20
109.8862959356
 30
0.0
 11
146.5945173954
 21
110.3549083548
 31
0.0
  0
LINE
  5
15E
330
40
100
AcDbEntity
  8
0007713
  6
Continuous
 62
     7
100
AcDbLine
 10
146.5945173954
 20
105.4176835164
 30
0.0
 11
146.5945173954
 21
110.3549083548
 31
0.0
  0
LINE
  5
15F
330
40
100
AcDbEntity
  8
0007713
  6
Continuous
 62
     7
100
AcDbLine
 10
146.6954048806
 20
105.8862959356
 30
0.0
 11
146.5945173954
 21
105.4176835164
 31
0.0
  0
LINE
  5
160
330
40
100
AcDbEntity
  8
0007713
  6
Continuous
 62
     7
100
AcDbLine
 10
146.1869456603
 20
109.8862959356
 30
0.0
 11
146.1869456603
 21
105.8862959356
 31
0.0
  0
LINE
  5
161
330
40
100
AcDbEntity
  8
0007713
  6
Continuous
 62
     7
100
AcDbLine
 10
146.5945173954
 20
105.4176835164
 30
0.0
 11
146.1869456603
 21
105.8862959356
 31
0.0
  0
LINE
  5
162
330
40
100
AcDbEntity
  8
0007713
  6
Continuous
 62
     7
100
AcDbLine
 10
146.5945173954
 20
110.3549083548
 30
0.0
 11
146.1869456603
 21
109.8862959356
 31
0.0
  0
LINE
  5
163
330
40
100
AcDbEntity
  8
0007713
  6
Continuous
 62
     7
100
AcDbLine
 10
146.800808363
 20
109.8862959356
 30
0.0
 11
146.6954048806
 21
109.8862959356
 31
0.0
  0
LINE
  5
164
330
40
100
AcDbEntity
  8
0007713
  6
Continuous
 62
     7
100
AcDbLine
 10
147.3162362587
 20
105.8862959356
 30
0.0
 11
147.4229814278
 21
105.8862959356
 31
0.0
  0
LINE
  5
165
330
40
100
AcDbEntity
  8
0007713
  6
Continuous
 62
     7
100
AcDbLine
 10
147.3162362587
 20
105.8862959356
 30
0.0
 11
147.3162362587
 21
109.8862959356
 31
0.0
  0
LINE
  5
166
330
40
100
AcDbEntity
  8
0007713
  6
Continuous
 62
     7
100
AcDbLine
 10
147.3162362587
 20
109.8862959356
 30
0.0
 11
147.1932904619
 21
110.3549083548
 31
0.0
  0
LINE
  5
167
330
40
100
AcDbEntity
  8
0007713
  6
Continuous
 62
     7
100
AcDbLine
 10
147.1932904619
 20
105.4176835164
 30
0.0
 11
147.1932904619
 21
110.3549083548
 31
0.0
  0
LINE
  5
168
330
40
100
AcDbEntity
  8
0007713
  6
Continuous
 62
     7
100
AcDbLine
 10
147.3162362587
 20
105.8862959356
 30
0.0
 11
147.1932904619
 21
105.4176835164
 31
0.0
  0
LINE
  5
169
330
40
100
AcDbEntity
  8
0007713
  6
Continuous
 62
     7
100
AcDbLine
 10
146.800808363
 20
109.8862959356
 30
0.0
 11
146.800808363
 21
105.8862959356
 31
0.0
  0
LINE
  5
16A
330
40
100
AcDbEntity
  8
0007713
  6
Continuous
 62
     7
100
AcDbLine
 10
147.1932904619
 20
105.4176835164
 30
0.0
 11
146.800808363
 21
105.8862959356
 31
0.0
  0
LINE
  5
16B
330
40
100
AcDbEntity
  8
0007713
  6
Continuous
 62
     7
100
AcDbLine
 10
147.1932904619
 20
110.3549083548
 30
0.0
 11
146.800808363
 21
109.8862959356
 31
0.0
  0
LINE
  5
16C
330
40
100
AcDbEntity
  8
0007713
  6
Continuous
 62
     7
100
AcDbLine
 10
147.4229814278
 20
109.8862959356
 30
0.0
 11
147.3162362587
 21
109.8862959356
 31
0.0
  0
LINE
  5
16D
330
40
100
AcDbEntity
  8
0007713
  6
Continuous
 62
     7
100
AcDbLine
 10
147.9444737633
 20
105.8862959356
 30
0.0
 11
148.0523733517
 21
105.8862959356
 31
0.0
  0
LINE
  5
16E
330
40
100
AcDbEntity
  8
0007713
  6
Continuous
 62
     7
100
AcDbLine
 10
147.9444737633
 20
105.8862959356
 30
0.0
 11
147.9444737633
 21
109.8862959356
 31
0.0
  0
LINE
  5
16F
330
40
100
AcDbEntity
  8
0007713
  6
Continuous
 62
     7
100
AcDbLine
 10
147.9444737633
 20
109.8862959356
 30
0.0
 11
147.7996853435
 21
110.3549083548
 31
0.0
  0
LINE
  5
170
330
40
100
AcDbEntity
  8
0007713
  6
Continuous
 62
     7
100
AcDbLine
 10
147.7996853435
 20
105.4176835164
 30
0.0
 11
147.7996853435
 21
110.3549083548
 31
0.0
  0
LINE
  5
171
330
40
100
AcDbEntity
  8
0007713
  6
Continuous
 62
     7
100
AcDbLine
 10
147.9444737633
 20
105.8862959356
 30
0.0
 11
147.7996853435
 21
105.4176835164
 31
0.0
  0
LINE
  5
172
330
40
100
AcDbEntity
  8
0007713
  6
Continuous
 62
     7
100
AcDbLine
 10
147.4229814278
 20
109.8862959356
 30
0.0
 11
147.4229814278
 21
105.8862959356
 31
0.0
  0
LINE
  5
173
330
40
100
AcDbEntity
  8
0007713
  6
Continuous
 62
     7
100
AcDbLine
 10
147.7996853435
 20
105.4176835164
 30
0.0
 11
147.4229814278
 21
105.8862959356
 31
0.0
  0
LINE
  5
174
330
40
100
AcDbEntity
  8
0007713
  6
Continuous
 62
     7
100
AcDbLine
 10
147.7996853435
 20
110.3549083548
 30
0.0
 11
147.4229814278
 21
109.8862959356
 31
0.0
  0
LINE
  5
175
330
40
100
AcDbEntity
  8
0007713
  6
Continuous
 62
     7
100
AcDbLine
 10
148.0523733517
 20
109.8862959356
 30
0.0
 11
147.9444737633
 21
109.8862959356
 31
0.0
  0
LINE
  5
176
330
40
100
AcDbEntity
  8
0007713
  6
Continuous
 62
     7
100
AcDbLine
 10
148.5790152522
 20
105.8862959356
 30
0.0
 11
148.6878799676
 21
105.8862959356
 31
0.0
  0
LINE
  5
177
330
40
100
AcDbEntity
  8
0007713
  6
Continuous
 62
     7
100
AcDbLine
 10
148.5790152522
 20
105.8862959356
 30
0.0
 11
148.5790152522
 21
109.8862959356
 31
0.0
  0
LINE
  5
178
330
40
100
AcDbEntity
  8
0007713
  6
Continuous
 62
     7
100
AcDbLine
 10
148.5790152522
 20
109.8862959356
 30
0.0
 11
148.4126382176
 21
110.3549083548
 31
0.0
  0
LINE
  5
179
330
40
100
AcDbEntity
  8
0007713
  6
Continuous
 62
     7
100
AcDbLine
 10
148.4126382176
 20
105.4176835164
 30
0.0
 11
148.4126382176
 21
110.3549083548
 31
0.0
  0
LINE
  5
17A
330
40
100
AcDbEntity
  8
0007713
  6
Continuous
 62
     7
100
AcDbLine
 10
148.5790152522
 20
105.8862959356
 30
0.0
 11
148.4126382176
 21
105.4176835164
 31
0.0
  0
LINE
  5
17B
330
40
100
AcDbEntity
  8
0007713
  6
Continuous
 62
     7
100
AcDbLine
 10
148.0523733517
 20
109.8862959356
 30
0.0
 11
148.0523733517
 21
105.8862959356
 31
0.0
  0
LINE
  5
17C
330
40
100
AcDbEntity
  8
0007713
  6
Continuous
 62
     7
100
AcDbLine
 10
148.4126382176
 20
105.4176835164
 30
0.0
 11
148.0523733517
 21
105.8862959356
 31
0.0
  0
LINE
  5
17D
330
40
100
AcDbEntity
  8
0007713
  6
Continuous
 62
     7
100
AcDbLine
 10
148.4126382176
 20
110.3549083548
 30
0.0
 11
148.0523733517
 21
109.8862959356
 31
0.0
  0
LINE
  5
17E
330
40
100
AcDbEntity
  8
0007713
  6
Continuous
 62
     7
100
AcDbLine
 10
148.6878799676
 20
109.8862959356
 30
0.0
 11
148.5790152522
 21
109.8862959356
 31
0.0
  0
LINE
  5
17F
330
40
100
AcDbEntity
  8
0007713
  6
Continuous
 62
     7
100
AcDbLine
 10
149.2187475242
 20
105.8862959356
 30
0.0
 11
149.3283863807
 21
105.8862959356
 31
0.0
  0
LINE
  5
180
330
40
100
AcDbEntity
  8
0007713
  6
Continuous
 62
     7
100
AcDbLine
 10
149.2187475242
 20
105.8862959356
 30
0.0
 11
149.2187475242
 21
109.8862959356
 31
0.0
  0
LINE
  5
181
330
40
100
AcDbEntity
  8
0007713
  6
Continuous
 62
     7
100
AcDbLine
 10
149.2187475242
 20
109.8862959356
 30
0.0
 11
149.0310737567
 21
110.3549083548
 31
0.0
  0
LINE
  5
182
330
40
100
AcDbEntity
  8
0007713
  6
Continuous
 62
     7
100
AcDbLine
 10
149.0310737567
 20
105.4176835164
 30
0.0
 11
149.0310737567
 21
110.3549083548
 31
0.0
  0
LINE
  5
183
330
40
100
AcDbEntity
  8
0007713
  6
Continuous
 62
     7
100
AcDbLine
 10
149.2187475242
 20
105.8862959356
 30
0.0
 11
149.0310737567
 21
105.4176835164
 31
0.0
  0
LINE
  5
184
330
40
100
AcDbEntity
  8
0007713
  6
Continuous
 62
     7
100
AcDbLine
 10
148.6878799676
 20
109.8862959356
 30
0.0
 11
148.6878799676
 21
105.8862959356
 31
0.0
  0
LINE
  5
185
330
40
100
AcDbEntity
  8
0007713
  6
Continuous
 62
     7
100
AcDbLine
 10
149.0310737567
 20
105.4176835164
 30
0.0
 11
148.6878799676
 21
105.8862959356
 31
0.0
  0
LINE
  5
186
330
40
100
AcDbEntity
  8
0007713
  6
Continuous
 62
     7
100
AcDbLine
 10
149.0310737567
 20
110.3549083548
 30
0.0
 11
148.6878799676
 21
109.8862959356
 31
0.0
  0
LINE
  5
187
330
40
100
AcDbEntity
  8
0007713
  6
Continuous
 62
     7
100
AcDbLine
 10
149.3283863807
 20
109.8862959356
 30
0.0
 11
149.2187475242
 21
109.8862959356
 31
0.0
  0
LINE
  5
188
330
40
100
AcDbEntity
  8
0007713
  6
Continuous
 62
     7
100
AcDbLine
 10
149.8625482714
 20
105.8862959356
 30
0.0
 11
149.9727689253
 21
105.8862959356
 31
0.0
  0
LINE
  5
189
330
40
100
AcDbEntity
  8
0007713
  6
Continuous
 62
     7
100
AcDbLine
 10
149.8625482714
 20
105.8862959356
 30
0.0
 11
149.8625482714
 21
109.8862959356
 31
0.0
  0
LINE
  5
18A
330
40
100
AcDbEntity
  8
0007713
  6
Continuous
 62
     7
100
AcDbLine
 10
149.8625482714
 20
109.8862959356
 30
0.0
 11
149.6539070144
 21
110.3549083548
 31
0.0
  0
LINE
  5
18B
330
40
100
AcDbEntity
  8
0007713
  6
Continuous
 62
     7
100
AcDbLine
 10
149.6539070144
 20
105.4176835164
 30
0.0
 11
149.6539070144
 21
110.3549083548
 31
0.0
  0
LINE
  5
18C
330
40
100
AcDbEntity
  8
0007713
  6
Continuous
 62
     7
100
AcDbLine
 10
149.8625482714
 20
105.8862959356
 30
0.0
 11
149.6539070144
 21
105.4176835164
 31
0.0
  0
LINE
  5
18D
330
40
100
AcDbEntity
  8
0007713
  6
Continuous
 62
     7
100
AcDbLine
 10
149.3283863807
 20
109.8862959356
 30
0.0
 11
149.3283863807
 21
105.8862959356
 31
0.0
  0
LINE
  5
18E
330
40
100
AcDbEntity
  8
0007713
  6
Continuous
 62
     7
100
AcDbLine
 10
149.6539070144
 20
105.4176835164
 30
0.0
 11
149.3283863807
 21
105.8862959356
 31
0.0
  0
LINE
  5
18F
330
40
100
AcDbEntity
  8
0007713
  6
Continuous
 62
     7
100
AcDbLine
 10
149.6539070144
 20
110.3549083548
 30
0.0
 11
149.3283863807
 21
109.8862959356
 31
0.0
  0
LINE
  5
190
330
40
100
AcDbEntity
  8
0007713
  6
Continuous
 62
     7
100
AcDbLine
 10
149.9727689253
 20
109.8862959356
 30
0.0
 11
149.8625482714
 21
109.8862959356
 31
0.0
  0
LINE
  5
191
330
40
100
AcDbEntity
  8
0007713
  6
Continuous
 62
     7
100
AcDbLine
 10
150.5092880486
 20
105.8862959356
 30
0.0
 11
150.6198971353
 21
105.8862959356
 31
0.0
  0
LINE
  5
192
330
40
100
AcDbEntity
  8
0007713
  6
Continuous
 62
     7
100
AcDbLine
 10
150.5092880486
 20
105.8862959356
 30
0.0
 11
150.5092880486
 21
109.8862959356
 31
0.0
  0
LINE
  5
193
330
40
100
AcDbEntity
  8
0007713
  6
Continuous
 62
     7
100
AcDbLine
 10
150.5092880486
 20
109.8862959356
 30
0.0
 11
150.2800453298
 21
110.3549083548
 31
0.0
  0
LINE
  5
194
330
40
100
AcDbEntity
  8
0007713
  6
Continuous
 62
     7
100
AcDbLine
 10
150.2800453298
 20
105.4176835164
 30
0.0
 11
150.2800453298
 21
110.3549083548
 31
0.0
  0
LINE
  5
195
330
40
100
AcDbEntity
  8
0007713
  6
Continuous
 62
     7
100
AcDbLine
 10
150.5092880486
 20
105.8862959356
 30
0.0
 11
150.2800453298
 21
105.4176835164
 31
0.0
  0
LINE
  5
196
330
40
100
AcDbEntity
  8
0007713
  6
Continuous
 62
     7
100
AcDbLine
 10
149.9727689253
 20
109.8862959356
 30
0.0
 11
149.9727689253
 21
105.8862959356
 31
0.0
  0
LINE
  5
197
330
40
100
AcDbEntity
  8
0007713
  6
Continuous
 62
     7
100
AcDbLine
 10
150.2800453298
 20
105.4176835164
 30
0.0
 11
149.9727689253
 21
105.8862959356
 31
0.0
  0
LINE
  5
198
330
40
100
AcDbEntity
  8
0007713
  6
Continuous
 62
     7
100
AcDbLine
 10
150.2800453298
 20
110.3549083548
 30
0.0
 11
149.9727689253
 21
109.8862959356
 31
0.0
  0
LINE
  5
199
330
40
100
AcDbEntity
  8
0007713
  6
Continuous
 62
     7
100
AcDbLine
 10
150.6198971353
 20
109.8862959356
 30
0.0
 11
150.5092880486
 21
109.8862959356
 31
0.0
  0
LINE
  5
19A
330
40
100
AcDbEntity
  8
0007713
  6
Continuous
 62
     7
100
AcDbLine
 10
151.1578322543
 20
105.8862959356
 30
0.0
 11
151.268635728
 21
105.8862959356
 31
0.0
  0
LINE
  5
19B
330
40
100
AcDbEntity
  8
0007713
  6
Continuous
 62
     7
100
AcDbLine
 10
151.1578322543
 20
105.8862959356
 30
0.0
 11
151.1578322543
 21
109.8862959356
 31
0.0
  0
LINE
  5
19C
330
40
100
AcDbEntity
  8
0007713
  6
Continuous
 62
     7
100
AcDbLine
 10
151.1578322543
 20
109.8862959356
 30
0.0
 11
150.9083902435
 21
110.3549083548
 31
0.0
  0
LINE
  5
19D
330
40
100
AcDbEntity
  8
0007713
  6
Continuous
 62
     7
100
AcDbLine
 10
150.9083902435
 20
105.4176835164
 30
0.0
 11
150.9083902435
 21
110.3549083548
 31
0.0
  0
LINE
  5
19E
330
40
100
AcDbEntity
  8
0007713
  6
Continuous
 62
     7
100
AcDbLine
 10
151.1578322543
 20
105.8862959356
 30
0.0
 11
150.9083902435
 21
105.4176835164
 31
0.0
  0
LINE
  5
19F
330
40
100
AcDbEntity
  8
0007713
  6
Continuous
 62
     7
100
AcDbLine
 10
150.6198971353
 20
109.8862959356
 30
0.0
 11
150.6198971353
 21
105.8862959356
 31
0.0
  0
LINE
  5
1A0
330
40
100
AcDbEntity
  8
0007713
  6
Continuous
 62
     7
100
AcDbLine
 10
150.9083902435
 20
105.4176835164
 30
0.0
 11
150.6198971353
 21
105.8862959356
 31
0.0
  0
LINE
  5
1A1
330
40
100
AcDbEntity
  8
0007713
  6
Continuous
 62
     7
100
AcDbLine
 10
150.9083902435
 20
110.3549083548
 30
0.0
 11
150.6198971353
 21
109.8862959356
 31
0.0
  0
LINE
  5
1A2
330
40
100
AcDbEntity
  8
0007713
  6
Continuous
 62
     7
100
AcDbLine
 10
151.268635728
 20
109.8862959356
 30
0.0
 11
151.1578322543
 21
109.8862959356
 31
0.0
  0
LINE
  5
1A3
330
40
100
AcDbEntity
  8
0007713
  6
Continuous
 62
     7
100
AcDbLine
 10
151.8070431218
 20
105.8862959356
 30
0.0
 11
151.9178465955
 21
105.8862959356
 31
0.0
  0
LINE
  5
1A4
330
40
100
AcDbEntity
  8
0007713
  6
Continuous
 62
     7
100
AcDbLine
 10
151.8070431218
 20
105.8862959356
 30
0.0
 11
151.8070431218
 21
109.8862959356
 31
0.0
  0
LINE
  5
1A5
330
40
100
AcDbEntity
  8
0007713
  6
Continuous
 62
     7
100
AcDbLine
 10
151.8070431218
 20
109.8862959356
 30
0.0
 11
151.5378394249
 21
110.3549083548
 31
0.0
  0
LINE
  5
1A6
330
40
100
AcDbEntity
  8
0007713
  6
Continuous
 62
     7
100
AcDbLine
 10
151.5378394249
 20
105.4176835164
 30
0.0
 11
151.5378394249
 21
110.3549083548
 31
0.0
  0
LINE
  5
1A7
330
40
100
AcDbEntity
  8
0007713
  6
Continuous
 62
     7
100
AcDbLine
 10
151.8070431218
 20
105.8862959356
 30
0.0
 11
151.5378394249
 21
105.4176835164
 31
0.0
  0
LINE
  5
1A8
330
40
100
AcDbEntity
  8
0007713
  6
Continuous
 62
     7
100
AcDbLine
 10
151.268635728
 20
109.8862959356
 30
0.0
 11
151.268635728
 21
105.8862959356
 31
0.0
  0
LINE
  5
1A9
330
40
100
AcDbEntity
  8
0007713
  6
Continuous
 62
     7
100
AcDbLine
 10
151.5378394249
 20
105.4176835164
 30
0.0
 11
151.268635728
 21
105.8862959356
 31
0.0
  0
LINE
  5
1AA
330
40
100
AcDbEntity
  8
0007713
  6
Continuous
 62
     7
100
AcDbLine
 10
151.5378394249
 20
110.3549083548
 30
0.0
 11
151.268635728
 21
109.8862959356
 31
0.0
  0
LINE
  5
1AB
330
40
100
AcDbEntity
  8
0007713
  6
Continuous
 62
     7
100
AcDbLine
 10
151.9178465955
 20
109.8862959356
 30
0.0
 11
151.8070431218
 21
109.8862959356
 31
0.0
  0
LINE
  5
1AC
330
40
100
AcDbEntity
  8
0007713
  6
Continuous
 62
     7
100
AcDbLine
 10
152.4557817145
 20
105.8862959356
 30
0.0
 11
152.5663908012
 21
105.8862959356
 31
0.0
  0
LINE
  5
1AD
330
40
100
AcDbEntity
  8
0007713
  6
Continuous
 62
     7
100
AcDbLine
 10
152.4557817145
 20
105.8862959356
 30
0.0
 11
152.4557817145
 21
109.8862959356
 31
0.0
  0
LINE
  5
1AE
330
40
100
AcDbEntity
  8
0007713
  6
Continuous
 62
     7
100
AcDbLine
 10
152.4557817145
 20
109.8862959356
 30
0.0
 11
152.1672886063
 21
110.3549083548
 31
0.0
  0
LINE
  5
1AF
330
40
100
AcDbEntity
  8
0007713
  6
Continuous
 62
     7
100
AcDbLine
 10
152.1672886063
 20
105.4176835164
 30
0.0
 11
152.1672886063
 21
110.3549083548
 31
0.0
  0
LINE
  5
1B0
330
40
100
AcDbEntity
  8
0007713
  6
Continuous
 62
     7
100
AcDbLine
 10
152.4557817145
 20
105.8862959356
 30
0.0
 11
152.1672886063
 21
105.4176835164
 31
0.0
  0
LINE
  5
1B1
330
40
100
AcDbEntity
  8
0007713
  6
Continuous
 62
     7
100
AcDbLine
 10
151.9178465955
 20
109.8862959356
 30
0.0
 11
151.9178465955
 21
105.8862959356
 31
0.0
  0
LINE
  5
1B2
330
40
100
AcDbEntity
  8
0007713
  6
Continuous
 62
     7
100
AcDbLine
 10
152.1672886063
 20
105.4176835164
 30
0.0
 11
151.9178465955
 21
105.8862959356
 31
0.0
  0
LINE
  5
1B3
330
40
100
AcDbEntity
  8
0007713
  6
Continuous
 62
     7
100
AcDbLine
 10
152.1672886063
 20
110.3549083548
 30
0.0
 11
151.9178465955
 21
109.8862959356
 31
0.0
  0
LINE
  5
1B4
330
40
100
AcDbEntity
  8
0007713
  6
Continuous
 62
     7
100
AcDbLine
 10
152.5663908012
 20
109.8862959356
 30
0.0
 11
152.4557817145
 21
109.8862959356
 31
0.0
  0
LINE
  5
1B5
330
40
100
AcDbEntity
  8
0007713
  6
Continuous
 62
     7
100
AcDbLine
 10
153.1029099245
 20
105.8862959356
 30
0.0
 11
153.2131305784
 21
105.8862959356
 31
0.0
  0
LINE
  5
1B6
330
40
100
AcDbEntity
  8
0007713
  6
Continuous
 62
     7
100
AcDbLine
 10
153.1029099245
 20
105.8862959356
 30
0.0
 11
153.1029099245
 21
109.8862959356
 31
0.0
  0
LINE
  5
1B7
330
40
100
AcDbEntity
  8
0007713
  6
Continuous
 62
     7
100
AcDbLine
 10
153.1029099245
 20
109.8862959356
 30
0.0
 11
152.79563352
 21
110.3549083548
 31
0.0
  0
LINE
  5
1B8
330
40
100
AcDbEntity
  8
0007713
  6
Continuous
 62
     7
100
AcDbLine
 10
152.79563352
 20
105.4176835164
 30
0.0
 11
152.79563352
 21
110.3549083548
 31
0.0
  0
LINE
  5
1B9
330
40
100
AcDbEntity
  8
0007713
  6
Continuous
 62
     7
100
AcDbLine
 10
153.1029099245
 20
105.8862959356
 30
0.0
 11
152.79563352
 21
105.4176835164
 31
0.0
  0
LINE
  5
1BA
330
40
100
AcDbEntity
  8
0007713
  6
Continuous
 62
     7
100
AcDbLine
 10
152.5663908012
 20
109.8862959356
 30
0.0
 11
152.5663908012
 21
105.8862959356
 31
0.0
  0
LINE
  5
1BB
330
40
100
AcDbEntity
  8
0007713
  6
Continuous
 62
     7
100
AcDbLine
 10
152.79563352
 20
105.4176835164
 30
0.0
 11
152.5663908012
 21
105.8862959356
 31
0.0
  0
LINE
  5
1BC
330
40
100
AcDbEntity
  8
0007713
  6
Continuous
 62
     7
100
AcDbLine
 10
152.79563352
 20
110.3549083548
 30
0.0
 11
152.5663908012
 21
109.8862959356
 31
0.0
  0
LINE
  5
1BD
330
40
100
AcDbEntity
  8
0007713
  6
Continuous
 62
     7
100
AcDbLine
 10
153.2131305784
 20
109.8862959356
 30
0.0
 11
153.1029099245
 21
109.8862959356
 31
0.0
  0
LINE
  5
1BE
330
40
100
AcDbEntity
  8
0007713
  6
Continuous
 62
     7
100
AcDbLine
 10
153.7472924691
 20
105.8862959356
 30
0.0
 11
153.8569313256
 21
105.8862959356
 31
0.0
  0
LINE
  5
1BF
330
40
100
AcDbEntity
  8
0007713
  6
Continuous
 62
     7
100
AcDbLine
 10
153.7472924691
 20
105.8862959356
 30
0.0
 11
153.7472924691
 21
109.8862959356
 31
0.0
  0
LINE
  5
1C0
330
40
100
AcDbEntity
  8
0007713
  6
Continuous
 62
     7
100
AcDbLine
 10
153.7472924691
 20
109.8862959356
 30
0.0
 11
153.4217718354
 21
110.3549083548
 31
0.0
  0
LINE
  5
1C1
330
40
100
AcDbEntity
  8
0007713
  6
Continuous
 62
     7
100
AcDbLine
 10
153.4217718354
 20
105.4176835164
 30
0.0
 11
153.4217718354
 21
110.3549083548
 31
0.0
  0
LINE
  5
1C2
330
40
100
AcDbEntity
  8
0007713
  6
Continuous
 62
     7
100
AcDbLine
 10
153.7472924691
 20
105.8862959356
 30
0.0
 11
153.4217718354
 21
105.4176835164
 31
0.0
  0
LINE
  5
1C3
330
40
100
AcDbEntity
  8
0007713
  6
Continuous
 62
     7
100
AcDbLine
 10
153.2131305784
 20
109.8862959356
 30
0.0
 11
153.2131305784
 21
105.8862959356
 31
0.0
  0
LINE
  5
1C4
330
40
100
AcDbEntity
  8
0007713
  6
Continuous
 62
     7
100
AcDbLine
 10
153.4217718354
 20
105.4176835164
 30
0.0
 11
153.2131305784
 21
105.8862959356
 31
0.0
  0
LINE
  5
1C5
330
40
100
AcDbEntity
  8
0007713
  6
Continuous
 62
     7
100
AcDbLine
 10
153.4217718354
 20
110.3549083548
 30
0.0
 11
153.2131305784
 21
109.8862959356
 31
0.0
  0
LINE
  5
1C6
330
40
100
AcDbEntity
  8
0007713
  6
Continuous
 62
     7
100
AcDbLine
 10
153.8569313256
 20
109.8862959356
 30
0.0
 11
153.7472924691
 21
109.8862959356
 31
0.0
  0
LINE
  5
1C7
330
40
100
AcDbEntity
  8
0007713
  6
Continuous
 62
     7
100
AcDbLine
 10
154.3877988822
 20
105.8862959356
 30
0.0
 11
154.4966635976
 21
105.8862959356
 31
0.0
  0
LINE
  5
1C8
330
40
100
AcDbEntity
  8
0007713
  6
Continuous
 62
     7
100
AcDbLine
 10
154.3877988822
 20
105.8862959356
 30
0.0
 11
154.3877988822
 21
109.8862959356
 31
0.0
  0
LINE
  5
1C9
330
40
100
AcDbEntity
  8
0007713
  6
Continuous
 62
     7
100
AcDbLine
 10
154.3877988822
 20
109.8862959356
 30
0.0
 11
154.0446050931
 21
110.3549083548
 31
0.0
  0
LINE
  5
1CA
330
40
100
AcDbEntity
  8
0007713
  6
Continuous
 62
     7
100
AcDbLine
 10
154.0446050931
 20
105.4176835164
 30
0.0
 11
154.0446050931
 21
110.3549083548
 31
0.0
  0
LINE
  5
1CB
330
40
100
AcDbEntity
  8
0007713
  6
Continuous
 62
     7
100
AcDbLine
 10
154.3877988822
 20
105.8862959356
 30
0.0
 11
154.0446050931
 21
105.4176835164
 31
0.0
  0
LINE
  5
1CC
330
40
100
AcDbEntity
  8
0007713
  6
Continuous
 62
     7
100
AcDbLine
 10
153.8569313256
 20
109.8862959356
 30
0.0
 11
153.8569313256
 21
105.8862959356
 31
0.0
  0
LINE
  5
1CD
330
40
100
AcDbEntity
  8
0007713
  6
Continuous
 62
     7
100
AcDbLine
 10
154.0446050931
 20
105.4176835164
 30
0.0
 11
153.8569313256
 21
105.8862959356
 31
0.0
  0
LINE
  5
1CE
330
40
100
AcDbEntity
  8
0007713
  6
Continuous
 62
     7
100
AcDbLine
 10
154.0446050931
 20
110.3549083548
 30
0.0
 11
153.8569313256
 21
109.8862959356
 31
0.0
  0
LINE
  5
1CF
330
40
100
AcDbEntity
  8
0007713
  6
Continuous
 62
     7
100
AcDbLine
 10
154.4966635976
 20
109.8862959356
 30
0.0
 11
154.3877988822
 21
109.8862959356
 31
0.0
  0
LINE
  5
1D0
330
40
100
AcDbEntity
  8
0007713
  6
Continuous
 62
     7
100
AcDbLine
 10
155.0233054981
 20
105.8862959356
 30
0.0
 11
155.1312050865
 21
105.8862959356
 31
0.0
  0
LINE
  5
1D1
330
40
100
AcDbEntity
  8
0007713
  6
Continuous
 62
     7
100
AcDbLine
 10
155.0233054981
 20
105.8862959356
 30
0.0
 11
155.0233054981
 21
109.8862959356
 31
0.0
  0
LINE
  5
1D2
330
40
100
AcDbEntity
  8
0007713
  6
Continuous
 62
     7
100
AcDbLine
 10
155.0233054981
 20
109.8862959356
 30
0.0
 11
154.6630406322
 21
110.3549083548
 31
0.0
  0
LINE
  5
1D3
330
40
100
AcDbEntity
  8
0007713
  6
Continuous
 62
     7
100
AcDbLine
 10
154.6630406322
 20
105.4176835164
 30
0.0
 11
154.6630406322
 21
110.3549083548
 31
0.0
  0
LINE
  5
1D4
330
40
100
AcDbEntity
  8
0007713
  6
Continuous
 62
     7
100
AcDbLine
 10
155.0233054981
 20
105.8862959356
 30
0.0
 11
154.6630406322
 21
105.4176835164
 31
0.0
  0
LINE
  5
1D5
330
40
100
AcDbEntity
  8
0007713
  6
Continuous
 62
     7
100
AcDbLine
 10
154.4966635976
 20
109.8862959356
 30
0.0
 11
154.4966635976
 21
105.8862959356
 31
0.0
  0
LINE
  5
1D6
330
40
100
AcDbEntity
  8
0007713
  6
Continuous
 62
     7
100
AcDbLine
 10
154.6630406322
 20
105.4176835164
 30
0.0
 11
154.4966635976
 21
105.8862959356
 31
0.0
  0
LINE
  5
1D7
330
40
100
AcDbEntity
  8
0007713
  6
Continuous
 62
     7
100
AcDbLine
 10
154.6630406322
 20
110.3549083548
 30
0.0
 11
154.4966635976
 21
109.8862959356
 31
0.0
  0
LINE
  5
1D8
330
40
100
AcDbEntity
  8
0007713
  6
Continuous
 62
     7
100
AcDbLine
 10
155.1312050865
 20
109.8862959356
 30
0.0
 11
155.0233054981
 21
109.8862959356
 31
0.0
  0
LINE
  5
1D9
330
40
100
AcDbEntity
  8
0007713
  6
Continuous
 62
     7
100
AcDbLine
 10
155.652697422
 20
105.8862959356
 30
0.0
 11
155.7594425911
 21
105.8862959356
 31
0.0
  0
LINE
  5
1DA
330
40
100
AcDbEntity
  8
0007713
  6
Continuous
 62
     7
100
AcDbLine
 10
155.652697422
 20
105.8862959356
 30
0.0
 11
155.652697422
 21
109.8862959356
 31
0.0
  0
LINE
  5
1DB
330
40
100
AcDbEntity
  8
0007713
  6
Continuous
 62
     7
100
AcDbLine
 10
155.652697422
 20
109.8862959356
 30
0.0
 11
155.2759935063
 21
110.3549083548
 31
0.0
  0
LINE
  5
1DC
330
40
100
AcDbEntity
  8
0007713
  6
Continuous
 62
     7
100
AcDbLine
 10
155.2759935063
 20
105.4176835164
 30
0.0
 11
155.2759935063
 21
110.3549083548
 31
0.0
  0
LINE
  5
1DD
330
40
100
AcDbEntity
  8
0007713
  6
Continuous
 62
     7
100
AcDbLine
 10
155.652697422
 20
105.8862959356
 30
0.0
 11
155.2759935063
 21
105.4176835164
 31
0.0
  0
LINE
  5
1DE
330
40
100
AcDbEntity
  8
0007713
  6
Continuous
 62
     7
100
AcDbLine
 10
155.1312050865
 20
109.8862959356
 30
0.0
 11
155.1312050865
 21
105.8862959356
 31
0.0
  0
LINE
  5
1DF
330
40
100
AcDbEntity
  8
0007713
  6
Continuous
 62
     7
100
AcDbLine
 10
155.2759935063
 20
105.4176835164
 30
0.0
 11
155.1312050865
 21
105.8862959356
 31
0.0
  0
LINE
  5
1E0
330
40
100
AcDbEntity
  8
0007713
  6
Continuous
 62
     7
100
AcDbLine
 10
155.2759935063
 20
110.3549083548
 30
0.0
 11
155.1312050865
 21
109.8862959356
 31
0.0
  0
LINE
  5
1E1
330
40
100
AcDbEntity
  8
0007713
  6
Continuous
 62
     7
100
AcDbLine
 10
155.7594425911
 20
109.8862959356
 30
0.0
 11
155.652697422
 21
109.8862959356
 31
0.0
  0
LINE
  5
1E2
330
40
100
AcDbEntity
  8
0007713
  6
Continuous
 62
     7
100
AcDbLine
 10
156.2748704868
 20
105.8862959356
 30
0.0
 11
156.3802739692
 21
105.8862959356
 31
0.0
  0
LINE
  5
1E3
330
40
100
AcDbEntity
  8
0007713
  6
Continuous
 62
     7
100
AcDbLine
 10
156.2748704868
 20
105.8862959356
 30
0.0
 11
156.2748704868
 21
109.8862959356
 31
0.0
  0
LINE
  5
1E4
330
40
100
AcDbEntity
  8
0007713
  6
Continuous
 62
     7
100
AcDbLine
 10
156.2748704868
 20
109.8862959356
 30
0.0
 11
155.8823883879
 21
110.3549083548
 31
0.0
  0
LINE
  5
1E5
330
40
100
AcDbEntity
  8
0007713
  6
Continuous
 62
     7
100
AcDbLine
 10
155.8823883879
 20
105.4176835164
 30
0.0
 11
155.8823883879
 21
110.3549083548
 31
0.0
  0
LINE
  5
1E6
330
40
100
AcDbEntity
  8
0007713
  6
Continuous
 62
     7
100
AcDbLine
 10
156.2748704868
 20
105.8862959356
 30
0.0
 11
155.8823883879
 21
105.4176835164
 31
0.0
  0
LINE
  5
1E7
330
40
100
AcDbEntity
  8
0007713
  6
Continuous
 62
     7
100
AcDbLine
 10
155.7594425911
 20
109.8862959356
 30
0.0
 11
155.7594425911
 21
105.8862959356
 31
0.0
  0
LINE
  5
1E8
330
40
100
AcDbEntity
  8
0007713
  6
Continuous
 62
     7
100
AcDbLine
 10
155.8823883879
 20
105.4176835164
 30
0.0
 11
155.7594425911
 21
105.8862959356
 31
0.0
  0
LINE
  5
1E9
330
40
100
AcDbEntity
  8
0007713
  6
Continuous
 62
     7
100
AcDbLine
 10
155.8823883879
 20
110.3549083548
 30
0.0
 11
155.7594425911
 21
109.8862959356
 31
0.0
  0
LINE
  5
1EA
330
40
100
AcDbEntity
  8
0007713
  6
Continuous
 62
     7
100
AcDbLine
 10
156.3802739692
 20
109.8862959356
 30
0.0
 11
156.2748704868
 21
109.8862959356
 31
0.0
  0
LINE
  5
1EB
330
40
100
AcDbEntity
  8
0007713
  6
Continuous
 62
     7
100
AcDbLine
 10
156.8887331895
 20
105.8862959356
 30
0.0
 11
156.9926100716
 21
105.8862959356
 31
0.0
  0
LINE
  5
1EC
330
40
100
AcDbEntity
  8
0007713
  6
Continuous
 62
     7
100
AcDbLine
 10
156.8887331895
 20
105.8862959356
 30
0.0
 11
156.8887331895
 21
109.8862959356
 31
0.0
  0
LINE
  5
1ED
330
40
100
AcDbEntity
  8
0007713
  6
Continuous
 62
     7
100
AcDbLine
 10
156.8887331895
 20
109.8862959356
 30
0.0
 11
156.4811614544
 21
110.3549083548
 31
0.0
  0
LINE
  5
1EE
330
40
100
AcDbEntity
  8
0007713
  6
Continuous
 62
     7
100
AcDbLine
 10
156.4811614544
 20
105.4176835164
 30
0.0
 11
156.4811614544
 21
110.3549083548
 31
0.0
  0
LINE
  5
1EF
330
40
100
AcDbEntity
  8
0007713
  6
Continuous
 62
     7
100
AcDbLine
 10
156.8887331895
 20
105.8862959356
 30
0.0
 11
156.4811614544
 21
105.4176835164
 31
0.0
  0
LINE
  5
1F0
330
40
100
AcDbEntity
  8
0007713
  6
Continuous
 62
     7
100
AcDbLine
 10
156.3802739692
 20
109.8862959356
 30
0.0
 11
156.3802739692
 21
105.8862959356
 31
0.0
  0
LINE
  5
1F1
330
40
100
AcDbEntity
  8
0007713
  6
Continuous
 62
     7
100
AcDbLine
 10
156.4811614544
 20
105.4176835164
 30
0.0
 11
156.3802739692
 21
105.8862959356
 31
0.0
  0
LINE
  5
1F2
330
40
100
AcDbEntity
  8
0007713
  6
Continuous
 62
     7
100
AcDbLine
 10
156.4811614544
 20
110.3549083548
 30
0.0
 11
156.3802739692
 21
109.8862959356
 31
0.0
  0
LINE
  5
1F3
330
40
100
AcDbEntity
  8
0007713
  6
Continuous
 62
     7
100
AcDbLine
 10
156.9926100716
 20
109.8862959356
 30
0.0
 11
156.8887331895
 21
109.8862959356
 31
0.0
  0
LINE
  5
1F4
330
40
100
AcDbEntity
  8
0007713
  6
Continuous
 62
     7
100
AcDbLine
 10
157.4932086062
 20
105.8862959356
 30
0.0
 11
157.5953766528
 21
105.8862959356
 31
0.0
  0
LINE
  5
1F5
330
40
100
AcDbEntity
  8
0007713
  6
Continuous
 62
     7
100
AcDbLine
 10
157.4932086062
 20
105.8862959356
 30
0.0
 11
157.4932086062
 21
109.8862959356
 31
0.0
  0
LINE
  5
1F6
330
40
100
AcDbEntity
  8
0007713
  6
Continuous
 62
     7
100
AcDbLine
 10
157.4932086062
 20
109.8862959356
 30
0.0
 11
157.0712622543
 21
110.3549083548
 31
0.0
  0
LINE
  5
1F7
330
40
100
AcDbEntity
  8
0007713
  6
Continuous
 62
     7
100
AcDbLine
 10
157.0712622543
 20
105.4176835164
 30
0.0
 11
157.0712622543
 21
110.3549083548
 31
0.0
  0
LINE
  5
1F8
330
40
100
AcDbEntity
  8
0007713
  6
Continuous
 62
     7
100
AcDbLine
 10
157.4932086062
 20
105.8862959356
 30
0.0
 11
157.0712622543
 21
105.4176835164
 31
0.0
  0
LINE
  5
1F9
330
40
100
AcDbEntity
  8
0007713
  6
Continuous
 62
     7
100
AcDbLine
 10
156.9926100716
 20
109.8862959356
 30
0.0
 11
156.9926100716
 21
105.8862959356
 31
0.0
  0
LINE
  5
1FA
330
40
100
AcDbEntity
  8
0007713
  6
Continuous
 62
     7
100
AcDbLine
 10
157.0712622543
 20
105.4176835164
 30
0.0
 11
156.9926100716
 21
105.8862959356
 31
0.0
  0
LINE
  5
1FB
330
40
100
AcDbEntity
  8
0007713
  6
Continuous
 62
     7
100
AcDbLine
 10
157.0712622543
 20
110.3549083548
 30
0.0
 11
156.9926100716
 21
109.8862959356
 31
0.0
  0
LINE
  5
1FC
330
40
100
AcDbEntity
  8
0007713
  6
Continuous
 62
     7
100
AcDbLine
 10
157.5953766528
 20
109.8862959356
 30
0.0
 11
157.4932086062
 21
109.8862959356
 31
0.0
  0
LINE
  5
1FD
330
40
100
AcDbEntity
  8
0007713
  6
Continuous
 62
     7
100
AcDbLine
 10
158.0872362818
 20
105.8862959356
 30
0.0
 11
158.1875162553
 21
105.8862959356
 31
0.0
  0
LINE
  5
1FE
330
40
100
AcDbEntity
  8
0007713
  6
Continuous
 62
     7
100
AcDbLine
 10
158.0872362818
 20
105.8862959356
 30
0.0
 11
158.0872362818
 21
109.8862959356
 31
0.0
  0
LINE
  5
1FF
330
40
100
AcDbEntity
  8
0007713
  6
Continuous
 62
     7
100
AcDbLine
 10
158.0872362818
 20
109.8862959356
 30
0.0
 11
157.6516555503
 21
110.3549083548
 31
0.0
  0
LINE
  5
200
330
40
100
AcDbEntity
  8
0007713
  6
Continuous
 62
     7
100
AcDbLine
 10
157.6516555503
 20
105.4176835164
 30
0.0
 11
157.6516555503
 21
110.3549083548
 31
0.0
  0
LINE
  5
201
330
40
100
AcDbEntity
  8
0007713
  6
Continuous
 62
     7
100
AcDbLine
 10
158.0872362818
 20
105.8862959356
 30
0.0
 11
157.6516555503
 21
105.4176835164
 31
0.0
  0
LINE
  5
202
330
40
100
AcDbEntity
  8
0007713
  6
Continuous
 62
     7
100
AcDbLine
 10
157.5953766528
 20
109.8862959356
 30
0.0
 11
157.5953766528
 21
105.8862959356
 31
0.0
  0
LINE
  5
203
330
40
100
AcDbEntity
  8
0007713
  6
Continuous
 62
     7
100
AcDbLine
 10
157.6516555503
 20
105.4176835164
 30
0.0
 11
157.5953766528
 21
105.8862959356
 31
0.0
  0
LINE
  5
204
330
40
100
AcDbEntity
  8
0007713
  6
Continuous
 62
     7
100
AcDbLine
 10
157.6516555503
 20
110.3549083548
 30
0.0
 11
157.5953766528
 21
109.8862959356
 31
0.0
  0
LINE
  5
205
330
40
100
AcDbEntity
  8
0007713
  6
Continuous
 62
     7
100
AcDbLine
 10
158.1875162553
 20
109.8862959356
 30
0.0
 11
158.0872362818
 21
109.8862959356
 31
0.0
  0
LINE
  5
206
330
40
100
AcDbEntity
  8
0007713
  6
Continuous
 62
     7
100
AcDbLine
 10
158.6697740897
 20
105.8862959356
 30
0.0
 11
158.7679900651
 21
105.8862959356
 31
0.0
  0
LINE
  5
207
330
40
100
AcDbEntity
  8
0007713
  6
Continuous
 62
     7
100
AcDbLine
 10
158.6697740897
 20
105.8862959356
 30
0.0
 11
158.6697740897
 21
109.8862959356
 31
0.0
  0
LINE
  5
208
330
40
100
AcDbEntity
  8
0007713
  6
Continuous
 62
     7
100
AcDbLine
 10
158.6697740897
 20
109.8862959356
 30
0.0
 11
158.2213231353
 21
110.3549083548
 31
0.0
  0
LINE
  5
209
330
40
100
AcDbEntity
  8
0007713
  6
Continuous
 62
     7
100
AcDbLine
 10
158.2213231353
 20
105.4176835164
 30
0.0
 11
158.2213231353
 21
110.3549083548
 31
0.0
  0
LINE
  5
20A
330
40
100
AcDbEntity
  8
0007713
  6
Continuous
 62
     7
100
AcDbLine
 10
158.6697740897
 20
105.8862959356
 30
0.0
 11
158.2213231353
 21
105.4176835164
 31
0.0
  0
LINE
  5
20B
330
40
100
AcDbEntity
  8
0007713
  6
Continuous
 62
     7
100
AcDbLine
 10
158.1875162553
 20
109.8862959356
 30
0.0
 11
158.1875162553
 21
105.8862959356
 31
0.0
  0
LINE
  5
20C
330
40
100
AcDbEntity
  8
0007713
  6
Continuous
 62
     7
100
AcDbLine
 10
158.2213231353
 20
105.4176835164
 30
0.0
 11
158.1875162553
 21
105.8862959356
 31
0.0
  0
LINE
  5
20D
330
40
100
AcDbEntity
  8
0007713
  6
Continuous
 62
     7
100
AcDbLine
 10
158.2213231353
 20
110.3549083548
 30
0.0
 11
158.1875162553
 21
109.8862959356
 31
0.0
  0
LINE
  5
20E
330
40
100
AcDbEntity
  8
0007713
  6
Continuous
 62
     7
100
AcDbLine
 10
158.7679900651
 20
109.8862959356
 30
0.0
 11
158.6697740897
 21
109.8862959356
 31
0.0
  0
LINE
  5
20F
330
40
100
AcDbEntity
  8
0007713
  6
Continuous
 62
     7
100
AcDbLine
 10
159.2398000609
 20
105.8862959356
 30
0.0
 11
159.3357797338
 21
105.8862959356
 31
0.0
  0
LINE
  5
210
330
40
100
AcDbEntity
  8
0007713
  6
Continuous
 62
     7
100
AcDbLine
 10
159.2398000609
 20
105.8862959356
 30
0.0
 11
159.2398000609
 21
109.8862959356
 31
0.0
  0
LINE
  5
211
330
40
100
AcDbEntity
  8
0007713
  6
Continuous
 62
     7
100
AcDbLine
 10
159.2398000609
 20
109.8862959356
 30
0.0
 11
158.7792656188
 21
110.3549083548
 31
0.0
  0
LINE
  5
212
330
40
100
AcDbEntity
  8
0007713
  6
Continuous
 62
     7
100
AcDbLine
 10
158.7792656188
 20
105.4176835164
 30
0.0
 11
158.7792656188
 21
110.3549083548
 31
0.0
  0
LINE
  5
213
330
40
100
AcDbEntity
  8
0007713
  6
Continuous
 62
     7
100
AcDbLine
 10
159.2398000609
 20
105.8862959356
 30
0.0
 11
158.7792656188
 21
105.4176835164
 31
0.0
  0
LINE
  5
214
330
40
100
AcDbEntity
  8
0007713
  6
Continuous
 62
     7
100
AcDbLine
 10
158.7679900651
 20
109.8862959356
 30
0.0
 11
158.7679900651
 21
105.8862959356
 31
0.0
  0
LINE
  5
215
330
40
100
AcDbEntity
  8
0007713
  6
Continuous
 62
     7
100
AcDbLine
 10
158.7792656188
 20
105.4176835164
 30
0.0
 11
158.7679900651
 21
105.8862959356
 31
0.0
  0
LINE
  5
216
330
40
100
AcDbEntity
  8
0007713
  6
Continuous
 62
     7
100
AcDbLine
 10
158.7792656188
 20
110.3549083548
 30
0.0
 11
158.7679900651
 21
109.8862959356
 31
0.0
  0
LINE
  5
217
330
40
100
AcDbEntity
  8
0007713
  6
Continuous
 62
     7
100
AcDbLine
 10
159.3357797338
 20
109.8862959356
 30
0.0
 11
159.2398000609
 21
109.8862959356
 31
0.0
  0
LINE
  5
218
330
40
100
AcDbEntity
  8
0007713
  6
Continuous
 62
     7
100
AcDbLine
 10
159.7963141759
 20
105.8862959356
 30
0.0
 11
159.8898891655
 21
105.8862959356
 31
0.0
  0
LINE
  5
219
330
40
100
AcDbEntity
  8
0007713
  6
Continuous
 62
     7
100
AcDbLine
 10
159.7963141759
 20
105.8862959356
 30
0.0
 11
159.7963141759
 21
109.8862959356
 31
0.0
  0
LINE
  5
21A
330
40
100
AcDbEntity
  8
0007713
  6
Continuous
 62
     7
100
AcDbLine
 10
159.7963141759
 20
109.8862959356
 30
0.0
 11
159.3245041801
 21
110.3549083548
 31
0.0
  0
LINE
  5
21B
330
40
100
AcDbEntity
  8
0007713
  6
Continuous
 62
     7
100
AcDbLine
 10
159.7963141759
 20
105.8862959356
 30
0.0
 11
159.3245041801
 21
105.4176835164
 31
0.0
  0
LINE
  5
21C
330
40
100
AcDbEntity
  8
0007713
  6
Continuous
 62
     7
100
AcDbLine
 10
159.3357797338
 20
109.8862959356
 30
0.0
 11
159.3357797338
 21
105.8862959356
 31
0.0
  0
LINE
  5
21D
330
40
100
AcDbEntity
  8
0007713
  6
Continuous
 62
     7
100
AcDbLine
 10
159.3245041801
 20
105.4176835164
 30
0.0
 11
159.3357797338
 21
105.8862959356
 31
0.0
  0
LINE
  5
21E
330
40
100
AcDbEntity
  8
0007713
  6
Continuous
 62
     7
100
AcDbLine
 10
159.3245041801
 20
110.3549083548
 30
0.0
 11
159.3357797338
 21
109.8862959356
 31
0.0
  0
LINE
  5
21F
330
40
100
AcDbEntity
  8
0007713
  6
Continuous
 62
     7
100
AcDbLine
 10
159.8898891655
 20
109.8862959356
 30
0.0
 11
159.7963141759
 21
109.8862959356
 31
0.0
  0
LINE
  5
220
330
40
100
AcDbEntity
  8
0007713
  6
Continuous
 62
     7
100
AcDbLine
 10
160.3383401199
 20
105.8862959356
 30
0.0
 11
160.4293462639
 21
105.8862959356
 31
0.0
  0
LINE
  5
221
330
40
100
AcDbEntity
  8
0007713
  6
Continuous
 62
     7
100
AcDbLine
 10
160.3383401199
 20
105.8862959356
 30
0.0
 11
160.3383401199
 21
109.8862959356
 31
0.0
  0
LINE
  5
222
330
40
100
AcDbEntity
  8
0007713
  6
Continuous
 62
     7
100
AcDbLine
 10
160.3383401199
 20
109.8862959356
 30
0.0
 11
159.8560822855
 21
110.3549083548
 31
0.0
  0
LINE
  5
223
330
40
100
AcDbEntity
  8
0007713
  6
Continuous
 62
     7
100
AcDbLine
 10
160.3383401199
 20
105.8862959356
 30
0.0
 11
159.8560822855
 21
105.4176835164
 31
0.0
  0
LINE
  5
224
330
40
100
AcDbEntity
  8
0007713
  6
Continuous
 62
     7
100
AcDbLine
 10
159.8898891655
 20
109.8862959356
 30
0.0
 11
159.8898891655
 21
105.8862959356
 31
0.0
  0
LINE
  5
225
330
40
100
AcDbEntity
  8
0007713
  6
Continuous
 62
     7
100
AcDbLine
 10
159.8560822855
 20
105.4176835164
 30
0.0
 11
159.8898891655
 21
105.8862959356
 31
0.0
  0
LINE
  5
226
330
40
100
AcDbEntity
  8
0007713
  6
Continuous
 62
     7
100
AcDbLine
 10
159.8560822855
 20
110.3549083548
 30
0.0
 11
159.8898891655
 21
109.8862959356
 31
0.0
  0
LINE
  5
227
330
40
100
AcDbEntity
  8
0007713
  6
Continuous
 62
     7
100
AcDbLine
 10
160.4293462639
 20
109.8862959356
 30
0.0
 11
160.3383401199
 21
109.8862959356
 31
0.0
  0
LINE
  5
228
330
40
100
AcDbEntity
  8
0007713
  6
Continuous
 62
     7
100
AcDbLine
 10
160.8649269954
 20
105.8862959356
 30
0.0
 11
160.9532046379
 21
105.8862959356
 31
0.0
  0
LINE
  5
229
330
40
100
AcDbEntity
  8
0007713
  6
Continuous
 62
     7
100
AcDbLine
 10
160.8649269954
 20
105.8862959356
 30
0.0
 11
160.8649269954
 21
109.8862959356
 31
0.0
  0
LINE
  5
22A
330
40
100
AcDbEntity
  8
0007713
  6
Continuous
 62
     7
100
AcDbLine
 10
160.8649269954
 20
109.8862959356
 30
0.0
 11
160.3730673664
 21
110.3549083548
 31
0.0
  0
LINE
  5
22B
330
40
100
AcDbEntity
  8
0007713
  6
Continuous
 62
     7
100
AcDbLine
 10
160.8649269954
 20
105.8862959356
 30
0.0
 11
160.3730673664
 21
105.4176835164
 31
0.0
  0
LINE
  5
22C
330
40
100
AcDbEntity
  8
0007713
  6
Continuous
 62
     7
100
AcDbLine
 10
160.4293462639
 20
109.8862959356
 30
0.0
 11
160.4293462639
 21
105.8862959356
 31
0.0
  0
LINE
  5
22D
330
40
100
AcDbEntity
  8
0007713
  6
Continuous
 62
     7
100
AcDbLine
 10
160.3730673664
 20
105.4176835164
 30
0.0
 11
160.4293462639
 21
105.8862959356
 31
0.0
  0
LINE
  5
22E
330
40
100
AcDbEntity
  8
0007713
  6
Continuous
 62
     7
100
AcDbLine
 10
160.3730673664
 20
110.3549083548
 30
0.0
 11
160.4293462639
 21
109.8862959356
 31
0.0
  0
LINE
  5
22F
330
40
100
AcDbEntity
  8
0007713
  6
Continuous
 62
     7
100
AcDbLine
 10
160.9532046379
 20
109.8862959356
 30
0.0
 11
160.8649269954
 21
109.8862959356
 31
0.0
  0
LINE
  5
230
330
40
100
AcDbEntity
  8
0007713
  6
Continuous
 62
     7
100
AcDbLine
 10
161.3751509898
 20
105.8862959356
 30
0.0
 11
161.460545262
 21
105.8862959356
 31
0.0
  0
LINE
  5
231
330
40
100
AcDbEntity
  8
0007713
  6
Continuous
 62
     7
100
AcDbLine
 10
161.3751509898
 20
105.8862959356
 30
0.0
 11
161.3751509898
 21
109.8862959356
 31
0.0
  0
LINE
  5
232
330
40
100
AcDbEntity
  8
0007713
  6
Continuous
 62
     7
100
AcDbLine
 10
161.3751509898
 20
109.8862959356
 30
0.0
 11
160.8745524552
 21
110.3549083548
 31
0.0
  0
LINE
  5
233
330
40
100
AcDbEntity
  8
0007713
  6
Continuous
 62
     7
100
AcDbLine
 10
161.3751509898
 20
105.8862959356
 30
0.0
 11
160.8745524552
 21
105.4176835164
 31
0.0
  0
LINE
  5
234
330
40
100
AcDbEntity
  8
0007713
  6
Continuous
 62
     7
100
AcDbLine
 10
160.9532046379
 20
109.8862959356
 30
0.0
 11
160.9532046379
 21
105.8862959356
 31
0.0
  0
LINE
  5
235
330
40
100
AcDbEntity
  8
0007713
  6
Continuous
 62
     7
100
AcDbLine
 10
160.8745524552
 20
105.4176835164
 30
0.0
 11
160.9532046379
 21
105.8862959356
 31
0.0
  0
LINE
  5
236
330
40
100
AcDbEntity
  8
0007713
  6
Continuous
 62
     7
100
AcDbLine
 10
160.8745524552
 20
110.3549083548
 30
0.0
 11
160.9532046379
 21
109.8862959356
 31
0.0
  0
LINE
  5
237
330
40
100
AcDbEntity
  8
0007713
  6
Continuous
 62
     7
100
AcDbLine
 10
161.460545262
 20
109.8862959356
 30
0.0
 11
161.3751509898
 21
109.8862959356
 31
0.0
  0
LINE
  5
238
330
40
100
AcDbEntity
  8
0007713
  6
Continuous
 62
     7
100
AcDbLine
 10
161.868116997
 20
105.8862959356
 30
0.0
 11
161.9504780883
 21
105.8862959356
 31
0.0
  0
LINE
  5
239
330
40
100
AcDbEntity
  8
0007713
  6
Continuous
 62
     7
100
AcDbLine
 10
161.868116997
 20
105.8862959356
 30
0.0
 11
161.868116997
 21
109.8862959356
 31
0.0
  0
LINE
  5
23A
330
40
100
AcDbEntity
  8
0007713
  6
Continuous
 62
     7
100
AcDbLine
 10
161.868116997
 20
109.8862959356
 30
0.0
 11
161.3596577767
 21
110.3549083548
 31
0.0
  0
LINE
  5
23B
330
40
100
AcDbEntity
  8
0007713
  6
Continuous
 62
     7
100
AcDbLine
 10
161.868116997
 20
105.8862959356
 30
0.0
 11
161.3596577767
 21
105.4176835164
 31
0.0
  0
LINE
  5
23C
330
40
100
AcDbEntity
  8
0007713
  6
Continuous
 62
     7
100
AcDbLine
 10
161.460545262
 20
109.8862959356
 30
0.0
 11
161.460545262
 21
105.8862959356
 31
0.0
  0
LINE
  5
23D
330
40
100
AcDbEntity
  8
0007713
  6
Continuous
 62
     7
100
AcDbLine
 10
161.3596577767
 20
105.4176835164
 30
0.0
 11
161.460545262
 21
105.8862959356
 31
0.0
  0
LINE
  5
23E
330
40
100
AcDbEntity
  8
0007713
  6
Continuous
 62
     7
100
AcDbLine
 10
161.3596577767
 20
110.3549083548
 30
0.0
 11
161.460545262
 21
109.8862959356
 31
0.0
  0
LINE
  5
23F
330
40
100
AcDbEntity
  8
0007713
  6
Continuous
 62
     7
100
AcDbLine
 10
161.9504780883
 20
109.8862959356
 30
0.0
 11
161.868116997
 21
109.8862959356
 31
0.0
  0
LINE
  5
240
330
40
100
AcDbEntity
  8
0007713
  6
Continuous
 62
     7
100
AcDbLine
 10
162.3429601871
 20
105.8862959356
 30
0.0
 11
162.4221436081
 21
105.8862959356
 31
0.0
  0
LINE
  5
241
330
40
100
AcDbEntity
  8
0007713
  6
Continuous
 62
     7
100
AcDbLine
 10
162.3429601871
 20
105.8862959356
 30
0.0
 11
162.3429601871
 21
109.8862959356
 31
0.0
  0
LINE
  5
242
330
40
100
AcDbEntity
  8
0007713
  6
Continuous
 62
     7
100
AcDbLine
 10
162.3429601871
 20
109.8862959356
 30
0.0
 11
161.8275322914
 21
110.3549083548
 31
0.0
  0
LINE
  5
243
330
40
100
AcDbEntity
  8
0007713
  6
Continuous
 62
     7
100
AcDbLine
 10
162.3429601871
 20
105.8862959356
 30
0.0
 11
161.8275322914
 21
105.4176835164
 31
0.0
  0
LINE
  5
244
330
40
100
AcDbEntity
  8
0007713
  6
Continuous
 62
     7
100
AcDbLine
 10
161.9504780883
 20
109.8862959356
 30
0.0
 11
161.9504780883
 21
105.8862959356
 31
0.0
  0
LINE
  5
245
330
40
100
AcDbEntity
  8
0007713
  6
Continuous
 62
     7
100
AcDbLine
 10
161.8275322914
 20
105.4176835164
 30
0.0
 11
161.9504780883
 21
105.8862959356
 31
0.0
  0
LINE
  5
246
330
40
100
AcDbEntity
  8
0007713
  6
Continuous
 62
     7
100
AcDbLine
 10
161.8275322914
 20
110.3549083548
 30
0.0
 11
161.9504780883
 21
109.8862959356
 31
0.0
  0
LINE
  5
247
330
40
100
AcDbEntity
  8
0007713
  6
Continuous
 62
     7
100
AcDbLine
 10
162.4221436081
 20
109.8862959356
 30
0.0
 11
162.3429601871
 21
109.8862959356
 31
0.0
  0
LINE
  5
248
330
40
100
AcDbEntity
  8
0007713
  6
Continuous
 62
     7
100
AcDbLine
 10
162.7988475238
 20
105.8862959356
 30
0.0
 11
162.8747143599
 21
105.8862959356
 31
0.0
  0
LINE
  5
249
330
40
100
AcDbEntity
  8
0007713
  6
Continuous
 62
     7
100
AcDbLine
 10
162.7988475238
 20
105.8862959356
 30
0.0
 11
162.7988475238
 21
109.8862959356
 31
0.0
  0
LINE
  5
24A
330
40
100
AcDbEntity
  8
0007713
  6
Continuous
 62
     7
100
AcDbLine
 10
162.7988475238
 20
109.8862959356
 30
0.0
 11
162.2773551883
 21
110.3549083548
 31
0.0
  0
LINE
  5
24B
330
40
100
AcDbEntity
  8
0007713
  6
Continuous
 62
     7
100
AcDbLine
 10
162.7988475238
 20
105.8862959356
 30
0.0
 11
162.2773551883
 21
105.4176835164
 31
0.0
  0
LINE
  5
24C
330
40
100
AcDbEntity
  8
0007713
  6
Continuous
 62
     7
100
AcDbLine
 10
162.4221436081
 20
109.8862959356
 30
0.0
 11
162.4221436081
 21
105.8862959356
 31
0.0
  0
LINE
  5
24D
330
40
100
AcDbEntity
  8
0007713
  6
Continuous
 62
     7
100
AcDbLine
 10
162.2773551883
 20
105.4176835164
 30
0.0
 11
162.4221436081
 21
105.8862959356
 31
0.0
  0
LINE
  5
24E
330
40
100
AcDbEntity
  8
0007713
  6
Continuous
 62
     7
100
AcDbLine
 10
162.2773551883
 20
110.3549083548
 30
0.0
 11
162.4221436081
 21
109.8862959356
 31
0.0
  0
LINE
  5
24F
330
40
100
AcDbEntity
  8
0007713
  6
Continuous
 62
     7
100
AcDbLine
 10
162.8747143599
 20
109.8862959356
 30
0.0
 11
162.7988475238
 21
109.8862959356
 31
0.0
  0
LINE
  5
250
330
40
100
AcDbEntity
  8
0007713
  6
Continuous
 62
     7
100
AcDbLine
 10
163.2349792258
 20
105.8862959356
 30
0.0
 11
163.3073963807
 21
105.8862959356
 31
0.0
  0
LINE
  5
251
330
40
100
AcDbEntity
  8
0007713
  6
Continuous
 62
     7
100
AcDbLine
 10
163.2349792258
 20
105.8862959356
 30
0.0
 11
163.2349792258
 21
109.8862959356
 31
0.0
  0
LINE
  5
252
330
40
100
AcDbEntity
  8
0007713
  6
Continuous
 62
     7
100
AcDbLine
 10
163.2349792258
 20
109.8862959356
 30
0.0
 11
162.7083373253
 21
110.3549083548
 31
0.0
  0
LINE
  5
253
330
40
100
AcDbEntity
  8
0007713
  6
Continuous
 62
     7
100
AcDbLine
 10
163.2349792258
 20
105.8862959356
 30
0.0
 11
162.7083373253
 21
105.4176835164
 31
0.0
  0
LINE
  5
254
330
40
100
AcDbEntity
  8
0007713
  6
Continuous
 62
     7
100
AcDbLine
 10
162.8747143599
 20
109.8862959356
 30
0.0
 11
162.8747143599
 21
105.8862959356
 31
0.0
  0
LINE
  5
255
330
40
100
AcDbEntity
  8
0007713
  6
Continuous
 62
     7
100
AcDbLine
 10
162.7083373253
 20
105.4176835164
 30
0.0
 11
162.8747143599
 21
105.8862959356
 31
0.0
  0
LINE
  5
256
330
40
100
AcDbEntity
  8
0007713
  6
Continuous
 62
     7
100
AcDbLine
 10
162.7083373253
 20
110.3549083548
 30
0.0
 11
162.8747143599
 21
109.8862959356
 31
0.0
  0
LINE
  5
257
330
40
100
AcDbEntity
  8
0007713
  6
Continuous
 62
     7
100
AcDbLine
 10
163.3073963807
 20
109.8862959356
 30
0.0
 11
163.2349792258
 21
109.8862959356
 31
0.0
  0
LINE
  5
258
330
40
100
AcDbEntity
  8
0007713
  6
Continuous
 62
     7
100
AcDbLine
 10
163.6505901698
 20
105.8862959356
 30
0.0
 11
163.7194305994
 21
105.8862959356
 31
0.0
  0
LINE
  5
259
330
40
100
AcDbEntity
  8
0007713
  6
Continuous
 62
     7
100
AcDbLine
 10
163.6505901698
 20
105.8862959356
 30
0.0
 11
163.6505901698
 21
109.8862959356
 31
0.0
  0
LINE
  5
25A
330
40
100
AcDbEntity
  8
0007713
  6
Continuous
 62
     7
100
AcDbLine
 10
163.6505901698
 20
109.8862959356
 30
0.0
 11
163.1197226132
 21
110.3549083548
 31
0.0
  0
LINE
  5
25B
330
40
100
AcDbEntity
  8
0007713
  6
Continuous
 62
     7
100
AcDbLine
 10
163.6505901698
 20
105.8862959356
 30
0.0
 11
163.1197226132
 21
105.4176835164
 31
0.0
  0
LINE
  5
25C
330
40
100
AcDbEntity
  8
0007713
  6
Continuous
 62
     7
100
AcDbLine
 10
163.3073963807
 20
109.8862959356
 30
0.0
 11
163.3073963807
 21
105.8862959356
 31
0.0
  0
LINE
  5
25D
330
40
100
AcDbEntity
  8
0007713
  6
Continuous
 62
     7
100
AcDbLine
 10
163.1197226132
 20
105.4176835164
 30
0.0
 11
163.3073963807
 21
105.8862959356
 31
0.0
  0
LINE
  5
25E
330
40
100
AcDbEntity
  8
0007713
  6
Continuous
 62
     7
100
AcDbLine
 10
163.1197226132
 20
110.3549083548
 30
0.0
 11
163.3073963807
 21
109.8862959356
 31
0.0
  0
LINE
  5
25F
330
40
100
AcDbEntity
  8
0007713
  6
Continuous
 62
     7
100
AcDbLine
 10
163.7194305994
 20
109.8862959356
 30
0.0
 11
163.6505901698
 21
109.8862959356
 31
0.0
  0
LINE
  5
260
330
40
100
AcDbEntity
  8
0007713
  6
Continuous
 62
     7
100
AcDbLine
 10
164.0449512331
 20
105.8862959356
 30
0.0
 11
164.1100941677
 21
105.8862959356
 31
0.0
  0
LINE
  5
261
330
40
100
AcDbEntity
  8
0007713
  6
Continuous
 62
     7
100
AcDbLine
 10
164.0449512331
 20
105.8862959356
 30
0.0
 11
164.0449512331
 21
109.8862959356
 31
0.0
  0
LINE
  5
262
330
40
100
AcDbEntity
  8
0007713
  6
Continuous
 62
     7
100
AcDbLine
 10
164.0449512331
 20
109.8862959356
 30
0.0
 11
163.5107893424
 21
110.3549083548
 31
0.0
  0
LINE
  5
263
330
40
100
AcDbEntity
  8
0007713
  6
Continuous
 62
     7
100
AcDbLine
 10
164.0449512331
 20
105.8862959356
 30
0.0
 11
163.5107893424
 21
105.4176835164
 31
0.0
  0
LINE
  5
264
330
40
100
AcDbEntity
  8
0007713
  6
Continuous
 62
     7
100
AcDbLine
 10
163.7194305994
 20
109.8862959356
 30
0.0
 11
163.7194305994
 21
105.8862959356
 31
0.0
  0
LINE
  5
265
330
40
100
AcDbEntity
  8
0007713
  6
Continuous
 62
     7
100
AcDbLine
 10
163.5107893424
 20
105.4176835164
 30
0.0
 11
163.7194305994
 21
105.8862959356
 31
0.0
  0
LINE
  5
266
330
40
100
AcDbEntity
  8
0007713
  6
Continuous
 62
     7
100
AcDbLine
 10
163.5107893424
 20
110.3549083548
 30
0.0
 11
163.7194305994
 21
109.8862959356
 31
0.0
  0
LINE
  5
267
330
40
100
AcDbEntity
  8
0007713
  6
Continuous
 62
     7
100
AcDbLine
 10
164.1100941677
 20
109.8862959356
 30
0.0
 11
164.0449512331
 21
109.8862959356
 31
0.0
  0
LINE
  5
268
330
40
100
AcDbEntity
  8
0007713
  6
Continuous
 62
     7
100
AcDbLine
 10
164.4173705723
 20
105.8862959356
 30
0.0
 11
164.4787017292
 21
105.8862959356
 31
0.0
  0
LINE
  5
269
330
40
100
AcDbEntity
  8
0007713
  6
Continuous
 62
     7
100
AcDbLine
 10
164.4173705723
 20
105.8862959356
 30
0.0
 11
164.4173705723
 21
109.8862959356
 31
0.0
  0
LINE
  5
26A
330
40
100
AcDbEntity
  8
0007713
  6
Continuous
 62
     7
100
AcDbLine
 10
164.4173705723
 20
109.8862959356
 30
0.0
 11
163.880851449
 21
110.3549083548
 31
0.0
  0
LINE
  5
26B
330
40
100
AcDbEntity
  8
0007713
  6
Continuous
 62
     7
100
AcDbLine
 10
164.4173705723
 20
105.8862959356
 30
0.0
 11
163.880851449
 21
105.4176835164
 31
0.0
  0
LINE
  5
26C
330
40
100
AcDbEntity
  8
0007713
  6
Continuous
 62
     7
100
AcDbLine
 10
164.1100941677
 20
109.8862959356
 30
0.0
 11
164.1100941677
 21
105.8862959356
 31
0.0
  0
LINE
  5
26D
330
40
100
AcDbEntity
  8
0007713
  6
Continuous
 62
     7
100
AcDbLine
 10
163.880851449
 20
105.4176835164
 30
0.0
 11
164.1100941677
 21
105.8862959356
 31
0.0
  0
LINE
  5
26E
330
40
100
AcDbEntity
  8
0007713
  6
Continuous
 62
     7
100
AcDbLine
 10
163.880851449
 20
110.3549083548
 30
0.0
 11
164.1100941677
 21
109.8862959356
 31
0.0
  0
LINE
  5
26F
330
40
100
AcDbEntity
  8
0007713
  6
Continuous
 62
     7
100
AcDbLine
 10
164.4787017292
 20
109.8862959356
 30
0.0
 11
164.4173705723
 21
109.8862959356
 31
0.0
  0
LINE
  5
270
330
40
100
AcDbEntity
  8
0007713
  6
Continuous
 62
     7
100
AcDbLine
 10
164.7671948375
 20
105.8862959356
 30
0.0
 11
164.8246066209
 21
105.8862959356
 31
0.0
  0
LINE
  5
271
330
40
100
AcDbEntity
  8
0007713
  6
Continuous
 62
     7
100
AcDbLine
 10
164.7671948375
 20
105.8862959356
 30
0.0
 11
164.7671948375
 21
109.8862959356
 31
0.0
  0
LINE
  5
272
330
40
100
AcDbEntity
  8
0007713
  6
Continuous
 62
     7
100
AcDbLine
 10
164.7671948375
 20
109.8862959356
 30
0.0
 11
164.2292597184
 21
110.3549083548
 31
0.0
  0
LINE
  5
273
330
40
100
AcDbEntity
  8
0007713
  6
Continuous
 62
     7
100
AcDbLine
 10
164.7671948375
 20
105.8862959356
 30
0.0
 11
164.2292597184
 21
105.4176835164
 31
0.0
  0
LINE
  5
274
330
40
100
AcDbEntity
  8
0007713
  6
Continuous
 62
     7
100
AcDbLine
 10
164.4787017292
 20
109.8862959356
 30
0.0
 11
164.4787017292
 21
105.8862959356
 31
0.0
  0
LINE
  5
275
330
40
100
AcDbEntity
  8
0007713
  6
Continuous
 62
     7
100
AcDbLine
 10
164.2292597184
 20
105.4176835164
 30
0.0
 11
164.4787017292
 21
105.8862959356
 31
0.0
  0
LINE
  5
276
330
40
100
AcDbEntity
  8
0007713
  6
Continuous
 62
     7
100
AcDbLine
 10
164.2292597184
 20
110.3549083548
 30
0.0
 11
164.4787017292
 21
109.8862959356
 31
0.0
  0
LINE
  5
277
330
40
100
AcDbEntity
  8
0007713
  6
Continuous
 62
     7
100
AcDbLine
 10
164.8246066209
 20
109.8862959356
 30
0.0
 11
164.7671948375
 21
109.8862959356
 31
0.0
  0
LINE
  5
278
330
40
100
AcDbEntity
  8
0007713
  6
Continuous
 62
     7
100
AcDbLine
 10
165.0938103178
 20
105.8862959356
 30
0.0
 11
165.147202008
 21
105.8862959356
 31
0.0
  0
LINE
  5
279
330
40
100
AcDbEntity
  8
0007713
  6
Continuous
 62
     7
100
AcDbLine
 10
165.0938103178
 20
105.8862959356
 30
0.0
 11
165.0938103178
 21
109.8862959356
 31
0.0
  0
LINE
  5
27A
330
40
100
AcDbEntity
  8
0007713
  6
Continuous
 62
     7
100
AcDbLine
 10
165.0938103178
 20
109.8862959356
 30
0.0
 11
164.555402924
 21
110.3549083548
 31
0.0
  0
LINE
  5
27B
330
40
100
AcDbEntity
  8
0007713
  6
Continuous
 62
     7
100
AcDbLine
 10
165.0938103178
 20
105.8862959356
 30
0.0
 11
164.555402924
 21
105.4176835164
 31
0.0
  0
LINE
  5
27C
330
40
100
AcDbEntity
  8
0007713
  6
Continuous
 62
     7
100
AcDbLine
 10
164.8246066209
 20
109.8862959356
 30
0.0
 11
164.8246066209
 21
105.8862959356
 31
0.0
  0
LINE
  5
27D
330
40
100
AcDbEntity
  8
0007713
  6
Continuous
 62
     7
100
AcDbLine
 10
164.555402924
 20
105.4176835164
 30
0.0
 11
164.8246066209
 21
105.8862959356
 31
0.0
  0
LINE
  5
27E
330
40
100
AcDbEntity
  8
0007713
  6
Continuous
 62
     7
100
AcDbLine
 10
164.555402924
 20
110.3549083548
 30
0.0
 11
164.8246066209
 21
109.8862959356
 31
0.0
  0
LINE
  5
27F
330
40
100
AcDbEntity
  8
0007713
  6
Continuous
 62
     7
100
AcDbLine
 10
165.147202008
 20
109.8862959356
 30
0.0
 11
165.0938103178
 21
109.8862959356
 31
0.0
  0
LINE
  5
280
330
40
100
AcDbEntity
  8
0007713
  6
Continuous
 62
     7
100
AcDbLine
 10
165.3966440189
 20
105.8862959356
 30
0.0
 11
165.4459219487
 21
105.8862959356
 31
0.0
  0
LINE
  5
281
330
40
100
AcDbEntity
  8
0007713
  6
Continuous
 62
     7
100
AcDbLine
 10
165.3966440189
 20
105.8862959356
 30
0.0
 11
165.3966440189
 21
109.8862959356
 31
0.0
  0
LINE
  5
282
330
40
100
AcDbEntity
  8
0007713
  6
Continuous
 62
     7
100
AcDbLine
 10
165.3966440189
 20
109.8862959356
 30
0.0
 11
164.8587088998
 21
110.3549083548
 31
0.0
  0
LINE
  5
283
330
40
100
AcDbEntity
  8
0007713
  6
Continuous
 62
     7
100
AcDbLine
 10
165.3966440189
 20
105.8862959356
 30
0.0
 11
164.8587088998
 21
105.4176835164
 31
0.0
  0
LINE
  5
284
330
40
100
AcDbEntity
  8
0007713
  6
Continuous
 62
     7
100
AcDbLine
 10
165.147202008
 20
109.8862959356
 30
0.0
 11
165.147202008
 21
105.8862959356
 31
0.0
  0
LINE
  5
285
330
40
100
AcDbEntity
  8
0007713
  6
Continuous
 62
     7
100
AcDbLine
 10
164.8587088998
 20
105.4176835164
 30
0.0
 11
165.147202008
 21
105.8862959356
 31
0.0
  0
LINE
  5
286
330
40
100
AcDbEntity
  8
0007713
  6
Continuous
 62
     7
100
AcDbLine
 10
164.8587088998
 20
110.3549083548
 30
0.0
 11
165.147202008
 21
109.8862959356
 31
0.0
  0
LINE
  5
287
330
40
100
AcDbEntity
  8
0007713
  6
Continuous
 62
     7
100
AcDbLine
 10
165.4459219487
 20
109.8862959356
 30
0.0
 11
165.3966440189
 21
109.8862959356
 31
0.0
  0
LINE
  5
288
330
40
100
AcDbEntity
  8
0007713
  6
Continuous
 62
     7
100
AcDbLine
 10
165.6751646674
 20
105.8862959356
 30
0.0
 11
165.7202423866
 21
105.8862959356
 31
0.0
  0
LINE
  5
289
330
40
100
AcDbEntity
  8
0007713
  6
Continuous
 62
     7
100
AcDbLine
 10
165.6751646674
 20
105.8862959356
 30
0.0
 11
165.6751646674
 21
109.8862959356
 31
0.0
  0
LINE
  5
28A
330
40
100
AcDbEntity
  8
0007713
  6
Continuous
 62
     7
100
AcDbLine
 10
165.6751646674
 20
109.8862959356
 30
0.0
 11
165.1386455441
 21
110.3549083548
 31
0.0
  0
LINE
  5
28B
330
40
100
AcDbEntity
  8
0007713
  6
Continuous
 62
     7
100
AcDbLine
 10
165.6751646674
 20
105.8862959356
 30
0.0
 11
165.1386455441
 21
105.4176835164
 31
0.0
  0
LINE
  5
28C
330
40
100
AcDbEntity
  8
0007713
  6
Continuous
 62
     7
100
AcDbLine
 10
165.4459219487
 20
109.8862959356
 30
0.0
 11
165.4459219487
 21
105.8862959356
 31
0.0
  0
LINE
  5
28D
330
40
100
AcDbEntity
  8
0007713
  6
Continuous
 62
     7
100
AcDbLine
 10
165.1386455441
 20
105.4176835164
 30
0.0
 11
165.4459219487
 21
105.8862959356
 31
0.0
  0
LINE
  5
28E
330
40
100
AcDbEntity
  8
0007713
  6
Continuous
 62
     7
100
AcDbLine
 10
165.1386455441
 20
110.3549083548
 30
0.0
 11
165.4459219487
 21
109.8862959356
 31
0.0
  0
LINE
  5
28F
330
40
100
AcDbEntity
  8
0007713
  6
Continuous
 62
     7
100
AcDbLine
 10
165.7202423866
 20
109.8862959356
 30
0.0
 11
165.6751646674
 21
109.8862959356
 31
0.0
  0
LINE
  5
290
330
40
100
AcDbEntity
  8
0007713
  6
Continuous
 62
     7
100
AcDbLine
 10
165.9288836436
 20
105.8862959356
 30
0.0
 11
165.9696820705
 21
105.8862959356
 31
0.0
  0
LINE
  5
291
330
40
100
AcDbEntity
  8
0007713
  6
Continuous
 62
     7
100
AcDbLine
 10
165.9288836436
 20
105.8862959356
 30
0.0
 11
165.9288836436
 21
109.8862959356
 31
0.0
  0
LINE
  5
292
330
40
100
AcDbEntity
  8
0007713
  6
Continuous
 62
     7
100
AcDbLine
 10
165.9288836436
 20
109.8862959356
 30
0.0
 11
165.3947217529
 21
110.3549083548
 31
0.0
  0
LINE
  5
293
330
40
100
AcDbEntity
  8
0007713
  6
Continuous
 62
     7
100
AcDbLine
 10
165.9288836436
 20
105.8862959356
 30
0.0
 11
165.3947217529
 21
105.4176835164
 31
0.0
  0
LINE
  5
294
330
40
100
AcDbEntity
  8
0007713
  6
Continuous
 62
     7
100
AcDbLine
 10
165.7202423866
 20
109.8862959356
 30
0.0
 11
165.7202423866
 21
105.8862959356
 31
0.0
  0
LINE
  5
295
330
40
100
AcDbEntity
  8
0007713
  6
Continuous
 62
     7
100
AcDbLine
 10
165.3947217529
 20
105.4176835164
 30
0.0
 11
165.7202423866
 21
105.8862959356
 31
0.0
  0
LINE
  5
296
330
40
100
AcDbEntity
  8
0007713
  6
Continuous
 62
     7
100
AcDbLine
 10
165.3947217529
 20
110.3549083548
 30
0.0
 11
165.7202423866
 21
109.8862959356
 31
0.0
  0
LINE
  5
297
330
40
100
AcDbEntity
  8
0007713
  6
Continuous
 62
     7
100
AcDbLine
 10
165.9696820705
 20
109.8862959356
 30
0.0
 11
165.9288836436
 21
109.8862959356
 31
0.0
  0
LINE
  5
298
330
40
100
AcDbEntity
  8
0007713
  6
Continuous
 62
     7
100
AcDbLine
 10
166.1573558381
 20
105.8862959356
 30
0.0
 11
166.1938033984
 21
105.8862959356
 31
0.0
  0
LINE
  5
299
330
40
100
AcDbEntity
  8
0007713
  6
Continuous
 62
     7
100
AcDbLine
 10
166.1573558381
 20
105.8862959356
 30
0.0
 11
166.1573558381
 21
109.8862959356
 31
0.0
  0
LINE
  5
29A
330
40
100
AcDbEntity
  8
0007713
  6
Continuous
 62
     7
100
AcDbLine
 10
166.1573558381
 20
109.8862959356
 30
0.0
 11
165.6264882814
 21
110.3549083548
 31
0.0
  0
LINE
  5
29B
330
40
100
AcDbEntity
  8
0007713
  6
Continuous
 62
     7
100
AcDbLine
 10
166.1573558381
 20
105.8862959356
 30
0.0
 11
165.6264882814
 21
105.4176835164
 31
0.0
  0
LINE
  5
29C
330
40
100
AcDbEntity
  8
0007713
  6
Continuous
 62
     7
100
AcDbLine
 10
165.9696820705
 20
109.8862959356
 30
0.0
 11
165.9696820705
 21
105.8862959356
 31
0.0
  0
LINE
  5
29D
330
40
100
AcDbEntity
  8
0007713
  6
Continuous
 62
     7
100
AcDbLine
 10
165.6264882814
 20
105.4176835164
 30
0.0
 11
165.9696820705
 21
105.8862959356
 31
0.0
  0
LINE
  5
29E
330
40
100
AcDbEntity
  8
0007713
  6
Continuous
 62
     7
100
AcDbLine
 10
165.6264882814
 20
110.3549083548
 30
0.0
 11
165.9696820705
 21
109.8862959356
 31
0.0
  0
LINE
  5
29F
330
40
100
AcDbEntity
  8
0007713
  6
Continuous
 62
     7
100
AcDbLine
 10
166.1938033984
 20
109.8862959356
 30
0.0
 11
166.1573558381
 21
109.8862959356
 31
0.0
  0
LINE
  5
2A0
330
40
100
AcDbEntity
  8
0007713
  6
Continuous
 62
     7
100
AcDbLine
 10
166.360180433
 20
105.8862959356
 30
0.0
 11
166.3922131854
 21
105.8862959356
 31
0.0
  0
LINE
  5
2A1
330
40
100
AcDbEntity
  8
0007713
  6
Continuous
 62
     7
100
AcDbLine
 10
166.360180433
 20
105.8862959356
 30
0.0
 11
166.360180433
 21
109.8862959356
 31
0.0
  0
LINE
  5
2A2
330
40
100
AcDbEntity
  8
0007713
  6
Continuous
 62
     7
100
AcDbLine
 10
166.360180433
 20
109.8862959356
 30
0.0
 11
165.8335385326
 21
110.3549083548
 31
0.0
  0
LINE
  5
2A3
330
40
100
AcDbEntity
  8
0007713
  6
Continuous
 62
     7
100
AcDbLine
 10
166.360180433
 20
105.8862959356
 30
0.0
 11
165.8335385326
 21
105.4176835164
 31
0.0
  0
LINE
  5
2A4
330
40
100
AcDbEntity
  8
0007713
  6
Continuous
 62
     7
100
AcDbLine
 10
166.1938033984
 20
109.8862959356
 30
0.0
 11
166.1938033984
 21
105.8862959356
 31
0.0
  0
LINE
  5
2A5
330
40
100
AcDbEntity
  8
0007713
  6
Continuous
 62
     7
100
AcDbLine
 10
165.8335385326
 20
105.4176835164
 30
0.0
 11
166.1938033984
 21
105.8862959356
 31
0.0
  0
LINE
  5
2A6
330
40
100
AcDbEntity
  8
0007713
  6
Continuous
 62
     7
100
AcDbLine
 10
165.8335385326
 20
110.3549083548
 30
0.0
 11
166.1938033984
 21
109.8862959356
 31
0.0
  0
LINE
  5
2A7
330
40
100
AcDbEntity
  8
0007713
  6
Continuous
 62
     7
100
AcDbLine
 10
166.3922131854
 20
109.8862959356
 30
0.0
 11
166.360180433
 21
109.8862959356
 31
0.0
  0
LINE
  5
2A8
330
40
100
AcDbEntity
  8
0007713
  6
Continuous
 62
     7
100
AcDbLine
 10
166.5370016052
 20
105.8862959356
 30
0.0
 11
166.5645633533
 21
105.8862959356
 31
0.0
  0
LINE
  5
2A9
330
40
100
AcDbEntity
  8
0007713
  6
Continuous
 62
     7
100
AcDbLine
 10
166.5370016052
 20
105.8862959356
 30
0.0
 11
166.5370016052
 21
109.8862959356
 31
0.0
  0
LINE
  5
2AA
330
40
100
AcDbEntity
  8
0007713
  6
Continuous
 62
     7
100
AcDbLine
 10
166.5370016052
 20
109.8862959356
 30
0.0
 11
166.0155092697
 21
110.3549083548
 31
0.0
  0
LINE
  5
2AB
330
40
100
AcDbEntity
  8
0007713
  6
Continuous
 62
     7
100
AcDbLine
 10
166.5370016052
 20
105.8862959356
 30
0.0
 11
166.0155092697
 21
105.4176835164
 31
0.0
  0
LINE
  5
2AC
330
40
100
AcDbEntity
  8
0007713
  6
Continuous
 62
     7
100
AcDbLine
 10
166.3922131854
 20
109.8862959356
 30
0.0
 11
166.3922131854
 21
105.8862959356
 31
0.0
  0
LINE
  5
2AD
330
40
100
AcDbEntity
  8
0007713
  6
Continuous
 62
     7
100
AcDbLine
 10
166.0155092697
 20
105.4176835164
 30
0.0
 11
166.3922131854
 21
105.8862959356
 31
0.0
  0
LINE
  5
2AE
330
40
100
AcDbEntity
  8
0007713
  6
Continuous
 62
     7
100
AcDbLine
 10
166.0155092697
 20
110.3549083548
 30
0.0
 11
166.3922131854
 21
109.8862959356
 31
0.0
  0
LINE
  5
2AF
330
40
100
AcDbEntity
  8
0007713
  6
Continuous
 62
     7
100
AcDbLine
 10
166.5645633533
 20
109.8862959356
 30
0.0
 11
166.5370016052
 21
109.8862959356
 31
0.0
  0
LINE
  5
2B0
330
40
100
AcDbEntity
  8
0007713
  6
Continuous
 62
     7
100
AcDbLine
 10
166.6875091502
 20
105.8862959356
 30
0.0
 11
166.7105515413
 21
105.8862959356
 31
0.0
  0
LINE
  5
2B1
330
40
100
AcDbEntity
  8
0007713
  6
Continuous
 62
     7
100
AcDbLine
 10
166.6875091502
 20
105.8862959356
 30
0.0
 11
166.6875091502
 21
109.8862959356
 31
0.0
  0
LINE
  5
2B2
330
40
100
AcDbEntity
  8
0007713
  6
Continuous
 62
     7
100
AcDbLine
 10
166.6875091502
 20
109.8862959356
 30
0.0
 11
166.1720812544
 21
110.3549083548
 31
0.0
  0
LINE
  5
2B3
330
40
100
AcDbEntity
  8
0007713
  6
Continuous
 62
     7
100
AcDbLine
 10
166.6875091502
 20
105.8862959356
 30
0.0
 11
166.1720812544
 21
105.4176835164
 31
0.0
  0
LINE
  5
2B4
330
40
100
AcDbEntity
  8
0007713
  6
Continuous
 62
     7
100
AcDbLine
 10
166.5645633533
 20
109.8862959356
 30
0.0
 11
166.5645633533
 21
105.8862959356
 31
0.0
  0
LINE
  5
2B5
330
40
100
AcDbEntity
  8
0007713
  6
Continuous
 62
     7
100
AcDbLine
 10
166.1720812544
 20
105.4176835164
 30
0.0
 11
166.5645633533
 21
105.8862959356
 31
0.0
  0
LINE
  5
2B6
330
40
100
AcDbEntity
  8
0007713
  6
Continuous
 62
     7
100
AcDbLine
 10
166.1720812544
 20
110.3549083548
 30
0.0
 11
166.5645633533
 21
109.8862959356
 31
0.0
  0
LINE
  5
2B7
330
40
100
AcDbEntity
  8
0007713
  6
Continuous
 62
     7
100
AcDbLine
 10
166.7105515413
 20
109.8862959356
 30
0.0
 11
166.6875091502
 21
109.8862959356
 31
0.0
  0
LINE
  5
2B8
330
40
100
AcDbEntity
  8
0007713
  6
Continuous
 62
     7
100
AcDbLine
 10
166.8114390265
 20
105.8862959356
 30
0.0
 11
166.8299216365
 21
105.8862959356
 31
0.0
  0
LINE
  5
2B9
330
40
100
AcDbEntity
  8
0007713
  6
Continuous
 62
     7
100
AcDbLine
 10
166.8114390265
 20
105.8862959356
 30
0.0
 11
166.8114390265
 21
109.8862959356
 31
0.0
  0
LINE
  5
2BA
330
40
100
AcDbEntity
  8
0007713
  6
Continuous
 62
     7
100
AcDbLine
 10
166.8114390265
 20
109.8862959356
 30
0.0
 11
166.3029798063
 21
110.3549083548
 31
0.0
  0
LINE
  5
2BB
330
40
100
AcDbEntity
  8
0007713
  6
Continuous
 62
     7
100
AcDbLine
 10
166.8114390265
 20
105.8862959356
 30
0.0
 11
166.3029798063
 21
105.4176835164
 31
0.0
  0
LINE
  5
2BC
330
40
100
AcDbEntity
  8
0007713
  6
Continuous
 62
     7
100
AcDbLine
 10
166.7105515413
 20
109.8862959356
 30
0.0
 11
166.7105515413
 21
105.8862959356
 31
0.0
  0
LINE
  5
2BD
330
40
100
AcDbEntity
  8
0007713
  6
Continuous
 62
     7
100
AcDbLine
 10
166.3029798063
 20
105.4176835164
 30
0.0
 11
166.7105515413
 21
105.8862959356
 31
0.0
  0
LINE
  5
2BE
330
40
100
AcDbEntity
  8
0007713
  6
Continuous
 62
     7
100
AcDbLine
 10
166.3029798063
 20
110.3549083548
 30
0.0
 11
166.7105515413
 21
109.8862959356
 31
0.0
  0
LINE
  5
2BF
330
40
100
AcDbEntity
  8
0007713
  6
Continuous
 62
     7
100
AcDbLine
 10
166.8299216365
 20
109.8862959356
 30
0.0
 11
166.8114390265
 21
109.8862959356
 31
0.0
  0
LINE
  5
2C0
330
40
100
AcDbEntity
  8
0007713
  6
Continuous
 62
     7
100
AcDbLine
 10
166.9085738192
 20
105.8862959356
 30
0.0
 11
166.9224642232
 21
105.8862959356
 31
0.0
  0
LINE
  5
2C1
330
40
100
AcDbEntity
  8
0007713
  6
Continuous
 62
     7
100
AcDbLine
 10
166.9085738192
 20
105.8862959356
 30
0.0
 11
166.9085738192
 21
109.8862959356
 31
0.0
  0
LINE
  5
2C2
330
40
100
AcDbEntity
  8
0007713
  6
Continuous
 62
     7
100
AcDbLine
 10
166.9085738192
 20
109.8862959356
 30
0.0
 11
166.4079752846
 21
110.3549083548
 31
0.0
  0
LINE
  5
2C3
330
40
100
AcDbEntity
  8
0007713
  6
Continuous
 62
     7
100
AcDbLine
 10
166.9085738192
 20
105.8862959356
 30
0.0
 11
166.4079752846
 21
105.4176835164
 31
0.0
  0
LINE
  5
2C4
330
40
100
AcDbEntity
  8
0007713
  6
Continuous
 62
     7
100
AcDbLine
 10
166.8299216365
 20
109.8862959356
 30
0.0
 11
166.8299216365
 21
105.8862959356
 31
0.0
  0
LINE
  5
2C5
330
40
100
AcDbEntity
  8
0007713
  6
Continuous
 62
     7
100
AcDbLine
 10
166.4079752846
 20
105.4176835164
 30
0.0
 11
166.8299216365
 21
105.8862959356
 31
0.0
  0
LINE
  5
2C6
330
40
100
AcDbEntity
  8
0007713
  6
Continuous
 62
     7
100
AcDbLine
 10
166.4079752846
 20
110.3549083548
 30
0.0
 11
166.8299216365
 21
109.8862959356
 31
0.0
  0
LINE
  5
2C7
330
40
100
AcDbEntity
  8
0007713
  6
Continuous
 62
     7
100
AcDbLine
 10
166.9224642232
 20
109.8862959356
 30
0.0
 11
166.9085738192
 21
109.8862959356
 31
0.0
  0
LINE
  5
2C8
330
40
100
AcDbEntity
  8
0007713
  6
Continuous
 62
     7
100
AcDbLine
 10
166.9787431207
 20
105.8862959356
 30
0.0
 11
166.9880169503
 21
105.8862959356
 31
0.0
  0
LINE
  5
2C9
330
40
100
AcDbEntity
  8
0007713
  6
Continuous
 62
     7
100
AcDbLine
 10
166.9787431207
 20
105.8862959356
 30
0.0
 11
166.9787431207
 21
109.8862959356
 31
0.0
  0
LINE
  5
2CA
330
40
100
AcDbEntity
  8
0007713
  6
Continuous
 62
     7
100
AcDbLine
 10
166.9787431207
 20
109.8862959356
 30
0.0
 11
166.4868834917
 21
110.3549083548
 31
0.0
  0
LINE
  5
2CB
330
40
100
AcDbEntity
  8
0007713
  6
Continuous
 62
     7
100
AcDbLine
 10
166.9787431207
 20
105.8862959356
 30
0.0
 11
166.4868834917
 21
105.4176835164
 31
0.0
  0
LINE
  5
2CC
330
40
100
AcDbEntity
  8
0007713
  6
Continuous
 62
     7
100
AcDbLine
 10
166.9224642232
 20
109.8862959356
 30
0.0
 11
166.9224642232
 21
105.8862959356
 31
0.0
  0
LINE
  5
2CD
330
40
100
AcDbEntity
  8
0007713
  6
Continuous
 62
     7
100
AcDbLine
 10
166.4868834917
 20
105.4176835164
 30
0.0
 11
166.9224642232
 21
105.8862959356
 31
0.0
  0
LINE
  5
2CE
330
40
100
AcDbEntity
  8
0007713
  6
Continuous
 62
     7
100
AcDbLine
 10
166.4868834917
 20
110.3549083548
 30
0.0
 11
166.9224642232
 21
109.8862959356
 31
0.0
  0
LINE
  5
2CF
330
40
100
AcDbEntity
  8
0007713
  6
Continuous
 62
     7
100
AcDbLine
 10
166.9880169503
 20
109.8862959356
 30
0.0
 11
166.9787431207
 21
109.8862959356
 31
0.0
  0
LINE
  5
2D0
330
40
100
AcDbEntity
  8
0007713
  6
Continuous
 62
     7
100
AcDbLine
 10
167.0218238303
 20
105.8862959356
 30
0.0
 11
167.0264648161
 21
105.8862959356
 31
0.0
  0
LINE
  5
2D1
330
40
100
AcDbEntity
  8
0007713
  6
Continuous
 62
     7
100
AcDbLine
 10
167.0218238303
 20
105.8862959356
 30
0.0
 11
167.0218238303
 21
109.8862959356
 31
0.0
  0
LINE
  5
2D2
330
40
100
AcDbEntity
  8
0007713
  6
Continuous
 62
     7
100
AcDbLine
 10
167.0218238303
 20
109.8862959356
 30
0.0
 11
166.5395659959
 21
110.3549083548
 31
0.0
  0
LINE
  5
2D3
330
40
100
AcDbEntity
  8
0007713
  6
Continuous
 62
     7
100
AcDbLine
 10
167.0218238303
 20
105.8862959356
 30
0.0
 11
166.5395659959
 21
105.4176835164
 31
0.0
  0
LINE
  5
2D4
330
40
100
AcDbEntity
  8
0007713
  6
Continuous
 62
     7
100
AcDbLine
 10
166.9880169503
 20
109.8862959356
 30
0.0
 11
166.9880169503
 21
105.8862959356
 31
0.0
  0
LINE
  5
2D5
330
40
100
AcDbEntity
  8
0007713
  6
Continuous
 62
     7
100
AcDbLine
 10
166.5395659959
 20
105.4176835164
 30
0.0
 11
166.9880169503
 21
105.8862959356
 31
0.0
  0
LINE
  5
2D6
330
40
100
AcDbEntity
  8
0007713
  6
Continuous
 62
     7
100
AcDbLine
 10
166.5395659959
 20
110.3549083548
 30
0.0
 11
166.9880169503
 21
109.8862959356
 31
0.0
  0
LINE
  5
2D7
330
40
100
AcDbEntity
  8
0007713
  6
Continuous
 62
     7
100
AcDbLine
 10
167.0264648161
 20
109.8862959356
 30
0.0
 11
167.0218238303
 21
109.8862959356
 31
0.0
  0
LINE
  5
2D8
330
40
100
AcDbEntity
  8
0007713
  6
Continuous
 62
     7
100
AcDbLine
 10
167.0377403698
 20
105.8862959356
 30
0.0
 11
167.0378394252
 21
105.8862959356
 31
0.0
  0
LINE
  5
2D9
330
40
100
AcDbEntity
  8
0007713
  6
Continuous
 62
     7
100
AcDbLine
 10
167.0377403698
 20
105.8862959356
 30
0.0
 11
167.0377403698
 21
109.8862959356
 31
0.0
  0
LINE
  5
2DA
330
40
100
AcDbEntity
  8
0007713
  6
Continuous
 62
     7
100
AcDbLine
 10
167.0377403698
 20
109.8862959356
 30
0.0
 11
166.565930374
 21
110.3549083548
 31
0.0
  0
LINE
  5
2DB
330
40
100
AcDbEntity
  8
0007713
  6
Continuous
 62
     7
100
AcDbLine
 10
167.0377403698
 20
105.8862959356
 30
0.0
 11
166.565930374
 21
105.4176835164
 31
0.0
  0
LINE
  5
2DC
330
40
100
AcDbEntity
  8
0007713
  6
Continuous
 62
     7
100
AcDbLine
 10
167.0264648161
 20
109.8862959356
 30
0.0
 11
167.0264648161
 21
105.8862959356
 31
0.0
  0
LINE
  5
2DD
330
40
100
AcDbEntity
  8
0007713
  6
Continuous
 62
     7
100
AcDbLine
 10
166.565930374
 20
105.4176835164
 30
0.0
 11
167.0264648161
 21
105.8862959356
 31
0.0
  0
LINE
  5
2DE
330
40
100
AcDbEntity
  8
0007713
  6
Continuous
 62
     7
100
AcDbLine
 10
166.565930374
 20
110.3549083548
 30
0.0
 11
167.0264648161
 21
109.8862959356
 31
0.0
  0
LINE
  5
2DF
330
40
100
AcDbEntity
  8
0007713
  6
Continuous
 62
     7
100
AcDbLine
 10
167.0377403698
 20
109.8862959356
 30
0.0
 11
167.0378394252
 21
109.8862959356
 31
0.0
  0
LINE
  5
2E0
330
40
100
AcDbEntity
  8
0007713
  6
Continuous
 62
     7
100
AcDbLine
 10
167.0378394249
 20
109.8862959356
 30
0.0
 11
166.5378394249
 21
110.3862959356
 31
0.0
  0
LINE
  5
2E1
330
40
100
AcDbEntity
  8
0007713
  6
Continuous
 62
     7
100
AcDbLine
 10
136.5378394249
 20
110.3862959356
 30
0.0
 11
136.0378394249
 21
109.8862959356
 31
0.0
  0
LINE
  5
2E2
330
40
100
AcDbEntity
  8
0007713
  6
Continuous
 62
     7
100
AcDbLine
 10
136.0378394249
 20
105.8862959356
 30
0.0
 11
136.5378394249
 21
105.3862959356
 31
0.0
  0
LINE
  5
2E3
330
40
100
AcDbEntity
  8
0007713
  6
Continuous
 62
     7
100
AcDbLine
 10
166.5378394249
 20
105.3862959356
 30
0.0
 11
167.0378394249
 21
105.8862959356
 31
0.0
  0
LINE
  5
2E4
330
40
100
AcDbEntity
  8
0007713
  6
Continuous
 62
     7
100
AcDbLine
 10
136.0378394249
 20
109.8862959356
 30
0.0
 11
136.0378394249
 21
105.8862959356
 31
0.0
  0
LINE
  5
2E5
330
40
100
AcDbEntity
  8
0007713
  6
Continuous
 62
     7
100
AcDbLine
 10
167.0378394249
 20
105.8862959356
 30
0.0
 11
167.0378394249
 21
109.8862959356
 31
0.0
  0
LINE
  5
2E7
330
40
100
AcDbEntity
  8
0007709
  6
Continuous
 62
     7
100
AcDbLine
 10
148.6878394249
 20
111.1362959356
 30
0.0
 11
154.3878394249
 21
111.1362959356
 31
0.0
  0
LINE
  5
2E8
330
40
100
AcDbEntity
  8
0007709
  6
Continuous
 62
     7
100
AcDbLine
 10
154.3878394249
 20
111.1362959356
 30
0.0
 11
154.3878394249
 21
115.8804218243
 31
0.0
  0
LINE
  5
2E9
330
40
100
AcDbEntity
  8
0007709
  6
Continuous
 62
     7
100
AcDbLine
 10
148.6878394249
 20
115.8804218243
 30
0.0
 11
148.6878394249
 21
111.1362959356
 31
0.0
  0
LINE
  5
2EA
330
40
100
AcDbEntity
  8
0007709
  6
Continuous
 62
     7
100
AcDbLine
 10
155.5378394249
 20
85.6362959356
 30
0.0
 11
155.5378394249
 21
86.5306046891
 31
0.0
  0
LINE
  5
2EB
330
40
100
AcDbEntity
  8
0007709
  6
Continuous
 62
     7
100
AcDbLine
 10
155.5378394249
 20
87.164152673
 30
0.0
 11
155.5378394249
 21
88.8545236991
 31
0.0
  0
LINE
  5
2EC
330
40
100
AcDbEntity
  8
0007709
  6
Continuous
 62
     7
100
AcDbLine
 10
155.5378394249
 20
89.486607348
 30
0.0
 11
155.5378394249
 21
91.1775888208
 31
0.0
  0
LINE
  5
2ED
330
40
100
AcDbEntity
  8
0007709
  6
Continuous
 62
     7
100
AcDbLine
 10
155.5378394249
 20
91.8104303016
 30
0.0
 11
155.5378394249
 21
93.5011584225
 31
0.0
  0
LINE
  5
2EE
330
40
100
AcDbEntity
  8
0007709
  6
Continuous
 62
     7
100
AcDbLine
 10
155.5378394249
 20
94.1353619863
 30
0.0
 11
155.5378394249
 21
95.8249344066
 31
0.0
  0
LINE
  5
2EF
330
40
100
AcDbEntity
  8
0007709
  6
Continuous
 62
     7
100
AcDbLine
 10
155.5378394249
 20
96.4579454996
 30
0.0
 11
155.5378394249
 21
98.148513202
 31
0.0
  0
LINE
  5
2F0
330
40
100
AcDbEntity
  8
0007709
  6
Continuous
 62
     7
100
AcDbLine
 10
155.5378394249
 20
98.7815123895
 30
0.0
 11
155.5378394249
 21
100.4721157736
 31
0.0
  0
LINE
  5
2F1
330
40
100
AcDbEntity
  8
0007709
  6
Continuous
 62
     7
100
AcDbLine
 10
155.5378394249
 20
101.1051852496
 30
0.0
 11
155.5378394249
 21
102.7956691029
 31
0.0
  0
LINE
  5
2F2
330
40
100
AcDbEntity
  8
0007709
  6
Continuous
 62
     7
100
AcDbLine
 10
155.5378394249
 20
103.4291450225
 30
0.0
 11
155.5378394249
 21
105.3862959356
 31
0.0
  0
LINE
  5
2F3
330
40
100
AcDbEntity
  8
0007709
  6
Continuous
 62
     7
100
AcDbLine
 10
147.5378394249
 20
105.3862959356
 30
0.0
 11
147.5378394249
 21
104.1568636512
 31
0.0
  0
LINE
  5
2F4
330
40
100
AcDbEntity
  8
0007709
  6
Continuous
 62
     7
100
AcDbLine
 10
147.5378394249
 20
103.5231478769
 30
0.0
 11
147.5378394249
 21
101.8334656263
 31
0.0
  0
LINE
  5
2F5
330
40
100
AcDbEntity
  8
0007709
  6
Continuous
 62
     7
100
AcDbLine
 10
147.5378394249
 20
101.1994819848
 30
0.0
 11
147.5378394249
 21
99.509907296
 31
0.0
  0
LINE
  5
2F6
330
40
100
AcDbEntity
  8
0007709
  6
Continuous
 62
     7
100
AcDbLine
 10
147.5378394249
 20
98.875540666
 30
0.0
 11
147.5378394249
 21
97.1865183217
 31
0.0
  0
LINE
  5
2F7
330
40
100
AcDbEntity
  8
0007709
  6
Continuous
 62
     7
100
AcDbLine
 10
147.5378394249
 20
96.5525032859
 30
0.0
 11
147.5378394249
 21
94.8630649086
 31
0.0
  0
LINE
  5
2F8
330
40
100
AcDbEntity
  8
0007709
  6
Continuous
 62
     7
100
AcDbLine
 10
147.5378394249
 20
94.2291409722
 30
0.0
 11
147.5378394249
 21
92.5397096366
 31
0.0
  0
LINE
  5
2F9
330
40
100
AcDbEntity
  8
0007709
  6
Continuous
 62
     7
100
AcDbLine
 10
147.5378394249
 20
91.9057948669
 30
0.0
 11
147.5378394249
 21
90.2157064494
 31
0.0
  0
LINE
  5
2FA
330
40
100
AcDbEntity
  8
0007709
  6
Continuous
 62
     7
100
AcDbLine
 10
147.5378394249
 20
89.5816057307
 30
0.0
 11
147.5378394249
 21
87.892199303
 31
0.0
  0
LINE
  5
2FB
330
40
100
AcDbEntity
  8
0007709
  6
Continuous
 62
     7
100
AcDbLine
 10
147.5378394249
 20
87.2589186897
 30
0.0
 11
147.5378394249
 21
85.6362959356
 31
0.0
  0
LINE
  5
2FC
330
40
100
AcDbEntity
  8
0007709
  6
Continuous
 62
     7
100
AcDbLine
 10
155.1378394249
 20
110.3862959356
 30
0.0
 11
154.3878394249
 21
111.1362959356
 31
0.0
  0
LINE
  5
2FD
330
40
100
AcDbEntity
  8
0007709
  6
Continuous
 62
     7
100
AcDbLine
 10
148.6878394249
 20
111.1362959356
 30
0.0
 11
147.9378394249
 21
110.3862959356
 31
0.0
  0
LINE
  5
2FF
330
40
100
AcDbEntity
  8
0006110
  6
Continuous
 62
     7
100
AcDbLine
 10
133.5353246875
 20
183.6362959356
 30
0.0
 11
169.5403541623
 21
183.6362959356
 31
0.0
  0
LINE
  5
300
330
40
100
AcDbEntity
  8
0006110
  6
Continuous
 62
     7
100
AcDbLine
 10
173.0378394249
 20
180.2479619854
 30
0.0
 11
173.0378394249
 21
181.3860817701
 31
0.0
  0
LINE
  5
301
330
40
100
AcDbEntity
  8
0006110
  6
Continuous
 62
     7
100
AcDbLine
 10
130.0378394249
 20
181.3860817701
 30
0.0
 11
130.0378394249
 21
180.2479619854
 31
0.0
  0
LINE
  5
302
330
40
100
AcDbEntity
  8
0006110
  6
Continuous
 62
     7
100
AcDbLine
 10
130.2378394249
 20
179.9015518239
 30
0.0
 11
133.2378394249
 21
178.1695010164
 31
0.0
  0
LINE
  5
303
330
40
100
AcDbEntity
  8
0006110
  6
Continuous
 62
     7
100
AcDbLine
 10
169.8378394249
 20
178.1695010164
 30
0.0
 11
172.8378394249
 21
179.9015518239
 31
0.0
  0
LINE
  5
304
330
40
100
AcDbEntity
  8
0006110
  6
Continuous
 62
     7
100
AcDbLine
 10
169.5378394249
 20
176.0362959356
 30
0.0
 11
169.5378394249
 21
177.6498857741
 31
0.0
  0
LINE
  5
305
330
40
100
AcDbEntity
  8
0006110
  6
Continuous
 62
     7
100
AcDbLine
 10
133.5378394249
 20
177.6498857741
 30
0.0
 11
133.5378394249
 21
176.0362959356
 31
0.0
  0
ARC
  5
306
330
40
100
AcDbEntity
  8
0006110
  6
Continuous
 62
     7
100
AcDbCircle
 10
170.1378394249
 20
177.6498857741
 30
0.0
 40
0.5999999999999999
100
AcDbArc
 50
120.0
 51
180.0
  0
ARC
  5
307
330
40
100
AcDbEntity
  8
0006110
  6
Continuous
 62
     7
100
AcDbCircle
 10
132.9378394249
 20
177.6498857741
 30
0.0
 40
0.5999999999999989
100
AcDbArc
 50
0.0
 51
60.0
  0
ARC
  5
308
330
40
100
AcDbEntity
  8
0006110
  6
Continuous
 62
     7
100
AcDbCircle
 10
169.1378394249
 20
176.0362959356
 30
0.0
 40
0.3999999999999976
100
AcDbArc
 50
270.0
 51
0.0
  0
ARC
  5
309
330
40
100
AcDbEntity
  8
0006110
  6
Continuous
 62
     7
100
AcDbCircle
 10
133.9378394249
 20
176.0362959356
 30
0.0
 40
0.400000000000001
100
AcDbArc
 50
180.0
 51
270.0
  0
ARC
  5
30A
330
40
100
AcDbEntity
  8
0006110
  6
Continuous
 62
     7
100
AcDbCircle
 10
130.4378394249
 20
180.2479619854
 30
0.0
 40
0.4000000000000045
100
AcDbArc
 50
180.0
 51
240.0
  0
ARC
  5
30B
330
40
100
AcDbEntity
  8
0006110
  6
Continuous
 62
     7
100
AcDbCircle
 10
172.6378394249
 20
180.2479619854
 30
0.0
 40
0.4000000000000015
100
AcDbArc
 50
300.0
 51
0.0
  0
LINE
  5
30C
330
40
100
AcDbEntity
  8
0006110
  6
Continuous
 62
     7
100
AcDbLine
 10
172.8378394249
 20
181.7324919316
 30
0.0
 11
169.5403541623
 21
183.6362959356
 31
0.0
  0
LINE
  5
30D
330
40
100
AcDbEntity
  8
0006110
  6
Continuous
 62
     7
100
AcDbLine
 10
133.5353246875
 20
183.6362959356
 30
0.0
 11
130.2378394249
 21
181.7324919316
 31
0.0
  0
ARC
  5
30E
330
40
100
AcDbEntity
  8
0006110
  6
Continuous
 62
     7
100
AcDbCircle
 10
130.4378394249
 20
181.3860817701
 30
0.0
 40
0.4000000000000033
100
AcDbArc
 50
120.0
 51
180.0
  0
ARC
  5
30F
330
40
100
AcDbEntity
  8
0006110
  6
Continuous
 62
     7
100
AcDbCircle
 10
172.6378394249
 20
181.3860817701
 30
0.0
 40
0.4000000000000045
100
AcDbArc
 50
0.0
 51
60.0
  0
LINE
  5
311
330
40
100
AcDbEntity
  8
0007750
  6
Continuous
 62
     7
100
AcDbLine
 10
155.538648845
 20
104.7562959356
 30
0.0
 11
155.9879808389
 21
104.7562959356
 31
0.0
  0
SPLINE
  5
312
330
40
100
AcDbEntity
  8
0007750
  6
Continuous
 62
     7
100
AcDbSpline
210
0.0
220
0.0
230
1.0
 70
     8
 71
     3
 72
    35
 73
    31
 74
     0
 42
0.0000000000616973
 43
0.0000000001
 12
1.0
 22
0.0
 32
0.0
 13
1.0
 23
0.0
 33
0.0
 40
0.0087727435003221
 40
0.0087727435003221
 40
0.0087727435003221
 40
0.0087727435003221
 40
0.0096358949526742
 40
0.011945292123328
 40
0.0140524254587686
 40
0.0168268130002423
 40
0.0188623244698887
 40
0.0198795673281439
 40
0.0205303027907145
 40
0.0219474537035591
 40
0.0225685625782806
 40
0.0245318856399047
 40
0.0268173853524344
 40
0.0282312169999656
 40
0.0294372802059345
 40
0.0324675674299169
 40
0.0365777571708074
 40
0.0412560839514166
 40
0.0452551547917669
 40
0.0485959997627237
 40
0.0521062964367349
 40
0.0557842388376381
 40
0.0590928102671471
 40
0.0625334030980099
 40
0.0660208635088276
 40
0.0694500447946907
 40
0.0726529821997068
 40
0.0757167086898042
 40
0.0786512689525519
 40
0.0788498299143475
 40
0.0788498299143475
 40
0.0788498299143475
 40
0.0788498299143475
 10
147.5344332508372
 20
104.5908079315918
 30
0.0
 10
147.4931169986357
 20
104.5856077496081
 30
0.0
 10
147.3459462068088
 20
104.5663308736345
 30
0.0
 10
147.1297829520048
 20
104.5324244188149
 30
0.0
 10
146.8841202380401
 20
104.4824131576257
 30
0.0
 10
146.6640462334166
 20
104.4146032895105
 30
0.0
 10
146.5320291882188
 20
104.3260907286009
 30
0.0
 10
146.4675521399187
 20
104.2537913296762
 30
0.0
 10
146.3959756177846
 20
104.1149683009526
 30
0.0
 10
146.4123604488791
 20
103.9414145863347
 30
0.0
 10
146.5116734382925
 20
103.7897247861955
 30
0.0
 10
146.6021579743665
 20
103.7306144143973
 30
0.0
 10
146.766459240349
 20
103.6562045331238
 30
0.0
 10
146.9245933361692
 20
103.6214939352332
 30
0.0
 10
147.1049993463103
 20
103.5853203052182
 30
0.0
 10
147.4366156426813
 20
103.534512294612
 30
0.0
 10
148.0503207629376
 20
103.4561902214363
 30
0.0
 10
148.8854118107634
 20
103.3705349505309
 30
0.0
 10
149.7881297731342
 20
103.2906438964788
 30
0.0
 10
150.6617384033644
 20
103.2238050533247
 30
0.0
 10
151.5373931985214
 20
103.1628880249851
 30
0.0
 10
152.4095634211709
 20
103.0948603432336
 30
0.0
 10
153.2458052825796
 20
103.025761569822
 30
0.0
 10
154.0122985352327
 20
102.9570241005284
 30
0.0
 10
154.7079850905312
 20
102.8898232082413
 30
0.0
 10
155.2833534800062
 20
102.8279585541914
 30
0.0
 10
155.7206546869779
 20
102.775025541489
 30
0.0
 10
156.0010089264529
 20
102.7177467686539
 30
0.0
 10
156.1206442542291
 20
102.689240845673
 30
0.0
 10
156.1215911923514
 20
102.6878515951821
 30
0.0
 10
156.1214357798625
 20
102.6878423535308
 30
0.0
  0
SPLINE
  5
313
330
40
100
AcDbEntity
  8
0007750
  6
Continuous
 62
     7
100
AcDbSpline
210
0.0
220
0.0
230
1.0
 70
     8
 71
     3
 72
    31
 73
    27
 74
     0
 42
0.0000000000617919
 43
0.0000000001
 12
1.0
 22
0.0
 32
0.0
 13
1.0
 23
0.0
 33
0.0
 40
0.1313479651223164
 40
0.1313479651223164
 40
0.1313479651223164
 40
0.1313479651223164
 40
0.1342541372856677
 40
0.1382167996760215
 40
0.1408334040352109
 40
0.1426027441832349
 40
0.1438404061843199
 40
0.1453785592722693
 40
0.1473063627843341
 40
0.1502067453655495
 40
0.1539984960960737
 40
0.1571151531151871
 40
0.1605071271229574
 40
0.1644715909458433
 40
0.1687585467225896
 40
0.1723685924383529
 40
0.1750166492280539
 40
0.1771134576200794
 40
0.1800311458513431
 40
0.1838979120736804
 40
0.188339707670317
 40
0.1923055803007256
 40
0.1958551914660016
 40
0.199022299525238
 40
0.201642500290836
 40
0.2016909538316645
 40
0.2016909538316645
 40
0.2016909538316645
 40
0.2016909538316645
 10
147.5341914435174
 20
102.2672110891427
 30
0.0
 10
147.393583413173
 20
102.249476519602
 30
0.0
 10
147.0908708813694
 20
102.20595944622
 30
0.0
 10
146.7841028060575
 20
102.1326903969464
 30
0.0
 10
146.6010400019324
 20
102.0617426950836
 30
0.0
 10
146.4288501063184
 20
101.9054959800046
 30
0.0
 10
146.3901878637174
 20
101.6803084597561
 30
0.0
 10
146.4906579165556
 20
101.4726532445735
 30
0.0
 10
146.6781236334406
 20
101.3629343818645
 30
0.0
 10
146.867055415401
 20
101.3068929712371
 30
0.0
 10
147.2403609750986
 20
101.2378307505581
 30
0.0
 10
147.7156649595547
 20
101.1749292241616
 30
0.0
 10
148.3201630251339
 20
101.103742430645
 30
0.0
 10
149.1080470336609
 20
101.0266164084607
 30
0.0
 10
150.0181151137626
 20
100.9479246131353
 30
0.0
 10
150.8793117581741
 20
100.8853856580666
 30
0.0
 10
151.574922244434
 20
100.8359039257248
 30
0.0
 10
152.2104638097948
 20
100.786796487892
 30
0.0
 10
152.9347087659089
 20
100.7286303440686
 30
0.0
 10
153.8039535719034
 20
100.6530942092534
 30
0.0
 10
154.6520074303328
 20
100.5723776045808
 30
0.0
 10
155.3287839961819
 20
100.4998414287016
 30
0.0
 10
155.7862190314765
 20
100.4422452035034
 30
0.0
 10
156.053436919285
 20
100.380782107597
 30
0.0
 10
156.1292558761016
 20
100.3623199445621
 30
0.0
 10
156.1297310391749
 20
100.3598506495003
 30
0.0
 10
156.1297284375195
 20
100.3598087064685
 30
0.0
  0
SPLINE
  5
314
330
40
100
AcDbEntity
  8
0007750
  6
Continuous
 62
     7
100
AcDbSpline
210
0.0
220
0.0
230
1.0
 70
     8
 71
     3
 72
    34
 73
    30
 74
     0
 42
0.000000000061701
 43
0.0000000001
 12
1.0
 22
0.0
 32
0.0
 13
1.0
 23
0.0
 33
0.0
 40
0.2538639480609921
 40
0.2538639480609921
 40
0.2538639480609921
 40
0.2538639480609921
 40
0.2568384702031999
 40
0.2586478411271906
 40
0.2603296387474729
 40
0.2626053502713852
 40
0.2644737527974328
 40
0.2654983170761907
 40
0.2666265266513034
 40
0.2672834168906394
 40
0.2685434053293353
 40
0.2707980725595504
 40
0.2730294897819559
 40
0.274774966894593
 40
0.2766440350727226
 40
0.2789667525957589
 40
0.2826439382803158
 40
0.2872886297067149
 40
0.2913262457100195
 40
0.2952519207802304
 40
0.2986419167761673
 40
0.3016978888233962
 40
0.3050240306638302
 40
0.3083872577398554
 40
0.3117347763787397
 40
0.3149717939504629
 40
0.3180752162200995
 40
0.3210910565962474
 40
0.3239403334385716
 40
0.3239403334385716
 40
0.3239403334385716
 40
0.3239403334385716
 10
147.5340401222821
 20
99.94350195148125
 30
0.0
 10
147.3909283229029
 20
99.925410302061
 30
0.0
 10
147.1844026109057
 20
99.89574199478318
 30
0.0
 10
146.9637403482372
 20
99.85145887078771
 30
0.0
 10
146.7758446827397
 20
99.80581574841199
 30
0.0
 10
146.6100169702678
 20
99.7349931750768
 30
0.0
 10
146.5036419778911
 20
99.6585546576023
 30
0.0
 10
146.4151925543134
 20
99.52135842945827
 30
0.0
 10
146.397506721996
 20
99.35124075354794
 30
0.0
 10
146.4657015977295
 20
99.2022526427004
 30
0.0
 10
146.5460060551184
 20
99.1184184200361
 30
0.0
 10
146.6830645334966
 20
99.0380661412697
 30
0.0
 10
146.8844058673738
 20
98.98104356004116
 30
0.0
 10
147.0774385830513
 20
98.94404425643313
 30
0.0
 10
147.3030840959175
 20
98.90790234400525
 30
0.0
 10
147.6644505901012
 20
98.85733983152495
 30
0.0
 10
148.2574388804641
 20
98.78678586156644
 30
0.0
 10
149.0958211490547
 20
98.70380663799766
 30
0.0
 10
150.0646497092475
 20
98.62069351237172
 30
0.0
 10
150.9950322452269
 20
98.55381608082764
 30
0.0
 10
151.8604279534257
 20
98.4912529131114
 30
0.0
 10
152.6648837071913
 20
98.42701266391406
 30
0.0
 10
153.4359166701458
 20
98.36215043664244
 30
0.0
 10
154.1711419568394
 20
98.2950707608203
 30
0.0
 10
154.8200492224548
 20
98.23103572708432
 30
0.0
 10
155.3541143471335
 20
98.17304315933772
 30
0.0
 10
155.7587413203677
 20
98.12147098464433
 30
0.0
 10
156.0226534378732
 20
98.06624529540936
 30
0.0
 10
156.1213701103373
 20
98.03987626071009
 30
0.0
 10
156.122831314681
 20
98.04121029426899
 30
0.0
  0
SPLINE
  5
315
330
40
100
AcDbEntity
  8
0007750
  6
Continuous
 62
     7
100
AcDbSpline
210
0.0
220
0.0
230
1.0
 70
     8
 71
     3
 72
    32
 73
    28
 74
     0
 42
0.0000000000618637
 43
0.0000000001
 12
1.0
 22
0.0
 32
0.0
 13
1.0
 23
0.0
 33
0.0
 40
0.3764191656013956
 40
0.3764191656013956
 40
0.3764191656013956
 40
0.3764191656013956
 40
0.3764857648822919
 40
0.3795057343222536
 40
0.3823226352487976
 40
0.3851316979845059
 40
0.3870504563668071
 40
0.3883001231506799
 40
0.388929498579683
 40
0.3901995710062324
 40
0.3927774897750108
 40
0.3963991988087789
 40
0.3998227361901495
 40
0.4030341176965734
 40
0.4066337219728812
 40
0.41072694980527
 40
0.4149726082453917
 40
0.4184315426696064
 40
0.4209316985207284
 40
0.4231060285970875
 40
0.4261652154593349
 40
0.4301898005788906
 40
0.4345934489765543
 40
0.4384491193558943
 40
0.4419514493939766
 40
0.4450183973979825
 40
0.4468656983431599
 40
0.4468656983431599
 40
0.4468656983431599
 40
0.4468656983431599
 10
147.5349193118753
 20
97.6201776114243
 30
0.0
 10
147.5317087330027
 20
97.61977540044134
 30
0.0
 10
147.3832230329295
 20
97.6011236678535
 30
0.0
 10
147.1266533298249
 20
97.56441039448141
 30
0.0
 10
146.8282016113657
 20
97.49545757670654
 30
0.0
 10
146.6569514881029
 20
97.44281948004186
 30
0.0
 10
146.483161707407
 20
97.32156382553723
 30
0.0
 10
146.4135939029247
 20
97.17973876286175
 30
0.0
 10
146.4001510322816
 20
97.0158975210935
 30
0.0
 10
146.4960766939944
 20
96.81693356966817
 30
0.0
 10
146.6969101179976
 20
96.70481621585736
 30
0.0
 10
146.9426238702098
 20
96.64278756596536
 30
0.0
 10
147.3565902227213
 20
96.57460028561698
 30
0.0
 10
147.8563815771802
 20
96.51007561104744
 30
0.0
 10
148.5176330545164
 20
96.4361628452646
 30
0.0
 10
149.3577243065556
 20
96.35690614845502
 30
0.0
 10
150.2850290456242
 20
96.28017065433673
 30
0.0
 10
151.1265128437529
 20
96.22133782354739
 30
0.0
 10
151.8041630066269
 20
96.17134845385046
 30
0.0
 10
152.4426052110747
 20
96.12150376184697
 30
0.0
 10
153.1888121414866
 20
96.05985940296321
 30
0.0
 10
154.0552448000542
 20
95.98338807028446
 30
0.0
 10
154.8664841564643
 20
95.90255654911037
 30
0.0
 10
155.4836619370632
 20
95.83626865406075
 30
0.0
 10
155.8881671972349
 20
95.77475015240708
 30
0.0
 10
156.0828640972047
 20
95.72849235371258
 30
0.0
 10
156.1371232100205
 20
95.70784562419757
 30
0.0
 10
156.1358513169509
 20
95.71038103442777
 30
0.0
  0
SPLINE
  5
316
330
40
100
AcDbEntity
  8
0007750
  6
Continuous
 62
     7
100
AcDbSpline
210
0.0
220
0.0
230
1.0
 70
     8
 71
     3
 72
    34
 73
    30
 74
     0
 42
0.0000000000616908
 43
0.0000000001
 12
1.0
 22
0.0
 32
0.0
 13
1.0
 23
0.0
 33
0.0
 40
0.498951522486906
 40
0.498951522486906
 40
0.498951522486906
 40
0.498951522486906
 40
0.5017988874703668
 40
0.5036971442344896
 40
0.5057639036725267
 40
0.5074732038693577
 40
0.5091961743337065
 40
0.5100692402412448
 40
0.5112370829901542
 40
0.5123505869091652
 40
0.5133140323675169
 40
0.5155318290363821
 40
0.5181154180541904
 40
0.519889715942493
 40
0.5216241565395145
 40
0.524457460732423
 40
0.5287933425864919
 40
0.5334004748036016
 40
0.5371860838188696
 40
0.5401914624396679
 40
0.5432926584752055
 40
0.5473318325920529
 40
0.5509641461949881
 40
0.5542411036908073
 40
0.5574371837605888
 40
0.5605044891087807
 40
0.5635129865383941
 40
0.5665034826939457
 40
0.5690419008090057
 40
0.5690419008090057
 40
0.5690419008090057
 40
0.5690419008090057
 10
147.5312545265425
 20
95.29607358817879
 30
0.0
 10
147.3940529362662
 20
95.27867392709172
 30
0.0
 10
147.1877198550704
 20
95.24910128668685
 30
0.0
 10
146.9551272182202
 20
95.20287537694946
 30
0.0
 10
146.7778697660782
 20
95.1589777973167
 30
0.0
 10
146.620967735046
 20
95.09248156380757
 30
0.0
 10
146.5315527977442
 20
95.03368548929993
 30
0.0
 10
146.451027228636
 20
94.9380173494577
 30
0.0
 10
146.3799714349703
 20
94.76354077808804
 30
0.0
 10
146.4492335980748
 20
94.58095622658891
 30
0.0
 10
146.5283994615016
 20
94.48544379533618
 30
0.0
 10
146.656377207932
 20
94.40287622324645
 30
0.0
 10
146.867622589872
 20
94.33640248632241
 30
0.0
 10
147.0773493881409
 20
94.29732438111415
 30
0.0
 10
147.3156831931953
 20
94.25864315304365
 30
0.0
 10
147.7300320645158
 20
94.20144201317149
 30
0.0
 10
148.4134818978185
 20
94.12282180504153
 30
0.0
 10
149.3096011751342
 20
94.03752186194104
 30
0.0
 10
150.2011598710538
 20
93.96351732237946
 30
0.0
 10
151.0124748013861
 20
93.90562775713657
 30
0.0
 10
151.8580958789234
 20
93.84444720582032
 30
0.0
 10
152.7471672631883
 20
93.7735213060008
 30
0.0
 10
153.6026339698306
 20
93.70044064716728
 30
0.0
 10
154.3251459750394
 20
93.63314527935101
 30
0.0
 10
154.928226518247
 20
93.57277200809527
 30
0.0
 10
155.4231147329105
 20
93.51761463386329
 30
0.0
 10
155.7968894731042
 20
93.46857948401866
 30
0.0
 10
156.0397537671049
 20
93.41377778375484
 30
0.0
 10
156.1211623469796
 20
93.39267166649945
 30
0.0
 10
156.1241894637321
 20
93.3950869618345
 30
0.0
  0
SPLINE
  5
317
330
40
100
AcDbEntity
  8
0007750
  6
Continuous
 62
     7
100
AcDbSpline
210
0.0
220
0.0
230
1.0
 70
     8
 71
     3
 72
    31
 73
    27
 74
     0
 42
0.0000000000616623
 43
0.0000000001
 12
1.0
 22
0.0
 32
0.0
 13
1.0
 23
0.0
 33
0.0
 40
0.6214939507295396
 40
0.6214939507295396
 40
0.6214939507295396
 40
0.6214939507295396
 40
0.6219635412013482
 40
0.6244449710728038
 40
0.6277989210802202
 40
0.6312721988057742
 40
0.6329395676968685
 40
0.6340268805599043
 40
0.6351729060560856
 40
0.636837220370101
 40
0.6397839247294765
 40
0.6435438482229947
 40
0.6473576022894343
 40
0.6506037363299806
 40
0.6546448296838929
 40
0.6590717492579025
 40
0.6624377735171484
 40
0.66600386190659
 40
0.6700596438996211
 40
0.673396051548734
 40
0.6767797500121666
 40
0.6801584144016528
 40
0.6834983818864573
 40
0.6869320458567844
 40
0.6904507549139776
 40
0.6916488236085432
 40
0.6916488236085432
 40
0.6916488236085432
 40
0.6916488236085432
 10
147.5364587782575
 20
92.97316293664981
 30
0.0
 10
147.5137748582856
 20
92.97032291924307
 30
0.0
 10
147.3731421113558
 20
92.95240217504919
 30
0.0
 10
147.0977265259022
 20
92.9127632608203
 30
0.0
 10
146.7929012722326
 20
92.83825514465293
 30
0.0
 10
146.5944465799764
 20
92.77463858441043
 30
0.0
 10
146.4230900477727
 20
92.58952268622625
 30
0.0
 10
146.3938421381886
 20
92.39832444864129
 30
0.0
 10
146.4774984565691
 20
92.19785917205571
 30
0.0
 10
146.6327122796891
 20
92.090129343888
 30
0.0
 10
146.8181198935568
 20
92.02283423145144
 30
0.0
 10
147.1741264145075
 20
91.95456259216635
 30
0.0
 10
147.6753872124645
 20
91.88506707556286
 30
0.0
 10
148.3155527303338
 20
91.81042314745889
 30
0.0
 10
149.1089070587574
 20
91.73226293052191
 30
0.0
 10
150.018886346539
 20
91.65372282610612
 30
0.0
 10
150.9464704192607
 20
91.5866185796375
 30
0.0
 10
151.8632870164145
 20
91.52068562299735
 30
0.0
 10
152.7666473361785
 20
91.44851156241637
 30
0.0
 10
153.6064561272997
 20
91.37611939361467
 30
0.0
 10
154.3317544288589
 20
91.30988262987925
 30
0.0
 10
154.9648835166267
 20
91.24389669724086
 30
0.0
 10
155.5027483521502
 20
91.18818652897957
 30
0.0
 10
155.8871696826985
 20
91.12353023296468
 30
0.0
 10
156.095099580968
 20
91.08538679291135
 30
0.0
 10
156.1206001678329
 20
91.06385406102702
 30
0.0
 10
156.1215164497364
 20
91.06364365825357
 30
0.0
  0
SPLINE
  5
318
330
40
100
AcDbEntity
  8
0007750
  6
Continuous
 62
     7
100
AcDbSpline
210
0.0
220
0.0
230
1.0
 70
     8
 71
     3
 72
    30
 73
    26
 74
     0
 42
0.0000000000617216
 43
0.0000000001
 12
1.0
 22
0.0
 32
0.0
 13
1.0
 23
0.0
 33
0.0
 40
0.7440446214390147
 40
0.7440446214390147
 40
0.7440446214390147
 40
0.7440446214390147
 40
0.7461451822671561
 40
0.749713390987736
 40
0.7535340174998078
 40
0.7551504949301183
 40
0.7563885460276585
 40
0.757666666910763
 40
0.7591554627003356
 40
0.7617578223560744
 40
0.7654207665433589
 40
0.7694194366388503
 40
0.7744105266589281
 40
0.7794053080675847
 40
0.7834361545560952
 40
0.7867991337500851
 40
0.7906295169231957
 40
0.7942852827174199
 40
0.7976255434516946
 40
0.800959530858981
 40
0.8042362560103494
 40
0.8075661498610573
 40
0.8103721773817086
 40
0.8128082025848338
 40
0.8142716434006556
 40
0.8142716434006556
 40
0.8142716434006556
 40
0.8142716434006556
 10
147.5346571612542
 20
90.64965662651782
 30
0.0
 10
147.4333228136794
 20
90.63722872411866
 30
0.0
 10
147.1781940103213
 20
90.60312073201256
 30
0.0
 10
146.8368507494067
 20
90.52786336902687
 30
0.0
 10
146.6214994482034
 20
90.46549867986016
 30
0.0
 10
146.4437655212639
 20
90.29609934058148
 30
0.0
 10
146.3859967399364
 20
90.11024941081041
 30
0.0
 10
146.4653318913986
 20
89.88822811264764
 30
0.0
 10
146.619301291279
 20
89.77381939315845
 30
0.0
 10
146.7789697018246
 20
89.71131771792402
 30
0.0
 10
147.1066064810963
 20
89.641045557786
 30
0.0
 10
147.6670475912545
 20
89.56169373949393
 30
0.0
 10
148.4938890345612
 20
89.46651989428346
 30
0.0
 10
149.5035641092127
 20
89.37315000208646
 30
0.0
 10
150.4924819802429
 20
89.29437704778871
 30
0.0
 10
151.4228716416273
 20
89.23011046182042
 30
0.0
 10
152.3269796502107
 20
89.16037273878716
 30
0.0
 10
153.1986793147233
 20
89.0887354422586
 30
0.0
 10
153.9748481204054
 20
89.01917671463778
 30
0.0
 10
154.6478527575369
 20
88.95479707331167
 30
0.0
 10
155.2271719889481
 20
88.89271047430049
 30
0.0
 10
155.6650641048497
 20
88.84201476155175
 30
0.0
 10
155.9441747430162
 20
88.78840906596044
 30
0.0
 10
156.0894743336315
 20
88.76022719169757
 30
0.0
 10
156.1220553398801
 20
88.73964621072753
 30
0.0
 10
156.1244906646581
 20
88.74033557305499
 30
0.0
  0
SPLINE
  5
319
330
40
100
AcDbEntity
  8
0007750
  6
Continuous
 62
     7
100
AcDbSpline
210
0.0
220
0.0
230
1.0
 70
     8
 71
     3
 72
    30
 73
    26
 74
     0
 42
0.0000000000618407
 43
0.0000000001
 12
1.0
 22
0.0
 32
0.0
 13
1.0
 23
0.0
 33
0.0
 40
0.8665877500097983
 40
0.8665877500097983
 40
0.8665877500097983
 40
0.8665877500097983
 40
0.8683550619374703
 40
0.8716634030370644
 40
0.8756359595148168
 40
0.8772700550692147
 40
0.8785588190835169
 40
0.8797035886928457
 40
0.8810950238832254
 40
0.8828405504665653
 40
0.8862733005971652
 40
0.8900304149223227
 40
0.8944262725638555
 40
0.8993504557482564
 40
0.9036833443276925
 40
0.9070436728438747
 40
0.9103491636945249
 40
0.9140622666881993
 40
0.9173824659322217
 40
0.9206997410995672
 40
0.9239727862395404
 40
0.927173530668919
 40
0.9304821135610472
 40
0.9341336467590795
 40
0.936930203204791
 40
0.936930203204791
 40
0.936930203204791
 40
0.936930203204791
 10
147.5346523376742
 20
88.32620432253779
 30
0.0
 10
147.4496579043712
 20
88.31570299281182
 30
0.0
 10
147.2196415823536
 20
88.28491983954223
 30
0.0
 10
146.87913624146
 20
88.21676113853184
 30
0.0
 10
146.6557335698512
 20
88.15437656576813
 30
0.0
 10
146.4702567608757
 20
88.00822857751838
 30
0.0
 10
146.401796914796
 20
87.86061007960953
 30
0.0
 10
146.4130694689803
 20
87.64344957277612
 30
0.0
 10
146.5588028627298
 20
87.4853852001882
 30
0.0
 10
146.6950748503494
 20
87.41774495959257
 30
0.0
 10
146.9288683419529
 20
87.34927761058881
 30
0.0
 10
147.3741095599246
 20
87.27825414723416
 30
0.0
 10
148.0536403258018
 20
87.19049371261463
 30
0.0
 10
148.9521706540817
 20
87.09941284895996
 30
0.0
 10
149.9120631645137
 20
87.01542509700089
 30
0.0
 10
150.8054083753709
 20
86.94923020446305
 30
0.0
 10
151.6698467393666
 20
86.88820203809429
 30
0.0
 10
152.5267352405775
 20
86.82080617676914
 30
0.0
 10
153.3504625399953
 20
86.75183110047416
 30
0.0
 10
154.0844338289893
 20
86.68579408424493
 30
0.0
 10
154.7343040152348
 20
86.62172871042132
 30
0.0
 10
155.2902608766831
 20
86.56347662768103
 30
0.0
 10
155.7475477171518
 20
86.50490718054313
 30
0.0
 10
156.0243515576131
 20
86.45187087380596
 30
0.0
 10
156.1233191324307
 20
86.42016814396742
 30
0.0
 10
156.124794942636
 20
86.42366433363527
 30
0.0
  0
SPLINE
  5
31A
330
40
100
AcDbEntity
  8
0007750
  6
Continuous
 62
     7
100
AcDbSpline
210
0.0
220
0.0
230
1.0
 70
     8
 71
     3
 72
    11
 73
     7
 74
     0
 42
0.0000000000927685
 43
0.0000000001
 12
1.0
 22
0.0
 32
0.0
 13
1.0
 23
0.0
 33
0.0
 40
0.9891206135916716
 40
0.9891206135916716
 40
0.9891206135916716
 40
0.9891206135916716
 40
0.9913766442204366
 40
0.9946736322338664
 40
0.9980650028804059
 40
1.0
 40
1.0
 40
1.0
 40
1.0
 10
147.5356992502258
 20
86.0026293902206
 30
0.0
 10
147.4268996646077
 20
85.98918887248594
 30
0.0
 10
147.1786789515286
 20
85.9556400409764
 30
0.0
 10
146.8620871360918
 20
85.88668095743968
 30
0.0
 10
146.633599568463
 20
85.82477820785167
 30
0.0
 10
146.506707125967
 20
85.70555780972916
 30
0.0
 10
146.4607518730945
 20
85.64279369196706
 30
0.0
  0
SPLINE
  5
31B
330
40
100
AcDbEntity
  8
0007750
  6
Continuous
 62
     7
100
AcDbSpline
210
0.0
220
0.0
230
1.0
 70
     8
 71
     3
 72
    29
 73
    25
 74
     0
 42
0.0000000000612962
 43
0.0000000001
 12
1.0
 22
0.0
 32
0.0
 13
1.0
 23
0.0
 33
0.0
 40
0.0237253478190953
 40
0.0237253478190953
 40
0.0237253478190953
 40
0.0237253478190953
 40
0.0273952522582339
 40
0.0308675675329528
 40
0.0330870495951572
 40
0.0348532911161251
 40
0.0364554633419195
 40
0.0390308736624925
 40
0.0425010053592557
 40
0.0462583740374463
 40
0.0506204193177078
 40
0.0546144310216853
 40
0.0579072209046168
 40
0.061183846278401
 40
0.0650529307641388
 40
0.0687207279433559
 40
0.0722233635678134
 40
0.0767372185228756
 40
0.0819590418712735
 40
0.0863241409840283
 40
0.0896259475415057
 40
0.0919501729030021
 40
0.0936383846294793
 40
0.0936754356909304
 40
0.0936754356909304
 40
0.0936754356909304
 40
0.0936754356909304
 10
155.5486335070372
 20
86.09765148564463
 30
0.0
 10
155.7248687944345
 20
86.12126628748845
 30
0.0
 10
156.021963210512
 20
86.16595518313069
 30
0.0
 10
156.3275938430959
 20
86.23190493110215
 30
0.0
 10
156.498833592456
 20
86.31970752447147
 30
0.0
 10
156.6516431785192
 20
86.43624737645133
 30
0.0
 10
156.6819911173356
 20
86.79639953463408
 30
0.0
 10
156.443556586762
 20
86.97778592925206
 30
0.0
 10
156.2304700740973
 20
87.04695263419585
 30
0.0
 10
155.7859944102773
 20
87.13935257333247
 30
0.0
 10
155.1835220610536
 20
87.20644452901414
 30
0.0
 10
154.4452418226753
 20
87.28273027477417
 30
0.0
 10
153.6826298395299
 20
87.35282691931282
 30
0.0
 10
152.8628176492183
 20
87.42351933581008
 30
0.0
 10
151.9671278488754
 20
87.49560438212004
 30
0.0
 10
151.0371797334568
 20
87.56335113491164
 30
0.0
 10
150.0738626211704
 20
87.632258065951
 30
0.0
 10
149.0514647857369
 20
87.72046428663559
 30
0.0
 10
148.1164763671419
 20
87.8152171092896
 30
0.0
 10
147.467063688984
 20
87.89960514521154
 30
0.0
 10
147.1210158020904
 20
87.95471011553823
 30
0.0
 10
146.9712124714544
 20
87.99012038746041
 30
0.0
 10
146.9363593670434
 20
88.00169500981997
 30
0.0
 10
146.9350122533004
 20
88.00225540368297
 30
0.0
 10
146.9349898356576
 20
88.00226486333933
 30
0.0
  0
SPLINE
  5
31C
330
40
100
AcDbEntity
  8
0007750
  6
Continuous
 62
     7
100
AcDbSpline
210
0.0
220
0.0
230
1.0
 70
     8
 71
     3
 72
    29
 73
    25
 74
     0
 42
0.0000000000612625
 43
0.0000000001
 12
1.0
 22
0.0
 32
0.0
 13
1.0
 23
0.0
 33
0.0
 40
0.145199026608397
 40
0.145199026608397
 40
0.145199026608397
 40
0.145199026608397
 40
0.146158641285115
 40
0.1503837993997261
 40
0.1535071581293134
 40
0.1554321123914373
 40
0.1568093526456402
 40
0.1585071891639016
 40
0.1613329194168242
 40
0.1648147794682924
 40
0.1692091974412837
 40
0.1735937048932104
 40
0.1769538148378704
 40
0.180282806251185
 40
0.1840560602001584
 40
0.1879492932434598
 40
0.1910492396275207
 40
0.1946907627727663
 40
0.1990432631109402
 40
0.2025506980419393
 40
0.2061740546869419
 40
0.2100616257407552
 40
0.2129956271665622
 40
0.2151024282925136
 40
0.2151024282925136
 40
0.2151024282925136
 40
0.2151024282925136
 10
155.540523065582
 20
88.42096477619367
 30
0.0
 10
155.5872644499879
 20
88.4272222069149
 30
0.0
 10
155.8308472596088
 20
88.4603682023466
 30
0.0
 10
156.1392463012633
 20
88.5057343603026
 30
0.0
 10
156.4143298984593
 20
88.59345625307101
 30
0.0
 10
156.54958306108
 20
88.67223582203134
 30
0.0
 10
156.6902235441814
 20
88.85947861698102
 30
0.0
 10
156.6306135397046
 20
89.188714506311
 30
0.0
 10
156.3990623544438
 20
89.31475865916289
 30
0.0
 10
156.1346562050286
 20
89.3987683783329
 30
0.0
 10
155.6236343048143
 20
89.48292985389935
 30
0.0
 10
154.9644621529781
 20
89.55341518268352
 30
0.0
 10
154.2290200980317
 20
89.62657467786568
 30
0.0
 10
153.4555776249651
 20
89.69665486527802
 30
0.0
 10
152.5732587608239
 20
89.77076012243083
 30
0.0
 10
151.6719871426725
 20
89.84161588260082
 30
0.0
 10
150.7795946233465
 20
89.90454633431041
 30
0.0
 10
149.8742788062817
 20
89.97210496433115
 30
0.0
 10
149.0049718942637
 20
90.04919870511127
 30
0.0
 10
148.245601611693
 20
90.12609460430532
 30
0.0
 10
147.6407292899562
 20
90.1992700267544
 30
0.0
 10
147.2150828127551
 20
90.26104999452444
 30
0.0
 10
146.9941379302886
 20
90.30637479992329
 30
0.0
 10
146.9359247349205
 20
90.32502275122881
 30
0.0
 10
146.9361178988198
 20
90.32497129585977
 30
0.0
  0
SPLINE
  5
31D
330
40
100
AcDbEntity
  8
0007750
  6
Continuous
 62
     7
100
AcDbSpline
210
0.0
220
0.0
230
1.0
 70
     8
 71
     3
 72
    29
 73
    25
 74
     0
 42
0.0000000000612132
 43
0.0000000001
 12
1.0
 22
0.0
 32
0.0
 13
1.0
 23
0.0
 33
0.0
 40
0.2667558376267951
 40
0.2667558376267951
 40
0.2667558376267951
 40
0.2667558376267951
 40
0.2693847437382908
 40
0.2743003111031023
 40
0.2766824421701218
 40
0.2783740073160894
 40
0.2801726474402044
 40
0.2819640015355762
 40
0.2850125195117296
 40
0.2882577280558535
 40
0.2922180324639759
 40
0.2958745400909563
 40
0.2990429629519542
 40
0.302289242123954
 40
0.3064616951606647
 40
0.3102411585256137
 40
0.3130383428481607
 40
0.3166845102157993
 40
0.3203121447294073
 40
0.3237561923083956
 40
0.3280276201685978
 40
0.3317858537119514
 40
0.3346765383115044
 40
0.336541082089908
 40
0.336541082089908
 40
0.336541082089908
 40
0.336541082089908
 10
155.5424118347186
 20
90.7432328618656
 30
0.0
 10
155.6698967731787
 20
90.75971628552783
 30
0.0
 10
156.0028621559003
 20
90.80691639876135
 30
0.0
 10
156.3171249474147
 20
90.88033908221007
 30
0.0
 10
156.5311741014977
 20
90.97093093006195
 30
0.0
 10
156.6873421048002
 20
91.17736563744158
 30
0.0
 10
156.6472632747297
 20
91.46994704835537
 30
0.0
 10
156.4555234887491
 20
91.60771128171332
 30
0.0
 10
156.2605225969734
 20
91.69058453175754
 30
0.0
 10
155.9181371569931
 20
91.75923260699437
 30
0.0
 10
155.4121141491688
 20
91.83156313665481
 30
0.0
 10
154.7861863436299
 20
91.89431703404901
 30
0.0
 10
154.1019257593263
 20
91.96230224504168
 30
0.0
 10
153.3076752045415
 20
92.03284988080779
 30
0.0
 10
152.3988591424414
 20
92.1085791882112
 30
0.0
 10
151.4955662433664
 20
92.17802156260571
 30
0.0
 10
150.640911112292
 20
92.2378449360306
 30
0.0
 10
149.8241773288079
 20
92.30024395665613
 30
0.0
 10
149.0182368652079
 20
92.37179029309911
 30
0.0
 10
148.2590568169858
 20
92.44780275261752
 30
0.0
 10
147.6273496203346
 20
92.52431576661027
 30
0.0
 10
147.1946405815846
 20
92.58794986298142
 30
0.0
 10
146.9914220391431
 20
92.63114185770068
 30
0.0
 10
146.9389251215271
 20
92.64766402883298
 30
0.0
 10
146.9388472130573
 20
92.6462417922768
 30
0.0
  0
SPLINE
  5
31E
330
40
100
AcDbEntity
  8
0007750
  6
Continuous
 62
     7
100
AcDbSpline
210
0.0
220
0.0
230
1.0
 70
     8
 71
     3
 72
    29
 73
    25
 74
     0
 42
0.000000000061174
 43
0.0000000001
 12
1.0
 22
0.0
 32
0.0
 13
1.0
 23
0.0
 33
0.0
 40
0.3882457614524842
 40
0.3882457614524842
 40
0.3882457614524842
 40
0.3882457614524842
 40
0.3899420841483848
 40
0.3937865416587774
 40
0.3977936818006061
 40
0.3993725553193035
 40
0.4011768830598073
 40
0.4036894319467753
 40
0.4067285734142937
 40
0.4104109488949143
 40
0.414441077519341
 40
0.4177607535269366
 40
0.4209908120183003
 40
0.4246455598681287
 40
0.428834326568331
 40
0.4324372653545502
 40
0.4362773369883389
 40
0.4404657344938694
 40
0.4450415885327362
 40
0.449211516439774
 40
0.4523642871202412
 40
0.4540598503652368
 40
0.4562336123007079
 40
0.4579238840067836
 40
0.4579238840067836
 40
0.4579238840067836
 40
0.4579238840067836
 10
155.5376601689454
 20
93.06625422451833
 30
0.0
 10
155.6200513657901
 20
93.07709826702123
 30
0.0
 10
155.8738436040321
 20
93.1125849545649
 30
0.0
 10
156.2277627815283
 20
93.17909606547798
 30
0.0
 10
156.4521582967717
 20
93.24455458519593
 30
0.0
 10
156.6547170948514
 20
93.42208993520468
 30
0.0
 10
156.6819991918068
 20
93.76887853576403
 30
0.0
 10
156.4556217475347
 20
93.93784707961525
 30
0.0
 10
156.2352162300633
 20
94.01883044340616
 30
0.0
 10
155.8571224251488
 20
94.09557631150952
 30
0.0
 10
155.3211651972512
 20
94.16359162166843
 30
0.0
 10
154.6895904768673
 20
94.2280996842232
 30
0.0
 10
153.9865254805049
 20
94.29641868777408
 30
0.0
 10
153.1414461615713
 20
94.370717758328
 30
0.0
 10
152.2018049770663
 20
94.44788789673675
 30
0.0
 10
151.2230003507408
 20
94.5211932598403
 30
0.0
 10
150.2559988897495
 20
94.58874316212784
 30
0.0
 10
149.2681791363372
 20
94.67146715434534
 30
0.0
 10
148.3725705267725
 20
94.75875834389852
 30
0.0
 10
147.7021614533943
 20
94.83769083594187
 30
0.0
 10
147.3185388851189
 20
94.894168681605
 30
0.0
 10
147.0877252193021
 20
94.93318206665968
 30
0.0
 10
146.9918718050882
 20
94.95805609923323
 30
0.0
 10
146.9701927358688
 20
94.95599654961312
 30
0.0
 10
146.9676177641786
 20
94.95259448462127
 30
0.0
  0
SPLINE
  5
31F
330
40
100
AcDbEntity
  8
0007750
  6
Continuous
 62
     7
100
AcDbSpline
210
0.0
220
0.0
230
1.0
 70
     8
 71
     3
 72
    31
 73
    27
 74
     0
 42
0.0000000000611716
 43
0.0000000001
 12
1.0
 22
0.0
 32
0.0
 13
1.0
 23
0.0
 33
0.0
 40
0.5098047401109503
 40
0.5098047401109503
 40
0.5098047401109503
 40
0.5098047401109503
 40
0.5099645065827327
 40
0.51359958223616
 40
0.51741924109964
 40
0.5200029164686462
 40
0.5217728651120334
 40
0.5234645768417677
 40
0.524918221857402
 40
0.5268729492829759
 40
0.5308687715388396
 40
0.5351458047336208
 40
0.5391355616645654
 40
0.5435436510600348
 40
0.5472882288065797
 40
0.5500938340307988
 40
0.5521816652230508
 40
0.5548995530712882
 40
0.5585116581603509
 40
0.5627675253118284
 40
0.5666774527338869
 40
0.570083902116892
 40
0.5732972236437403
 40
0.5771360869038124
 40
0.5792662905107271
 40
0.5795814999594879
 40
0.5795814999594879
 40
0.5795814999594879
 40
0.5795814999594879
 10
155.5374373168691
 20
95.39011637880063
 30
0.0
 10
155.5452589231887
 20
95.39117100453139
 30
0.0
 10
155.730131492634
 20
95.4162286158303
 30
0.0
 10
156.0578161479551
 20
95.46694326607991
 30
0.0
 10
156.3397710168681
 20
95.5284925704758
 30
0.0
 10
156.5585028844231
 20
95.63984684910874
 30
0.0
 10
156.7004904820479
 20
95.85759282084987
 30
0.0
 10
156.6210173485686
 20
96.13995393414527
 30
0.0
 10
156.4743931098137
 20
96.24325835282951
 30
0.0
 10
156.3100880077462
 20
96.32026071507111
 30
0.0
 10
155.997889479461
 20
96.39594797290654
 30
0.0
 10
155.4462187823132
 20
96.47386930580466
 30
0.0
 10
154.7026909489839
 20
96.5507100295544
 30
0.0
 10
153.8534296671862
 20
96.63251596628048
 30
0.0
 10
152.9961290536491
 20
96.70634028895914
 30
0.0
 10
152.2867011042513
 20
96.76380292950083
 30
0.0
 10
151.6502095054514
 20
96.81324061403262
 30
0.0
 10
150.9435039819089
 20
96.86376465661436
 30
0.0
 10
150.0708130124075
 20
96.92705657652844
 30
0.0
 10
149.1614515232719
 20
97.00477912218112
 30
0.0
 10
148.3727266849792
 20
97.08340699630912
 30
0.0
 10
147.7712896108023
 20
97.15237352431686
 30
0.0
 10
147.2939028617545
 20
97.22110970923981
 30
0.0
 10
147.0392830956361
 20
97.26314330845891
 30
0.0
 10
146.9401192895869
 20
97.29641662617256
 30
0.0
 10
146.936862983746
 20
97.29614829257191
 30
0.0
 10
146.9370288893068
 20
97.29576836374443
 30
0.0
  0
SPLINE
  5
320
330
40
100
AcDbEntity
  8
0007750
  6
Continuous
 62
     7
100
AcDbSpline
210
0.0
220
0.0
230
1.0
 70
     8
 71
     3
 72
    31
 73
    27
 74
     0
 42
0.0000000000612428
 43
0.0000000001
 12
1.0
 22
0.0
 32
0.0
 13
1.0
 23
0.0
 33
0.0
 40
0.6313938400347392
 40
0.6313938400347392
 40
0.6313938400347392
 40
0.6313938400347392
 40
0.6326366933757752
 40
0.6368488000726698
 40
0.6401801025735685
 40
0.6414547429190127
 40
0.6430408878304616
 40
0.6448827214132784
 40
0.64730651184149
 40
0.6509887046420484
 40
0.6550692554489056
 40
0.659322418215471
 40
0.6636463386431951
 40
0.6669881387479153
 40
0.6702559847051732
 40
0.6732772006118639
 40
0.6759139674440666
 40
0.6786221047800518
 40
0.6820519035737627
 40
0.6863225722571076
 40
0.6908713224130237
 40
0.6944970617537791
 40
0.6969160840430373
 40
0.6982180715153546
 40
0.7003620266210226
 40
0.7010641029613779
 40
0.7010641029613779
 40
0.7010641029613779
 40
0.7010641029613779
 10
155.5447998045389
 20
97.71531840841763
 30
0.0
 10
155.6054575987667
 20
97.72355778053313
 30
0.0
 10
155.8599221276702
 20
97.75908605571618
 30
0.0
 10
156.1810749229445
 20
97.80889685630297
 30
0.0
 10
156.4150848237874
 20
97.88924570287253
 30
0.0
 10
156.5601536046304
 20
97.97399596964327
 30
0.0
 10
156.697241855491
 20
98.17374724880892
 30
0.0
 10
156.629210341161
 20
98.47162896547358
 30
0.0
 10
156.4020617985454
 20
98.61024379916044
 30
0.0
 10
156.1467692367119
 20
98.68888989917262
 30
0.0
 10
155.659746375339
 20
98.77223288236573
 30
0.0
 10
154.9828788994474
 20
98.84580466838716
 30
0.0
 10
154.1898152904716
 20
98.92476363376201
 30
0.0
 10
153.36877682264
 20
98.99807121807295
 30
0.0
 10
152.5938103123173
 20
99.06314805157147
 30
0.0
 10
151.8502249243451
 20
99.12147624780371
 30
0.0
 10
151.147288385221
 20
99.1734248358225
 30
0.0
 10
150.4188731104781
 20
99.22437196256439
 30
0.0
 10
149.586404464729
 20
99.29103064936446
 30
0.0
 10
148.6906608349559
 20
99.37294747778468
 30
0.0
 10
147.9220678672497
 20
99.45693780510437
 30
0.0
 10
147.4215991629624
 20
99.52465449084887
 30
0.0
 10
147.1592866975593
 20
99.56733299813992
 30
0.0
 10
147.0127919846262
 20
99.59838092077558
 30
0.0
 10
146.9732400980186
 20
99.60688707915621
 30
0.0
 10
146.9620858782256
 20
99.6067138207117
 30
0.0
 10
146.9607525303301
 20
99.60573888225585
 30
0.0
  0
SPLINE
  5
321
330
40
100
AcDbEntity
  8
0007750
  6
Continuous
 62
     7
100
AcDbSpline
210
0.0
220
0.0
230
1.0
 70
     8
 71
     3
 72
    31
 73
    27
 74
     0
 42
0.0000000000611258
 43
0.0000000001
 12
1.0
 22
0.0
 32
0.0
 13
1.0
 23
0.0
 33
0.0
 40
0.7529364910854665
 40
0.7529364910854665
 40
0.7529364910854665
 40
0.7529364910854665
 40
0.7542039578794464
 40
0.75819331979082
 40
0.7609953453419213
 40
0.7630372682581583
 40
0.7649932087952392
 40
0.7666672630198889
 40
0.7682433381174765
 40
0.771778796426077
 40
0.7757943180443769
 40
0.7793990222786777
 40
0.7835207364706603
 40
0.7878859731086361
 40
0.7915118852950525
 40
0.7940621937522563
 40
0.796192256747362
 40
0.7990553081391731
 40
0.8028947184398693
 40
0.8071096941708419
 40
0.8108234714423025
 40
0.8140093711256862
 40
0.8171228903718517
 40
0.8191358552577235
 40
0.8212706274018932
 40
0.822662820639746
 40
0.822662820639746
 40
0.822662820639746
 40
0.822662820639746
 10
155.5397872972308
 20
100.0376517025671
 30
0.0
 10
155.601586369986
 20
100.0459755802674
 30
0.0
 10
155.847185541965
 20
100.0803143613994
 30
0.0
 10
156.1542886207893
 20
100.1315866531511
 30
0.0
 10
156.3838444982902
 20
100.1957295375538
 30
0.0
 10
156.5708921096882
 20
100.3011704812831
 30
0.0
 10
156.7053658927209
 20
100.5138017362858
 30
0.0
 10
156.6078550726094
 20
100.8017896067461
 30
0.0
 10
156.4280829442988
 20
100.9183396972926
 30
0.0
 10
156.2087199164827
 20
100.9988984215468
 30
0.0
 10
155.7988568265455
 20
101.0744959910575
 30
0.0
 10
155.2118670347188
 20
101.1459903354101
 30
0.0
 10
154.4603282696813
 20
101.2220328910013
 30
0.0
 10
153.5777395458296
 20
101.3040111173573
 30
0.0
 10
152.7349943787168
 20
101.3750736407535
 30
0.0
 10
152.0464423287239
 20
101.4296097263834
 30
0.0
 10
151.4138707221751
 20
101.4779282075794
 30
0.0
 10
150.6743636889806
 20
101.5293752663394
 30
0.0
 10
149.7875493011835
 20
101.5971170600959
 30
0.0
 10
148.9066829357278
 20
101.6760057433853
 30
0.0
 10
148.1853353013152
 20
101.7507516422867
 30
0.0
 10
147.6422560098399
 20
101.8171202574751
 30
0.0
 10
147.2928438366459
 20
101.8680826990886
 30
0.0
 10
147.0817280463554
 20
101.9058285868184
 30
0.0
 10
146.9718426445449
 20
101.9296876869173
 30
0.0
 10
146.9365715263069
 20
101.9456109885392
 30
0.0
 10
146.935881203729
 20
101.9439288134463
 30
0.0
  0
SPLINE
  5
322
330
40
100
AcDbEntity
  8
0007750
  6
Continuous
 62
     7
100
AcDbSpline
210
0.0
220
0.0
230
1.0
 70
     8
 71
     3
 72
    30
 73
    26
 74
     0
 42
0.0000000000611169
 43
0.0000000001
 12
1.0
 22
0.0
 32
0.0
 13
1.0
 23
0.0
 33
0.0
 40
0.8745209152452555
 40
0.8745209152452555
 40
0.8745209152452555
 40
0.8745209152452555
 40
0.8778206950619181
 40
0.8817332422519581
 40
0.8840792726711304
 40
0.8856197983088361
 40
0.8873944357499185
 40
0.8896291844135749
 40
0.8926680856513475
 40
0.8956861477389962
 40
0.8997954952067907
 40
0.9043289241312202
 40
0.907797931524581
 40
0.9111961523295579
 40
0.9149912649542321
 40
0.9187171746318006
 40
0.921608465221673
 40
0.924921167257484
 40
0.9290250631427628
 40
0.933642168387081
 40
0.9374432679832356
 40
0.939686615312479
 40
0.9412924223017534
 40
0.9430825754391536
 40
0.9440887042858247
 40
0.9440887042858247
 40
0.9440887042858247
 40
0.9440887042858247
 10
155.5475322913323
 20
102.3620982098357
 30
0.0
 10
155.7079468231721
 20
102.383378058386
 30
0.0
 10
156.018804942741
 20
102.4291806780603
 30
0.0
 10
156.3149562306174
 20
102.4961285677264
 30
0.0
 10
156.4859364986566
 20
102.5675290471982
 30
0.0
 10
156.66012856194
 20
102.7240981551267
 30
0.0
 10
156.6796504850934
 20
103.0468162518383
 30
0.0
 10
156.4753551501106
 20
103.2209987206851
 30
0.0
 10
156.2728567021651
 20
103.3021645616268
 30
0.0
 10
155.940993899501
 20
103.3742968814422
 30
0.0
 10
155.4091662080187
 20
103.4497164606964
 30
0.0
 10
154.6938881003846
 20
103.5217304629704
 30
0.0
 10
153.8949091962216
 20
103.5991258289674
 30
0.0
 10
153.0731359660803
 20
103.6704097611002
 30
0.0
 10
152.1765610497332
 20
103.7438632385296
 30
0.0
 10
151.299910490412
 20
103.8097162049006
 30
0.0
 10
150.4735419034296
 20
103.8674478736137
 30
0.0
 10
149.6472913512684
 20
103.9329377436516
 30
0.0
 10
148.7583977314257
 20
104.0134101953893
 30
0.0
 10
147.9726939472222
 20
104.0977765445014
 30
0.0
 10
147.4553109525941
 20
104.1667279477108
 30
0.0
 10
147.1804809812955
 20
104.2108483672804
 30
0.0
 10
147.0222856916991
 20
104.2425491301058
 30
0.0
 10
146.9698289074023
 20
104.2570129066888
 30
0.0
 10
146.9563721147783
 20
104.2581487105433
 30
0.0
 10
146.9550172016704
 20
104.2564627300509
 30
0.0
  0
SPLINE
  5
323
330
40
100
AcDbEntity
  8
0007750
  6
Continuous
 62
     7
100
AcDbSpline
210
0.0
220
0.0
230
1.0
 70
     8
 71
     3
 72
     9
 73
     5
 74
     0
 42
0.0000000000812476
 43
0.0000000001
 12
1.0
 22
0.0
 32
0.0
 13
1.0
 23
0.0
 33
0.0
 40
0.9960408096165332
 40
0.9960408096165332
 40
0.9960408096165332
 40
0.9960408096165332
 40
0.9965651202884178
 40
1.0
 40
1.0
 40
1.0
 40
1.0
 10
155.5414029203723
 20
104.6847898626384
 30
0.0
 10
155.5664705060088
 20
104.6881586703595
 30
0.0
 10
155.7504537888952
 20
104.7132986602977
 30
0.0
 10
155.8901393812376
 20
104.7356788760448
 30
0.0
 10
156.0230470456532
 20
104.758462273063
 30
0.0
  0
ENDBLK
  5
325
330
40
100
AcDbEntity
  8
0
100
AcDbBlockEnd
  0
BLOCK
  5
328
330
327
100
AcDbEntity
  8
0
100
AcDbBlockBegin
  2
_OBLIQUE
 70
     0
 10
0.0
 20
0.0
 30
0.0
  3
_OBLIQUE
  1

  0
LINE
  5
32A
330
327
100
AcDbEntity
  8
0
  6
ByBlock
 62
     0
370
    -2
100
AcDbLine
 10
-0.5
 20
-0.5
 30
0.0
 11
0.5
 21
0.5
 31
0.0
  0
ENDBLK
  5
329
330
327
100
AcDbEntity
  8
0
100
AcDbBlockEnd
  0
BLOCK
  5
32C
330
32B
100
AcDbEntity
  8
0
100
AcDbBlockBegin
  2
_DOT
 70
     0
 10
0.0
 20
0.0
 30
0.0
  3
_DOT
  1

  0
POLYLINE
  5
32E
330
32B
100
AcDbEntity
  8
0
  6
ByBlock
 62
     0
100
AcDb2dPolyline
 66
     1
 10
0.0
 20
0.0
 30
0.0
 70
     1
 40
0.5
 41
0.5
  0
VERTEX
  5
330
330
32E
100
AcDbEntity
  8
0
  6
ByBlock
 62
     0
100
AcDbVertex
100
AcDb2dVertex
 10
-0.25
 20
0.0
 30
0.0
 42
1.0
  0
VERTEX
  5
331
330
32E
100
AcDbEntity
  8
0
  6
ByBlock
 62
     0
100
AcDbVertex
100
AcDb2dVertex
 10
0.25
 20
0.0
 30
0.0
 42
1.0
  0
SEQEND
  5
332
330
32E
100
AcDbEntity
  8
0
  6
ByBlock
 62
     0
  0
LINE
  5
32F
330
32B
100
AcDbEntity
  8
0
  6
ByBlock
 62
     0
370
    -2
100
AcDbLine
 10
-0.5
 20
0.0
 30
0.0
 11
-1.0
 21
0.0
 31
0.0
  0
ENDBLK
  5
32D
330
32B
100
AcDbEntity
  8
0
100
AcDbBlockEnd
  0
BLOCK
  5
336
330
333
100
AcDbEntity
  8
0
100
AcDbBlockBegin
  2
_SE_FILLED
 70
     0
 10
0.0
 20
0.0
 30
0.0
  3
_SE_FILLED
  1

  0
SOLID
  5
334
330
333
100
AcDbEntity
  8
0
 62
     0
100
AcDbTrace
 10
0.0
 20
0.0
 30
0.0
 11
-1.0
 21
-0.1665
 31
0.0
 12
-1.0
 22
0.1665
 32
0.0
 13
0.0
 23
0.0
 33
0.0
  0
LINE
  5
335
330
333
100
AcDbEntity
  8
0
 62
     0
100
AcDbLine
 10
0.0
 20
0.0
 30
0.0
 11
-1.0
 21
0.0
 31
0.0
  0
ENDBLK
  5
337
330
333
100
AcDbEntity
  8
0
100
AcDbBlockEnd
  0
BLOCK
  5
342
330
33B
100
AcDbEntity
  8
0
100
AcDbBlockBegin
  2
DMBLK379
 70
     0
 10
0.0
 20
0.0
 30
0.0
  3
DMBLK379
  1

  0
HATCH
  5
33C
330
33B
100
AcDbEntity
  8
Default
  6
Continuous
 62
     7
100
AcDbHatch
 10
0.0
 20
0.0
 30
0.0
210
0.0
220
0.0
230
1.0
  2
SOLID
 70
     1
 71
     0
 91
        1
 92
        1
 93
        3
 72
     1
 10
185.754578811841
 20
79.1362960436272
 11
184.5879121091632
 21
79.1362960436272
 72
     1
 10
184.5879121091632
 20
79.1362960436272
 11
185.1712454605021
 21
75.63629593559378
 72
     1
 10
185.1712454605021
 20
75.63629593559378
 11
185.754578811841
 21
79.1362960436272
 97
        0
 75
     0
 76
     1
 98
        0
  0
HATCH
  5
33D
330
33B
100
AcDbEntity
  8
Default
  6
Continuous
 62
     7
100
AcDbHatch
 10
0.0
 20
0.0
 30
0.0
210
0.0
220
0.0
230
1.0
  2
SOLID
 70
     1
 71
     0
 91
        1
 92
        1
 93
        3
 72
     1
 10
185.754578811841
 20
172.1362973176765
 11
185.1712454605021
 21
175.6362974257099
 72
     1
 10
185.1712454605021
 20
175.6362974257099
 11
184.5879121091632
 21
172.1362973176765
 72
     1
 10
184.5879121091632
 20
172.1362973176765
 11
185.754578811841
 21
172.1362973176765
 97
        0
 75
     0
 76
     1
 98
        0
  0
LINE
  5
33E
330
33B
100
AcDbEntity
  8
Default
  6
Continuous
 62
     7
100
AcDbLine
 10
170.0378394249
 20
75.6362959356
 30
0.0
 11
186.9212455145
 21
75.6362959356
 31
0.0
  0
LINE
  5
33F
330
33B
100
AcDbEntity
  8
Default
  6
Continuous
 62
     7
100
AcDbLine
 10
170.0378394249
 20
175.6362959356
 30
0.0
 11
186.9212455145
 21
175.6362959356
 31
0.0
  0
LINE
  5
340
330
33B
100
AcDbEntity
  8
Default
  6
Continuous
 62
     7
100
AcDbLine
 10
185.1712454605
 20
75.6362959356
 30
0.0
 11
185.1712454605
 21
175.6362974257
 31
0.0
  0
TEXT
  5
341
330
33B
100
AcDbEntity
  8
Default
  6
Continuous
 62
     7
100
AcDbText
 10
184.2962454605
 20
122.8522057716
 30
0.0
 40
3.5
  1
100
 50
90.0
  7
SEACAD_Solid_Edge_ISO
 11
180.7962454605
 21
122.8522057716
 31
0.0
100
AcDbText
 73
     3
  0
ENDBLK
  5
343
330
33B
100
AcDbEntity
  8
0
100
AcDbBlockEnd
  0
BLOCK
  5
34C
330
345
100
AcDbEntity
  8
0
100
AcDbBlockBegin
  2
DMBLK380
 70
     0
 10
0.0
 20
0.0
 30
0.0
  3
DMBLK380
  1

  0
HATCH
  5
346
330
345
100
AcDbEntity
  8
Default
  6
Continuous
 62
     7
100
AcDbHatch
 10
0.0
 20
0.0
 30
0.0
210
0.0
220
0.0
230
1.0
  2
SOLID
 70
     1
 71
     0
 91
        1
 92
        1
 93
        3
 72
     1
 10
185.7545790602676
 20
187.1362960436272
 11
184.5879123575898
 21
187.1362960436272
 72
     1
 10
184.5879123575898
 20
187.1362960436272
 11
185.1712457089287
 21
183.6362959355938
 72
     1
 10
185.1712457089287
 20
183.6362959355938
 11
185.7545790602676
 21
187.1362960436272
 97
        0
 75
     0
 76
     1
 98
        0
  0
HATCH
  5
347
330
345
100
AcDbEntity
  8
Default
  6
Continuous
 62
     7
100
AcDbHatch
 10
0.0
 20
0.0
 30
0.0
210
0.0
220
0.0
230
1.0
  2
SOLID
 70
     1
 71
     0
 91
        1
 92
        1
 93
        3
 72
     1
 10
185.7545790602676
 20
172.1362958275604
 11
185.1712457089287
 21
175.6362959355938
 72
     1
 10
185.1712457089287
 20
175.6362959355938
 11
184.5879123575898
 21
172.1362958275604
 72
     1
 10
184.5879123575898
 20
172.1362958275604
 11
185.7545790602676
 21
172.1362958275604
 97
        0
 75
     0
 76
     1
 98
        0
  0
LINE
  5
348
330
345
100
AcDbEntity
  8
Default
  6
Continuous
 62
     7
100
AcDbLine
 10
169.5403541623
 20
183.6362959356
 30
0.0
 11
186.9212457629
 21
183.6362959356
 31
0.0
  0
LINE
  5
349
330
345
100
AcDbEntity
  8
Default
  6
Continuous
 62
     7
100
AcDbLine
 10
170.0378394249
 20
175.6362959356
 30
0.0
 11
186.9212457629
 21
175.6362959356
 31
0.0
  0
LINE
  5
34A
330
345
100
AcDbEntity
  8
Default
  6
Continuous
 62
     7
100
AcDbLine
 10
185.1712457089
 20
197.7579438598
 30
0.0
 11
185.1712457089
 21
168.6362962709
 31
0.0
  0
TEXT
  5
34B
330
345
100
AcDbEntity
  8
Default
  6
Continuous
 62
     7
100
AcDbText
 10
184.2962457089
 20
194.305671458
 30
0.0
 40
3.5
  1
8
 50
90.0
  7
SEACAD_Solid_Edge_ISO
 11
180.7962457089
 21
194.305671458
 31
0.0
100
AcDbText
 73
     3
  0
ENDBLK
  5
34D
330
345
100
AcDbEntity
  8
0
100
AcDbBlockEnd
  0
BLOCK
  5
358
330
350
100
AcDbEntity
  8
0
100
AcDbBlockBegin
  2
DMBLK381
 70
     0
 10
0.0
 20
0.0
 30
0.0
  3
DMBLK381
  1

  0
HATCH
  5
351
330
350
100
AcDbEntity
  8
Default
  6
Continuous
 62
     7
100
AcDbHatch
 10
0.0
 20
0.0
 30
0.0
210
0.0
220
0.0
230
1.0
  2
SOLID
 70
     1
 71
     0
 91
        1
 92
        1
 93
        3
 72
     1
 10
133.5378395329336
 20
193.4623538560115
 11
130.0378394249001
 21
192.8790205046726
 72
     1
 10
130.0378394249001
 20
192.8790205046726
 11
133.5378395329336
 21
192.2956871533337
 72
     1
 10
133.5378395329336
 20
192.2956871533337
 11
133.5378395329336
 21
193.4623538560115
 97
        0
 75
     0
 76
     1
 98
        0
  0
HATCH
  5
352
330
350
100
AcDbEntity
  8
Default
  6
Continuous
 62
     7
100
AcDbHatch
 10
0.0
 20
0.0
 30
0.0
210
0.0
220
0.0
230
1.0
  2
SOLID
 70
     1
 71
     0
 91
        1
 92
        1
 93
        3
 72
     1
 10
169.5378407771805
 20
193.4623538560115
 11
169.5378407771805
 21
192.2956871533337
 72
     1
 10
169.5378407771805
 20
192.2956871533337
 11
173.0378408852139
 21
192.8790205046726
 72
     1
 10
173.0378408852139
 20
192.8790205046726
 11
169.5378407771805
 21
193.4623538560115
 97
        0
 75
     0
 76
     1
 98
        0
  0
LINE
  5
353
330
350
100
AcDbEntity
  8
Default
  6
Continuous
 62
     7
100
AcDbLine
 10
130.0378394249
 20
181.3860817701
 30
0.0
 11
130.0378394249
 21
194.6290205587
 31
0.0
  0
LINE
  5
354
330
350
100
AcDbEntity
  8
Default
  6
Continuous
 62
     7
100
AcDbLine
 10
173.0378394249
 20
180.8170218778
 30
0.0
 11
173.0378394249
 21
194.6290205587
 31
0.0
  0
LINE
  5
355
330
350
100
AcDbEntity
  8
Default
  6
Continuous
 62
     7
100
AcDbLine
 10
130.0378394249
 20
192.8790205047
 30
0.0
 11
173.0378408852
 21
192.8790205047
 31
0.0
  0
TEXT
  5
356
330
350
100
AcDbEntity
  8
Default
  6
Continuous
 62
     7
100
AcDbText
 10
152.1095905538
 20
193.7540205047
 30
0.0
 40
3.5
  1
43
  7
SEACAD_Solid_Edge_ISO
 11
152.1095905538
 21
197.2540205047
 31
0.0
100
AcDbText
 73
     3
  0
TEXT
  5
357
330
350
100
AcDbEntity
  8
Default
  6
Continuous
 62
     7
100
AcDbText
 10
147.0683624836
 20
193.7540205047
 30
0.0
 40
3.5
  1
O
  7
SEACAD_Solid_Edge_ISO1_Symbols
 11
147.0683624836
 21
197.2540205047
 31
0.0
100
AcDbText
 73
     3
  0
ENDBLK
  5
359
330
350
100
AcDbEntity
  8
0
100
AcDbBlockEnd
  0
BLOCK
  5
363
330
35B
100
AcDbEntity
  8
0
100
AcDbBlockBegin
  2
DMBLK382
 70
     0
 10
0.0
 20
0.0
 30
0.0
  3
DMBLK382
  1

  0
HATCH
  5
35C
330
35B
100
AcDbEntity
  8
Default
  6
Continuous
 62
     7
100
AcDbHatch
 10
0.0
 20
0.0
 30
0.0
210
0.0
220
0.0
230
1.0
  2
SOLID
 70
     1
 71
     0
 91
        1
 92
        1
 93
        3
 72
     1
 10
134.5378395329336
 20
44.53326816653979
 11
134.5378395329336
 21
45.69993486921759
 72
     1
 10
134.5378395329336
 20
45.69993486921759
 11
131.0378394249002
 21
45.11660151787869
 72
     1
 10
131.0378394249002
 20
45.11660151787869
 11
134.5378395329336
 21
44.53326816653979
 97
        0
 75
     0
 76
     1
 98
        0
  0
HATCH
  5
35D
330
35B
100
AcDbEntity
  8
Default
  6
Continuous
 62
     7
100
AcDbHatch
 10
0.0
 20
0.0
 30
0.0
210
0.0
220
0.0
230
1.0
  2
SOLID
 70
     1
 71
     0
 91
        1
 92
        1
 93
        3
 72
     1
 10
168.537840449355
 20
44.53326816653979
 11
172.0378405573884
 21
45.11660151787869
 72
     1
 10
172.0378405573884
 20
45.11660151787869
 11
168.537840449355
 21
45.69993486921759
 72
     1
 10
168.537840449355
 20
45.69993486921759
 11
168.537840449355
 21
44.53326816653979
 97
        0
 75
     0
 76
     1
 98
        0
  0
LINE
  5
35E
330
35B
100
AcDbEntity
  8
Default
  6
Continuous
 62
     7
100
AcDbLine
 10
131.0378394249
 20
77.6362959356
 30
0.0
 11
131.0378394249
 21
43.3666014639
 31
0.0
  0
LINE
  5
35F
330
35B
100
AcDbEntity
  8
Default
  6
Continuous
 62
     7
100
AcDbLine
 10
172.0378394249
 20
77.6362959356
 30
0.0
 11
172.0378394249
 21
43.3666014639
 31
0.0
  0
LINE
  5
360
330
35B
100
AcDbEntity
  8
Default
  6
Continuous
 62
     7
100
AcDbLine
 10
131.0378394249
 20
45.1166015179
 30
0.0
 11
172.0378405574
 21
45.1166015179
 31
0.0
  0
TEXT
  5
361
330
35B
100
AcDbEntity
  8
Default
  6
Continuous
 62
     7
100
AcDbText
 10
152.3084540262
 20
45.9916015179
 30
0.0
 40
3.5
  1
41
  7
SEACAD_Solid_Edge_ISO
 11
152.3084540262
 21
49.4916015179
 31
0.0
100
AcDbText
 73
     3
  0
TEXT
  5
362
330
35B
100
AcDbEntity
  8
Default
  6
Continuous
 62
     7
100
AcDbText
 10
147.2672259561
 20
45.9916015179
 30
0.0
 40
3.5
  1
O
  7
SEACAD_Solid_Edge_ISO1_Symbols
 11
147.2672259561
 21
49.4916015179
 31
0.0
100
AcDbText
 73
     3
  0
ENDBLK
  5
364
330
35B
100
AcDbEntity
  8
0
100
AcDbBlockEnd
  0
BLOCK
  5
368
330
365
100
AcDbEntity
  8
0
100
AcDbBlockBegin
  2
SEANNOT_GROUP
 70
     0
 10
0.0
 20
0.0
 30
0.0
  3
SEANNOT_GROUP
  1

  0
TEXT
  5
367
330
365
100
AcDbEntity
  8
Default
  6
Continuous
 62
     7
100
AcDbText
 10
243.1483969886
 20
25.7525109624
 30
0.0
 40
3.5
  1
761932000
  7
SEACAD_Solid_Edge_ANSIB
 11
243.1483969886
 21
29.2525109624
 31
0.0
100
AcDbText
 73
     3
  0
ENDBLK
  5
369
330
365
100
AcDbEntity
  8
0
100
AcDbBlockEnd
  0
BLOCK
  5
36D
330
36A
100
AcDbEntity
  8
0
100
AcDbBlockBegin
  2
SEANNOT_GROUP1
 70
     0
 10
0.0
 20
0.0
 30
0.0
  3
SEANNOT_GROUP1
  1

  0
TEXT
  5
36C
330
36A
100
AcDbEntity
  8
Default
  6
Continuous
 62
     7
100
AcDbText
 10
243.1477357349
 20
20.0537100543
 30
0.0
 40
3.5
  1
24.08.2016
  7
SEACAD_Solid_Edge_ANSI
 11
243.1477357349
 21
23.5537100543
 31
0.0
100
AcDbText
 73
     3
  0
ENDBLK
  5
36E
330
36A
100
AcDbEntity
  8
0
100
AcDbBlockEnd
  0
BLOCK
  5
371
330
36F
100
AcDbEntity
  8
0
100
AcDbBlockBegin
  2
SEANNOT_GROUP2
 70
     0
 10
0.0
 20
0.0
 30
0.0
  3
SEANNOT_GROUP2
  1

  0
TEXT
  5
370
330
36F
100
AcDbEntity
  8
Default
  6
Continuous
 62
     7
100
AcDbText
 10
243.1795282745
 20
31.5598894014
 30
0.0
 40
3.5
  1
VEW 32
  7
SEACAD_Solid_Edge_ANSIB
 11
243.1795282745
 21
35.0598894014
 31
0.0
100
AcDbText
 73
     3
  0
ENDBLK
  5
372
330
36F
100
AcDbEntity
  8
0
100
AcDbBlockEnd
  0
BLOCK
  5
375
330
373
100
AcDbEntity
  8
0
100
AcDbBlockBegin
  2
SEANNOT_GROUP3
 70
     0
 10
0.0
 20
0.0
 30
0.0
  3
SEANNOT_GROUP3
  1

  0
TEXT
  5
374
330
373
100
AcDbEntity
  8
Default
  6
Continuous
 62
     7
100
AcDbText
 10
243.2357917511
 20
14.1955389783
 30
0.0
 40
3.5
  1
1:1
  7
SEACAD_Solid_Edge_ANSI
 11
243.2357917511
 21
17.6955389783
 31
0.0
100
AcDbText
 73
     3
  0
ENDBLK
  5
376
330
373
100
AcDbEntity
  8
0
100
AcDbBlockEnd
  0
BLOCK
  5
3C4
330
377
100
AcDbEntity
  8
0
100
AcDbBlockBegin
  2
RF-Massblatt_2016
 70
     0
 10
0.0
 20
0.0
 30
0.0
  3
RF-Massblatt_2016
  1

  0
MTEXT
  5
378
102
{ACAD_XDICTIONARY
360
3CE
102
}
330
377
100
AcDbEntity
  8
Default
100
AcDbMText
 10
15.2206856049
 20
34.8070876502
 30
0.0
 40
2.5
 41
48.9706096033
 71
     1
 72
     1
  3
{\fVectora Com 45 Light|b1||i0||c0|p34;\C7;\H2.5;\W1.;REGO-FIX AG\P}{\fVectora Com 45 Light|b0||i0||c0|p34;\C7;\H2.5;\W1.;Obermattweg 60\P}{\fVectora Com 45 Light|b0||i0||c0|p34;\C7;\H2.5;\W1.;4456 Tenniken / Switzerland\P}{\fVectora Com 45 Light|b0
  3
||i0||c0|p34;\C7;\H2.5;\W1.;\P}{\fVectora Com 45 Light|b0||i0||c0|p34;\C7;\H2.5;\W1.;P +41 61 976 14 66\P}{\fVectora Com 45 Light|b0||i0||c0|p34;\C7;\H2.5;\W1.;F +41 61 976 14 14\P}{\fVectora Com 45 Light|b1||i0||c0|p34;\C7;\H2.5;\W1.;www.rego-fix.c
  1
om}
 73
     1
 44
1.0
1001
ACAD
1000
ACAD_MTEXT_DEFINED_HEIGHT_BEGIN
1070
    46
1040
31.3191355437
1000
ACAD_MTEXT_DEFINED_HEIGHT_END
  0
MTEXT
  5
379
102
{ACAD_XDICTIONARY
360
3D0
102
}
330
377
100
AcDbEntity
  8
Default
100
AcDbMText
 10
90.3836341545
 20
34.4892285804
 30
0.0
 40
2.5
 41
104.0282149141
 71
     1
 72
     1
  3
{\fSolid Edge ISO|b0||i0||c0|p34;\C7;\H2.;\W1.;This is a non-controlled copy. All information given herein is subject to change without notice\P}{\fSolid Edge ISO|b0||i0||c0|p34;\C7;\H2.;\W1.;\P}{\fSolid Edge ISO|b0||i0||c0|p34;\C7;\H2.;\W1.;The inf
  3
ormation given herein has been carefully checked and is believed to be correct. REGO-FIX,\P}{\fSolid Edge ISO|b0||i0||c0|p34;\C7;\H2.;\W1.;however, assumes no responsibility or liability for any errors, inaccuracies or omissions that may appear\P}{\
  3
fSolid Edge ISO|b0||i0||c0|p34;\C7;\H2.;\W1.;in this drawing\P}{\fSolid Edge ISO|b0||i0||c0|p34;\C7;\H2.;\W1.;\P}{\fSolid Edge ISO|b0||i0||c0|p34;\C7;\H2.;\W1.;This document is subject to copyright laws. No part of this document may be reproduced or
  3
 transmitted\P}{\fSolid Edge ISO|b0||i0||c0|p34;\C7;\H2.;\W1.;in any form or any means, electronic or mechanic, for any purpose, without the express written permission\P}{\fSolid Edge ISO|b0||i0||c0|p34;\C7;\H2.;\W1.;of REGO-FIX\P}{\fSolid Edge ISO|
  1
b0||i0||c0|p34;\C7;\H1.5;\W1.;\P}
 73
     1
 44
1.0
1001
ACAD
1000
ACAD_MTEXT_DEFINED_HEIGHT_BEGIN
1070
    46
1040
38.4545554545
1000
ACAD_MTEXT_DEFINED_HEIGHT_END
  0
INSERT
  5
37A
330
377
100
AcDbEntity
  8
Default
100
AcDbBlockReference
  2
SEANNOT_GROUP
 10
0.0
 20
0.0
 30
0.0
  0
INSERT
  5
37B
330
377
100
AcDbEntity
  8
Default
100
AcDbBlockReference
  2
SEANNOT_GROUP1
 10
0.0
 20
0.0
 30
0.0
  0
MTEXT
  5
37C
102
{ACAD_XDICTIONARY
360
3D2
102
}
330
377
100
AcDbEntity
  8
Default
100
AcDbMText
 10
219.0323311835
 20
34.8066733186
 30
0.0
 40
2.5
 41
20.1335141444
 71
     1
 72
     1
  3
{\fVectora Com 45 Light|b0||i0||c0|p34;\C7;\H3.5;\W1.;Type :\P}{\fVectora Com 45 Light|b0||i0||c0|p34;\C7;\H3.5;\W1.;Part No. :\P}{\fVectora Com 45 Light|b0||i0||c0|p34;\C7;\H3.5;\W1.;Date : \P}{\fVectora Com 45 Light|b0||i0||c0|p34;\C7;\H3.5;\W1.;S
  1
cale :}
 73
     1
 44
1.0
1001
ACAD
1000
ACAD_MTEXT_DEFINED_HEIGHT_BEGIN
1070
    46
1040
23.6666666667
1000
ACAD_MTEXT_DEFINED_HEIGHT_END
  0
INSERT
  5
37D
330
377
100
AcDbEntity
  8
Default
100
AcDbBlockReference
  2
SEANNOT_GROUP2
 10
0.0
 20
0.0
 30
0.0
  0
INSERT
  5
37E
330
377
100
AcDbEntity
  8
Default
100
AcDbBlockReference
  2
SEANNOT_GROUP3
 10
0.0
 20
0.0
 30
0.0
  0
LINE
  5
37F
330
377
100
AcDbEntity
  8
Default
  6
Continuous
 62
     7
100
AcDbLine
 10
269.3420202893
 20
189.711288453
 30
0.0
 11
267.226096305
 21
186.6436606679
 31
0.0
  0
LINE
  5
380
330
377
100
AcDbEntity
  8
Default
  6
Continuous
 62
     7
100
AcDbLine
 10
267.226096305
 20
186.6436606679
 30
0.0
 11
268.2886782185
 21
185.1144666968
 31
0.0
  0
LINE
  5
381
330
377
100
AcDbEntity
  8
Default
  6
Continuous
 62
     7
100
AcDbLine
 10
268.2886782185
 20
185.1144666968
 30
0.0
 11
267.2561257939
 21
183.6453317033
 31
0.0
  0
LINE
  5
382
330
377
100
AcDbEntity
  8
Default
  6
Continuous
 62
     7
100
AcDbLine
 10
267.2561257939
 20
183.6453317033
 30
0.0
 11
266.2235733692
 21
185.2646141411
 31
0.0
  0
LINE
  5
383
330
377
100
AcDbEntity
  8
Default
  6
Continuous
 62
     7
100
AcDbLine
 10
266.2235733692
 20
185.2646141411
 30
0.0
 11
264.7036192408
 21
183.1186606679
 31
0.0
  0
LINE
  5
384
330
377
100
AcDbEntity
  8
Default
  6
Continuous
 62
     7
100
AcDbLine
 10
264.7036192408
 20
183.1186606679
 30
0.0
 11
262.6269645881
 21
183.1186606679
 31
0.0
  0
LINE
  5
385
330
377
100
AcDbEntity
  8
Default
  6
Continuous
 62
     7
100
AcDbLine
 10
262.6269645881
 20
183.1186606679
 30
0.0
 11
265.20950063
 21
186.6436606679
 31
0.0
  0
LINE
  5
386
330
377
100
AcDbEntity
  8
Default
  6
Continuous
 62
     7
100
AcDbLine
 10
265.20950063
 20
186.6436606679
 30
0.0
 11
263.1051264492
 21
189.711288453
 31
0.0
  0
LINE
  5
387
330
377
100
AcDbEntity
  8
Default
  6
Continuous
 62
     7
100
AcDbLine
 10
263.1051264492
 20
189.711288453
 30
0.0
 11
265.20950063
 21
189.711288453
 31
0.0
  0
LINE
  5
388
330
377
100
AcDbEntity
  8
Default
  6
Continuous
 62
     7
100
AcDbLine
 10
265.20950063
 20
189.711288453
 30
0.0
 11
266.2235733692
 21
188.0042275094
 31
0.0
  0
LINE
  5
389
330
377
100
AcDbEntity
  8
Default
  6
Continuous
 62
     7
100
AcDbLine
 10
266.2235733692
 20
188.0042275094
 30
0.0
 11
267.226096305
 21
189.711288453
 31
0.0
  0
LINE
  5
38A
330
377
100
AcDbEntity
  8
Default
  6
Continuous
 62
     7
100
AcDbLine
 10
267.226096305
 20
189.711288453
 30
0.0
 11
269.3420202893
 21
189.711288453
 31
0.0
  0
SPLINE
  5
38B
330
377
100
AcDbEntity
  8
Default
  6
Continuous
 62
     7
100
AcDbSpline
210
0.0
220
0.0
230
1.0
 70
     8
 71
     3
 72
    13
 73
     9
 74
     0
 42
0.0000000012369638
 43
0.0000000001
 12
1.0
 22
0.0
 32
0.0
 13
1.0
 23
0.0
 33
0.0
 40
0.0
 40
0.0
 40
0.0
 40
0.0
 40
0.9091644120227717
 40
0.9091644120227717
 40
0.9091644120227717
 40
0.9554905618911577
 40
0.9554905618911577
 40
1.0
 40
1.0
 40
1.0
 40
1.0
 10
267.8844350992403
 20
183.5460033940301
 30
0.0
 10
269.2912011542862
 20
185.5418094228636
 30
0.0
 10
270.697967209332
 20
187.5376154516972
 30
0.0
 10
272.1047332643779
 20
189.5334214805307
 30
0.0
 10
272.1870447473536
 20
189.6501983627819
 30
0.0
 10
272.2849101975365
 20
189.7112884530078
 30
0.0
 10
272.5159062656886
 20
189.7112884530078
 30
0.0
 10
272.6198544963569
 20
189.6512294752883
 30
0.0
 10
272.7122529236178
 20
189.5334214805307
 30
0.0
  0
SPLINE
  5
38C
330
377
100
AcDbEntity
  8
Default
  6
Continuous
 62
     7
100
AcDbSpline
210
0.0
220
0.0
230
1.0
 70
     8
 71
     3
 72
    16
 73
    12
 74
     0
 42
0.0000000006014133
 43
0.0000000001
 12
1.0
 22
0.0
 32
0.0
 13
1.0
 23
0.0
 33
0.0
 40
0.0
 40
0.0
 40
0.0
 40
0.0
 40
0.4418652593848311
 40
0.4418652593848311
 40
0.4418652593848311
 40
0.455090010411123
 40
0.455090010411123
 40
0.4811129075918901
 40
0.4811129075918901
 40
0.4811129075918901
 40
1.0
 40
1.0
 40
1.0
 40
1.0
 10
272.7122529236178
 20
189.5334214805307
 30
0.0
 10
274.1190189786636
 20
187.5376154516972
 30
0.0
 10
275.5257850337095
 20
185.5418094228636
 30
0.0
 10
276.9325510887554
 20
183.5460033940301
 30
0.0
 10
276.9849943017649
 20
183.4716012002038
 30
0.0
 10
277.0133997126086
 20
183.4004758710943
 30
0.0
 10
277.0133997126086
 20
183.1879594883945
 30
0.0
 10
276.9140714033032
 20
183.1186606679488
 30
0.0
 10
276.7154147846925
 20
183.1186606679488
 30
0.0
 10
273.8479835920319
 20
183.1186606679488
 30
0.0
 10
270.9805523993713
 20
183.1186606679488
 30
0.0
 10
268.1131212067108
 20
183.1186606679488
 30
0.0
  0
SPLINE
  5
38D
330
377
100
AcDbEntity
  8
Default
  6
Continuous
 62
     7
100
AcDbSpline
210
0.0
220
0.0
230
1.0
 70
     8
 71
     3
 72
    11
 73
     7
 74
     0
 42
0.0000000141737466
 43
0.0000000001
 12
1.0
 22
0.0
 32
0.0
 13
1.0
 23
0.0
 33
0.0
 40
0.0
 40
0.0
 40
0.0
 40
0.0
 40
0.6560933575639865
 40
0.6560933575639865
 40
0.6560933575639865
 40
1.0
 40
1.0
 40
1.0
 40
1.0
 10
268.1131212067108
 20
183.1186606679488
 30
0.0
 10
267.9075347060556
 20
183.1186606679488
 30
0.0
 10
267.8058964360686
 20
183.1925794097575
 30
0.0
 10
267.8035864753871
 20
183.3381069326933
 30
0.0
 10
267.8027439506852
 20
183.3911859889177
 30
0.0
 10
267.8313060035653
 20
183.4605348488138
 30
0.0
 10
267.8844350992403
 20
183.5460033940301
 30
0.0
  0
LINE
  5
38E
330
377
100
AcDbEntity
  8
Default
  6
Continuous
 62
     7
100
AcDbLine
 10
262.1857620979
 20
189.7274581778
 30
0.0
 11
262.1857620979
 21
183.1186606679
 31
0.0
  0
SPLINE
  5
38F
330
377
100
AcDbEntity
  8
Default
  6
Continuous
 62
     7
100
AcDbSpline
210
0.0
220
0.0
230
1.0
 70
     8
 71
     3
 72
    14
 73
    10
 74
     0
 42
0.0000000052950889
 43
0.0000000001
 12
1.0
 22
0.0
 32
0.0
 13
1.0
 23
0.0
 33
0.0
 40
0.0
 40
0.0
 40
0.0
 40
0.0
 40
0.1210177131110554
 40
0.1210177131110554
 40
0.1210177131110554
 40
0.2419901306838391
 40
0.2419901306838391
 40
0.2419901306838391
 40
1.0
 40
1.0
 40
1.0
 40
1.0
 10
260.4740812329231
 20
189.4387130925884
 30
0.0
 10
260.4740812329231
 20
189.5195617164416
 30
0.0
 10
260.5018007611014
 20
189.5865505762057
 30
0.0
 10
260.5595497781394
 20
189.6419896325622
 30
0.0
 10
260.6172507110666
 20
189.6973825281723
 30
0.0
 10
260.68197769426
 20
189.7274581777785
 30
0.0
 10
260.7628263181132
 20
189.7274581777785
 30
0.0
 10
261.2371382447187
 20
189.7274581777785
 30
0.0
 10
261.7114501713242
 20
189.7274581777785
 30
0.0
 10
262.1857620979297
 20
189.7274581777785
 30
0.0
  0
LINE
  5
390
330
377
100
AcDbEntity
  8
Default
  6
Continuous
 62
     7
100
AcDbLine
 10
260.4740812329
 20
183.1186606679
 30
0.0
 11
260.4740812329
 21
189.4387130926
 31
0.0
  0
LINE
  5
391
330
377
100
AcDbEntity
  8
Default
  6
Continuous
 62
     7
100
AcDbLine
 10
262.1857620979
 20
183.1186606679
 30
0.0
 11
260.4740812329
 21
183.1186606679
 31
0.0
  0
SPLINE
  5
392
330
377
100
AcDbEntity
  8
Default
  6
Continuous
 62
     7
100
AcDbSpline
210
0.0
220
0.0
230
1.0
 70
     8
 71
     3
 72
    16
 73
    12
 74
     0
 42
0.0000000009758823
 43
0.0000000001
 12
1.0
 22
0.0
 32
0.0
 13
1.0
 23
0.0
 33
0.0
 40
0.0
 40
0.0
 40
0.0
 40
0.0
 40
0.6159054655977501
 40
0.6159054655977501
 40
0.6159054655977501
 40
0.6376683166669079
 40
0.6376683166669079
 40
0.6603379531972834
 40
0.6603379531972834
 40
0.6603379531972834
 40
1.0
 40
1.0
 40
1.0
 40
1.0
 10
255.8218204203412
 20
183.1186606679488
 30
0.0
 10
255.8218204203412
 20
185.2199549012385
 30
0.0
 10
255.8218204203412
 20
187.3212491345281
 30
0.0
 10
255.8218204203412
 20
189.4225433678178
 30
0.0
 10
255.8218204203412
 20
189.503391991671
 30
0.0
 10
255.8495399485194
 20
189.5703808514351
 30
0.0
 10
255.962728021914
 20
189.6835689248296
 30
0.0
 10
256.0297168816781
 20
189.7112884530078
 30
0.0
 10
256.1105655055312
 20
189.7112884530078
 30
0.0
 10
257.2693957807606
 20
189.7112884530078
 30
0.0
 10
258.42822605599
 20
189.7112884530078
 30
0.0
 10
259.5870563312193
 20
189.7112884530078
 30
0.0
  0
LINE
  5
393
330
377
100
AcDbEntity
  8
Default
  6
Continuous
 62
     7
100
AcDbLine
 10
257.5404311674
 20
183.1186606679
 30
0.0
 11
255.8218204203
 21
183.1186606679
 31
0.0
  0
LINE
  5
394
330
377
100
AcDbEntity
  8
Default
  6
Continuous
 62
     7
100
AcDbLine
 10
257.5404311674
 20
185.7035066706
 30
0.0
 11
257.5404311674
 21
183.1186606679
 31
0.0
  0
LINE
  5
395
330
377
100
AcDbEntity
  8
Default
  6
Continuous
 62
     7
100
AcDbLine
 10
259.4877280219
 20
185.7035066706
 30
0.0
 11
257.5404311674
 21
185.7035066706
 31
0.0
  0
LINE
  5
396
330
377
100
AcDbEntity
  8
Default
  6
Continuous
 62
     7
100
AcDbLine
 10
259.4877280219
 20
187.1610918606
 30
0.0
 11
259.4877280219
 21
185.7035066706
 31
0.0
  0
LINE
  5
397
330
377
100
AcDbEntity
  8
Default
  6
Continuous
 62
     7
100
AcDbLine
 10
257.5404311674
 20
187.1610918606
 30
0.0
 11
259.4877280219
 21
187.1610918606
 31
0.0
  0
LINE
  5
398
330
377
100
AcDbEntity
  8
Default
  6
Continuous
 62
     7
100
AcDbLine
 10
257.5404311674
 20
188.260633145
 30
0.0
 11
257.5404311674
 21
187.1610918606
 31
0.0
  0
LINE
  5
399
330
377
100
AcDbEntity
  8
Default
  6
Continuous
 62
     7
100
AcDbLine
 10
259.5870563312
 20
188.260633145
 30
0.0
 11
257.5404311674
 21
188.260633145
 31
0.0
  0
LINE
  5
39A
330
377
100
AcDbEntity
  8
Default
  6
Continuous
 62
     7
100
AcDbLine
 10
259.5870563312
 20
189.711288453
 30
0.0
 11
259.5870563312
 21
188.260633145
 31
0.0
  0
LINE
  5
39B
330
377
100
AcDbEntity
  8
Default
  6
Continuous
 62
     7
100
AcDbLine
 10
255.0710831988
 20
187.1610918606
 30
0.0
 11
255.0710831988
 21
185.7035066706
 31
0.0
  0
LINE
  5
39C
330
377
100
AcDbEntity
  8
Default
  6
Continuous
 62
     7
100
AcDbLine
 10
252.9366795291
 20
187.1610918606
 30
0.0
 11
255.0710831988
 21
187.1610918606
 31
0.0
  0
LINE
  5
39D
330
377
100
AcDbEntity
  8
Default
  6
Continuous
 62
     7
100
AcDbLine
 10
252.9366795291
 20
185.7035066706
 30
0.0
 11
252.9366795291
 21
187.1610918606
 31
0.0
  0
LINE
  5
39E
330
377
100
AcDbEntity
  8
Default
  6
Continuous
 62
     7
100
AcDbLine
 10
255.0710831988
 20
185.7035066706
 30
0.0
 11
252.9366795291
 21
185.7035066706
 31
0.0
  0
SPLINE
  5
39F
330
377
100
AcDbEntity
  8
Default
  6
Continuous
 62
     7
100
AcDbSpline
210
0.0
220
0.0
230
1.0
 70
    11
 71
     3
 72
    47
 73
    43
 74
     0
 42
0.0000000008494054
 43
0.0000000001
 12
1.0
 22
0.0
 32
0.0
 13
1.0
 23
0.0
 33
0.0
 40
0.0
 40
0.0
 40
0.0
 40
0.0
 40
0.0637917384076936
 40
0.0637917384076936
 40
0.0637917384076936
 40
0.1265834997779105
 40
0.1265834997779105
 40
0.1893752611481286
 40
0.1893752611481286
 40
0.1893752611481286
 40
0.2604081010642026
 40
0.2604081010642026
 40
0.3159741129340349
 40
0.3159741129340349
 40
0.3159741129340349
 40
0.3751091105868484
 40
0.3751091105868484
 40
0.3751091105868484
 40
0.435995169879425
 40
0.435995169879425
 40
0.435995169879425
 40
0.4997689343159713
 40
0.4997689343159713
 40
0.5635426987525196
 40
0.5635426987525196
 40
0.5635426987525196
 40
0.624232315369434
 40
0.624232315369434
 40
0.624232315369434
 40
0.6835869381889372
 40
0.6835869381889372
 40
0.6835869381889372
 40
0.7357943705008892
 40
0.7357943705008892
 40
0.8025337685079206
 40
0.8025337685079206
 40
0.8692731665149518
 40
0.8692731665149518
 40
0.9360125645219831
 40
0.9360125645219831
 40
0.9360125645219831
 40
1.0
 40
1.0
 40
1.0
 40
1.0
 10
248.4438060035654
 20
184.5693159759436
 30
0.0
 10
248.7025215998956
 20
184.5693159759436
 30
0.0
 10
248.9450674714552
 20
184.620135110937
 30
0.0
 10
249.1691336575627
 20
184.7194634202424
 30
0.0
 10
249.3951304192655
 20
184.8196475517189
 30
0.0
 10
249.5941664229625
 20
184.9550794097575
 30
0.0
 10
249.9314206824644
 20
185.3061934333486
 30
0.0
 10
250.0653984019926
 20
185.5140898946854
 30
0.0
 10
250.160106789935
 20
185.752015844882
 30
0.0
 10
250.2551311293749
 20
185.9907355268896
 30
0.0
 10
250.3056343128707
 20
186.2509673520904
 30
0.0
 10
250.3056343128707
 20
186.7614686627064
 30
0.0
 10
250.2571251385588
 20
186.9809149274508
 30
0.0
 10
250.160106789935
 20
187.1934313101507
 30
0.0
 10
250.0643595068875
 20
187.4031634539689
 30
0.0
 10
249.9314206824644
 20
187.5907445473721
 30
0.0
 10
249.7627935527134
 20
187.7547517557601
 30
0.0
 10
249.5953209577949
 20
187.9176360604069
 30
0.0
 10
249.3955098043517
 20
188.0458068016317
 30
0.0
 10
249.1691336575627
 20
188.140515189574
 30
0.0
 10
248.9439009259591
 20
188.2347452099388
 30
0.0
 10
248.7025215998956
 20
188.2860427125098
 30
0.0
 10
248.1850904072351
 20
188.2860427125098
 30
0.0
 10
247.9425445356754
 20
188.2375335381978
 30
0.0
 10
247.7161683888864
 20
188.140515189574
 30
0.0
 10
247.4925801256786
 20
188.0446916481992
 30
0.0
 10
247.2934455841682
 20
187.9164490034665
 30
0.0
 10
247.1248184544172
 20
187.7547517557601
 30
0.0
 10
246.9550373605366
 20
187.5919479671074
 30
0.0
 10
246.8222136051381
 20
187.403637732169
 30
0.0
 10
246.7228852958327
 20
187.1934313101507
 30
0.0
 10
246.622664698655
 20
186.9813365579839
 30
0.0
 10
246.5727378515339
 20
186.7614686627064
 30
0.0
 10
246.5727378515339
 20
186.2509673520904
 30
0.0
 10
246.6235569865273
 20
185.9899417950786
 30
0.0
 10
246.8222136051381
 20
185.5140898946854
 30
0.0
 10
246.9561913246663
 20
185.3061934333486
 30
0.0
 10
247.2934455841682
 20
184.9550794097575
 30
0.0
 10
247.492102202779
 20
184.8187917295478
 30
0.0
 10
247.7161683888864
 20
184.7194634202424
 30
0.0
 10
247.9421651505893
 20
184.6192792887659
 30
0.0
 10
248.1850904072351
 20
184.5693159759436
 30
0.0
 10
248.4438060035654
 20
184.5693159759436
 30
0.0
  0
SPLINE
  5
3A0
330
377
100
AcDbEntity
  8
Default
  6
Continuous
 62
     7
100
AcDbSpline
210
0.0
220
0.0
230
1.0
 70
    11
 71
     3
 72
    49
 73
    45
 74
     0
 42
0.0000000004385322
 43
0.0000000001
 12
1.0
 22
0.0
 32
0.0
 13
1.0
 23
0.0
 33
0.0
 40
0.0
 40
0.0
 40
0.0
 40
0.0
 40
0.0617996483207596
 40
0.0617996483207596
 40
0.0617996483207596
 40
0.1220737652654132
 40
0.1220737652654132
 40
0.1220737652654132
 40
0.1820249318660078
 40
0.1820249318660078
 40
0.1820249318660078
 40
0.2438982680995642
 40
0.2438982680995642
 40
0.3109516975991858
 40
0.3109516975991858
 40
0.3109516975991858
 40
0.3722543214771952
 40
0.3722543214771952
 40
0.3722543214771952
 40
0.4335172266527087
 40
0.4335172266527087
 40
0.4335172266527087
 40
0.4994898970728853
 40
0.4994898970728853
 40
0.5657506577569065
 40
0.5657506577569065
 40
0.5657506577569065
 40
0.626961718898901
 40
0.626961718898901
 40
0.6886100019061948
 40
0.6886100019061948
 40
0.6886100019061948
 40
0.7556907268882871
 40
0.7556907268882871
 40
0.8175892499404324
 40
0.8175892499404324
 40
0.8175892499404324
 40
0.8774725210786118
 40
0.8774725210786118
 40
0.8774725210786118
 40
0.9379094648157675
 40
0.9379094648157675
 40
0.9379094648157675
 40
1.0
 40
1.0
 40
1.0
 40
1.0
 10
248.4438060035654
 20
189.9492144032044
 30
0.0
 10
248.9196356399268
 20
189.9515130970999
 30
0.0
 10
249.3770301188996
 20
189.8637458579882
 30
0.0
 10
249.8136126877069
 20
189.6997386496002
 30
0.0
 10
250.2509557040483
 20
189.5354457704455
 30
0.0
 10
250.6382686510096
 20
189.3001154516972
 30
0.0
 10
250.9755229105116
 20
188.997510602418
 30
0.0
 10
251.3129086463213
 20
188.694787784671
 30
0.0
 10
251.585352530433
 20
188.3368618475032
 30
0.0
 10
251.7863191097253
 20
187.918758964148
 30
0.0
 10
251.9868172819147
 20
187.5016305829262
 30
0.0
 10
252.0889239590044
 20
187.0455938265333
 30
0.0
 10
252.0889239590044
 20
186.0107314412123
 30
0.0
 10
251.9988354924251
 20
185.52101977673
 30
0.0
 10
251.816348598585
 20
185.0775073258781
 30
0.0
 10
251.6330488643873
 20
184.6320193642835
 30
0.0
 10
251.3820759904592
 20
184.2482314412123
 30
0.0
 10
251.0609914557278
 20
183.9225269851179
 30
0.0
 10
250.7410617834882
 20
183.5979940082417
 30
0.0
 10
250.3564534478642
 20
183.3473467754193
 30
0.0
 10
249.9083210756492
 20
183.1671698422608
 30
0.0
 10
249.4629767181928
 20
182.9881138634896
 30
0.0
 10
248.9727869996335
 20
182.8992144032044
 30
0.0
 10
247.9125150468157
 20
182.8992144032044
 30
0.0
 10
247.4251133430149
 20
182.9893028697837
 30
0.0
 10
246.9792909314815
 20
183.1671698422608
 30
0.0
 10
246.530680710158
 20
183.3461490497318
 30
0.0
 10
246.1453951254526
 20
183.5991324897051
 30
0.0
 10
245.4962961739454
 20
184.2482314412123
 30
0.0
 10
245.2445104596597
 20
184.6316849143446
 30
0.0
 10
245.0620235658196
 20
185.0775073258781
 30
0.0
 10
244.8803465126443
 20
185.521351265914
 30
0.0
 10
244.7871382447187
 20
186.0107314412123
 30
0.0
 10
244.7871382447187
 20
187.0455938265333
 30
0.0
 10
244.8887765147056
 20
187.5029660414744
 30
0.0
 10
245.0920530546794
 20
187.918758964148
 30
0.0
 10
245.2957954536029
 20
188.335504780128
 30
0.0
 10
245.5632850337095
 20
188.6972157138204
 30
0.0
 10
245.9005392932115
 20
188.997510602418
 30
0.0
 10
246.2389407961124
 20
189.2988270091107
 30
0.0
 10
246.6281769078904
 20
189.5334214805307
 30
0.0
 10
247.0670694373792
 20
189.6997386496002
 30
0.0
 10
247.5072164315149
 20
189.8665311947464
 30
0.0
 10
247.9656441424906
 20
189.9469044425229
 30
0.0
 10
248.4438060035654
 20
189.9492144032044
 30
0.0
  0
LINE
  5
3A1
330
377
100
AcDbEntity
  8
Default
  6
Continuous
 62
     7
100
AcDbLine
 10
242.3339600009
 20
185.4332412708
 30
0.0
 11
240.8347955186
 21
185.4332412708
 31
0.0
  0
SPLINE
  5
3A2
330
377
100
AcDbEntity
  8
Default
  6
Continuous
 62
     7
100
AcDbSpline
210
0.0
220
0.0
230
1.0
 70
     8
 71
     3
 72
    43
 73
    39
 74
     0
 42
0.0000000009932047
 43
0.0000000001
 12
1.0
 22
0.0
 32
0.0
 13
1.0
 23
0.0
 33
0.0
 40
0.0
 40
0.0
 40
0.0
 40
0.0
 40
0.0949373847537602
 40
0.0949373847537602
 40
0.0949373847537602
 40
0.1911787086491429
 40
0.1911787086491429
 40
0.2677918678027036
 40
0.2677918678027036
 40
0.2677918678027036
 40
0.3406026976746725
 40
0.3406026976746725
 40
0.3406026976746725
 40
0.4151543081273698
 40
0.4151543081273698
 40
0.4151543081273698
 40
0.4895478942304584
 40
0.4895478942304584
 40
0.5659890102262922
 40
0.5659890102262922
 40
0.6424301262221261
 40
0.6424301262221261
 40
0.6424301262221261
 40
0.714798401889747
 40
0.714798401889747
 40
0.714798401889747
 40
0.7953127750919691
 40
0.7953127750919691
 40
0.8472575319966263
 40
0.8472575319966263
 40
0.8472575319966263
 40
0.898191982468852
 40
0.898191982468852
 40
0.898191982468852
 40
0.9471592991231073
 40
0.9471592991231073
 40
0.9471592991231073
 40
1.0
 40
1.0
 40
1.0
 40
1.0
 10
242.2554213377724
 20
187.3782281646723
 30
0.0
 10
242.1353033823333
 20
187.6970027387221
 30
0.0
 10
241.9551264491748
 20
187.9510984136893
 30
0.0
 10
241.7148905382967
 20
188.1428251502555
 30
0.0
 10
241.4721172585773
 20
188.3365769023392
 30
0.0
 10
241.1766696995024
 20
188.4315702354455
 30
0.0
 10
240.5460504334474
 20
188.4315702354455
 30
0.0
 10
240.3011946012062
 20
188.371511257726
 30
0.0
 10
240.0840582971433
 20
188.2490833416055
 30
0.0
 10
239.8686747464151
 20
188.1276436800246
 30
0.0
 10
239.6913649812849
 20
187.9649581777784
 30
0.0
 10
239.5481474190306
 20
187.7663015591677
 30
0.0
 10
239.4057198468884
 20
187.5687407332931
 30
0.0
 10
239.2986716654264
 20
187.345888715131
 30
0.0
 10
239.2270628842993
 20
187.0987229222083
 30
0.0
 10
239.1546578089098
 20
186.848808629735
 30
0.0
 10
239.1161847715863
 20
186.5997714149999
 30
0.0
 10
239.1161847715863
 20
186.089270104384
 30
0.0
 10
239.1554541031722
 20
185.8397943507798
 30
0.0
 10
239.3079115081525
 20
185.3500826862975
 30
0.0
 10
239.4187896208655
 20
185.1283264608715
 30
0.0
 10
239.5643171438012
 20
184.9342897636238
 30
0.0
 10
239.7109534478642
 20
184.7387746915399
 30
0.0
 10
239.8900215998956
 20
184.5808657793512
 30
0.0
 10
240.104847943277
 20
184.4630577845936
 30
0.0
 10
240.3206481660817
 20
184.3447157269266
 30
0.0
 10
240.5691500402626
 20
184.2851908121166
 30
0.0
 10
241.0403820192927
 20
184.2851908121166
 30
0.0
 10
241.2182489917698
 20
184.3082904189318
 30
0.0
 10
241.3914960428838
 20
184.3591095539252
 30
0.0
 10
241.5619922405099
 20
184.4091217718955
 30
0.0
 10
241.7148905382967
 20
184.4815374700458
 30
0.0
 10
241.8488682578248
 20
184.5762458579881
 30
0.0
 10
241.9813056983178
 20
184.6698654279918
 30
0.0
 10
242.089104168703
 20
184.7910722013695
 30
0.0
 10
242.1768826746007
 20
184.9342897636238
 30
0.0
 10
242.2630012238817
 20
185.0747989756085
 30
0.0
 10
242.315480315492
 20
185.241514534266
 30
0.0
 10
242.3339600009441
 20
185.4332412708322
 30
0.0
  0
LINE
  5
3A3
330
377
100
AcDbEntity
  8
Default
  6
Continuous
 62
     7
100
AcDbLine
 10
243.8839436182
 20
188.0642864871
 30
0.0
 11
242.2554213378
 21
187.3782281647
 31
0.0
  0
SPLINE
  5
3A4
330
377
100
AcDbEntity
  8
Default
  6
Continuous
 62
     7
100
AcDbSpline
210
0.0
220
0.0
230
1.0
 70
     8
 71
     3
 72
    51
 73
    47
 74
     0
 42
0.0000000004766382
 43
0.0000000001
 12
1.0
 22
0.0
 32
0.0
 13
1.0
 23
0.0
 33
0.0
 40
0.0
 40
0.0
 40
0.0
 40
0.0
 40
0.0095402040290222
 40
0.0095402040290222
 40
0.0095402040290222
 40
0.0400756007423482
 40
0.0400756007423482
 40
0.0400756007423482
 40
0.0693620114069116
 40
0.0693620114069116
 40
0.0986484220714753
 40
0.0986484220714753
 40
0.0986484220714753
 40
0.1302632519246672
 40
0.1302632519246672
 40
0.1302632519246672
 40
0.2055179711079718
 40
0.2055179711079718
 40
0.2055179711079718
 40
0.281182745691462
 40
0.281182745691462
 40
0.3511962093102096
 40
0.3511962093102096
 40
0.3511962093102096
 40
0.4149417185613706
 40
0.4149417185613706
 40
0.4149417185613706
 40
0.4786592191897758
 40
0.4786592191897758
 40
0.4786592191897758
 40
0.5478830793697405
 40
0.5478830793697405
 40
0.6199007276287178
 40
0.6199007276287178
 40
0.6199007276287178
 40
0.6846819262147057
 40
0.6846819262147057
 40
0.6846819262147057
 40
0.7494892886116509
 40
0.7494892886116509
 40
0.7494892886116509
 40
0.8193637744922013
 40
0.8193637744922013
 40
0.9096818872461009
 40
0.9096818872461009
 40
1.0
 40
1.0
 40
1.0
 40
1.0
 10
244.1426592145745
 20
186.777638387477
 30
0.0
 10
244.1426592145745
 20
186.7114195146068
 30
0.0
 10
244.1426592145745
 20
186.6452006417365
 30
0.0
 10
244.1426592145745
 20
186.5789817688662
 30
0.0
 10
244.1426592145745
 20
186.3618454648034
 30
0.0
 10
244.1287994504854
 20
186.1493290821035
 30
0.0
 10
244.1172496470778
 20
185.9437425814482
 30
0.0
 10
244.1057071113542
 20
185.738285445568
 30
0.0
 10
244.0849101975365
 20
185.5371895015006
 30
0.0
 10
244.0109914557279
 20
185.1398762642791
 30
0.0
 10
243.9578623600529
 20
184.9435296063499
 30
0.0
 10
243.8839436182442
 20
184.7518028697837
 30
0.0
 10
243.8103238022207
 20
184.5608514719727
 30
0.0
 10
243.7060766457672
 20
184.3683493966513
 30
0.0
 10
243.567479004876
 20
184.1766226600851
 30
0.0
 10
243.2385391943749
 20
183.7215892555586
 30
0.0
 10
242.8467712722416
 20
183.3866161070052
 30
0.0
 10
242.3801592145745
 20
183.1833395670314
 30
0.0
 10
241.9127013576763
 20
182.9796945600658
 30
0.0
 10
241.4007358856099
 20
182.8761147963892
 30
0.0
 10
240.3289141293845
 20
182.8761147963892
 30
0.0
 10
239.8530622289913
 20
182.9592733809239
 30
0.0
 10
239.4187896208655
 20
183.1279005106749
 30
0.0
 10
238.9865243210358
 20
183.2957482068854
 30
0.0
 10
238.6149233036964
 20
183.5344535906225
 30
0.0
 10
238.3076985330542
 20
183.8370584399017
 30
0.0
 10
237.9993189146371
 20
184.1408007708237
 30
0.0
 10
237.7625478122154
 20
184.5092569982241
 30
0.0
 10
237.5893007611014
 20
184.9412196456684
 30
0.0
 10
237.4171718734448
 20
185.3703943388921
 30
0.0
 10
237.3328951254526
 20
185.8444142721428
 30
0.0
 10
237.3328951254526
 20
186.8954463822346
 30
0.0
 10
237.4183636706689
 20
187.3828480860353
 30
0.0
 10
237.5893007611014
 20
187.8194306548426
 30
0.0
 10
237.760544896821
 20
188.2567974339103
 30
0.0
 10
238.005093683775
 20
188.6302268540563
 30
0.0
 10
238.3192483364618
 20
188.9420715460616
 30
0.0
 10
238.6322480402607
 20
189.2527697814501
 30
0.0
 10
239.0099265802364
 20
189.4918421882634
 30
0.0
 10
239.4488191097252
 20
189.6627792786959
 30
0.0
 10
239.8889361806183
 20
189.8341932957806
 30
0.0
 10
240.3751133430149
 20
189.9145649929816
 30
0.0
 10
241.587842700813
 20
189.9145649929816
 30
0.0
 10
242.1815025959638
 20
189.7621075880012
 30
0.0
 10
243.2025052171957
 20
189.1522779680799
 30
0.0
 10
243.5998184544173
 20
188.6879758710943
 30
0.0
 10
243.8839436182442
 20
188.0642864870838
 30
0.0
  0
LINE
  5
3A5
330
377
100
AcDbEntity
  8
Default
  6
Continuous
 62
     7
100
AcDbLine
 10
240.8347955186
 20
186.7776383875
 30
0.0
 11
244.1426592146
 21
186.7776383875
 31
0.0
  0
LINE
  5
3A6
330
377
100
AcDbEntity
  8
Default
  6
Continuous
 62
     7
100
AcDbLine
 10
240.8347955186
 20
185.4332412708
 30
0.0
 11
240.8347955186
 21
186.7776383875
 31
0.0
  0
SPLINE
  5
3A7
330
377
100
AcDbEntity
  8
Default
  6
Continuous
 62
     7
100
AcDbSpline
210
0.0
220
0.0
230
1.0
 70
     8
 71
     3
 72
    16
 73
    12
 74
     0
 42
0.000000000976763
 43
0.0000000001
 12
1.0
 22
0.0
 32
0.0
 13
1.0
 23
0.0
 33
0.0
 40
0.0
 40
0.0
 40
0.0
 40
0.0
 40
0.6164577788718584
 40
0.6164577788718584
 40
0.6164577788718584
 40
0.6381328433885463
 40
0.6381328433885463
 40
0.6607110355934293
 40
0.6607110355934293
 40
0.6607110355934293
 40
1.0
 40
1.0
 40
1.0
 40
1.0
 10
233.0225084937357
 20
183.1186606679488
 30
0.0
 10
233.0225084937357
 20
185.2199549012385
 30
0.0
 10
233.0225084937357
 20
187.3212491345281
 30
0.0
 10
233.0225084937357
 20
189.4225433678178
 30
0.0
 10
233.0225084937357
 20
189.503391991671
 30
0.0
 10
233.050228021914
 20
189.5703808514351
 30
0.0
 10
233.1634160953085
 20
189.6835689248296
 30
0.0
 10
233.2304049550725
 20
189.7112884530078
 30
0.0
 10
233.3089436182443
 20
189.7112884530078
 30
0.0
 10
234.4654639327921
 20
189.7112884530078
 30
0.0
 10
235.6219842473399
 20
189.7112884530078
 30
0.0
 10
236.7785045618878
 20
189.7112884530078
 30
0.0
  0
LINE
  5
3A8
330
377
100
AcDbEntity
  8
Default
  6
Continuous
 62
     7
100
AcDbLine
 10
236.7785045619
 20
183.1186606679
 30
0.0
 11
233.0225084937
 21
183.1186606679
 31
0.0
  0
LINE
  5
3A9
330
377
100
AcDbEntity
  8
Default
  6
Continuous
 62
     7
100
AcDbLine
 10
236.7785045619
 20
184.5693159759
 30
0.0
 11
236.7785045619
 21
183.1186606679
 31
0.0
  0
LINE
  5
3AA
330
377
100
AcDbEntity
  8
Default
  6
Continuous
 62
     7
100
AcDbLine
 10
234.7318793981
 20
184.5693159759
 30
0.0
 11
236.7785045619
 21
184.5693159759
 31
0.0
  0
LINE
  5
3AB
330
377
100
AcDbEntity
  8
Default
  6
Continuous
 62
     7
100
AcDbLine
 10
234.7318793981
 20
185.7035066706
 30
0.0
 11
234.7318793981
 21
184.5693159759
 31
0.0
  0
LINE
  5
3AC
330
377
100
AcDbEntity
  8
Default
  6
Continuous
 62
     7
100
AcDbLine
 10
236.6791762526
 20
185.7035066706
 30
0.0
 11
234.7318793981
 21
185.7035066706
 31
0.0
  0
LINE
  5
3AD
330
377
100
AcDbEntity
  8
Default
  6
Continuous
 62
     7
100
AcDbLine
 10
236.6791762526
 20
187.1610918606
 30
0.0
 11
236.6791762526
 21
185.7035066706
 31
0.0
  0
LINE
  5
3AE
330
377
100
AcDbEntity
  8
Default
  6
Continuous
 62
     7
100
AcDbLine
 10
234.7318793981
 20
187.1610918606
 30
0.0
 11
236.6791762526
 21
187.1610918606
 31
0.0
  0
LINE
  5
3AF
330
377
100
AcDbEntity
  8
Default
  6
Continuous
 62
     7
100
AcDbLine
 10
234.7318793981
 20
188.260633145
 30
0.0
 11
234.7318793981
 21
187.1610918606
 31
0.0
  0
LINE
  5
3B0
330
377
100
AcDbEntity
  8
Default
  6
Continuous
 62
     7
100
AcDbLine
 10
236.7785045619
 20
188.260633145
 30
0.0
 11
234.7318793981
 21
188.260633145
 31
0.0
  0
LINE
  5
3B1
330
377
100
AcDbEntity
  8
Default
  6
Continuous
 62
     7
100
AcDbLine
 10
236.7785045619
 20
189.711288453
 30
0.0
 11
236.7785045619
 21
188.260633145
 31
0.0
  0
LINE
  5
3B2
330
377
100
AcDbEntity
  8
Default
  6
Continuous
 62
     7
100
AcDbLine
 10
228.7098119013
 20
188.3992307859
 30
0.0
 11
228.7098119013
 21
186.7499188593
 31
0.0
  0
LINE
  5
3B3
330
377
100
AcDbEntity
  8
Default
  6
Continuous
 62
     7
100
AcDbLine
 10
228.7098119013
 20
186.7499188593
 30
0.0
 11
228.8807489918
 21
186.7499188593
 31
0.0
  0
SPLINE
  5
3B4
330
377
100
AcDbEntity
  8
Default
  6
Continuous
 62
     7
100
AcDbSpline
210
0.0
220
0.0
230
1.0
 70
     8
 71
     3
 72
    29
 73
    25
 74
     0
 42
0.0000000028633018
 43
0.0000000001
 12
1.0
 22
0.0
 32
0.0
 13
1.0
 23
0.0
 33
0.0
 40
0.0
 40
0.0
 40
0.0
 40
0.0
 40
0.1203556671631279
 40
0.1203556671631279
 40
0.1203556671631279
 40
0.2363519504887718
 40
0.2363519504887718
 40
0.2363519504887718
 40
0.3551316836966588
 40
0.3551316836966588
 40
0.4739114169045465
 40
0.4739114169045465
 40
0.5942337440501996
 40
0.5942337440501996
 40
0.7145560711958533
 40
0.7145560711958533
 40
0.7145560711958533
 40
0.8303426976884648
 40
0.8303426976884648
 40
0.8303426976884648
 40
0.9506957818555967
 40
0.9506957818555967
 40
0.9506957818555967
 40
1.0
 40
1.0
 40
1.0
 40
1.0
 10
228.8807489917698
 20
186.7499188592988
 30
0.0
 10
229.019346632661
 20
186.7499188592988
 30
0.0
 10
229.1579442735522
 20
186.7591587020248
 30
0.0
 10
229.2965419144435
 20
186.7799483481585
 30
0.0
 10
229.4373986855855
 20
186.8010768638298
 30
0.0
 10
229.5644973534998
 20
186.8376973651965
 30
0.0
 10
229.6799953875758
 20
186.8954463822346
 30
0.0
 10
229.7964174059245
 20
186.9536573914089
 30
0.0
 10
229.8902018095942
 20
187.0340440231258
 30
0.0
 10
230.0287994504854
 20
187.2511803271887
 30
0.0
 10
230.0634488607082
 20
187.3967078501244
 30
0.0
 10
230.0634488607082
 20
187.7547517557601
 30
0.0
 10
230.0287994504854
 20
187.8979693180144
 30
0.0
 10
229.8902018095942
 20
188.1151056220773
 30
0.0
 10
229.7978033823333
 20
188.198264206612
 30
0.0
 10
229.6799953875758
 20
188.25601322365
 30
0.0
 10
229.5649627826514
 20
188.3124017554757
 30
0.0
 10
229.4374495160162
 20
188.3484116509108
 30
0.0
 10
229.2965419144435
 20
188.3692012970445
 30
0.0
 10
229.1578950608181
 20
188.3896573902023
 30
0.0
 10
229.019346632661
 20
188.3992307859043
 30
0.0
 10
228.8807489917698
 20
188.3992307859043
 30
0.0
 10
228.8237699616256
 20
188.3992307859043
 30
0.0
 10
228.7667909314815
 20
188.3992307859043
 30
0.0
 10
228.7098119013373
 20
188.3992307859043
 30
0.0
  0
LINE
  5
3B5
330
377
100
AcDbEntity
  8
Default
  6
Continuous
 62
     7
100
AcDbLine
 10
228.7098119013
 20
183.1186606679
 30
0.0
 11
227.000440997
 21
183.1186606679
 31
0.0
  0
LINE
  5
3B6
330
377
100
AcDbEntity
  8
Default
  6
Continuous
 62
     7
100
AcDbLine
 10
228.7098119013
 20
185.6526875356
 30
0.0
 11
228.7098119013
 21
183.1186606679
 31
0.0
  0
LINE
  5
3B7
330
377
100
AcDbEntity
  8
Default
  6
Continuous
 62
     7
100
AcDbLine
 10
230.3406441425
 20
183.1186606679
 30
0.0
 11
228.7098119013
 21
185.6526875356
 31
0.0
  0
LINE
  5
3B8
330
377
100
AcDbEntity
  8
Default
  6
Continuous
 62
     7
100
AcDbLine
 10
232.4773577729
 20
183.1186606679
 30
0.0
 11
230.3406441425
 21
183.1186606679
 31
0.0
  0
LINE
  5
3B9
330
377
100
AcDbEntity
  8
Default
  6
Continuous
 62
     7
100
AcDbLine
 10
230.4007031202
 20
185.8190047046
 30
0.0
 11
232.4773577729
 21
183.1186606679
 31
0.0
  0
SPLINE
  5
3BA
330
377
100
AcDbEntity
  8
Default
  6
Continuous
 62
     7
100
AcDbSpline
210
0.0
220
0.0
230
1.0
 70
     8
 71
     3
 72
    39
 73
    35
 74
     0
 42
0.0000000006617465
 43
0.0000000001
 12
1.0
 22
0.0
 32
0.0
 13
1.0
 23
0.0
 33
0.0
 40
0.0
 40
0.0
 40
0.0
 40
0.0
 40
0.4184837171182216
 40
0.4184837171182216
 40
0.4184837171182216
 40
0.4329116956232541
 40
0.4329116956232541
 40
0.447940839899329
 40
0.447940839899329
 40
0.447940839899329
 40
0.5989875461512338
 40
0.5989875461512338
 40
0.5989875461512338
 40
0.65983019696195
 40
0.65983019696195
 40
0.65983019696195
 40
0.7141636694202442
 40
0.7141636694202442
 40
0.7141636694202442
 40
0.7672492360561214
 40
0.7672492360561214
 40
0.7672492360561214
 40
0.8311842098663922
 40
0.8311842098663922
 40
0.8732466926363075
 40
0.8732466926363075
 40
0.8732466926363075
 40
0.9147241024096695
 40
0.9147241024096695
 40
0.9147241024096695
 40
0.9560702513872078
 40
0.9560702513872078
 40
0.9560702513872078
 40
1.0
 40
1.0
 40
1.0
 40
1.0
 10
227.0004409970123
 20
183.1186606679488
 30
0.0
 10
227.0004409970123
 20
185.2199549012385
 30
0.0
 10
227.0004409970123
 20
187.3212491345281
 30
0.0
 10
227.0004409970123
 20
189.4225433678178
 30
0.0
 10
227.0004409970123
 20
189.503391991671
 30
0.0
 10
227.0281605251905
 20
189.5703808514351
 30
0.0
 10
227.141348598585
 20
189.6835689248296
 30
0.0
 10
227.2060274976676
 20
189.7112884530078
 30
0.0
 10
227.2776362787947
 20
189.7112884530078
 30
0.0
 10
228.0360733692272
 20
189.7112884530078
 30
0.0
 10
228.7945104596597
 20
189.7112884530078
 30
0.0
 10
229.5529475500922
 20
189.7112884530078
 30
0.0
 10
229.8786520061866
 20
189.7112884530078
 30
0.0
 10
230.1812568554658
 20
189.672019121422
 30
0.0
 10
230.4584521372482
 20
189.5911704975687
 30
0.0
 10
230.7371553613635
 20
189.5098820572018
 30
0.0
 10
230.9781932905902
 20
189.3902039182765
 30
0.0
 10
231.1837797912455
 20
189.223886749207
 30
0.0
 10
231.3882367819392
 20
189.0584833410054
 30
0.0
 10
231.5510635396073
 20
188.8496731188007
 30
0.0
 10
231.6665615736833
 20
188.5955774438335
 30
0.0
 10
231.782929798427
 20
188.3395673493973
 30
0.0
 10
231.8398086247973
 20
188.0365669589056
 30
0.0
 10
231.8398086247973
 20
187.4544568671624
 30
0.0
 10
231.8097791359376
 20
187.235010602418
 30
0.0
 10
231.745100236855
 20
187.0317340624443
 30
0.0
 10
231.679966279852
 20
186.827027340435
 30
0.0
 10
231.5903328711931
 20
186.6390407465858
 30
0.0
 10
231.4679049550726
 20
186.4750335381978
 30
0.0
 10
231.3443697291374
 20
186.3095429525111
 30
0.0
 10
231.1953295946532
 20
186.1678087675556
 30
0.0
 10
231.0151526614946
 20
186.0523107334796
 30
0.0
 10
230.8366129371881
 20
185.9378621922575
 30
0.0
 10
230.6316991883622
 20
185.8582740362319
 30
0.0
 10
230.4007031202102
 20
185.8190047046461
 30
0.0
  0
HATCH
  5
3BB
330
377
100
AcDbEntity
  8
Default
  6
Continuous
 62
     7
100
AcDbHatch
 10
0.0
 20
0.0
 30
0.0
210
0.0
220
0.0
230
1.0
  2
SOLID
 70
     1
 71
     0
 91
        2
 92
        1
 93
        6
 72
     4
 94
        3
 73
     0
 74
     0
 95
       39
 96
       35
 40
0.0
 40
0.0
 40
0.0
 40
0.0
 40
0.0439297486127922
 40
0.0439297486127922
 40
0.0439297486127922
 40
0.0852758975903305
 40
0.0852758975903305
 40
0.0852758975903305
 40
0.1267533073636925
 40
0.1267533073636925
 40
0.1267533073636925
 40
0.1688157901336078
 40
0.1688157901336078
 40
0.2327507639438786
 40
0.2327507639438786
 40
0.2327507639438786
 40
0.2858363305797558
 40
0.2858363305797558
 40
0.2858363305797558
 40
0.34016980303805
 40
0.34016980303805
 40
0.34016980303805
 40
0.4010124538487662
 40
0.4010124538487662
 40
0.4010124538487662
 40
0.552059160100671
 40
0.552059160100671
 40
0.552059160100671
 40
0.5670883043767458
 40
0.5670883043767458
 40
0.5815162828817784
 40
0.5815162828817784
 40
0.5815162828817784
 40
1.0
 40
1.0
 40
1.0
 40
1.0
 10
230.4007031202102
 20
185.8190047046461
 10
230.6316991883622
 20
185.8582740362319
 10
230.8366129371881
 20
185.9378621922575
 10
231.0151526614946
 20
186.0523107334796
 10
231.1953295946532
 20
186.1678087675556
 10
231.3443697291374
 20
186.3095429525111
 10
231.4679049550726
 20
186.4750335381978
 10
231.5903328711931
 20
186.6390407465858
 10
231.679966279852
 20
186.827027340435
 10
231.745100236855
 20
187.0317340624443
 10
231.8097791359376
 20
187.235010602418
 10
231.8398086247973
 20
187.4544568671624
 10
231.8398086247973
 20
188.0365669589056
 10
231.782929798427
 20
188.3395673493973
 10
231.6665615736833
 20
188.5955774438335
 10
231.5510635396073
 20
188.8496731188007
 10
231.3882367819392
 20
189.0584833410054
 10
231.1837797912455
 20
189.223886749207
 10
230.9781932905902
 20
189.3902039182765
 10
230.7371553613635
 20
189.5098820572018
 10
230.4584521372482
 20
189.5911704975687
 10
230.1812568554658
 20
189.672019121422
 10
229.8786520061866
 20
189.7112884530078
 10
229.5529475500922
 20
189.7112884530078
 10
228.7945104596597
 20
189.7112884530078
 10
228.0360733692272
 20
189.7112884530078
 10
227.2776362787947
 20
189.7112884530078
 10
227.2060274976676
 20
189.7112884530078
 10
227.141348598585
 20
189.6835689248296
 10
227.0281605251905
 20
189.5703808514351
 10
227.0004409970123
 20
189.503391991671
 10
227.0004409970123
 20
189.4225433678178
 10
227.0004409970123
 20
187.3212491345281
 10
227.0004409970123
 20
185.2199549012385
 10
227.0004409970123
 20
183.1186606679488
 72
     1
 10
227.0004409970123
 20
183.1186606679488
 11
228.7098119013373
 21
183.1186606679488
 72
     1
 10
228.7098119013373
 20
183.1186606679488
 11
228.7098119013373
 21
185.6526875355766
 72
     1
 10
228.7098119013373
 20
185.6526875355766
 11
230.3406441424906
 21
183.1186606679488
 72
     1
 10
230.3406441424906
 20
183.1186606679488
 11
232.4773577728969
 21
183.1186606679488
 72
     1
 10
232.4773577728969
 20
183.1186606679488
 11
230.4007031202102
 21
185.8190047046461
 97
        0
 92
        1
 93
        3
 72
     1
 10
228.7098119013373
 20
188.3992307859043
 11
228.7098119013373
 21
186.7499188592988
 72
     1
 10
228.7098119013373
 20
186.7499188592988
 11
228.8807489917698
 21
186.7499188592988
 72
     4
 94
        3
 73
     0
 74
     0
 95
       29
 96
       25
 40
0.0
 40
0.0
 40
0.0
 40
0.0
 40
0.120355667163128
 40
0.120355667163128
 40
0.120355667163128
 40
0.2363519504887718
 40
0.2363519504887718
 40
0.2363519504887718
 40
0.3551316836966587
 40
0.3551316836966587
 40
0.4739114169045465
 40
0.4739114169045465
 40
0.5942337440501996
 40
0.5942337440501996
 40
0.7145560711958533
 40
0.7145560711958533
 40
0.7145560711958533
 40
0.8303426976884648
 40
0.8303426976884648
 40
0.8303426976884648
 40
0.9506957818555967
 40
0.9506957818555967
 40
0.9506957818555967
 40
1.0
 40
1.0
 40
1.0
 40
1.0
 10
228.8807489917698
 20
186.7499188592988
 10
229.019346632661
 20
186.7499188592988
 10
229.1579442735522
 20
186.7591587020248
 10
229.2965419144435
 20
186.7799483481585
 10
229.4373986855855
 20
186.8010768638298
 10
229.5644973534998
 20
186.8376973651965
 10
229.6799953875758
 20
186.8954463822346
 10
229.7964174059245
 20
186.9536573914089
 10
229.8902018095942
 20
187.0340440231258
 10
230.0287994504854
 20
187.2511803271887
 10
230.0634488607082
 20
187.3967078501244
 10
230.0634488607082
 20
187.7547517557601
 10
230.0287994504854
 20
187.8979693180144
 10
229.8902018095942
 20
188.1151056220773
 10
229.7978033823333
 20
188.198264206612
 10
229.6799953875758
 20
188.25601322365
 10
229.5649627826514
 20
188.3124017554757
 10
229.4374495160162
 20
188.3484116509108
 10
229.2965419144435
 20
188.3692012970445
 10
229.1578950608181
 20
188.3896573902023
 10
229.019346632661
 20
188.3992307859043
 10
228.8807489917698
 20
188.3992307859043
 10
228.8237699616256
 20
188.3992307859043
 10
228.7667909314815
 20
188.3992307859043
 10
228.7098119013373
 20
188.3992307859043
 97
        0
 75
     0
 76
     1
 98
        0
  0
HATCH
  5
3BC
330
377
100
AcDbEntity
  8
Default
  6
Continuous
 62
     7
100
AcDbHatch
 10
0.0
 20
0.0
 30
0.0
210
0.0
220
0.0
230
1.0
  2
SOLID
 70
     1
 71
     0
 91
        1
 92
        1
 93
       11
 72
     4
 94
        3
 73
     0
 74
     0
 95
       16
 96
       12
 40
0.0
 40
0.0
 40
0.0
 40
0.0
 40
0.3392889644065707
 40
0.3392889644065707
 40
0.3392889644065707
 40
0.3618671566114537
 40
0.3618671566114537
 40
0.3835422211281416
 40
0.3835422211281416
 40
0.3835422211281416
 40
1.0
 40
1.0
 40
1.0
 40
1.0
 10
236.7785045618878
 20
189.7112884530078
 10
235.6219842473399
 20
189.7112884530078
 10
234.4654639327921
 20
189.7112884530078
 10
233.3089436182443
 20
189.7112884530078
 10
233.2304049550725
 20
189.7112884530078
 10
233.1634160953085
 20
189.6835689248296
 10
233.050228021914
 20
189.5703808514351
 10
233.0225084937357
 20
189.503391991671
 10
233.0225084937357
 20
189.4225433678178
 10
233.0225084937357
 20
187.3212491345281
 10
233.0225084937357
 20
185.2199549012385
 10
233.0225084937357
 20
183.1186606679488
 72
     1
 10
233.0225084937357
 20
183.1186606679488
 11
236.7785045618878
 21
183.1186606679488
 72
     1
 10
236.7785045618878
 20
183.1186606679488
 11
236.7785045618878
 21
184.5693159759436
 72
     1
 10
236.7785045618878
 20
184.5693159759436
 11
234.7318793980608
 21
184.5693159759436
 72
     1
 10
234.7318793980608
 20
184.5693159759436
 11
234.7318793980608
 21
185.7035066705701
 72
     1
 10
234.7318793980608
 20
185.7035066705701
 11
236.6791762525824
 21
185.7035066705701
 72
     1
 10
236.6791762525824
 20
185.7035066705701
 11
236.6791762525824
 21
187.1610918606094
 72
     1
 10
236.6791762525824
 20
187.1610918606094
 11
234.7318793980608
 21
187.1610918606094
 72
     1
 10
234.7318793980608
 20
187.1610918606094
 11
234.7318793980608
 21
188.260633145013
 72
     1
 10
234.7318793980608
 20
188.260633145013
 11
236.7785045618878
 21
188.260633145013
 72
     1
 10
236.7785045618878
 20
188.260633145013
 11
236.7785045618878
 21
189.7112884530078
 97
        0
 75
     0
 76
     1
 98
        0
  0
HATCH
  5
3BD
330
377
100
AcDbEntity
  8
Default
  6
Continuous
 62
     7
100
AcDbHatch
 10
0.0
 20
0.0
 30
0.0
210
0.0
220
0.0
230
1.0
  2
SOLID
 70
     1
 71
     0
 91
        1
 92
        1
 93
        6
 72
     4
 94
        3
 73
     0
 74
     0
 95
       51
 96
       47
 40
0.0
 40
0.0
 40
0.0
 40
0.0
 40
0.0903181127538991
 40
0.0903181127538991
 40
0.1806362255077987
 40
0.1806362255077987
 40
0.2505107113883491
 40
0.2505107113883491
 40
0.2505107113883491
 40
0.3153180737852943
 40
0.3153180737852943
 40
0.3153180737852943
 40
0.3800992723712822
 40
0.3800992723712822
 40
0.3800992723712822
 40
0.4521169206302595
 40
0.4521169206302595
 40
0.5213407808102242
 40
0.5213407808102242
 40
0.5213407808102242
 40
0.5850582814386294
 40
0.5850582814386294
 40
0.5850582814386294
 40
0.6488037906897904
 40
0.6488037906897904
 40
0.6488037906897904
 40
0.718817254308538
 40
0.718817254308538
 40
0.7944820288920282
 40
0.7944820288920282
 40
0.7944820288920282
 40
0.8697367480753329
 40
0.8697367480753329
 40
0.8697367480753329
 40
0.9013515779285247
 40
0.9013515779285247
 40
0.9013515779285247
 40
0.9306379885930884
 40
0.9306379885930884
 40
0.9599243992576518
 40
0.9599243992576518
 40
0.9599243992576518
 40
0.9904597959709778
 40
0.9904597959709778
 40
0.9904597959709778
 40
1.0
 40
1.0
 40
1.0
 40
1.0
 10
243.8839436182442
 20
188.0642864870838
 10
243.5998184544173
 20
188.6879758710943
 10
243.2025052171957
 20
189.1522779680799
 10
242.1815025959638
 20
189.7621075880012
 10
241.587842700813
 20
189.9145649929816
 10
240.3751133430149
 20
189.9145649929816
 10
239.8889361806183
 20
189.8341932957806
 10
239.4488191097252
 20
189.6627792786959
 10
239.0099265802364
 20
189.4918421882634
 10
238.6322480402607
 20
189.2527697814501
 10
238.3192483364618
 20
188.9420715460616
 10
238.005093683775
 20
188.6302268540563
 10
237.760544896821
 20
188.2567974339103
 10
237.5893007611014
 20
187.8194306548426
 10
237.4183636706689
 20
187.3828480860353
 10
237.3328951254526
 20
186.8954463822346
 10
237.3328951254526
 20
185.8444142721428
 10
237.4171718734448
 20
185.3703943388921
 10
237.5893007611014
 20
184.9412196456684
 10
237.7625478122154
 20
184.5092569982241
 10
237.9993189146371
 20
184.1408007708237
 10
238.3076985330542
 20
183.8370584399017
 10
238.6149233036964
 20
183.5344535906225
 10
238.9865243210358
 20
183.2957482068854
 10
239.4187896208655
 20
183.1279005106749
 10
239.8530622289913
 20
182.9592733809239
 10
240.3289141293845
 20
182.8761147963892
 10
241.4007358856099
 20
182.8761147963892
 10
241.9127013576763
 20
182.9796945600658
 10
242.3801592145745
 20
183.1833395670314
 10
242.8467712722416
 20
183.3866161070052
 10
243.2385391943749
 20
183.7215892555586
 10
243.567479004876
 20
184.1766226600851
 10
243.7060766457672
 20
184.3683493966513
 10
243.8103238022207
 20
184.5608514719727
 10
243.8839436182442
 20
184.7518028697837
 10
243.9578623600529
 20
184.9435296063499
 10
244.0109914557279
 20
185.1398762642791
 10
244.0849101975365
 20
185.5371895015006
 10
244.1057071113542
 20
185.738285445568
 10
244.1172496470778
 20
185.9437425814482
 10
244.1287994504854
 20
186.1493290821035
 10
244.1426592145745
 20
186.3618454648034
 10
244.1426592145745
 20
186.5789817688662
 10
244.1426592145745
 20
186.6452006417365
 10
244.1426592145745
 20
186.7114195146068
 10
244.1426592145745
 20
186.777638387477
 72
     1
 10
244.1426592145745
 20
186.777638387477
 11
240.8347955186374
 21
186.777638387477
 72
     1
 10
240.8347955186374
 20
186.777638387477
 11
240.8347955186374
 21
185.4332412708322
 72
     1
 10
240.8347955186374
 20
185.4332412708322
 11
242.3339600009441
 21
185.4332412708322
 72
     4
 94
        3
 73
     0
 74
     0
 95
       43
 96
       39
 40
0.0
 40
0.0
 40
0.0
 40
0.0
 40
0.0528407008768927
 40
0.0528407008768927
 40
0.0528407008768927
 40
0.101808017531148
 40
0.101808017531148
 40
0.101808017531148
 40
0.1527424680033737
 40
0.1527424680033737
 40
0.1527424680033737
 40
0.2046872249080309
 40
0.2046872249080309
 40
0.285201598110253
 40
0.285201598110253
 40
0.285201598110253
 40
0.3575698737778739
 40
0.3575698737778739
 40
0.3575698737778739
 40
0.4340109897737078
 40
0.4340109897737078
 40
0.5104521057695417
 40
0.5104521057695417
 40
0.5848456918726302
 40
0.5848456918726302
 40
0.5848456918726302
 40
0.6593973023253275
 40
0.6593973023253275
 40
0.6593973023253275
 40
0.7322081321972964
 40
0.7322081321972964
 40
0.7322081321972964
 40
0.808821291350857
 40
0.808821291350857
 40
0.9050626152462398
 40
0.9050626152462398
 40
0.9050626152462398
 40
1.0
 40
1.0
 40
1.0
 40
1.0
 10
242.3339600009441
 20
185.4332412708322
 10
242.315480315492
 20
185.241514534266
 10
242.2630012238817
 20
185.0747989756085
 10
242.1768826746007
 20
184.9342897636238
 10
242.089104168703
 20
184.7910722013695
 10
241.9813056983178
 20
184.6698654279918
 10
241.8488682578248
 20
184.5762458579881
 10
241.7148905382967
 20
184.4815374700458
 10
241.5619922405099
 20
184.4091217718955
 10
241.3914960428838
 20
184.3591095539252
 10
241.2182489917698
 20
184.3082904189318
 10
241.0403820192927
 20
184.2851908121166
 10
240.5691500402626
 20
184.2851908121166
 10
240.3206481660817
 20
184.3447157269266
 10
240.104847943277
 20
184.4630577845936
 10
239.8900215998956
 20
184.5808657793512
 10
239.7109534478642
 20
184.7387746915399
 10
239.5643171438012
 20
184.9342897636238
 10
239.4187896208655
 20
185.1283264608715
 10
239.3079115081525
 20
185.3500826862975
 10
239.1554541031722
 20
185.8397943507798
 10
239.1161847715863
 20
186.089270104384
 10
239.1161847715863
 20
186.5997714149999
 10
239.1546578089098
 20
186.848808629735
 10
239.2270628842993
 20
187.0987229222083
 10
239.2986716654264
 20
187.345888715131
 10
239.4057198468884
 20
187.5687407332931
 10
239.5481474190306
 20
187.7663015591677
 10
239.6913649812849
 20
187.9649581777784
 10
239.8686747464151
 20
188.1276436800246
 10
240.0840582971433
 20
188.2490833416055
 10
240.3011946012062
 20
188.371511257726
 10
240.5460504334474
 20
188.4315702354455
 10
241.1766696995024
 20
188.4315702354455
 10
241.4721172585773
 20
188.3365769023392
 10
241.7148905382967
 20
188.1428251502555
 10
241.9551264491748
 20
187.9510984136893
 10
242.1353033823333
 20
187.6970027387221
 10
242.2554213377724
 20
187.3782281646723
 72
     1
 10
242.2554213377724
 20
187.3782281646723
 11
243.8839436182442
 21
188.0642864870838
 97
        0
 75
     0
 76
     1
 98
        0
  0
HATCH
  5
3BE
330
377
100
AcDbEntity
  8
Default
  6
Continuous
 62
     7
100
AcDbHatch
 10
0.0
 20
0.0
 30
0.0
210
0.0
220
0.0
230
1.0
  2
SOLID
 70
     1
 71
     0
 91
        2
 92
        1
 93
        1
 72
     4
 94
        3
 73
     0
 74
     0
 95
       49
 96
       45
 40
0.0
 40
0.0
 40
0.0
 40
0.0
 40
0.0620905351842325
 40
0.0620905351842325
 40
0.0620905351842325
 40
0.1225274789213882
 40
0.1225274789213882
 40
0.1225274789213882
 40
0.1824107500595676
 40
0.1824107500595676
 40
0.1824107500595676
 40
0.2443092731117129
 40
0.2443092731117129
 40
0.3113899980938052
 40
0.3113899980938052
 40
0.3113899980938052
 40
0.373038281101099
 40
0.373038281101099
 40
0.4342493422430935
 40
0.4342493422430935
 40
0.4342493422430935
 40
0.5005101029271146
 40
0.5005101029271146
 40
0.5664827733472912
 40
0.5664827733472912
 40
0.5664827733472912
 40
0.6277456785228048
 40
0.6277456785228048
 40
0.6277456785228048
 40
0.6890483024008142
 40
0.6890483024008142
 40
0.6890483024008142
 40
0.7561017319004357
 40
0.7561017319004357
 40
0.8179750681339922
 40
0.8179750681339922
 40
0.8179750681339922
 40
0.8779262347345869
 40
0.8779262347345869
 40
0.8779262347345869
 40
0.9382003516792404
 40
0.9382003516792404
 40
0.9382003516792404
 40
1.0
 40
1.0
 40
1.0
 40
1.0
 10
248.4438060035654
 20
189.9492144032044
 10
247.9656441424906
 20
189.9469044425229
 10
247.5072164315149
 20
189.8665311947464
 10
247.0670694373792
 20
189.6997386496002
 10
246.6281769078904
 20
189.5334214805307
 10
246.2389407961124
 20
189.2988270091107
 10
245.9005392932115
 20
188.997510602418
 10
245.5632850337095
 20
188.6972157138204
 10
245.2957954536029
 20
188.335504780128
 10
245.0920530546794
 20
187.918758964148
 10
244.8887765147056
 20
187.5029660414744
 10
244.7871382447187
 20
187.0455938265333
 10
244.7871382447187
 20
186.0107314412123
 10
244.8803465126443
 20
185.521351265914
 10
245.0620235658196
 20
185.0775073258781
 10
245.2445104596597
 20
184.6316849143446
 10
245.4962961739454
 20
184.2482314412123
 10
246.1453951254526
 20
183.5991324897051
 10
246.530680710158
 20
183.3461490497318
 10
246.9792909314815
 20
183.1671698422608
 10
247.4251133430149
 20
182.9893028697837
 10
247.9125150468157
 20
182.8992144032044
 10
248.9727869996335
 20
182.8992144032044
 10
249.4629767181928
 20
182.9881138634896
 10
249.9083210756492
 20
183.1671698422608
 10
250.3564534478642
 20
183.3473467754193
 10
250.7410617834882
 20
183.5979940082417
 10
251.0609914557278
 20
183.9225269851179
 10
251.3820759904592
 20
184.2482314412123
 10
251.6330488643873
 20
184.6320193642835
 10
251.816348598585
 20
185.0775073258781
 10
251.9988354924251
 20
185.52101977673
 10
252.0889239590044
 20
186.0107314412123
 10
252.0889239590044
 20
187.0455938265333
 10
251.9868172819147
 20
187.5016305829262
 10
251.7863191097253
 20
187.918758964148
 10
251.585352530433
 20
188.3368618475032
 10
251.3129086463213
 20
188.694787784671
 10
250.9755229105116
 20
188.997510602418
 10
250.6382686510096
 20
189.3001154516972
 10
250.2509557040483
 20
189.5354457704455
 10
249.8136126877069
 20
189.6997386496002
 10
249.3770301188996
 20
189.8637458579882
 10
248.9196356399268
 20
189.9515130970999
 10
248.4438060035654
 20
189.9492144032044
 97
        0
 92
        1
 93
        1
 72
     4
 94
        3
 73
     0
 74
     0
 95
       47
 96
       43
 40
0.0
 40
0.0
 40
0.0
 40
0.0
 40
0.0637917384076936
 40
0.0637917384076936
 40
0.0637917384076936
 40
0.1265834997779105
 40
0.1265834997779105
 40
0.1893752611481285
 40
0.1893752611481285
 40
0.1893752611481285
 40
0.2604081010642026
 40
0.2604081010642026
 40
0.3159741129340349
 40
0.3159741129340349
 40
0.3159741129340349
 40
0.3751091105868485
 40
0.3751091105868485
 40
0.3751091105868485
 40
0.435995169879425
 40
0.435995169879425
 40
0.435995169879425
 40
0.4997689343159712
 40
0.4997689343159712
 40
0.5635426987525196
 40
0.5635426987525196
 40
0.5635426987525196
 40
0.624232315369434
 40
0.624232315369434
 40
0.624232315369434
 40
0.6835869381889372
 40
0.6835869381889372
 40
0.6835869381889372
 40
0.7357943705008892
 40
0.7357943705008892
 40
0.8025337685079206
 40
0.8025337685079206
 40
0.8692731665149518
 40
0.8692731665149518
 40
0.9360125645219831
 40
0.9360125645219831
 40
0.9360125645219831
 40
1.0
 40
1.0
 40
1.0
 40
1.0
 10
248.4438060035654
 20
184.5693159759436
 10
248.7025215998956
 20
184.5693159759436
 10
248.9450674714552
 20
184.620135110937
 10
249.1691336575627
 20
184.7194634202424
 10
249.3951304192655
 20
184.8196475517189
 10
249.5941664229625
 20
184.9550794097575
 10
249.9314206824644
 20
185.3061934333486
 10
250.0653984019926
 20
185.5140898946854
 10
250.160106789935
 20
185.752015844882
 10
250.2551311293749
 20
185.9907355268896
 10
250.3056343128707
 20
186.2509673520904
 10
250.3056343128707
 20
186.7614686627064
 10
250.2571251385588
 20
186.9809149274508
 10
250.160106789935
 20
187.1934313101507
 10
250.0643595068875
 20
187.4031634539689
 10
249.9314206824644
 20
187.5907445473721
 10
249.7627935527134
 20
187.7547517557601
 10
249.5953209577949
 20
187.9176360604069
 10
249.3955098043517
 20
188.0458068016317
 10
249.1691336575627
 20
188.140515189574
 10
248.9439009259591
 20
188.2347452099388
 10
248.7025215998956
 20
188.2860427125098
 10
248.1850904072351
 20
188.2860427125098
 10
247.9425445356754
 20
188.2375335381978
 10
247.7161683888864
 20
188.140515189574
 10
247.4925801256786
 20
188.0446916481992
 10
247.2934455841682
 20
187.9164490034665
 10
247.1248184544172
 20
187.7547517557601
 10
246.9550373605366
 20
187.5919479671074
 10
246.8222136051381
 20
187.403637732169
 10
246.7228852958327
 20
187.1934313101507
 10
246.622664698655
 20
186.9813365579839
 10
246.5727378515339
 20
186.7614686627064
 10
246.5727378515339
 20
186.2509673520904
 10
246.6235569865273
 20
185.9899417950786
 10
246.8222136051381
 20
185.5140898946854
 10
246.9561913246663
 20
185.3061934333486
 10
247.2934455841682
 20
184.9550794097575
 10
247.492102202779
 20
184.8187917295478
 10
247.7161683888864
 20
184.7194634202424
 10
247.9421651505893
 20
184.6192792887659
 10
248.1850904072351
 20
184.5693159759436
 10
248.4438060035654
 20
184.5693159759436
 97
        0
 75
     0
 76
     1
 98
        0
  0
HATCH
  5
3BF
330
377
100
AcDbEntity
  8
Default
  6
Continuous
 62
     7
100
AcDbHatch
 10
0.0
 20
0.0
 30
0.0
210
0.0
220
0.0
230
1.0
  2
SOLID
 70
     1
 71
     0
 91
        1
 92
        1
 93
        4
 72
     1
 10
255.0710831988471
 20
185.7035066705701
 11
255.0710831988471
 21
187.1610918606094
 72
     1
 10
255.0710831988471
 20
187.1610918606094
 11
252.9366795291224
 21
187.1610918606094
 72
     1
 10
252.9366795291224
 20
187.1610918606094
 11
252.9366795291224
 21
185.70350667057
 72
     1
 10
252.9366795291224
 20
185.70350667057
 11
255.0710831988471
 21
185.7035066705701
 97
        0
 75
     0
 76
     1
 98
        0
  0
HATCH
  5
3C0
330
377
100
AcDbEntity
  8
Default
  6
Continuous
 62
     7
100
AcDbHatch
 10
0.0
 20
0.0
 30
0.0
210
0.0
220
0.0
230
1.0
  2
SOLID
 70
     1
 71
     0
 91
        1
 92
        1
 93
        9
 72
     4
 94
        3
 73
     0
 74
     0
 95
       16
 96
       12
 40
0.0
 40
0.0
 40
0.0
 40
0.0
 40
0.3396620468027166
 40
0.3396620468027166
 40
0.3396620468027166
 40
0.3623316833330921
 40
0.3623316833330921
 40
0.3840945344022499
 40
0.3840945344022499
 40
0.3840945344022499
 40
1.0
 40
1.0
 40
1.0
 40
1.0
 10
259.5870563312193
 20
189.7112884530078
 10
258.42822605599
 20
189.7112884530078
 10
257.2693957807606
 20
189.7112884530078
 10
256.1105655055312
 20
189.7112884530078
 10
256.0297168816781
 20
189.7112884530078
 10
255.962728021914
 20
189.6835689248296
 10
255.8495399485194
 20
189.5703808514351
 10
255.8218204203412
 20
189.503391991671
 10
255.8218204203412
 20
189.4225433678178
 10
255.8218204203412
 20
187.3212491345281
 10
255.8218204203412
 20
185.2199549012385
 10
255.8218204203412
 20
183.1186606679488
 72
     1
 10
255.8218204203412
 20
183.1186606679488
 11
257.5404311673923
 21
183.1186606679488
 72
     1
 10
257.5404311673923
 20
183.1186606679488
 11
257.5404311673923
 21
185.7035066705701
 72
     1
 10
257.5404311673923
 20
185.7035066705701
 11
259.4877280219139
 21
185.7035066705701
 72
     1
 10
259.4877280219139
 20
185.7035066705701
 11
259.4877280219139
 21
187.1610918606094
 72
     1
 10
259.4877280219139
 20
187.1610918606094
 11
257.5404311673923
 21
187.1610918606094
 72
     1
 10
257.5404311673923
 20
187.1610918606094
 11
257.5404311673923
 21
188.260633145013
 72
     1
 10
257.5404311673923
 20
188.260633145013
 11
259.5870563312194
 21
188.260633145013
 72
     1
 10
259.5870563312193
 20
188.260633145013
 11
259.5870563312193
 21
189.7112884530078
 97
        0
 75
     0
 76
     1
 98
        0
  0
HATCH
  5
3C1
330
377
100
AcDbEntity
  8
Default
  6
Continuous
 62
     7
100
AcDbHatch
 10
0.0
 20
0.0
 30
0.0
210
0.0
220
0.0
230
1.0
  2
SOLID
 70
     1
 71
     0
 91
        1
 92
        1
 93
        4
 72
     4
 94
        3
 73
     0
 74
     0
 95
       14
 96
       10
 40
0.0
 40
0.0
 40
0.0
 40
0.0
 40
0.7580098693161609
 40
0.7580098693161609
 40
0.7580098693161609
 40
0.8789822868889446
 40
0.8789822868889446
 40
0.8789822868889446
 40
1.0
 40
1.0
 40
1.0
 40
1.0
 10
262.1857620979297
 20
189.7274581777785
 10
261.7114501713242
 20
189.7274581777785
 10
261.2371382447187
 20
189.7274581777785
 10
260.7628263181132
 20
189.7274581777785
 10
260.68197769426
 20
189.7274581777785
 10
260.6172507110666
 20
189.6973825281723
 10
260.5595497781394
 20
189.6419896325622
 10
260.5018007611014
 20
189.5865505762057
 10
260.4740812329231
 20
189.5195617164416
 10
260.4740812329231
 20
189.4387130925884
 72
     1
 10
260.4740812329231
 20
189.4387130925884
 11
260.4740812329231
 21
183.1186606679488
 72
     1
 10
260.4740812329231
 20
183.1186606679488
 11
262.1857620979297
 21
183.1186606679488
 72
     1
 10
262.1857620979297
 20
183.1186606679488
 11
262.1857620979297
 21
189.7274581777785
 97
        0
 75
     0
 76
     1
 98
        0
  0
HATCH
  5
3C2
330
377
100
AcDbEntity
  8
Default
  6
Continuous
 62
     7
100
AcDbHatch
 10
0.0
 20
0.0
 30
0.0
210
0.0
220
0.0
230
1.0
  2
SOLID
 70
     1
 71
     0
 91
        1
 92
        1
 93
       12
 72
     1
 10
266.2235733692272
 20
188.0042275093643
 11
265.2095006300398
 21
189.7112884530078
 72
     1
 10
265.2095006300398
 20
189.7112884530078
 11
263.1051264491747
 21
189.7112884530078
 72
     1
 10
263.1051264491747
 20
189.7112884530078
 11
265.2095006300398
 21
186.6436606679488
 72
     1
 10
265.2095006300398
 20
186.6436606679488
 11
262.6269645881001
 21
183.1186606679488
 72
     1
 10
262.6269645881001
 20
183.1186606679488
 11
264.7036192407868
 21
183.1186606679488
 72
     1
 10
264.7036192407868
 20
183.1186606679488
 11
266.2235733692272
 21
185.2646141410812
 72
     1
 10
266.2235733692272
 20
185.2646141410812
 11
267.2561257938668
 21
183.6453317033355
 72
     1
 10
267.2561257938668
 20
183.6453317033355
 11
268.2886782185064
 21
185.1144666967824
 72
     1
 10
268.2886782185064
 20
185.1144666967824
 11
267.226096305007
 21
186.6436606679488
 72
     1
 10
267.226096305007
 20
186.6436606679488
 11
269.3420202892797
 21
189.7112884530078
 72
     1
 10
269.3420202892797
 20
189.7112884530078
 11
267.226096305007
 21
189.7112884530078
 72
     1
 10
267.226096305007
 20
189.7112884530078
 11
266.2235733692272
 21
188.0042275093643
 97
        0
 75
     0
 76
     1
 98
        0
  0
HATCH
  5
3C3
330
377
100
AcDbEntity
  8
Default
  6
Continuous
 62
     7
100
AcDbHatch
 10
0.0
 20
0.0
 30
0.0
210
0.0
220
0.0
230
1.0
  2
SOLID
 70
     1
 71
     0
 91
        1
 92
        1
 93
        3
 72
     4
 94
        3
 73
     0
 74
     0
 95
       13
 96
        9
 40
0.0
 40
0.0
 40
0.0
 40
0.0
 40
0.0445094381088423
 40
0.0445094381088423
 40
0.0908355879772283
 40
0.0908355879772283
 40
0.0908355879772283
 40
1.0
 40
1.0
 40
1.0
 40
1.0
 10
272.7122529236178
 20
189.5334214805307
 10
272.6198544963569
 20
189.6512294752883
 10
272.5159062656886
 20
189.7112884530078
 10
272.2849101975365
 20
189.7112884530078
 10
272.1870447473536
 20
189.6501983627819
 10
272.1047332643779
 20
189.5334214805307
 10
270.697967209332
 20
187.5376154516972
 10
269.2912011542862
 20
185.5418094228636
 10
267.8844350992403
 20
183.5460033940301
 72
     4
 94
        3
 73
     0
 74
     0
 95
       11
 96
        7
 40
0.0
 40
0.0
 40
0.0
 40
0.0
 40
0.3439066424360135
 40
0.3439066424360135
 40
0.3439066424360135
 40
1.0
 40
1.0
 40
1.0
 40
1.0
 10
267.8844350992403
 20
183.5460033940301
 10
267.8313060035653
 20
183.4605348488138
 10
267.8027439506852
 20
183.3911859889177
 10
267.8035864753871
 20
183.3381069326933
 10
267.8058964360686
 20
183.1925794097575
 10
267.9075347060556
 20
183.1186606679488
 10
268.1131212067108
 20
183.1186606679488
 72
     4
 94
        3
 73
     0
 74
     0
 95
       16
 96
       12
 40
0.0
 40
0.0
 40
0.0
 40
0.0
 40
0.5188870924081099
 40
0.5188870924081099
 40
0.5188870924081099
 40
0.544909989588877
 40
0.544909989588877
 40
0.5581347406151689
 40
0.5581347406151689
 40
0.5581347406151689
 40
1.0
 40
1.0
 40
1.0
 40
1.0
 10
268.1131212067108
 20
183.1186606679488
 10
270.9805523993713
 20
183.1186606679488
 10
273.8479835920319
 20
183.1186606679488
 10
276.7154147846925
 20
183.1186606679488
 10
276.9140714033032
 20
183.1186606679488
 10
277.0133997126086
 20
183.1879594883945
 10
277.0133997126086
 20
183.4004758710943
 10
276.9849943017649
 20
183.4716012002038
 10
276.9325510887554
 20
183.5460033940301
 10
275.5257850337095
 20
185.5418094228636
 10
274.1190189786636
 20
187.5376154516972
 10
272.7122529236178
 20
189.5334214805307
 97
        0
 75
     0
 76
     1
 98
        0
  0
ENDBLK
  5
3C5
330
377
100
AcDbEntity
  8
0
100
AcDbBlockEnd
  0
ENDSEC
  0
SECTION
  2
ENTITIES
  0
INSERT
  5
41
330
1F
100
AcDbEntity
  8
Default
100
AcDbBlockReference
  2
SE
 10
0.0
 20
0.0
 30
0.0
  0
DIMENSION
  5
33A
330
1F
100
AcDbEntity
  8
Default
  6
Continuous
 62
     7
100
AcDbDimension
  2
DMBLK379
 10
185.1712454605
 20
75.6362959356
 30
0.0
 11
185.1712454605
 21
125.6362966807
 31
0.0
 70
   161
  1
\A1;<>
 71
     5
 42
-1.0
  3
DIN
100
AcDbAlignedDimension
 13
170.0378394249
 23
75.6362959356
 33
0.0
 14
170.0378394249
 24
175.6362959356
 34
0.0
  0
DIMENSION
  5
344
330
1F
100
AcDbEntity
  8
Default
  6
Continuous
 62
     7
100
AcDbDimension
  2
DMBLK380
 10
185.1712457089
 20
175.6362959356
 30
0.0
 11
185.1712457089
 21
193.080671458
 31
0.0
 70
   160
  1
\A1;<>
 71
     5
 42
-1.0
  3
DIN
100
AcDbAlignedDimension
 13
169.5403541623
 23
183.6362959356
 33
0.0
 14
170.0378394249
 24
175.6362959356
 34
0.0
 50
90.0
100
AcDbRotatedDimension
  0
DIMENSION
  5
34E
330
1F
100
AcDbEntity
  8
Default
  6
Continuous
 62
     7
100
AcDbDimension
  2
DMBLK381
 10
173.0378394249
 20
192.8790205047
 30
0.0
 11
151.5378401551
 21
192.8790205047
 31
0.0
 70
   160
  1
\A1;%%C <>
 71
     5
 42
-1.0
  3
DIN
100
AcDbAlignedDimension
 13
130.0378394249
 23
181.3860817701
 33
0.0
 14
173.0378394249
 24
180.8170218778
 34
0.0
100
AcDbRotatedDimension
  0
DIMENSION
  5
35A
330
1F
100
AcDbEntity
  8
Default
  6
Continuous
 62
     7
100
AcDbDimension
  2
DMBLK382
 10
131.0378394249
 20
45.1166015179
 30
0.0
 11
151.5378399911
 21
45.1166015179
 31
0.0
 70
   161
  1
\A1;%%C <>
 71
     5
 42
-1.0
  3
DIN
100
AcDbAlignedDimension
 13
131.0378394249
 23
77.6362959356
 33
0.0
 14
172.0378394249
 24
77.6362959356
 34
0.0
  0
INSERT
  5
3C6
330
1F
100
AcDbEntity
  8
Default
 62
     7
100
AcDbBlockReference
  2
RF-Massblatt_2016
 10
0.0
 20
0.0
 30
0.0
  0
ENDSEC
  0
SECTION
  2
OBJECTS
  0
DICTIONARY
  5
C
330
0
100
AcDbDictionary
281
     1
  3
ACAD_GROUP
350
D
  3
ACAD_LAYOUT
350
1A
  3
ACAD_MATERIAL
350
3B
  3
ACAD_MLEADERSTYLE
350
3C9
  3
ACAD_MLINESTYLE
350
17
  3
ACAD_PLOTSETTINGS
350
19
  3
ACAD_PLOTSTYLENAME
350
E
  3
ACAD_VISUALSTYLE
350
2A
  3
AcDbVariableDictionary
350
3C7
  0
DICTIONARY
  5
3CE
330
378
100
AcDbDictionary
280
     1
281
     1
  3
ACAD_MTEXT_RT
360
3CF
  0
DICTIONARY
  5
3D0
330
379
100
AcDbDictionary
280
     1
281
     1
  3
ACAD_MTEXT_RT
360
3D1
  0
DICTIONARY
  5
3D2
330
37C
100
AcDbDictionary
280
     1
281
     1
  3
ACAD_MTEXT_RT
360
3D3
  0
DICTIONARY
  5
D
102
{ACAD_REACTORS
330
C
102
}
330
C
100
AcDbDictionary
281
     1
  0
DICTIONARY
  5
1A
102
{ACAD_REACTORS
330
C
102
}
330
C
100
AcDbDictionary
281
     1
  3
Layout1
350
1E
  3
Model
350
22
  0
DICTIONARY
  5
3B
102
{ACAD_REACTORS
330
C
102
}
330
C
100
AcDbDictionary
281
     1
  3
ByBlock
350
3D
  3
ByLayer
350
3C
  3
Global
350
3E
  0
DICTIONARY
  5
3C9
102
{ACAD_REACTORS
330
C
102
}
330
C
100
AcDbDictionary
281
     1
  0
DICTIONARY
  5
17
102
{ACAD_REACTORS
330
C
102
}
330
C
100
AcDbDictionary
281
     1
  3
Standard
350
18
  0
DICTIONARY
  5
19
102
{ACAD_REACTORS
330
C
102
}
330
C
100
AcDbDictionary
281
     1
  0
ACDBDICTIONARYWDFLT
  5
E
102
{ACAD_REACTORS
330
C
102
}
330
C
100
AcDbDictionary
281
     1
  3
Normal
350
F
100
AcDbDictionaryWithDefault
340
F
  0
DICTIONARY
  5
2A
102
{ACAD_REACTORS
330
C
102
}
330
C
100
AcDbDictionary
281
     1
  3
2dWireframe
350
2F
  3
3D Hidden
350
31
  3
3dWireframe
350
30
  3
Basic
350
32
  3
Brighten
350
36
  3
ColorChange
350
3A
  3
Conceptual
350
34
  3
Dim
350
35
  3
Facepattern
350
39
  3
Flat
350
2B
  3
FlatWithEdges
350
2C
  3
Gouraud
350
2D
  3
GouraudWithEdges
350
2E
  3
Linepattern
350
38
  3
Realistic
350
33
  3
Thicken
350
37
  0
DICTIONARY
  5
3C7
102
{ACAD_REACTORS
330
C
102
}
330
C
100
AcDbDictionary
281
     1
  3
DIMASSOC
350
3CC
  3
HIDETEXT
350
3CD
  3
PSOLHEIGHT
350
3CB
  3
PSOLWIDTH
350
3CA
  0
XRECORD
  5
3CF
102
{ACAD_REACTORS
330
3CE
102
}
330
3CE
100
AcDbXrecord
280
     1
 40
10118767.0
  1
\pxsm1.;{\fVectora Com 45 Light|b1||i0||c0|p34;\C7;\H2.5;\W1.;REGO-FIX AG\P}{\fVectora Com 45 Light|b0||i0||c0|p34;\C7;\H2.5;\W1.;Obermattweg 60\P}{\fVectora Com 45 Light|b0||i0||c0|p34;\C7;\H2.5;\W1.;4456 Tenniken / Switzerland\P}{\fVectora Com 45 L
  1
ight|b0||i0||c0|p34;\C7;\H2.5;\W1.;\P}{\fVectora Com 45 Light|b0||i0||c0|p34;\C7;\H2.5;\W1.;P +41 61 976 14 66\P}{\fVectora Com 45 Light|b0||i0||c0|p34;\C7;\H2.5;\W1.;F +41 61 976 14 14\P}{\fVectora Com 45 Light|b1||i0||c0|p34;\C7;\H2.5;\W1.;www.rego
  1
-fix.com}
  0
XRECORD
  5
3D1
102
{ACAD_REACTORS
330
3D0
102
}
330
3D0
100
AcDbXrecord
280
     1
 40
47111022.0
  1
\pxsm1.;{\fSolid Edge ISO|b0||i0||c0|p34;\C7;\H2.;\W1.;This is a non-controlled copy. All information given herein is subject to change without notice\P}{\fSolid Edge ISO|b0||i0||c0|p34;\C7;\H2.;\W1.;\P}{\fSolid Edge ISO|b0||i0||c0|p34;\C7;\H2.;\W1.;
  1
The information given herein has been carefully checked and is believed to be correct. REGO-FIX,\P}{\fSolid Edge ISO|b0||i0||c0|p34;\C7;\H2.;\W1.;however, assumes no responsibility or liability for any errors, inaccuracies or omissions that may appea
  1
r\P}{\fSolid Edge ISO|b0||i0||c0|p34;\C7;\H2.;\W1.;in this drawing\P}{\fSolid Edge ISO|b0||i0||c0|p34;\C7;\H2.;\W1.;\P}{\fSolid Edge ISO|b0||i0||c0|p34;\C7;\H2.;\W1.;This document is subject to copyright laws. No part of this document may be reproduc
  1
ed or transmitted\P}{\fSolid Edge ISO|b0||i0||c0|p34;\C7;\H2.;\W1.;in any form or any means, electronic or mechanic, for any purpose, without the express written permission\P}{\fSolid Edge ISO|b0||i0||c0|p34;\C7;\H2.;\W1.;of REGO-FIX\P}{\fSolid Edge 
  1
ISO|b0||i0||c0|p34;\C7;\H1.5;\W1.;\P}
  0
XRECORD
  5
3D3
102
{ACAD_REACTORS
330
3D2
102
}
330
3D2
100
AcDbXrecord
280
     1
 40
2697483.0
  1
\pxsm1.;{\fVectora Com 45 Light|b0||i0||c0|p34;\C7;\H3.5;\W1.;Type :\P}{\fVectora Com 45 Light|b0||i0||c0|p34;\C7;\H3.5;\W1.;Part No. :\P}{\fVectora Com 45 Light|b0||i0||c0|p34;\C7;\H3.5;\W1.;Date : \P}{\fVectora Com 45 Light|b0||i0||c0|p34;\C7;\H3.5
  1
;\W1.;Scale :}
  0
LAYOUT
  5
1E
102
{ACAD_REACTORS
330
1A
102
}
330
1A
100
AcDbPlotSettings
  1

  2
none_device
  4

  6

 40
0.0
 41
0.0
 42
0.0
 43
0.0
 44
0.0
 45
0.0
 46
0.0
 47
0.0
 48
0.0
 49
0.0
140
0.0
141
0.0
142
1.0
143
1.0
 70
   688
 72
     0
 73
     0
 74
     5
  7

 75
    16
147
1.0
148
0.0
149
0.0
100
AcDbLayout
  1
Layout1
 70
     1
 71
     1
 10
0.0
 20
0.0
 11
297.0
 21
210.0
 12
0.0
 22
0.0
 32
0.0
 14
0.0
 24
0.0
 34
0.0
 15
297.0
 25
210.0
 35
0.0
146
0.0
 13
0.0
 23
0.0
 33
0.0
 16
1.0
 26
0.0
 36
0.0
 17
0.0
 27
1.0
 37
0.0
 76
     0
330
1B
  0
LAYOUT
  5
22
102
{ACAD_REACTORS
330
1A
102
}
330
1A
100
AcDbPlotSettings
  1

  2
none_device
  4

  6

 40
0.0
 41
0.0
 42
0.0
 43
0.0
 44
0.0
 45
0.0
 46
0.0
 47
0.0
 48
0.0
 49
0.0
140
0.0
141
0.0
142
1.0
143
1.0
 70
  1712
 72
     0
 73
     0
 74
     0
  7

 75
     0
147
1.0
148
0.0
149
0.0
100
AcDbLayout
  1
Model
 70
     1
 71
     0
 10
0.0
 20
0.0
 11
297.0
 21
210.0
 12
0.0
 22
0.0
 32
0.0
 14
0.0
 24
0.0
 34
0.0
 15
297.0
 25
210.0
 35
0.0
146
0.0
 13
0.0
 23
0.0
 33
0.0
 16
1.0
 26
0.0
 36
0.0
 17
0.0
 27
1.0
 37
0.0
 76
     0
330
1F
331
29
  0
MATERIAL
  5
3D
102
{ACAD_REACTORS
330
3B
102
}
102
{ACAD_XDICTIONARY
360
3F6
102
}
330
3B
100
AcDbMaterial
  1
ByBlock
  0
MATERIAL
  5
3C
102
{ACAD_REACTORS
330
3B
102
}
102
{ACAD_XDICTIONARY
360
3F4
102
}
330
3B
100
AcDbMaterial
  1
ByLayer
  0
MATERIAL
  5
3E
102
{ACAD_REACTORS
330
3B
102
}
102
{ACAD_XDICTIONARY
360
3F8
102
}
330
3B
100
AcDbMaterial
  1
Global
  0
MLINESTYLE
  5
18
102
{ACAD_REACTORS
330
17
102
}
330
17
100
AcDbMlineStyle
  2
Standard
 70
     0
  3

 62
   256
 51
90.0
 52
90.0
 71
     2
 49
0.5
 62
   256
  6
BYLAYER
 49
-0.5
 62
   256
  6
BYLAYER
  0
ACDBPLACEHOLDER
  5
F
102
{ACAD_REACTORS
330
E
102
}
330
E
  0
VISUALSTYLE
  5
2F
102
{ACAD_REACTORS
330
2A
102
}
102
{ACAD_XDICTIONARY
360
3DC
102
}
330
2A
100
AcDbVisualStyle
  2
2dWireframe
 70
     4
 71
     0
 72
     2
 73
     0
 90
        0
 40
-0.6
 41
-30.0
 62
     5
 63
     7
 74
     1
 91
        4
 64
     7
 65
   257
 75
     1
175
     1
 42
1.0
 92
        0
 66
   257
 43
1.0
 76
     1
 77
     6
 78
     2
 67
     7
 79
     5
170
     0
171
     0
290
     0
174
     0
 93
        1
 44
0.0
173
     0
291
     0
 45
0.0
1001
ACAD
1000
AcDbSavedByObjectVersion
1070
     0
  0
VISUALSTYLE
  5
31
102
{ACAD_REACTORS
330
2A
102
}
102
{ACAD_XDICTIONARY
360
3E0
102
}
330
2A
100
AcDbVisualStyle
  2
3D Hidden
 70
     6
 71
     1
 72
     2
 73
     2
 90
        0
 40
-0.6
 41
-30.0
 62
     5
 63
     7
 74
     2
 91
        2
 64
     7
 65
   257
 75
     2
175
     1
 42
40.0
 92
        0
 66
   257
 43
1.0
 76
     1
 77
     6
 78
     2
 67
     7
 79
     3
170
     0
171
     0
290
     0
174
     0
 93
        1
 44
0.0
173
     0
291
     0
 45
0.0
1001
ACAD
1000
AcDbSavedByObjectVersion
1070
     0
  0
VISUALSTYLE
  5
30
102
{ACAD_REACTORS
330
2A
102
}
102
{ACAD_XDICTIONARY
360
3DE
102
}
330
2A
100
AcDbVisualStyle
  2
3dWireframe
 70
     5
 71
     0
 72
     2
 73
     0
 90
        0
 40
-0.6
 41
-30.0
 62
     5
 63
     7
 74
     1
 91
        4
 64
     7
 65
   257
 75
     1
175
     1
 42
1.0
 92
        0
 66
   257
 43
1.0
 76
     1
 77
     6
 78
     2
 67
     7
 79
     5
170
     0
171
     0
290
     0
174
     0
 93
        1
 44
0.0
173
     0
291
     0
 45
0.0
1001
ACAD
1000
AcDbSavedByObjectVersion
1070
     0
  0
VISUALSTYLE
  5
32
102
{ACAD_REACTORS
330
2A
102
}
102
{ACAD_XDICTIONARY
360
3E2
102
}
330
2A
100
AcDbVisualStyle
  2
Basic
 70
     7
 71
     1
 72
     0
 73
     1
 90
        0
 40
-0.6
 41
-30.0
 62
     5
 63
     7
 74
     0
 91
        4
 64
     7
 65
   257
 75
     1
175
     1
 42
1.0
 92
        8
 66
     7
 43
1.0
 76
     1
 77
     6
 78
     2
 67
     7
 79
     5
170
     0
171
     0
290
     0
174
     0
 93
        1
 44
0.0
173
     0
291
     1
 45
0.0
1001
ACAD
1000
AcDbSavedByObjectVersion
1070
     0
  0
VISUALSTYLE
  5
36
102
{ACAD_REACTORS
330
2A
102
}
102
{ACAD_XDICTIONARY
360
3EA
102
}
330
2A
100
AcDbVisualStyle
  2
Brighten
 70
    12
 71
     2
 72
     2
 73
     0
 90
        0
 40
-0.6
 41
-30.0
 62
     5
 63
     7
 74
     1
 91
        4
 64
     7
 65
   257
 75
     1
175
     1
 42
1.0
 92
        8
 66
     7
 43
1.0
 76
     1
 77
     6
 78
     2
 67
     7
 79
     5
170
     0
171
     0
290
     0
174
     0
 93
        1
 44
50.0
173
     0
291
     1
 45
0.0
1001
ACAD
1000
AcDbSavedByObjectVersion
1070
     0
  0
VISUALSTYLE
  5
3A
102
{ACAD_REACTORS
330
2A
102
}
102
{ACAD_XDICTIONARY
360
3F2
102
}
330
2A
100
AcDbVisualStyle
  2
ColorChange
 70
    16
 71
     2
 72
     2
 73
     3
 90
        0
 40
-0.6
 41
-30.0
 62
     5
 63
     8
 74
     1
 91
        4
 64
     7
 65
   257
 75
     1
175
     1
 42
1.0
 92
        8
 66
     8
 43
1.0
 76
     1
 77
     6
 78
     2
 67
     7
 79
     5
170
     0
171
     0
290
     0
174
     0
 93
        1
 44
0.0
173
     0
291
     1
 45
0.0
1001
ACAD
1000
AcDbSavedByObjectVersion
1070
     0
  0
VISUALSTYLE
  5
34
102
{ACAD_REACTORS
330
2A
102
}
102
{ACAD_XDICTIONARY
360
3E6
102
}
330
2A
100
AcDbVisualStyle
  2
Conceptual
 70
     9
 71
     3
 72
     2
 73
     0
 90
        0
 40
-0.6
 41
-30.0
 62
     5
 63
     7
 74
     2
 91
        2
 64
     7
 65
   257
 75
     1
175
     1
 42
40.0
 92
        8
 66
     7
 43
1.0
 76
     1
 77
     6
 78
     2
 67
     7
 79
     3
170
     0
171
     0
290
     0
174
     0
 93
        1
 44
0.0
173
     0
291
     0
 45
0.0
1001
ACAD
1000
AcDbSavedByObjectVersion
1070
     0
  0
VISUALSTYLE
  5
35
102
{ACAD_REACTORS
330
2A
102
}
102
{ACAD_XDICTIONARY
360
3E8
102
}
330
2A
100
AcDbVisualStyle
  2
Dim
 70
    11
 71
     2
 72
     2
 73
     0
 90
        0
 40
-0.6
 41
-30.0
 62
     5
 63
     7
 74
     1
 91
        4
 64
     7
 65
   257
 75
     1
175
     1
 42
1.0
 92
        8
 66
     7
 43
1.0
 76
     1
 77
     6
 78
     2
 67
     7
 79
     5
170
     0
171
     0
290
     0
174
     0
 93
        1
 44
-50.0
173
     0
291
     1
 45
0.0
1001
ACAD
1000
AcDbSavedByObjectVersion
1070
     0
  0
VISUALSTYLE
  5
39
102
{ACAD_REACTORS
330
2A
102
}
102
{ACAD_XDICTIONARY
360
3F0
102
}
330
2A
100
AcDbVisualStyle
  2
Facepattern
 70
    15
 71
     2
 72
     2
 73
     0
 90
        0
 40
-0.6
 41
-30.0
 62
     5
 63
     7
 74
     1
 91
        4
 64
     7
 65
   257
 75
     1
175
     1
 42
1.0
 92
        8
 66
     7
 43
1.0
 76
     1
 77
     6
 78
     2
 67
     7
 79
     5
170
     0
171
     0
290
     0
174
     0
 93
        1
 44
0.0
173
     0
291
     1
 45
0.0
1001
ACAD
1000
AcDbSavedByObjectVersion
1070
     0
  0
VISUALSTYLE
  5
2B
102
{ACAD_REACTORS
330
2A
102
}
102
{ACAD_XDICTIONARY
360
3D4
102
}
330
2A
100
AcDbVisualStyle
  2
Flat
 70
     0
 71
     2
 72
     1
 73
     1
 90
        2
 40
-0.6
 41
30.0
 62
     5
 63
     7
 74
     0
 91
        4
 64
     7
 65
   257
 75
     1
175
     1
 42
1.0
 92
        8
 66
     7
 43
1.0
 76
     1
 77
     6
 78
     2
 67
     7
 79
     5
170
     0
171
     0
290
     0
174
     0
 93
       13
 44
0.0
173
     0
291
     1
 45
0.0
1001
ACAD
1000
AcDbSavedByObjectVersion
1070
     0
  0
VISUALSTYLE
  5
2C
102
{ACAD_REACTORS
330
2A
102
}
102
{ACAD_XDICTIONARY
360
3D6
102
}
330
2A
100
AcDbVisualStyle
  2
FlatWithEdges
 70
     1
 71
     2
 72
     1
 73
     1
 90
        2
 40
-0.6
 41
30.0
 62
     5
 63
     7
 74
     1
 91
        4
 64
     7
 65
   257
 75
     1
175
     1
 42
1.0
 92
        0
 66
   257
 43
1.0
 76
     1
 77
     6
 78
     2
 67
     7
 79
     5
170
     0
171
     0
290
     0
174
     0
 93
       13
 44
0.0
173
     0
291
     1
 45
0.0
1001
ACAD
1000
AcDbSavedByObjectVersion
1070
     0
  0
VISUALSTYLE
  5
2D
102
{ACAD_REACTORS
330
2A
102
}
102
{ACAD_XDICTIONARY
360
3D8
102
}
330
2A
100
AcDbVisualStyle
  2
Gouraud
 70
     2
 71
     2
 72
     2
 73
     1
 90
        2
 40
-0.6
 41
30.0
 62
     5
 63
     7
 74
     0
 91
        4
 64
     7
 65
   257
 75
     1
175
     1
 42
1.0
 92
        0
 66
     7
 43
1.0
 76
     1
 77
     6
 78
     2
 67
     7
 79
     5
170
     0
171
     0
290
     0
174
     0
 93
       13
 44
0.0
173
     0
291
     1
 45
0.0
1001
ACAD
1000
AcDbSavedByObjectVersion
1070
     0
  0
VISUALSTYLE
  5
2E
102
{ACAD_REACTORS
330
2A
102
}
102
{ACAD_XDICTIONARY
360
3DA
102
}
330
2A
100
AcDbVisualStyle
  2
GouraudWithEdges
 70
     3
 71
     2
 72
     2
 73
     1
 90
        2
 40
-0.6
 41
30.0
 62
     5
 63
     7
 74
     1
 91
        4
 64
     7
 65
   257
 75
     1
175
     1
 42
1.0
 92
        0
 66
   257
 43
1.0
 76
     1
 77
     6
 78
     2
 67
     7
 79
     5
170
     0
171
     0
290
     0
174
     0
 93
       13
 44
0.0
173
     0
291
     1
 45
0.0
1001
ACAD
1000
AcDbSavedByObjectVersion
1070
     0
  0
VISUALSTYLE
  5
38
102
{ACAD_REACTORS
330
2A
102
}
102
{ACAD_XDICTIONARY
360
3EE
102
}
330
2A
100
AcDbVisualStyle
  2
Linepattern
 70
    14
 71
     2
 72
     2
 73
     0
 90
        0
 40
-0.6
 41
-30.0
 62
     5
 63
     7
 74
     1
 91
        4
 64
     7
 65
   257
 75
     7
175
     7
 42
1.0
 92
        8
 66
     7
 43
1.0
 76
     1
 77
     6
 78
     2
 67
     7
 79
     5
170
     0
171
     0
290
     0
174
     0
 93
        1
 44
0.0
173
     0
291
     1
 45
0.0
1001
ACAD
1000
AcDbSavedByObjectVersion
1070
     0
  0
VISUALSTYLE
  5
33
102
{ACAD_REACTORS
330
2A
102
}
102
{ACAD_XDICTIONARY
360
3E4
102
}
330
2A
100
AcDbVisualStyle
  2
Realistic
 70
     8
 71
     2
 72
     2
 73
     0
 90
        0
 40
-0.6
 41
-30.0
 62
     5
 63
     7
 74
     1
 91
        0
 64
     7
 65
   257
 75
     1
175
     1
 42
1.0
 92
        8
 66
     8
 43
1.0
 76
     1
 77
     6
 78
     2
 67
     7
 79
     5
170
     0
171
     0
290
     0
174
     0
 93
       13
 44
0.0
173
     0
291
     0
 45
0.0
1001
ACAD
1000
AcDbSavedByObjectVersion
1070
     0
  0
VISUALSTYLE
  5
37
102
{ACAD_REACTORS
330
2A
102
}
102
{ACAD_XDICTIONARY
360
3EC
102
}
330
2A
100
AcDbVisualStyle
  2
Thicken
 70
    13
 71
     2
 72
     2
 73
     0
 90
        0
 40
-0.6
 41
-30.0
 62
     5
 63
     7
 74
     1
 91
        4
 64
     7
 65
   257
 75
     1
175
     1
 42
1.0
 92
       12
 66
     7
 43
1.0
 76
     1
 77
     6
 78
     2
 67
     7
 79
     5
170
     0
171
     0
290
     0
174
     0
 93
        1
 44
0.0
173
     0
291
     1
 45
0.0
1001
ACAD
1000
AcDbSavedByObjectVersion
1070
     0
  0
DICTIONARYVAR
  5
3CC
102
{ACAD_REACTORS
330
3C7
102
}
330
3C7
100
DictionaryVariables
280
     0
  1
2
  0
DICTIONARYVAR
  5
3CD
102
{ACAD_REACTORS
330
3C7
102
}
330
3C7
100
DictionaryVariables
280
     0
  1
1
  0
DICTIONARYVAR
  5
3CB
102
{ACAD_REACTORS
330
3C7
102
}
330
3C7
100
DictionaryVariables
280
     0
  1
80.000000
  0
DICTIONARYVAR
  5
3CA
102
{ACAD_REACTORS
330
3C7
102
}
330
3C7
100
DictionaryVariables
280
     0
  1
5.000000
  0
DICTIONARY
  5
3F6
330
3D
100
AcDbDictionary
280
     1
281
     1
  3
ACAD_XREC_ROUNDTRIP
360
3F7
  0
DICTIONARY
  5
3F4
330
3C
100
AcDbDictionary
280
     1
281
     1
  3
ACAD_XREC_ROUNDTRIP
360
3F5
  0
DICTIONARY
  5
3F8
330
3E
100
AcDbDictionary
280
     1
281
     1
  3
ACAD_XREC_ROUNDTRIP
360
3F9
  0
DICTIONARY
  5
3DC
330
2F
100
AcDbDictionary
280
     1
281
     1
  3
ACAD_XREC_ROUNDTRIP
360
3DD
  0
DICTIONARY
  5
3E0
330
31
100
AcDbDictionary
280
     1
281
     1
  3
ACAD_XREC_ROUNDTRIP
360
3E1
  0
DICTIONARY
  5
3DE
330
30
100
AcDbDictionary
280
     1
281
     1
  3
ACAD_XREC_ROUNDTRIP
360
3DF
  0
DICTIONARY
  5
3E2
330
32
100
AcDbDictionary
280
     1
281
     1
  3
ACAD_XREC_ROUNDTRIP
360
3E3
  0
DICTIONARY
  5
3EA
330
36
100
AcDbDictionary
280
     1
281
     1
  3
ACAD_XREC_ROUNDTRIP
360
3EB
  0
DICTIONARY
  5
3F2
330
3A
100
AcDbDictionary
280
     1
281
     1
  3
ACAD_XREC_ROUNDTRIP
360
3F3
  0
DICTIONARY
  5
3E6
330
34
100
AcDbDictionary
280
     1
281
     1
  3
ACAD_XREC_ROUNDTRIP
360
3E7
  0
DICTIONARY
  5
3E8
330
35
100
AcDbDictionary
280
     1
281
     1
  3
ACAD_XREC_ROUNDTRIP
360
3E9
  0
DICTIONARY
  5
3F0
330
39
100
AcDbDictionary
280
     1
281
     1
  3
ACAD_XREC_ROUNDTRIP
360
3F1
  0
DICTIONARY
  5
3D4
330
2B
100
AcDbDictionary
280
     1
281
     1
  3
ACAD_XREC_ROUNDTRIP
360
3D5
  0
DICTIONARY
  5
3D6
330
2C
100
AcDbDictionary
280
     1
281
     1
  3
ACAD_XREC_ROUNDTRIP
360
3D7
  0
DICTIONARY
  5
3D8
330
2D
100
AcDbDictionary
280
     1
281
     1
  3
ACAD_XREC_ROUNDTRIP
360
3D9
  0
DICTIONARY
  5
3DA
330
2E
100
AcDbDictionary
280
     1
281
     1
  3
ACAD_XREC_ROUNDTRIP
360
3DB
  0
DICTIONARY
  5
3EE
330
38
100
AcDbDictionary
280
     1
281
     1
  3
ACAD_XREC_ROUNDTRIP
360
3EF
  0
DICTIONARY
  5
3E4
330
33
100
AcDbDictionary
280
     1
281
     1
  3
ACAD_XREC_ROUNDTRIP
360
3E5
  0
DICTIONARY
  5
3EC
330
37
100
AcDbDictionary
280
     1
281
     1
  3
ACAD_XREC_ROUNDTRIP
360
3ED
  0
XRECORD
  5
3F7
102
{ACAD_REACTORS
330
3F6
102
}
330
3F6
100
AcDbXrecord
280
     1
102
MATERIAL
148
0.0
149
0.0
149
0.0
 93
        0
 94
      127
282
     0
 72
     1
 77
     1
171
     1
175
     1
179
     1
273
     0
  0
XRECORD
  5
3F5
102
{ACAD_REACTORS
330
3F4
102
}
330
3F4
100
AcDbXrecord
280
     1
102
MATERIAL
148
0.0
149
0.0
149
0.0
 93
        0
 94
      127
282
     0
 72
     1
 77
     1
171
     1
175
     1
179
     1
273
     0
  0
XRECORD
  5
3F9
102
{ACAD_REACTORS
330
3F8
102
}
330
3F8
100
AcDbXrecord
280
     1
102
MATERIAL
148
0.0
149
0.0
149
0.0
 93
        0
 94
      127
282
     0
 72
     1
 77
     1
171
     1
175
     1
179
     1
273
     0
  0
XRECORD
  5
3DD
102
{ACAD_REACTORS
330
3DC
102
}
330
3DC
100
AcDbXrecord
280
     1
102
RTVSPropertyOp0
 70
     1
102
RTVSPropertyOp1
 70
     1
102
RTVSPropertyOp2
 70
     1
102
RTVSPropertyOp3
 70
     1
102
RTVSPropertyOp4
 70
     1
102
RTVSPropertyOp5
 70
     1
102
RTVSPropertyOp6
 70
     1
102
RTVSPropertyOp7
 70
     1
102
RTVSPropertyOp8
 70
     1
102
RTVSPropertyOp9
 70
     1
102
RTVSPropertyOp10
 70
     1
102
RTVSPropertyOp11
 70
     1
102
RTVSPropertyOp12
 70
     1
102
RTVSPropertyOp13
 70
     1
102
RTVSPropertyOp14
 70
     1
102
RTVSPropertyOp15
 70
     1
102
RTVSPropertyOp16
 70
     1
102
RTVSPropertyOp17
 70
     1
102
RTVSPropertyOp18
 70
     1
102
RTVSPropertyOp19
 70
     1
102
RTVSPropertyOp20
 70
     1
102
RTVSPropertyOp21
 70
     1
102
RTVSPropertyOp22
 70
     1
102
RTVSPropertyOp23
 70
     1
102
RTVSPropertyOp24
 70
     1
102
RTVSPropertyOp25
 70
     1
102
RTVSPropertyOp26
 70
     1
102
RTVSPropertyOp27
 70
     1
102
RTVSPropertyOp28
 70
     1
102
RTVSPropertyOp29
 70
     1
102
RTVSPropertyOp30
 70
     1
102
RTVSPropertyOp31
 70
     1
102
RTVSPropertyOp32
 70
     1
  0
XRECORD
  5
3E1
102
{ACAD_REACTORS
330
3E0
102
}
330
3E0
100
AcDbXrecord
280
     1
102
RTVSPropertyOp0
 70
     1
102
RTVSPropertyOp1
 70
     1
102
RTVSPropertyOp2
 70
     1
102
RTVSPropertyOp3
 70
     1
102
RTVSPropertyOp4
 70
     1
102
RTVSPropertyOp5
 70
     1
102
RTVSPropertyOp6
 70
     1
102
RTVSPropertyOp7
 70
     1
102
RTVSPropertyOp8
 70
     1
102
RTVSPropertyOp9
 70
     1
102
RTVSPropertyOp10
 70
     1
102
RTVSPropertyOp11
 70
     1
102
RTVSPropertyOp12
 70
     1
102
RTVSPropertyOp13
 70
     1
102
RTVSPropertyOp14
 70
     1
102
RTVSPropertyOp15
 70
     1
102
RTVSPropertyOp16
 70
     1
102
RTVSPropertyOp17
 70
     1
102
RTVSPropertyOp18
 70
     1
102
RTVSPropertyOp19
 70
     1
102
RTVSPropertyOp20
 70
     1
102
RTVSPropertyOp21
 70
     1
102
RTVSPropertyOp22
 70
     1
102
RTVSPropertyOp23
 70
     1
102
RTVSPropertyOp24
 70
     1
102
RTVSPropertyOp25
 70
     1
102
RTVSPropertyOp26
 70
     1
102
RTVSPropertyOp27
 70
     1
102
RTVSPropertyOp28
 70
     1
102
RTVSPropertyOp29
 70
     1
102
RTVSPropertyOp30
 70
     1
102
RTVSPropertyOp31
 70
     1
102
RTVSPropertyOp32
 70
     1
  0
XRECORD
  5
3DF
102
{ACAD_REACTORS
330
3DE
102
}
330
3DE
100
AcDbXrecord
280
     1
102
RTVSPropertyOp0
 70
     1
102
RTVSPropertyOp1
 70
     1
102
RTVSPropertyOp2
 70
     1
102
RTVSPropertyOp3
 70
     1
102
RTVSPropertyOp4
 70
     1
102
RTVSPropertyOp5
 70
     1
102
RTVSPropertyOp6
 70
     1
102
RTVSPropertyOp7
 70
     1
102
RTVSPropertyOp8
 70
     1
102
RTVSPropertyOp9
 70
     1
102
RTVSPropertyOp10
 70
     1
102
RTVSPropertyOp11
 70
     1
102
RTVSPropertyOp12
 70
     1
102
RTVSPropertyOp13
 70
     1
102
RTVSPropertyOp14
 70
     1
102
RTVSPropertyOp15
 70
     1
102
RTVSPropertyOp16
 70
     1
102
RTVSPropertyOp17
 70
     1
102
RTVSPropertyOp18
 70
     1
102
RTVSPropertyOp19
 70
     1
102
RTVSPropertyOp20
 70
     1
102
RTVSPropertyOp21
 70
     1
102
RTVSPropertyOp22
 70
     1
102
RTVSPropertyOp23
 70
     1
102
RTVSPropertyOp24
 70
     1
102
RTVSPropertyOp25
 70
     1
102
RTVSPropertyOp26
 70
     1
102
RTVSPropertyOp27
 70
     1
102
RTVSPropertyOp28
 70
     1
102
RTVSPropertyOp29
 70
     1
102
RTVSPropertyOp30
 70
     1
102
RTVSPropertyOp31
 70
     1
102
RTVSPropertyOp32
 70
     1
  0
XRECORD
  5
3E3
102
{ACAD_REACTORS
330
3E2
102
}
330
3E2
100
AcDbXrecord
280
     1
102
RTVSPropertyOp0
 70
     1
102
RTVSPropertyOp1
 70
     1
102
RTVSPropertyOp2
 70
     1
102
RTVSPropertyOp3
 70
     1
102
RTVSPropertyOp4
 70
     1
102
RTVSPropertyOp5
 70
     1
102
RTVSPropertyOp6
 70
     1
102
RTVSPropertyOp7
 70
     1
102
RTVSPropertyOp8
 70
     1
102
RTVSPropertyOp9
 70
     1
102
RTVSPropertyOp10
 70
     1
102
RTVSPropertyOp11
 70
     1
102
RTVSPropertyOp12
 70
     1
102
RTVSPropertyOp13
 70
     1
102
RTVSPropertyOp14
 70
     1
102
RTVSPropertyOp15
 70
     1
102
RTVSPropertyOp16
 70
     1
102
RTVSPropertyOp17
 70
     1
102
RTVSPropertyOp18
 70
     1
102
RTVSPropertyOp19
 70
     1
102
RTVSPropertyOp20
 70
     1
102
RTVSPropertyOp21
 70
     1
102
RTVSPropertyOp22
 70
     1
102
RTVSPropertyOp23
 70
     1
102
RTVSPropertyOp24
 70
     1
102
RTVSPropertyOp25
 70
     1
102
RTVSPropertyOp26
 70
     1
102
RTVSPropertyOp27
 70
     1
102
RTVSPropertyOp28
 70
     1
102
RTVSPropertyOp29
 70
     1
102
RTVSPropertyOp30
 70
     1
102
RTVSPropertyOp31
 70
     1
102
RTVSPropertyOp32
 70
     1
  0
XRECORD
  5
3EB
102
{ACAD_REACTORS
330
3EA
102
}
330
3EA
100
AcDbXrecord
280
     1
102
RTVSPropertyOp0
 70
     1
102
RTVSPropertyOp1
 70
     1
102
RTVSPropertyOp2
 70
     1
102
RTVSPropertyOp3
 70
     1
102
RTVSPropertyOp4
 70
     1
102
RTVSPropertyOp5
 70
     1
102
RTVSPropertyOp6
 70
     1
102
RTVSPropertyOp7
 70
     1
102
RTVSPropertyOp8
 70
     1
102
RTVSPropertyOp9
 70
     1
102
RTVSPropertyOp10
 70
     1
102
RTVSPropertyOp11
 70
     1
102
RTVSPropertyOp12
 70
     1
102
RTVSPropertyOp13
 70
     1
102
RTVSPropertyOp14
 70
     1
102
RTVSPropertyOp15
 70
     1
102
RTVSPropertyOp16
 70
     1
102
RTVSPropertyOp17
 70
     1
102
RTVSPropertyOp18
 70
     1
102
RTVSPropertyOp19
 70
     1
102
RTVSPropertyOp20
 70
     1
102
RTVSPropertyOp21
 70
     1
102
RTVSPropertyOp22
 70
     1
102
RTVSPropertyOp23
 70
     1
102
RTVSPropertyOp24
 70
     1
102
RTVSPropertyOp25
 70
     1
102
RTVSPropertyOp26
 70
     1
102
RTVSPropertyOp27
 70
     1
102
RTVSPropertyOp28
 70
     1
102
RTVSPropertyOp29
 70
     1
102
RTVSPropertyOp30
 70
     1
102
RTVSPropertyOp31
 70
     1
102
RTVSPropertyOp32
 70
     1
  0
XRECORD
  5
3F3
102
{ACAD_REACTORS
330
3F2
102
}
330
3F2
100
AcDbXrecord
280
     1
102
RTVSPropertyOp0
 70
     1
102
RTVSPropertyOp1
 70
     1
102
RTVSPropertyOp2
 70
     1
102
RTVSPropertyOp3
 70
     1
102
RTVSPropertyOp4
 70
     1
102
RTVSPropertyOp5
 70
     1
102
RTVSPropertyOp6
 70
     1
102
RTVSPropertyOp7
 70
     1
102
RTVSPropertyOp8
 70
     1
102
RTVSPropertyOp9
 70
     1
102
RTVSPropertyOp10
 70
     1
102
RTVSPropertyOp11
 70
     1
102
RTVSPropertyOp12
 70
     1
102
RTVSPropertyOp13
 70
     1
102
RTVSPropertyOp14
 70
     1
102
RTVSPropertyOp15
 70
     1
102
RTVSPropertyOp16
 70
     1
102
RTVSPropertyOp17
 70
     1
102
RTVSPropertyOp18
 70
     1
102
RTVSPropertyOp19
 70
     1
102
RTVSPropertyOp20
 70
     1
102
RTVSPropertyOp21
 70
     1
102
RTVSPropertyOp22
 70
     1
102
RTVSPropertyOp23
 70
     1
102
RTVSPropertyOp24
 70
     1
102
RTVSPropertyOp25
 70
     1
102
RTVSPropertyOp26
 70
     1
102
RTVSPropertyOp27
 70
     1
102
RTVSPropertyOp28
 70
     1
102
RTVSPropertyOp29
 70
     1
102
RTVSPropertyOp30
 70
     1
102
RTVSPropertyOp31
 70
     1
102
RTVSPropertyOp32
 70
     1
  0
XRECORD
  5
3E7
102
{ACAD_REACTORS
330
3E6
102
}
330
3E6
100
AcDbXrecord
280
     1
102
RTVSPropertyOp0
 70
     1
102
RTVSPropertyOp1
 70
     1
102
RTVSPropertyOp2
 70
     1
102
RTVSPropertyOp3
 70
     1
102
RTVSPropertyOp4
 70
     1
102
RTVSPropertyOp5
 70
     1
102
RTVSPropertyOp6
 70
     1
102
RTVSPropertyOp7
 70
     1
102
RTVSPropertyOp8
 70
     1
102
RTVSPropertyOp9
 70
     1
102
RTVSPropertyOp10
 70
     1
102
RTVSPropertyOp11
 70
     1
102
RTVSPropertyOp12
 70
     1
102
RTVSPropertyOp13
 70
     1
102
RTVSPropertyOp14
 70
     1
102
RTVSPropertyOp15
 70
     1
102
RTVSPropertyOp16
 70
     1
102
RTVSPropertyOp17
 70
     1
102
RTVSPropertyOp18
 70
     1
102
RTVSPropertyOp19
 70
     1
102
RTVSPropertyOp20
 70
     1
102
RTVSPropertyOp21
 70
     1
102
RTVSPropertyOp22
 70
     1
102
RTVSPropertyOp23
 70
     1
102
RTVSPropertyOp24
 70
     1
102
RTVSPropertyOp25
 70
     1
102
RTVSPropertyOp26
 70
     1
102
RTVSPropertyOp27
 70
     1
102
RTVSPropertyOp28
 70
     1
102
RTVSPropertyOp29
 70
     1
102
RTVSPropertyOp30
 70
     1
102
RTVSPropertyOp31
 70
     1
102
RTVSPropertyOp32
 70
     1
  0
XRECORD
  5
3E9
102
{ACAD_REACTORS
330
3E8
102
}
330
3E8
100
AcDbXrecord
280
     1
102
RTVSPropertyOp0
 70
     1
102
RTVSPropertyOp1
 70
     1
102
RTVSPropertyOp2
 70
     1
102
RTVSPropertyOp3
 70
     1
102
RTVSPropertyOp4
 70
     1
102
RTVSPropertyOp5
 70
     1
102
RTVSPropertyOp6
 70
     1
102
RTVSPropertyOp7
 70
     1
102
RTVSPropertyOp8
 70
     1
102
RTVSPropertyOp9
 70
     1
102
RTVSPropertyOp10
 70
     1
102
RTVSPropertyOp11
 70
     1
102
RTVSPropertyOp12
 70
     1
102
RTVSPropertyOp13
 70
     1
102
RTVSPropertyOp14
 70
     1
102
RTVSPropertyOp15
 70
     1
102
RTVSPropertyOp16
 70
     1
102
RTVSPropertyOp17
 70
     1
102
RTVSPropertyOp18
 70
     1
102
RTVSPropertyOp19
 70
     1
102
RTVSPropertyOp20
 70
     1
102
RTVSPropertyOp21
 70
     1
102
RTVSPropertyOp22
 70
     1
102
RTVSPropertyOp23
 70
     1
102
RTVSPropertyOp24
 70
     1
102
RTVSPropertyOp25
 70
     1
102
RTVSPropertyOp26
 70
     1
102
RTVSPropertyOp27
 70
     1
102
RTVSPropertyOp28
 70
     1
102
RTVSPropertyOp29
 70
     1
102
RTVSPropertyOp30
 70
     1
102
RTVSPropertyOp31
 70
     1
102
RTVSPropertyOp32
 70
     1
  0
XRECORD
  5
3F1
102
{ACAD_REACTORS
330
3F0
102
}
330
3F0
100
AcDbXrecord
280
     1
102
RTVSPropertyOp0
 70
     1
102
RTVSPropertyOp1
 70
     1
102
RTVSPropertyOp2
 70
     1
102
RTVSPropertyOp3
 70
     1
102
RTVSPropertyOp4
 70
     1
102
RTVSPropertyOp5
 70
     1
102
RTVSPropertyOp6
 70
     1
102
RTVSPropertyOp7
 70
     1
102
RTVSPropertyOp8
 70
     1
102
RTVSPropertyOp9
 70
     1
102
RTVSPropertyOp10
 70
     1
102
RTVSPropertyOp11
 70
     1
102
RTVSPropertyOp12
 70
     1
102
RTVSPropertyOp13
 70
     1
102
RTVSPropertyOp14
 70
     1
102
RTVSPropertyOp15
 70
     1
102
RTVSPropertyOp16
 70
     1
102
RTVSPropertyOp17
 70
     1
102
RTVSPropertyOp18
 70
     1
102
RTVSPropertyOp19
 70
     1
102
RTVSPropertyOp20
 70
     1
102
RTVSPropertyOp21
 70
     1
102
RTVSPropertyOp22
 70
     1
102
RTVSPropertyOp23
 70
     1
102
RTVSPropertyOp24
 70
     1
102
RTVSPropertyOp25
 70
     1
102
RTVSPropertyOp26
 70
     1
102
RTVSPropertyOp27
 70
     1
102
RTVSPropertyOp28
 70
     1
102
RTVSPropertyOp29
 70
     1
102
RTVSPropertyOp30
 70
     1
102
RTVSPropertyOp31
 70
     1
102
RTVSPropertyOp32
 70
     1
  0
XRECORD
  5
3D5
102
{ACAD_REACTORS
330
3D4
102
}
330
3D4
100
AcDbXrecord
280
     1
102
RTVSPropertyOp0
 70
     1
102
RTVSPropertyOp1
 70
     1
102
RTVSPropertyOp2
 70
     1
102
RTVSPropertyOp3
 70
     1
102
RTVSPropertyOp4
 70
     1
102
RTVSPropertyOp5
 70
     1
102
RTVSPropertyOp6
 70
     1
102
RTVSPropertyOp7
 70
     1
102
RTVSPropertyOp8
 70
     1
102
RTVSPropertyOp9
 70
     1
102
RTVSPropertyOp10
 70
     1
102
RTVSPropertyOp11
 70
     1
102
RTVSPropertyOp12
 70
     1
102
RTVSPropertyOp13
 70
     1
102
RTVSPropertyOp14
 70
     1
102
RTVSPropertyOp15
 70
     1
102
RTVSPropertyOp16
 70
     1
102
RTVSPropertyOp17
 70
     1
102
RTVSPropertyOp18
 70
     1
102
RTVSPropertyOp19
 70
     1
102
RTVSPropertyOp20
 70
     1
102
RTVSPropertyOp21
 70
     1
102
RTVSPropertyOp22
 70
     1
102
RTVSPropertyOp23
 70
     1
102
RTVSPropertyOp24
 70
     1
102
RTVSPropertyOp25
 70
     1
102
RTVSPropertyOp26
 70
     1
102
RTVSPropertyOp27
 70
     1
102
RTVSPropertyOp28
 70
     1
102
RTVSPropertyOp29
 70
     1
102
RTVSPropertyOp30
 70
     1
102
RTVSPropertyOp31
 70
     1
102
RTVSPropertyOp32
 70
     1
  0
XRECORD
  5
3D7
102
{ACAD_REACTORS
330
3D6
102
}
330
3D6
100
AcDbXrecord
280
     1
102
RTVSPropertyOp0
 70
     1
102
RTVSPropertyOp1
 70
     1
102
RTVSPropertyOp2
 70
     1
102
RTVSPropertyOp3
 70
     1
102
RTVSPropertyOp4
 70
     1
102
RTVSPropertyOp5
 70
     1
102
RTVSPropertyOp6
 70
     1
102
RTVSPropertyOp7
 70
     1
102
RTVSPropertyOp8
 70
     1
102
RTVSPropertyOp9
 70
     1
102
RTVSPropertyOp10
 70
     1
102
RTVSPropertyOp11
 70
     1
102
RTVSPropertyOp12
 70
     1
102
RTVSPropertyOp13
 70
     1
102
RTVSPropertyOp14
 70
     1
102
RTVSPropertyOp15
 70
     1
102
RTVSPropertyOp16
 70
     1
102
RTVSPropertyOp17
 70
     1
102
RTVSPropertyOp18
 70
     1
102
RTVSPropertyOp19
 70
     1
102
RTVSPropertyOp20
 70
     1
102
RTVSPropertyOp21
 70
     1
102
RTVSPropertyOp22
 70
     1
102
RTVSPropertyOp23
 70
     1
102
RTVSPropertyOp24
 70
     1
102
RTVSPropertyOp25
 70
     1
102
RTVSPropertyOp26
 70
     1
102
RTVSPropertyOp27
 70
     1
102
RTVSPropertyOp28
 70
     1
102
RTVSPropertyOp29
 70
     1
102
RTVSPropertyOp30
 70
     1
102
RTVSPropertyOp31
 70
     1
102
RTVSPropertyOp32
 70
     1
  0
XRECORD
  5
3D9
102
{ACAD_REACTORS
330
3D8
102
}
330
3D8
100
AcDbXrecord
280
     1
102
RTVSPropertyOp0
 70
     1
102
RTVSPropertyOp1
 70
     1
102
RTVSPropertyOp2
 70
     1
102
RTVSPropertyOp3
 70
     1
102
RTVSPropertyOp4
 70
     1
102
RTVSPropertyOp5
 70
     1
102
RTVSPropertyOp6
 70
     1
102
RTVSPropertyOp7
 70
     1
102
RTVSPropertyOp8
 70
     1
102
RTVSPropertyOp9
 70
     1
102
RTVSPropertyOp10
 70
     1
102
RTVSPropertyOp11
 70
     1
102
RTVSPropertyOp12
 70
     1
102
RTVSPropertyOp13
 70
     1
102
RTVSPropertyOp14
 70
     1
102
RTVSPropertyOp15
 70
     1
102
RTVSPropertyOp16
 70
     1
102
RTVSPropertyOp17
 70
     1
102
RTVSPropertyOp18
 70
     1
102
RTVSPropertyOp19
 70
     1
102
RTVSPropertyOp20
 70
     1
102
RTVSPropertyOp21
 70
     1
102
RTVSPropertyOp22
 70
     1
102
RTVSPropertyOp23
 70
     1
102
RTVSPropertyOp24
 70
     1
102
RTVSPropertyOp25
 70
     1
102
RTVSPropertyOp26
 70
     1
102
RTVSPropertyOp27
 70
     1
102
RTVSPropertyOp28
 70
     1
102
RTVSPropertyOp29
 70
     1
102
RTVSPropertyOp30
 70
     1
102
RTVSPropertyOp31
 70
     1
102
RTVSPropertyOp32
 70
     1
  0
XRECORD
  5
3DB
102
{ACAD_REACTORS
330
3DA
102
}
330
3DA
100
AcDbXrecord
280
     1
102
RTVSPropertyOp0
 70
     1
102
RTVSPropertyOp1
 70
     1
102
RTVSPropertyOp2
 70
     1
102
RTVSPropertyOp3
 70
     1
102
RTVSPropertyOp4
 70
     1
102
RTVSPropertyOp5
 70
     1
102
RTVSPropertyOp6
 70
     1
102
RTVSPropertyOp7
 70
     1
102
RTVSPropertyOp8
 70
     1
102
RTVSPropertyOp9
 70
     1
102
RTVSPropertyOp10
 70
     1
102
RTVSPropertyOp11
 70
     1
102
RTVSPropertyOp12
 70
     1
102
RTVSPropertyOp13
 70
     1
102
RTVSPropertyOp14
 70
     1
102
RTVSPropertyOp15
 70
     1
102
RTVSPropertyOp16
 70
     1
102
RTVSPropertyOp17
 70
     1
102
RTVSPropertyOp18
 70
     1
102
RTVSPropertyOp19
 70
     1
102
RTVSPropertyOp20
 70
     1
102
RTVSPropertyOp21
 70
     1
102
RTVSPropertyOp22
 70
     1
102
RTVSPropertyOp23
 70
     1
102
RTVSPropertyOp24
 70
     1
102
RTVSPropertyOp25
 70
     1
102
RTVSPropertyOp26
 70
     1
102
RTVSPropertyOp27
 70
     1
102
RTVSPropertyOp28
 70
     1
102
RTVSPropertyOp29
 70
     1
102
RTVSPropertyOp30
 70
     1
102
RTVSPropertyOp31
 70
     1
102
RTVSPropertyOp32
 70
     1
  0
XRECORD
  5
3EF
102
{ACAD_REACTORS
330
3EE
102
}
330
3EE
100
AcDbXrecord
280
     1
102
RTVSPropertyOp0
 70
     1
102
RTVSPropertyOp1
 70
     1
102
RTVSPropertyOp2
 70
     1
102
RTVSPropertyOp3
 70
     1
102
RTVSPropertyOp4
 70
     1
102
RTVSPropertyOp5
 70
     1
102
RTVSPropertyOp6
 70
     1
102
RTVSPropertyOp7
 70
     1
102
RTVSPropertyOp8
 70
     1
102
RTVSPropertyOp9
 70
     1
102
RTVSPropertyOp10
 70
     1
102
RTVSPropertyOp11
 70
     1
102
RTVSPropertyOp12
 70
     1
102
RTVSPropertyOp13
 70
     1
102
RTVSPropertyOp14
 70
     1
102
RTVSPropertyOp15
 70
     1
102
RTVSPropertyOp16
 70
     1
102
RTVSPropertyOp17
 70
     1
102
RTVSPropertyOp18
 70
     1
102
RTVSPropertyOp19
 70
     1
102
RTVSPropertyOp20
 70
     1
102
RTVSPropertyOp21
 70
     1
102
RTVSPropertyOp22
 70
     1
102
RTVSPropertyOp23
 70
     1
102
RTVSPropertyOp24
 70
     1
102
RTVSPropertyOp25
 70
     1
102
RTVSPropertyOp26
 70
     1
102
RTVSPropertyOp27
 70
     1
102
RTVSPropertyOp28
 70
     1
102
RTVSPropertyOp29
 70
     1
102
RTVSPropertyOp30
 70
     1
102
RTVSPropertyOp31
 70
     1
102
RTVSPropertyOp32
 70
     1
  0
XRECORD
  5
3E5
102
{ACAD_REACTORS
330
3E4
102
}
330
3E4
100
AcDbXrecord
280
     1
102
RTVSPropertyOp0
 70
     1
102
RTVSPropertyOp1
 70
     1
102
RTVSPropertyOp2
 70
     1
102
RTVSPropertyOp3
 70
     1
102
RTVSPropertyOp4
 70
     1
102
RTVSPropertyOp5
 70
     1
102
RTVSPropertyOp6
 70
     1
102
RTVSPropertyOp7
 70
     1
102
RTVSPropertyOp8
 70
     1
102
RTVSPropertyOp9
 70
     1
102
RTVSPropertyOp10
 70
     1
102
RTVSPropertyOp11
 70
     1
102
RTVSPropertyOp12
 70
     1
102
RTVSPropertyOp13
 70
     1
102
RTVSPropertyOp14
 70
     1
102
RTVSPropertyOp15
 70
     1
102
RTVSPropertyOp16
 70
     1
102
RTVSPropertyOp17
 70
     1
102
RTVSPropertyOp18
 70
     1
102
RTVSPropertyOp19
 70
     1
102
RTVSPropertyOp20
 70
     1
102
RTVSPropertyOp21
 70
     1
102
RTVSPropertyOp22
 70
     1
102
RTVSPropertyOp23
 70
     1
102
RTVSPropertyOp24
 70
     1
102
RTVSPropertyOp25
 70
     1
102
RTVSPropertyOp26
 70
     1
102
RTVSPropertyOp27
 70
     1
102
RTVSPropertyOp28
 70
     1
102
RTVSPropertyOp29
 70
     1
102
RTVSPropertyOp30
 70
     1
102
RTVSPropertyOp31
 70
     1
102
RTVSPropertyOp32
 70
     1
  0
XRECORD
  5
3ED
102
{ACAD_REACTORS
330
3EC
102
}
330
3EC
100
AcDbXrecord
280
     1
102
RTVSPropertyOp0
 70
     1
102
RTVSPropertyOp1
 70
     1
102
RTVSPropertyOp2
 70
     1
102
RTVSPropertyOp3
 70
     1
102
RTVSPropertyOp4
 70
     1
102
RTVSPropertyOp5
 70
     1
102
RTVSPropertyOp6
 70
     1
102
RTVSPropertyOp7
 70
     1
102
RTVSPropertyOp8
 70
     1
102
RTVSPropertyOp9
 70
     1
102
RTVSPropertyOp10
 70
     1
102
RTVSPropertyOp11
 70
     1
102
RTVSPropertyOp12
 70
     1
102
RTVSPropertyOp13
 70
     1
102
RTVSPropertyOp14
 70
     1
102
RTVSPropertyOp15
 70
     1
102
RTVSPropertyOp16
 70
     1
102
RTVSPropertyOp17
 70
     1
102
RTVSPropertyOp18
 70
     1
102
RTVSPropertyOp19
 70
     1
102
RTVSPropertyOp20
 70
     1
102
RTVSPropertyOp21
 70
     1
102
RTVSPropertyOp22
 70
     1
102
RTVSPropertyOp23
 70
     1
102
RTVSPropertyOp24
 70
     1
102
RTVSPropertyOp25
 70
     1
102
RTVSPropertyOp26
 70
     1
102
RTVSPropertyOp27
 70
     1
102
RTVSPropertyOp28
 70
     1
102
RTVSPropertyOp29
 70
     1
102
RTVSPropertyOp30
 70
     1
102
RTVSPropertyOp31
 70
     1
102
RTVSPropertyOp32
 70
     1
  0
ENDSEC
  0
EOF
