  0
SECTION
  2
HEADER
  9
$ACADVER
  1
AC1015
  9
$ACADMAINTVER
 70
     6
  9
$DWGCODEPAGE
  3
ANSI_1252
  9
$INSBASE
 10
0.0
 20
0.0
 30
0.0
  9
$EXTMIN
 10
0.0
 20
0.0
 30
0.0
  9
$EXTMAX
 10
297.0
 20
210.0
 30
0.0
  9
$LIMMIN
 10
0.0
 20
0.0
  9
$LIMMAX
 10
297.0
 20
210.0
  9
$ORTHOMODE
 70
     0
  9
$REGENMODE
 70
     1
  9
$FILLMODE
 70
     1
  9
$QTEXTMODE
 70
     0
  9
$MIRRTEXT
 70
     1
  9
$LTSCALE
 40
1.0
  9
$ATTMODE
 70
     1
  9
$TEXTSIZE
 40
2.5
  9
$TRACEWID
 40
1.0
  9
$TEXTSTYLE
  7
Standard
  9
$CLAYER
  8
0
  9
$CELTYPE
  6
ByLayer
  9
$CECOLOR
 62
   256
  9
$CELTSCALE
 40
1.0
  9
$DISPSILH
 70
     0
  9
$DIMSCALE
 40
1.0
  9
$DIMASZ
 40
2.5
  9
$DIMEXO
 40
0.625
  9
$DIMDLI
 40
3.75
  9
$DIMRND
 40
0.0
  9
$DIMDLE
 40
0.0
  9
$DIMEXE
 40
1.25
  9
$DIMTP
 40
0.0
  9
$DIMTM
 40
0.0
  9
$DIMTXT
 40
2.5
  9
$DIMCEN
 40
2.5
  9
$DIMTSZ
 40
0.0
  9
$DIMTOL
 70
     0
  9
$DIMLIM
 70
     0
  9
$DIMTIH
 70
     0
  9
$DIMTOH
 70
     0
  9
$DIMSE1
 70
     0
  9
$DIMSE2
 70
     0
  9
$DIMTAD
 70
     1
  9
$DIMZIN
 70
     8
  9
$DIMBLK
  1

  9
$DIMASO
 70
     1
  9
$DIMSHO
 70
     1
  9
$DIMPOST
  1

  9
$DIMAPOST
  1

  9
$DIMALT
 70
     0
  9
$DIMALTD
 70
     3
  9
$DIMALTF
 40
0.0393700787
  9
$DIMLFAC
 40
1.0
  9
$DIMTOFL
 70
     1
  9
$DIMTVP
 40
0.0
  9
$DIMTIX
 70
     0
  9
$DIMSOXD
 70
     0
  9
$DIMSAH
 70
     0
  9
$DIMBLK1
  1

  9
$DIMBLK2
  1

  9
$DIMSTYLE
  2
ISO-25
  9
$DIMCLRD
 70
     0
  9
$DIMCLRE
 70
     0
  9
$DIMCLRT
 70
     0
  9
$DIMTFAC
 40
1.0
  9
$DIMGAP
 40
0.625
  9
$DIMJUST
 70
     0
  9
$DIMSD1
 70
     0
  9
$DIMSD2
 70
     0
  9
$DIMTOLJ
 70
     0
  9
$DIMTZIN
 70
     8
  9
$DIMALTZ
 70
     0
  9
$DIMALTTZ
 70
     0
  9
$DIMUPT
 70
     0
  9
$DIMDEC
 70
     2
  9
$DIMTDEC
 70
     2
  9
$DIMALTU
 70
     2
  9
$DIMALTTD
 70
     3
  9
$DIMTXSTY
  7
Standard
  9
$DIMAUNIT
 70
     0
  9
$DIMADEC
 70
     0
  9
$DIMALTRND
 40
0.0
  9
$DIMAZIN
 70
     0
  9
$DIMDSEP
 70
    44
  9
$DIMATFIT
 70
     3
  9
$DIMFRAC
 70
     0
  9
$DIMLDRBLK
  1

  9
$DIMLUNIT
 70
     2
  9
$DIMLWD
 70
    -2
  9
$DIMLWE
 70
    -2
  9
$DIMTMOVE
 70
     0
  9
$LUNITS
 70
     2
  9
$LUPREC
 70
     4
  9
$SKETCHINC
 40
1.0
  9
$FILLETRAD
 40
10.0
  9
$AUNITS
 70
     0
  9
$AUPREC
 70
     0
  9
$MENU
  1
.
  9
$ELEVATION
 40
0.0
  9
$PELEVATION
 40
0.0
  9
$THICKNESS
 40
0.0
  9
$LIMCHECK
 70
     0
  9
$CHAMFERA
 40
10.0
  9
$CHAMFERB
 40
10.0
  9
$CHAMFERC
 40
20.0
  9
$CHAMFERD
 40
0.0
  9
$SKPOLY
 70
     0
  9
$TDCREATE
 40
2457512.353876736
  9
$TDUCREATE
 40
2457512.270543403
  9
$TDUPDATE
 40
2457512.353877743
  9
$TDUUPDATE
 40
2457512.27054441
  9
$TDINDWG
 40
0.0000000116
  9
$TDUSRTIMER
 40
0.0000000116
  9
$USRTIMER
 70
     1
  9
$ANGBASE
 50
0.0
  9
$ANGDIR
 70
     0
  9
$PDMODE
 70
     0
  9
$PDSIZE
 40
0.0
  9
$PLINEWID
 40
0.0
  9
$SPLFRAME
 70
     0
  9
$SPLINETYPE
 70
     6
  9
$SPLINESEGS
 70
     8
  9
$HANDSEED
  5
19F
  9
$SURFTAB1
 70
     6
  9
$SURFTAB2
 70
     6
  9
$SURFTYPE
 70
     6
  9
$SURFU
 70
     6
  9
$SURFV
 70
     6
  9
$UCSBASE
  2

  9
$UCSNAME
  2

  9
$UCSORG
 10
0.0
 20
0.0
 30
0.0
  9
$UCSXDIR
 10
1.0
 20
0.0
 30
0.0
  9
$UCSYDIR
 10
0.0
 20
1.0
 30
0.0
  9
$UCSORTHOREF
  2

  9
$UCSORTHOVIEW
 70
     0
  9
$UCSORGTOP
 10
0.0
 20
0.0
 30
0.0
  9
$UCSORGBOTTOM
 10
0.0
 20
0.0
 30
0.0
  9
$UCSORGLEFT
 10
0.0
 20
0.0
 30
0.0
  9
$UCSORGRIGHT
 10
0.0
 20
0.0
 30
0.0
  9
$UCSORGFRONT
 10
0.0
 20
0.0
 30
0.0
  9
$UCSORGBACK
 10
0.0
 20
0.0
 30
0.0
  9
$PUCSBASE
  2

  9
$PUCSNAME
  2

  9
$PUCSORG
 10
0.0
 20
0.0
 30
0.0
  9
$PUCSXDIR
 10
1.0
 20
0.0
 30
0.0
  9
$PUCSYDIR
 10
0.0
 20
1.0
 30
0.0
  9
$PUCSORTHOREF
  2

  9
$PUCSORTHOVIEW
 70
     0
  9
$PUCSORGTOP
 10
0.0
 20
0.0
 30
0.0
  9
$PUCSORGBOTTOM
 10
0.0
 20
0.0
 30
0.0
  9
$PUCSORGLEFT
 10
0.0
 20
0.0
 30
0.0
  9
$PUCSORGRIGHT
 10
0.0
 20
0.0
 30
0.0
  9
$PUCSORGFRONT
 10
0.0
 20
0.0
 30
0.0
  9
$PUCSORGBACK
 10
0.0
 20
0.0
 30
0.0
  9
$USERI1
 70
     0
  9
$USERI2
 70
     0
  9
$USERI3
 70
     0
  9
$USERI4
 70
     0
  9
$USERI5
 70
     0
  9
$USERR1
 40
0.0
  9
$USERR2
 40
0.0
  9
$USERR3
 40
0.0
  9
$USERR4
 40
0.0
  9
$USERR5
 40
0.0
  9
$WORLDVIEW
 70
     1
  9
$SHADEDGE
 70
     3
  9
$SHADEDIF
 70
    70
  9
$TILEMODE
 70
     1
  9
$MAXACTVP
 70
    64
  9
$PINSBASE
 10
0.0
 20
0.0
 30
0.0
  9
$PLIMCHECK
 70
     0
  9
$PEXTMIN
 10
0.0
 20
0.0
 30
0.0
  9
$PEXTMAX
 10
297.0
 20
210.0
 30
0.0
  9
$PLIMMIN
 10
0.0
 20
0.0
  9
$PLIMMAX
 10
297.0
 20
210.0
  9
$UNITMODE
 70
     0
  9
$VISRETAIN
 70
     1
  9
$PLINEGEN
 70
     0
  9
$PSLTSCALE
 70
     1
  9
$TREEDEPTH
 70
  3020
  9
$CMLSTYLE
  2
Standard
  9
$CMLJUST
 70
     0
  9
$CMLSCALE
 40
20.0
  9
$PROXYGRAPHICS
 70
     1
  9
$MEASUREMENT
 70
     1
  9
$CELWEIGHT
370
    -1
  9
$ENDCAPS
280
     0
  9
$JOINSTYLE
280
     0
  9
$LWDISPLAY
290
     0
  9
$INSUNITS
 70
     4
  9
$HYPERLINKBASE
  1

  9
$STYLESHEET
  1

  9
$XEDIT
290
     1
  9
$CEPSNTYPE
380
     0
  9
$PSTYLEMODE
290
     1
  9
$FINGERPRINTGUID
  2
{D0D42A94-FB3A-4C47-BB41-38A64F4ED3FC}
  9
$VERSIONGUID
  2
{FAEB1C32-E019-11D5-929B-00C0DF256EC4}
  9
$EXTNAMES
290
     1
  9
$PSVPSCALE
 40
0.0
  9
$OLESTARTUP
290
     0
  0
ENDSEC
  0
SECTION
  2
CLASSES
  0
CLASS
  1
ACDBDICTIONARYWDFLT
  2
AcDbDictionaryWithDefault
  3
ObjectDBX Classes
 90
        0
280
     0
281
     0
  0
CLASS
  1
VISUALSTYLE
  2
AcDbVisualStyle
  3
ObjectDBX Classes
 90
     4095
280
     0
281
     0
  0
CLASS
  1
MATERIAL
  2
AcDbMaterial
  3
ObjectDBX Classes
 90
     1153
280
     0
281
     0
  0
CLASS
  1
DICTIONARYVAR
  2
AcDbDictionaryVar
  3
ObjectDBX Classes
 90
        0
280
     0
281
     0
  0
CLASS
  1
ACDBPLACEHOLDER
  2
AcDbPlaceHolder
  3
ObjectDBX Classes
 90
        0
280
     0
281
     0
  0
CLASS
  1
LAYOUT
  2
AcDbLayout
  3
ObjectDBX Classes
 90
        0
280
     0
281
     0
  0
ENDSEC
  0
SECTION
  2
TABLES
  0
TABLE
  2
VPORT
  5
8
330
0
100
AcDbSymbolTable
 70
     1
  0
VPORT
  5
29
330
8
100
AcDbSymbolTableRecord
100
AcDbViewportTableRecord
  2
*Active
 70
     0
 10
0.0
 20
0.0
 11
1.0
 21
1.0
 12
344.1869158879
 22
148.5
 13
0.0
 23
0.0
 14
10.0
 24
10.0
 15
10.0
 25
10.0
 16
0.0
 26
0.0
 36
1.0
 17
0.0
 27
0.0
 37
0.0
 40
297.0
 41
1.9729729729
 42
50.0
 43
0.0
 44
0.0
 50
0.0
 51
0.0
 71
     0
 72
   100
 73
     1
 74
     3
 75
     0
 76
     0
 77
     0
 78
     0
281
     0
 65
     1
110
0.0
120
0.0
130
0.0
111
1.0
121
0.0
131
0.0
112
0.0
122
1.0
132
0.0
 79
     0
146
0.0
  0
ENDTAB
  0
TABLE
  2
LTYPE
  5
5
330
0
100
AcDbSymbolTable
 70
     1
  0
LTYPE
  5
14
330
5
100
AcDbSymbolTableRecord
100
AcDbLinetypeTableRecord
  2
ByBlock
 70
     0
  3

 72
    65
 73
     0
 40
0.0
  0
LTYPE
  5
15
330
5
100
AcDbSymbolTableRecord
100
AcDbLinetypeTableRecord
  2
ByLayer
 70
     0
  3

 72
    65
 73
     0
 40
0.0
  0
LTYPE
  5
16
330
5
100
AcDbSymbolTableRecord
100
AcDbLinetypeTableRecord
  2
Continuous
 70
     0
  3
Solid line
 72
    65
 73
     0
 40
0.0
  0
ENDTAB
  0
TABLE
  2
LAYER
  5
2
330
0
100
AcDbSymbolTable
 70
     4
  0
LAYER
  5
10
330
2
100
AcDbSymbolTableRecord
100
AcDbLayerTableRecord
  2
0
 70
     0
 62
     7
  6
Continuous
370
    -3
390
F
  0
LAYER
  5
3F
330
2
100
AcDbSymbolTableRecord
100
AcDbLayerTableRecord
  2
Default
 70
     0
 62
     7
  6
Continuous
370
    -3
390
F
  0
LAYER
  5
42
330
2
100
AcDbSymbolTableRecord
100
AcDbLayerTableRecord
  2
DV1_Default
 70
     0
 62
     7
  6
Continuous
370
    -3
390
F
  0
LAYER
  5
4F
330
2
100
AcDbSymbolTableRecord
100
AcDbLayerTableRecord
  2
0015020
 70
     0
 62
     7
  6
Continuous
370
    -3
390
F
  0
ENDTAB
  0
TABLE
  2
STYLE
  5
3
330
0
100
AcDbSymbolTable
 70
     4
  0
STYLE
  5
11
330
3
100
AcDbSymbolTableRecord
100
AcDbTextStyleTableRecord
  2
Standard
 70
     0
 40
0.0
 41
1.0
 50
0.0
 71
     0
 42
2.5
  3
txt
  4

  0
STYLE
  5
EA
330
3
100
AcDbSymbolTableRecord
100
AcDbTextStyleTableRecord
  2
SEACAD_Solid_Edge_ISO
 70
     0
 40
0.0
 41
1.0
 50
0.0
 71
     0
 42
0.2
  3
seiso.ttf
  4

1001
ACAD
1000
Solid Edge ISO
1071
        0
  0
STYLE
  5
10B
330
3
100
AcDbSymbolTableRecord
100
AcDbTextStyleTableRecord
  2
SEACAD_Solid_Edge_ANSIB
 70
     0
 40
0.0
 41
1.0
 50
0.0
 71
     0
 42
0.2
  3
seansbd.ttf
  4

1001
ACAD
1000
Solid Edge ANSI
1071
 33554432
  0
STYLE
  5
110
330
3
100
AcDbSymbolTableRecord
100
AcDbTextStyleTableRecord
  2
SEACAD_Solid_Edge_ANSI
 70
     0
 40
0.0
 41
1.0
 50
0.0
 71
     0
 42
0.2
  3
seans.ttf
  4

1001
ACAD
1000
Solid Edge ANSI
1071
        0
  0
ENDTAB
  0
TABLE
  2
VIEW
  5
6
330
0
100
AcDbSymbolTable
 70
     0
  0
ENDTAB
  0
TABLE
  2
UCS
  5
7
330
0
100
AcDbSymbolTable
 70
     0
  0
ENDTAB
  0
TABLE
  2
APPID
  5
9
330
0
100
AcDbSymbolTable
 70
     1
  0
APPID
  5
12
330
9
100
AcDbSymbolTableRecord
100
AcDbRegAppTableRecord
  2
ACAD
 70
     0
  0
ENDTAB
  0
TABLE
  2
DIMSTYLE
  5
A
330
0
100
AcDbSymbolTable
 70
     3
100
AcDbDimStyleTable
  0
DIMSTYLE
105
27
330
A
100
AcDbSymbolTableRecord
100
AcDbDimStyleTableRecord
  2
ISO-25
 70
     0
 41
2.5
 42
0.625
 43
3.75
 44
1.25
 73
     0
 74
     0
 77
     1
 78
     8
140
2.5
141
2.5
143
0.0393700787
147
0.625
171
     3
172
     1
178
     0
271
     2
272
     2
274
     3
278
    44
283
     0
284
     8
340
11
  0
DIMSTYLE
105
D8
330
A
100
AcDbSymbolTableRecord
100
AcDbDimStyleTableRecord
  2
Standard
 70
     0
178
     0
340
11
  0
DIMSTYLE
105
EB
102
{ACAD_REACTORS
330
EC
330
F6
330
100
102
}
330
A
100
AcDbSymbolTableRecord
100
AcDbDimStyleTableRecord
  2
DIN
 70
     0
 41
3.5
 42
0.0
 44
1.75
 73
     0
 74
     0
 77
     1
 78
     8
140
3.5
141
1.75
147
1.75
172
     1
173
     1
178
     0
179
     3
271
     3
272
     3
278
    44
284
     8
340
EA
343
E5
344
E5
  0
ENDTAB
  0
TABLE
  2
BLOCK_RECORD
  5
1
330
0
100
AcDbSymbolTable
 70
    14
  0
BLOCK_RECORD
  5
1F
330
1
100
AcDbSymbolTableRecord
100
AcDbBlockTableRecord
  2
*Model_Space
340
22
  0
BLOCK_RECORD
  5
1B
330
1
100
AcDbSymbolTableRecord
100
AcDbBlockTableRecord
  2
*Paper_Space
340
1E
  0
BLOCK_RECORD
  5
40
330
1
100
AcDbSymbolTableRecord
100
AcDbBlockTableRecord
  2
SE
340
0
102
{BLKREFS
331
41
102
}
  0
BLOCK_RECORD
  5
D0
330
1
100
AcDbSymbolTableRecord
100
AcDbBlockTableRecord
  2
SE1
340
0
102
{BLKREFS
331
D1
102
}
  0
BLOCK_RECORD
  5
D9
330
1
100
AcDbSymbolTableRecord
100
AcDbBlockTableRecord
  2
_OBLIQUE
340
0
  0
BLOCK_RECORD
  5
DD
330
1
100
AcDbSymbolTableRecord
100
AcDbBlockTableRecord
  2
_DOT
340
0
  0
BLOCK_RECORD
  5
E5
330
1
100
AcDbSymbolTableRecord
100
AcDbBlockTableRecord
  2
_SE_FILLED
340
0
  0
BLOCK_RECORD
  5
ED
330
1
100
AcDbSymbolTableRecord
100
AcDbBlockTableRecord
  2
DMBLK78
340
0
  0
BLOCK_RECORD
  5
F7
330
1
100
AcDbSymbolTableRecord
100
AcDbBlockTableRecord
  2
DMBLK79
340
0
  0
BLOCK_RECORD
  5
101
330
1
100
AcDbSymbolTableRecord
100
AcDbBlockTableRecord
  2
DMBLK80
340
0
  0
BLOCK_RECORD
  5
10A
330
1
100
AcDbSymbolTableRecord
100
AcDbBlockTableRecord
  2
SEANNOT_GROUP
340
0
102
{BLKREFS
331
11F
102
}
  0
BLOCK_RECORD
  5
10F
330
1
100
AcDbSymbolTableRecord
100
AcDbBlockTableRecord
  2
SEANNOT_GROUP1
340
0
102
{BLKREFS
331
120
102
}
  0
BLOCK_RECORD
  5
114
330
1
100
AcDbSymbolTableRecord
100
AcDbBlockTableRecord
  2
SEANNOT_GROUP2
340
0
102
{BLKREFS
331
122
102
}
  0
BLOCK_RECORD
  5
118
330
1
100
AcDbSymbolTableRecord
100
AcDbBlockTableRecord
  2
SEANNOT_GROUP3
340
0
102
{BLKREFS
331
123
102
}
  0
BLOCK_RECORD
  5
11C
330
1
100
AcDbSymbolTableRecord
100
AcDbBlockTableRecord
  2
RF-Massblatt_2016
340
0
102
{BLKREFS
331
16B
102
}
  0
ENDTAB
  0
ENDSEC
  0
SECTION
  2
BLOCKS
  0
BLOCK
  5
20
330
1F
100
AcDbEntity
  8
0
100
AcDbBlockBegin
  2
*Model_Space
 70
     0
 10
0.0
 20
0.0
 30
0.0
  3
*Model_Space
  1

  0
ENDBLK
  5
21
330
1F
100
AcDbEntity
  8
0
100
AcDbBlockEnd
  0
BLOCK
  5
1C
330
1B
100
AcDbEntity
 67
     1
  8
0
100
AcDbBlockBegin
  2
*Paper_Space
 70
     0
 10
0.0
 20
0.0
 30
0.0
  3
*Paper_Space
  1

  0
ENDBLK
  5
1D
330
1B
100
AcDbEntity
 67
     1
  8
0
100
AcDbBlockEnd
  0
BLOCK
  5
CE
330
40
100
AcDbEntity
  8
0
100
AcDbBlockBegin
  2
SE
 70
     0
 10
0.0
 20
0.0
 30
0.0
  3
SE
  1

  0
HATCH
  5
43
330
40
100
AcDbEntity
  8
DV1_Default
  6
Continuous
 62
     7
100
AcDbHatch
 10
0.0
 20
0.0
 30
0.0
210
0.0
220
0.0
230
1.0
  2
SOLID
 70
     1
 71
     0
 91
        2
 92
        1
 93
        4
 72
     4
 94
        3
 73
     0
 74
     0
 95
       21
 96
       17
 40
0.0
 40
0.0
 40
0.0
 40
0.0
 40
0.1501099020292718
 40
0.1501099020292718
 40
0.1501099020292718
 40
0.3086218779992776
 40
0.3086218779992776
 40
0.465101649149156
 40
0.465101649149156
 40
0.6215814202990344
 40
0.6215814202990344
 40
0.6215814202990344
 40
0.7919031606291307
 40
0.7919031606291307
 40
0.7919031606291307
 40
1.0
 40
1.0
 40
1.0
 40
1.0
 10
79.97385928332224
 20
105.8853720895109
 10
80.40847466793761
 20
105.8853720895109
 10
80.843090052553
 20
105.8853720895109
 10
81.27770543716838
 20
105.8853720895109
 10
81.89309005255299
 20
105.8853720895109
 10
82.34693620639916
 20
106.0353720895109
 10
82.943090052553
 20
106.6315259356647
 10
83.093090052553
 20
107.0315259356647
 10
83.093090052553
 20
108.0238336279724
 10
82.94501312947607
 20
108.4219105510493
 10
82.64693620639915
 20
108.7199874741262
 10
82.34693620639916
 20
109.0199874741263
 10
81.89309005255299
 20
109.1699874741262
 10
81.27770543716838
 20
109.1699874741262
 10
80.67514133460428
 20
109.1699874741262
 10
80.07257723204017
 20
109.1699874741262
 10
79.47001312947607
 20
109.1699874741262
 72
     1
 10
79.47001312947607
 20
109.1699874741262
 11
79.47001312947607
 21
103.4161413202801
 72
     1
 10
79.47001312947607
 20
103.4161413202801
 11
79.97385928332223
 21
103.4161413202801
 72
     1
 10
79.97385928332224
 20
103.4161413202801
 11
79.97385928332224
 21
105.8853720895109
 97
        0
 92
        1
 93
        3
 72
     1
 10
79.97385928332224
 20
108.7507567048955
 11
79.97385928332224
 21
106.3084490125878
 72
     1
 10
79.97385928332224
 20
106.3084490125878
 11
81.22001312947609
 21
106.3084490125878
 72
     4
 94
        3
 73
     0
 74
     0
 95
       31
 96
       27
 40
0.0
 40
0.0
 40
0.0
 40
0.0
 40
0.1009288093765432
 40
0.1009288093765432
 40
0.1009288093765432
 40
0.190299634461232
 40
0.190299634461232
 40
0.190299634461232
 40
0.2778951528860762
 40
0.2778951528860762
 40
0.2778951528860762
 40
0.386083162648146
 40
0.386083162648146
 40
0.4905405513839374
 40
0.4905405513839374
 40
0.4905405513839374
 40
0.578666400598386
 40
0.578666400598386
 40
0.578666400598386
 40
0.6678164918377038
 40
0.6678164918377038
 40
0.6678164918377038
 40
0.7688315071295597
 40
0.7688315071295597
 40
0.7688315071295597
 40
1.0
 40
1.0
 40
1.0
 40
1.0
 10
81.22001312947607
 20
106.3084490125878
 10
81.41232082178377
 20
106.3084490125878
 10
81.593090052553
 20
106.3276797818185
 10
81.75847466793762
 20
106.3738336279724
 10
81.92742754145647
 20
106.4209832670939
 10
82.07001312947608
 20
106.4930643972032
 10
82.1853977448607
 20
106.589218243357
 10
82.30305222153156
 20
106.6872636405827
 10
82.39693620639915
 20
106.8122951664339
 10
82.46232082178378
 20
106.9661413202801
 10
82.5282938640935
 20
107.1213720080677
 10
82.56616697562993
 20
107.3046028587416
 10
82.56616697562993
 20
107.7430643972032
 10
82.53155159101453
 20
107.9276797818186
 10
82.46232082178378
 20
108.0853720895109
 10
82.39512726720866
 20
108.2384240749319
 10
82.30462851409145
 20
108.3661413202801
 10
82.1853977448607
 20
108.4661413202801
 10
82.07031856625066
 20
108.5626593410498
 10
81.92770543716837
 20
108.6353720895109
 10
81.75847466793762
 20
108.6776797818186
 10
81.59195883083353
 20
108.7193087410946
 10
81.41232082178377
 20
108.7469105510493
 10
81.22001312947607
 20
108.7507567048955
 10
80.80479460150265
 20
108.7590610754549
 10
80.38924389870684
 20
108.7507567048955
 10
79.97385928332224
 20
108.7507567048955
 97
        0
 75
     0
 76
     1
 98
        0
  0
HATCH
  5
44
330
40
100
AcDbEntity
  8
DV1_Default
  6
Continuous
 62
     7
100
AcDbHatch
 10
0.0
 20
0.0
 30
0.0
210
0.0
220
0.0
230
1.0
  2
SOLID
 70
     1
 71
     0
 91
        1
 92
        1
 93
        8
 72
     4
 94
        3
 73
     0
 74
     0
 95
       43
 96
       39
 40
0.0
 40
0.0
 40
0.0
 40
0.0
 40
0.0359143278565814
 40
0.0359143278565814
 40
0.0359143278565814
 40
0.0674317090574866
 40
0.0674317090574866
 40
0.0674317090574866
 40
0.0966376199856528
 40
0.0966376199856528
 40
0.0966376199856528
 40
0.1233545672604233
 40
0.1233545672604233
 40
0.2124110581763243
 40
0.2124110581763243
 40
0.3014675490922251
 40
0.3014675490922251
 40
0.3014675490922251
 40
0.3860327015771586
 40
0.3860327015771586
 40
0.3860327015771586
 40
0.4837122963276541
 40
0.4837122963276541
 40
0.5230086850203823
 40
0.5230086850203823
 40
0.5230086850203823
 40
0.5779019353541681
 40
0.5779019353541681
 40
0.632795185687954
 40
0.632795185687954
 40
0.632795185687954
 40
0.701352606262837
 40
0.701352606262837
 40
0.7699100268377206
 40
0.7699100268377206
 40
0.8384674474126036
 40
0.8384674474126036
 40
1.0
 40
1.0
 40
1.0
 40
1.0
 10
87.59693620639915
 20
104.039218243357
 10
87.47385928332223
 20
103.9776797818185
 10
87.35708209499332
 20
103.9309291186886
 10
87.25078236024531
 20
103.8853720895109
 10
87.14309005255299
 20
103.839218243357
 10
87.03989212688315
 20
103.8056400238237
 10
86.9353977448607
 20
103.7815259356647
 10
86.83539774486069
 20
103.7584490125878
 10
86.73117635649297
 20
103.7425953540512
 10
86.63155159101454
 20
103.7315259356647
 10
86.52770543716838
 20
103.7199874741263
 10
86.41616697562992
 20
103.7161413202801
 10
85.91616697562992
 20
103.7161413202801
 10
85.6007823602453
 20
103.7853720895109
 10
85.1007823602453
 20
104.0776797818185
 10
84.90248339337069
 20
104.2710134941066
 10
84.75462851409146
 20
104.5161413202801
 10
84.60847466793761
 20
104.7584490125878
 10
84.5009098852402
 20
105.0346834545384
 10
84.44309005255299
 20
105.3469105510493
 10
84.38539774486068
 20
105.6584490125878
 10
84.35462851409144
 20
105.9815259356647
 10
84.35462851409144
 20
106.4507567048955
 10
84.36998426528211
 20
106.6081170743572
 10
84.38539774486068
 20
106.7853720895109
 10
84.40078236024532
 20
106.9622951664339
 10
84.4353977448607
 20
107.1469105510493
 10
84.53539774486069
 20
107.5238336279724
 10
84.59616697562993
 20
107.7107567048955
 10
84.68924389870685
 20
107.8969105510493
 10
84.78155159101452
 20
108.0815259356647
 10
84.89693620639915
 20
108.2469105510493
 10
85.18924389870685
 20
108.5315259356647
 10
85.36232082178377
 20
108.6469105510493
 10
85.77770543716838
 20
108.8238336279724
 10
86.02001312947607
 20
108.8699874741262
 10
86.96232082178376
 20
108.8699874741262
 10
87.42001312947608
 20
108.5084490125878
 10
87.67385928332222
 20
107.789218243357
 72
     1
 10
87.67385928332222
 20
107.789218243357
 11
88.18155159101453
 21
107.9007567048955
 72
     4
 94
        3
 73
     0
 74
     0
 95
       50
 96
       46
 40
0.0
 40
0.0
 40
0.0
 40
0.0
 40
0.0506230914412393
 40
0.0506230914412393
 40
0.1012461828824782
 40
0.1012461828824782
 40
0.1012461828824782
 40
0.1454933517666889
 40
0.1454933517666889
 40
0.1454933517666889
 40
0.1918579611288763
 40
0.1918579611288763
 40
0.1918579611288763
 40
0.2771890387015382
 40
0.2771890387015382
 40
0.2771890387015382
 40
0.3532953260030363
 40
0.3532953260030363
 40
0.3532953260030363
 40
0.4349617378456158
 40
0.4349617378456158
 40
0.4349617378456158
 40
0.5309795757989991
 40
0.5309795757989991
 40
0.6086287838830398
 40
0.6086287838830398
 40
0.6086287838830398
 40
0.6856816762534119
 40
0.6856816762534119
 40
0.6856816762534119
 40
0.7616029675294637
 40
0.7616029675294637
 40
0.7616029675294637
 40
0.8523867448918402
 40
0.8523867448918402
 40
0.8950628795493668
 40
0.8950628795493668
 40
0.8950628795493668
 40
0.9336829858367226
 40
0.9336829858367226
 40
0.9336829858367226
 40
0.9681885314647507
 40
0.9681885314647507
 40
0.9681885314647507
 40
1.0
 40
1.0
 40
1.0
 40
1.0
 10
88.18155159101454
 20
107.9007567048955
 10
88.09693620639915
 20
108.1546028587416
 10
87.98924389870685
 20
108.3699874741262
 10
87.73539774486069
 20
108.7238336279724
 10
87.5948487951397
 20
108.8726884002415
 10
87.42770543716838
 20
108.9815259356647
 10
87.26232082178376
 20
109.089218243357
 10
87.08419151917975
 20
109.165440931175
 10
86.89309005255299
 20
109.2161413202801
 10
86.70462851409145
 20
109.2661413202801
 10
86.50072895043344
 20
109.2950399128506
 10
86.28539774486069
 20
109.2930643972032
 10
85.86616697562992
 20
109.289218243357
 10
85.50001312947609
 20
109.2138336279724
 10
85.18924389870685
 20
109.0584490125878
 10
84.88155159101454
 20
108.9046028587416
 10
84.62817285510077
 20
108.6898444070023
 10
84.42385928332223
 20
108.4161413202801
 10
84.22001312947607
 20
108.1430643972032
 10
84.0736063650343
 20
107.8151880128871
 10
83.97385928332223
 20
107.439218243357
 10
83.87385928332222
 20
107.0622951664339
 10
83.82770543716839
 20
106.6546028587416
 10
83.82770543716839
 20
105.8546028587416
 10
83.86697333434435
 20
105.5047800804371
 10
83.943090052553
 20
105.1584490125878
 10
84.02001312947607
 20
104.8084490125878
 10
84.15640366202045
 20
104.498093983002
 10
84.33924389870684
 20
104.2238336279724
 10
84.52385928332224
 20
103.9469105510493
 10
84.77165658987323
 20
103.7267553353451
 10
85.07770543716839
 20
103.5546028587416
 10
85.38539774486068
 20
103.3815259356647
 10
85.76616697562991
 20
103.2930643972032
 10
86.42770543716838
 20
103.2930643972032
 10
86.6201260440844
 20
103.311645907436
 10
86.8007823602453
 20
103.3430643972032
 10
86.97770543716837
 20
103.3738336279724
 10
87.1442892987411
 20
103.4127149025998
 10
87.29693620639915
 20
103.4661413202801
 10
87.45078236024531
 20
103.5199874741262
 10
87.58962266548677
 20
103.5816930386558
 10
87.72001312947609
 20
103.639218243357
 10
87.8507823602453
 20
103.6969105510493
 10
87.97770543716837
 20
103.7584490125878
 10
88.10078236024529
 20
103.8199874741262
 72
     1
 10
88.10078236024529
 20
103.8199874741262
 11
88.10078236024529
 21
106.4161413202801
 72
     1
 10
88.10078236024529
 20
106.4161413202801
 11
86.33155159101452
 21
106.4161413202801
 72
     1
 10
86.33155159101452
 20
106.4161413202801
 11
86.33155159101453
 21
105.9930643972032
 72
     1
 10
86.33155159101453
 20
105.9930643972032
 11
87.59693620639915
 21
105.9930643972032
 72
     1
 10
87.59693620639915
 20
105.9930643972032
 11
87.59693620639915
 21
104.039218243357
 97
        0
 75
     0
 76
     1
 98
        0
  0
HATCH
  5
45
330
40
100
AcDbEntity
  8
DV1_Default
  6
Continuous
 62
     7
100
AcDbHatch
 10
0.0
 20
0.0
 30
0.0
210
0.0
220
0.0
230
1.0
  2
SOLID
 70
     1
 71
     0
 91
        2
 92
        1
 93
        4
 72
     1
 10
92.05078236024531
 20
106.639218243357
 11
92.03155159101453
 21
106.6546028587416
 72
     4
 94
        3
 73
     0
 74
     0
 95
       19
 96
       15
 40
0.0
 40
0.0
 40
0.0
 40
0.0
 40
0.1599294828532183
 40
0.1599294828532183
 40
0.1599294828532183
 40
0.3498458039048623
 40
0.3498458039048623
 40
0.3498458039048623
 40
0.5513690956849906
 40
0.5513690956849906
 40
0.752892387465119
 40
0.752892387465119
 40
0.752892387465119
 40
1.0
 40
1.0
 40
1.0
 40
1.0
 10
92.03155159101453
 20
106.6546028587416
 10
92.09693620639915
 20
106.7853720895109
 10
92.18241032867019
 20
106.927100133901
 10
92.28924389870686
 20
107.0853720895109
 10
92.393090052553
 20
107.239218243357
 10
92.50531458477752
 20
107.4002577443965
 10
92.63155159101454
 20
107.5738336279724
 10
92.75462851409145
 20
107.7430643972032
 10
92.88155159101454
 20
107.9122951664339
 10
93.1507823602453
 20
108.2507567048955
 10
93.28237673836227
 20
108.4116181224563
 10
93.41232082178378
 20
108.5699874741263
 10
93.57642338588633
 20
108.7699874741263
 10
93.74052594998889
 20
108.9699874741262
 10
93.90462851409146
 20
109.1699874741262
 72
     1
 10
93.90462851409146
 20
109.1699874741262
 11
93.2584746679376
 21
109.1699874741262
 72
     4
 94
        3
 73
     0
 74
     0
 95
       55
 96
       51
 40
0.0
 40
0.0
 40
0.0
 40
0.0
 40
0.0920108593576586
 40
0.0920108593576586
 40
0.0920108593576586
 40
0.1609327846129482
 40
0.1609327846129482
 40
0.1609327846129482
 40
0.2206759923648537
 40
0.2206759923648537
 40
0.2206759923648537
 40
0.2739138052561302
 40
0.2739138052561302
 40
0.2739138052561302
 40
0.323911606176018
 40
0.323911606176018
 40
0.3762530540140259
 40
0.3762530540140259
 40
0.3762530540140259
 40
0.4297574867340941
 40
0.4297574867340941
 40
0.4832619194541625
 40
0.4832619194541625
 40
0.5367663521742311
 40
0.5367663521742311
 40
0.5876285906859013
 40
0.5876285906859013
 40
0.6384908291975727
 40
0.6384908291975727
 40
0.6384908291975727
 40
0.6863035053286015
 40
0.6863035053286015
 40
0.6863035053286015
 40
0.7373651568931143
 40
0.7373651568931143
 40
0.7861058242956038
 40
0.7861058242956038
 40
0.7861058242956038
 40
0.8323905802414024
 40
0.8323905802414024
 40
0.8323905802414024
 40
0.8784801926099061
 40
0.8784801926099061
 40
0.8784801926099061
 40
0.9261985036780953
 40
0.9261985036780953
 40
0.969643533158088
 40
0.969643533158088
 40
0.969643533158088
 40
1.0
 40
1.0
 40
1.0
 40
1.0
 10
93.2584746679376
 20
109.1699874741262
 10
92.99309005255299
 20
108.8225515766904
 10
92.72842408257101
 20
108.4745643896305
 10
92.46232082178376
 20
108.1276797818186
 10
92.24693620639916
 20
107.8469105510493
 10
92.05282851409147
 20
107.5827720895109
 10
91.88155159101453
 20
107.3353720895109
 10
91.70847466793761
 20
107.0853720895109
 10
91.55770543716838
 20
106.8453720895109
 10
91.43924389870683
 20
106.6084490125878
 10
91.32001312947608
 20
106.3699874741262
 10
91.22414509933188
 20
106.1363808518979
 10
91.15847466793761
 20
105.9046028587416
 10
91.09309005255301
 20
105.6738336279724
 10
91.05847466793762
 20
105.4353720895108
 10
91.05847466793762
 20
104.9315259356647
 10
91.09195221052924
 20
104.6926916558506
 10
91.16616697562992
 20
104.4661413202801
 10
91.23924389870685
 20
104.2430643972032
 10
91.35078236024529
 20
104.0430643972032
 10
91.6507823602453
 20
103.7046028587416
 10
91.84309005255301
 20
103.5699874741262
 10
92.30462851409146
 20
103.3699874741262
 10
92.57770543716838
 20
103.3238336279724
 10
93.1853977448607
 20
103.3238336279724
 10
93.44693620639916
 20
103.3699874741262
 10
93.90847466793761
 20
103.5622951664339
 10
94.10073658599052
 20
103.6968636603493
 10
94.2584746679376
 20
103.8584490125878
 10
94.41616697562992
 20
104.0199874741263
 10
94.52691209710368
 20
104.2140858482943
 10
94.61232082178377
 20
104.4353720895108
 10
94.69693620639916
 20
104.6546028587416
 10
94.7353977448607
 20
104.8930643972032
 10
94.7353977448607
 20
105.389218243357
 10
94.68973326796423
 20
105.6148596388917
 10
94.60847466793761
 20
105.8276797818185
 10
94.52770543716838
 20
106.039218243357
 10
94.41039712868738
 20
106.2257080272034
 10
94.2584746679376
 20
106.3815259356647
 10
94.10847466793761
 20
106.5353720895109
 10
93.92691078610991
 20
106.6604740910916
 10
93.72001312947607
 20
106.7507567048955
 10
93.5084746679376
 20
106.8430643972032
 10
93.27385928332222
 20
106.889218243357
 10
92.78155159101453
 20
106.889218243357
 10
92.59266742576497
 20
106.8634980272922
 10
92.44693620639916
 20
106.8122951664339
 10
92.30462851409146
 20
106.7622951664339
 10
92.17385928332223
 20
106.7046028587416
 10
92.05078236024531
 20
106.639218243357
 97
        0
 92
        1
 93
        2
 72
     4
 94
        3
 73
     0
 74
     0
 95
       30
 96
       26
 40
0.0
 40
0.0
 40
0.0
 40
0.0
 40
0.0683444802491893
 40
0.0683444802491893
 40
0.0683444802491893
 40
0.1655212613438832
 40
0.1655212613438832
 40
0.27031975075973
 40
0.27031975075973
 40
0.3751182401755772
 40
0.3751182401755772
 40
0.4799167295914222
 40
0.4799167295914222
 40
0.4799167295914222
 40
0.5980835059891484
 40
0.5980835059891484
 40
0.6993693143300567
 40
0.6993693143300567
 40
0.8006551226709655
 40
0.8006551226709655
 40
0.8006551226709655
 40
0.8966526015976759
 40
0.8966526015976759
 40
0.8966526015976759
 40
1.0
 40
1.0
 40
1.0
 40
1.0
 10
91.79693620639914
 20
106.1238336279724
 10
91.74309005255299
 20
106.0353720895109
 10
91.69309005255299
 20
105.9276797818186
 10
91.6507823602453
 20
105.7930643972032
 10
91.60957479366627
 20
105.6619494126335
 10
91.58539774486069
 20
105.4969105510493
 10
91.58539774486069
 20
105.089218243357
 10
91.60847466793761
 20
104.889218243357
 10
91.70078236024531
 20
104.5046028587416
 10
91.77770543716838
 20
104.339218243357
 10
91.98539774486069
 20
104.0622951664339
 10
92.12001312947606
 20
103.9507567048955
 10
92.28155159101453
 20
103.8661413202801
 10
92.4461081198949
 20
103.7799450432475
 10
92.64693620639916
 20
103.7430643972032
 10
93.09693620639915
 20
103.7430643972032
 10
93.28539774486069
 20
103.7776797818185
 10
93.60847466793761
 20
103.9161413202801
 10
93.74693620639916
 20
104.0122951664339
 10
93.85847466793761
 20
104.1315259356647
 10
93.97372695172486
 20
104.2547266528166
 10
94.05847466793762
 20
104.3969105510493
 10
94.11616697562991
 20
104.5661413202801
 10
94.17308506910516
 20
104.7331010611408
 10
94.20462851409145
 20
104.9122951664339
 10
94.20462851409145
 20
105.1046028587416
 72
     4
 94
        3
 73
     0
 74
     0
 95
       28
 96
       24
 40
0.0
 40
0.0
 40
0.0
 40
0.0
 40
0.1878669591321831
 40
0.1878669591321831
 40
0.1878669591321831
 40
0.3442543429560377
 40
0.3442543429560377
 40
0.3442543429560377
 40
0.4912444704022041
 40
0.4912444704022041
 40
0.4912444704022041
 40
0.6314554411982877
 40
0.6314554411982877
 40
0.7393100341183507
 40
0.7393100341183507
 40
0.7393100341183507
 40
0.8433740603708401
 40
0.8433740603708401
 40
0.8433740603708401
 40
0.9330057971744607
 40
0.9330057971744607
 40
0.9330057971744607
 40
1.0
 40
1.0
 40
1.0
 40
1.0
 10
94.20462851409145
 20
105.1046028587416
 10
94.20462851409145
 20
105.3353720895109
 10
94.17001312947606
 20
105.5353720895109
 10
94.093090052553
 20
105.7084490125878
 10
94.01965626984087
 20
105.8736750236901
 10
93.92001312947606
 20
106.0161413202801
 10
93.80462851409146
 20
106.1315259356647
 10
93.68924389870683
 20
106.2469105510493
 10
93.55078236024531
 20
106.3276797818185
 10
93.39693620639915
 20
106.3853720895109
 10
93.24772651198398
 20
106.4413257249166
 10
93.09309005255301
 20
106.4699874741262
 10
92.82770543716838
 20
106.4699874741262
 10
92.70847466793761
 20
106.4546028587416
 10
92.59309005255301
 20
106.4315259356647
 10
92.47400721231631
 20
106.4077093676174
 10
92.36232082178377
 20
106.3776797818186
 10
92.26232082178376
 20
106.3430643972032
 10
92.15888621147994
 20
106.3072601090211
 10
92.07001312947608
 20
106.2699874741263
 10
91.98924389870685
 20
106.2315259356647
 10
91.90698170618587
 20
106.1923534630357
 10
91.84309005255301
 20
106.1546028587416
 10
91.79693620639914
 20
106.1238336279724
 97
        0
 75
     0
 76
     1
 98
        0
  0
HATCH
  5
46
330
40
100
AcDbEntity
  8
DV1_Default
  6
Continuous
 62
     7
100
AcDbHatch
 10
0.0
 20
0.0
 30
0.0
210
0.0
220
0.0
230
1.0
  2
SOLID
 70
     1
 71
     0
 91
        2
 92
        1
 93
        6
 72
     4
 94
        3
 73
     0
 74
     0
 95
       38
 96
       34
 40
0.0
 40
0.0
 40
0.0
 40
0.0
 40
0.0422867738467547
 40
0.0422867738467547
 40
0.0845735476935086
 40
0.0845735476935086
 40
0.1268603215402623
 40
0.1268603215402623
 40
0.1268603215402623
 40
0.1689982637780459
 40
0.1689982637780459
 40
0.2326351561371478
 40
0.2326351561371478
 40
0.2326351561371478
 40
0.285746686534435
 40
0.285746686534435
 40
0.285746686534435
 40
0.3402907481105453
 40
0.3402907481105453
 40
0.3402907481105453
 40
0.401016429053545
 40
0.401016429053545
 40
0.401016429053545
 40
0.5520782813739935
 40
0.5520782813739935
 40
0.5520782813739935
 40
0.5664527424657315
 40
0.5664527424657315
 40
0.5664527424657315
 40
0.5814838980031762
 40
0.5814838980031762
 40
0.5814838980031762
 40
1.0
 40
1.0
 40
1.0
 40
1.0
 10
159.918962088509
 20
107.2806500251414
 10
160.1822260240362
 20
107.3236318921662
 10
160.4132535592948
 20
107.414968359594
 10
160.8215812960308
 20
107.6728595617431
 10
160.9935087641302
 20
107.8340415630863
 10
161.2728908997917
 20
108.2101328995538
 10
161.3739061690606
 20
108.4217660495814
 10
161.4501911012692
 20
108.6560697699366
 10
161.5254093685627
 20
108.8870973051951
 10
161.5576457688313
 20
109.134243040588
 10
161.5576457688313
 20
109.795089246095
 10
161.4975973937475
 20
110.1409925274112
 10
161.3642273672195
 20
110.4290717847116
 10
161.2299090327669
 20
110.7191993871293
 10
161.0493182233109
 20
110.9582171848398
 10
160.8162085626527
 20
111.1436453239997
 10
160.5798082940161
 20
111.3316909922334
 10
160.3053738383666
 20
111.4699318779917
 10
159.9888076224244
 20
111.562718527492
 10
159.6771890864942
 20
111.6540549949198
 10
159.3333341502954
 20
111.7024095953227
 10
158.9626155472061
 20
111.7024095953227
 10
158.1011872955831
 20
111.7024095953227
 10
157.2359474145281
 20
111.7595840368021
 10
156.3783307923371
 20
111.7024095953227
 10
156.2977397916655
 20
111.6970368619446
 10
156.219835157683
 20
111.667486828365
 10
156.1580487238347
 20
111.6057003945168
 10
156.0935759232975
 20
111.5412275939795
 10
156.0613395230288
 20
111.460636593308
 10
156.0613395230288
 20
111.3746728592582
 10
156.0613395230288
 20
108.9873883282531
 10
156.0613395230288
 20
106.600103797248
 10
156.0613395230288
 20
104.2128192662428
 72
     1
 10
156.0613395230288
 20
104.2128192662428
 11
157.995523539147
 21
104.2128192662428
 72
     1
 10
157.995523539147
 20
104.2128192662428
 11
157.995523539147
 21
107.0872316235296
 72
     1
 10
157.995523539147
 20
107.0872316235296
 11
159.8491165545936
 21
104.2128192662428
 72
     1
 10
159.8491165545936
 20
104.2128192662428
 11
162.2722193081194
 21
104.2128192662428
 72
     1
 10
162.2722193081195
 20
104.2128192662428
 11
159.918962088509
 21
107.2806500251414
 97
        0
 92
        1
 93
        3
 72
     1
 10
157.995523539147
 20
110.2034169828311
 11
157.995523539147
 21
108.3283330338721
 72
     1
 10
157.995523539147
 20
108.3283330338721
 11
158.1889419407588
 21
108.3283330338721
 72
     4
 94
        3
 73
     0
 74
     0
 95
       29
 96
       25
 40
0.0
 40
0.0
 40
0.0
 40
0.0
 40
0.1206573395253219
 40
0.1206573395253219
 40
0.1206573395253219
 40
0.2363689058369833
 40
0.2363689058369833
 40
0.2363689058369833
 40
0.360519731054316
 40
0.360519731054316
 40
0.4846705562716489
 40
0.4846705562716489
 40
0.6055542545095784
 40
0.6055542545095784
 40
0.6055542545095784
 40
0.7179039257351768
 40
0.7179039257351768
 40
0.8302535969607805
 40
0.8302535969607805
 40
0.8302535969607805
 40
0.9508710001166434
 40
0.9508710001166434
 40
0.9508710001166434
 40
1.0
 40
1.0
 40
1.0
 40
1.0
 10
158.1889419407588
 20
108.3283330338721
 10
158.3447512087239
 20
108.3283330338721
 10
158.5059332100671
 20
108.3390785006283
 10
158.6617424780322
 20
108.3659421675188
 10
158.8218697857561
 20
108.393550324023
 10
158.9626155472061
 20
108.4304149680561
 10
159.0969338816588
 20
108.4948877685934
 10
159.2291562212955
 20
108.558354491619
 10
159.3333341502954
 20
108.6506970365584
 10
159.4945161516386
 20
108.8978427719513
 10
159.5321252852854
 20
109.0643975066726
 10
159.5321252852854
 20
109.4673525100306
 10
159.4945161516386
 20
109.6285345113738
 10
159.413925150967
 20
109.7574801124483
 10
159.335748861926
 20
109.8825621749139
 10
159.2312522161114
 20
109.9723894475726
 10
158.9626155472061
 20
110.1013350486471
 10
158.8229244793754
 20
110.144316915672
 10
158.6617424780322
 20
110.1658078491844
 10
158.5051355116616
 20
110.1866887780338
 10
158.3447512087239
 20
110.2034169828311
 10
158.1889419407588
 20
110.2034169828311
 10
158.1244691402215
 20
110.2034169828311
 10
158.0599963396843
 20
110.2034169828311
 10
157.995523539147
 20
110.2034169828311
 97
        0
 75
     0
 76
     1
 98
        0
  0
HATCH
  5
47
330
40
100
AcDbEntity
  8
DV1_Default
  6
Continuous
 62
     7
100
AcDbHatch
 10
0.0
 20
0.0
 30
0.0
210
0.0
220
0.0
230
1.0
  2
SOLID
 70
     1
 71
     0
 91
        1
 92
        1
 93
       11
 72
     4
 94
        3
 73
     0
 74
     0
 95
       17
 96
       13
 40
0.0
 40
0.0
 40
0.0
 40
0.0
 40
0.3390057638570921
 40
0.3390057638570921
 40
0.3390057638570921
 40
0.3606508725731463
 40
0.3606508725731463
 40
0.3606508725731463
 40
0.3828172131740283
 40
0.3828172131740283
 40
0.3828172131740283
 40
1.0
 40
1.0
 40
1.0
 40
1.0
 10
167.161406682196
 20
111.7024095953227
 10
165.8504597379381
 20
111.7024095953227
 10
164.5344118328076
 20
111.7840249692843
 10
163.2285658494224
 20
111.7024095953227
 10
163.1426021153727
 20
111.6970368619446
 10
163.0646974813901
 20
111.667486828365
 10
163.0029110475419
 20
111.6057003945168
 10
162.9384382470046
 20
111.5412275939795
 10
162.906201846736
 20
111.460636593308
 10
162.906201846736
 20
111.3746728592582
 10
162.906201846736
 20
108.9873883282531
 10
162.906201846736
 20
106.600103797248
 10
162.906201846736
 20
104.2128192662428
 72
     1
 10
162.906201846736
 20
104.2128192662428
 11
167.161406682196
 21
104.2128192662428
 72
     1
 10
167.161406682196
 20
104.2128192662428
 11
167.161406682196
 21
105.8622484133214
 72
     1
 10
167.161406682196
 20
105.8622484133214
 11
164.8403858628542
 21
105.8622484133214
 72
     1
 10
164.8403858628542
 20
105.8622484133214
 11
164.8403858628542
 21
107.1517044240668
 72
     1
 10
164.8403858628542
 20
107.1517044240668
 11
167.0485792812558
 21
107.1517044240668
 72
     1
 10
167.0485792812558
 20
107.1517044240668
 11
167.0485792812558
 21
108.8011335711454
 72
     1
 10
167.0485792812558
 20
108.8011335711454
 11
164.8403858628542
 21
108.8011335711454
 72
     1
 10
164.8403858628542
 20
108.8011335711454
 11
164.8403858628542
 21
110.0529804482441
 72
     1
 10
164.8403858628542
 20
110.0529804482441
 11
167.161406682196
 21
110.0529804482441
 72
     1
 10
167.161406682196
 20
110.0529804482441
 11
167.161406682196
 21
111.7024095953227
 97
        0
 75
     0
 76
     1
 98
        0
  0
HATCH
  5
48
330
40
100
AcDbEntity
  8
DV1_Default
  6
Continuous
 62
     7
100
AcDbHatch
 10
0.0
 20
0.0
 30
0.0
210
0.0
220
0.0
230
1.0
  2
SOLID
 70
     1
 71
     0
 91
        1
 92
        1
 93
        6
 72
     4
 94
        3
 73
     0
 74
     0
 95
       41
 96
       37
 40
0.0
 40
0.0
 40
0.0
 40
0.0
 40
0.0537962719170638
 40
0.0537962719170638
 40
0.0537962719170638
 40
0.104020310052832
 40
0.104020310052832
 40
0.154244348188602
 40
0.154244348188602
 40
0.154244348188602
 40
0.2082677063586862
 40
0.2082677063586862
 40
0.2082677063586862
 40
0.2863421046189741
 40
0.2863421046189741
 40
0.2863421046189741
 40
0.3596163838654527
 40
0.3596163838654527
 40
0.4328906631119286
 40
0.4328906631119286
 40
0.4328906631119286
 40
0.5106114608030257
 40
0.5106114608030257
 40
0.5855060476689908
 40
0.5855060476689908
 40
0.5855060476689908
 40
0.6599124158231987
 40
0.6599124158231987
 40
0.7343187839774048
 40
0.7343187839774048
 40
0.8087251521316083
 40
0.8087251521316083
 40
0.9049402833654948
 40
0.9049402833654948
 40
0.9049402833654948
 40
1.0
 40
1.0
 40
1.0
 40
1.0
 10
173.4743684014707
 20
106.8508313548929
 10
173.4528774679583
 20
106.6251765530124
 10
173.3914443383672
 20
106.4331128328127
 10
173.2970681999932
 20
106.2705761500575
 10
173.2003589991873
 20
106.1040214153361
 10
173.0767861314908
 20
105.9697030808835
 10
172.7759130623169
 20
105.7440482790031
 10
172.5999983794756
 20
105.6584694112412
 10
172.4051944592276
 20
105.6043572111723
 10
172.2117760576158
 20
105.5506298773912
 10
172.007467838539
 20
105.5271988703538
 10
171.7980755875016
 20
105.5237662105007
 10
171.4703388514371
 20
105.5183934771226
 10
171.189689561677
 20
105.5859581336605
 10
170.9438109803828
 20
105.7225573454906
 10
170.702037978368
 20
105.8568756799433
 10
170.4978741099999
 20
106.0395486147989
 10
170.1647646405574
 20
106.4801127518036
 10
170.0427263022402
 20
106.7331126415563
 10
169.9552280388112
 20
107.0120133562361
 10
169.8692643047615
 20
107.2860227585195
 10
169.8209097043586
 20
107.5761503609372
 10
169.8209097043586
 20
108.1564055657727
 10
169.8688658654042
 20
108.4343798823717
 10
169.9498553054331
 20
108.7205425704738
 10
170.0304463061047
 20
109.0052974395135
 10
170.1540191738011
 20
109.2578159082844
 10
170.4763831764875
 20
109.7091255120454
 10
170.6805470448555
 20
109.891798446901
 10
171.1640930488851
 20
110.1711805825625
 10
171.4488479179247
 20
110.2410261164779
 10
172.1634214572128
 20
110.2410261164779
 10
172.4970835156528
 20
110.1288995601197
 10
172.7705403289388
 20
109.9132893804134
 10
173.0499224646003
 20
109.693007311911
 10
173.2487135995903
 20
109.4028797094933
 10
173.388404667421
 20
109.0429065731602
 72
     1
 10
173.388404667421
 20
109.0429065731602
 11
175.2366249494895
 21
109.8219529129856
 72
     4
 94
        3
 73
     0
 74
     0
 95
       50
 96
       46
 40
0.0
 40
0.0
 40
0.0
 40
0.0
 40
0.0895167604581475
 40
0.0895167604581475
 40
0.0895167604581475
 40
0.1779016290808152
 40
0.1779016290808152
 40
0.2466454157873363
 40
0.2466454157873363
 40
0.3153892024938578
 40
0.3153892024938578
 40
0.3153892024938578
 40
0.3800405603072683
 40
0.3800405603072683
 40
0.3800405603072683
 40
0.4519554685594085
 40
0.4519554685594085
 40
0.5213247163424473
 40
0.5213247163424473
 40
0.5213247163424473
 40
0.5850490499799628
 40
0.5850490499799628
 40
0.5850490499799628
 40
0.6486193787411734
 40
0.6486193787411734
 40
0.6486193787411734
 40
0.7184148765851204
 40
0.7184148765851204
 40
0.7939733054437046
 40
0.7939733054437046
 40
0.8695317343022889
 40
0.8695317343022889
 40
0.8695317343022889
 40
0.9012299730939984
 40
0.9012299730939984
 40
0.9012299730939984
 40
0.9305294050867767
 40
0.9305294050867767
 40
0.9305294050867767
 40
0.9604962829485887
 40
0.9604962829485887
 40
0.9904631608104008
 40
0.9904631608104008
 40
0.9904631608104008
 40
1.0
 40
1.0
 40
1.0
 40
1.0
 10
175.2366249494895
 20
109.8219529129856
 10
174.9142609468032
 20
110.5311537188956
 10
174.4653077093563
 20
111.0616579581049
 10
173.8826961382068
 20
111.4069092595269
 10
173.3024409333713
 20
111.7507641957257
 10
172.6254765277299
 20
111.9280643972032
 10
171.2500567829348
 20
111.9280643972032
 10
170.702037978368
 20
111.8313551963973
 10
169.7027095700402
 20
111.4445183931736
 10
169.2702045331027
 20
111.1785680909574
 10
168.9129177634586
 20
110.8212813213133
 10
168.5583173605037
 20
110.4666809183583
 10
168.2778266427514
 20
110.0447438777984
 10
168.0855168232303
 20
109.5479435107022
 10
167.8920984216184
 20
109.0482793065383
 10
167.7953892208126
 20
108.4948877685934
 10
167.7953892208126
 20
107.3021409586538
 10
167.8893625032951
 20
106.7583824811139
 10
168.0855168232303
 20
106.2759488834356
 10
168.2843079582202
 20
105.7870301460279
 10
168.5583173605036
 20
105.3733296759137
 10
168.9075450300805
 20
105.0241020063368
 10
169.2567726996574
 20
104.6748743367599
 10
169.6769556808639
 20
104.4090737664575
 10
170.1647646405574
 20
104.2181919996209
 10
170.6590561113431
 20
104.0247735980091
 10
171.1963294491537
 20
103.9280643972032
 10
172.4159399259838
 20
103.9280643972032
 10
172.9961951308193
 20
104.0462645315215
 10
174.0599963396843
 20
104.5083196020386
 10
174.5073307172424
 20
104.8834224578211
 10
174.8766518131564
 20
105.4055660761824
 10
175.0324610811215
 20
105.6258481446847
 10
175.1553997069448
 20
105.8390238853559
 10
175.2366249494895
 20
106.0610395483113
 10
175.3172159501611
 20
106.2813216168137
 10
175.3869162750663
 20
106.5007324312547
 10
175.4246706177233
 20
106.7272584871965
 10
175.46227975137
 20
106.9529132890769
 10
175.4891434182605
 20
107.1839408243355
 10
175.5106343517729
 20
107.6459958948526
 10
175.5267525519072
 20
107.8877688968674
 10
175.5267525519072
 20
108.1402873656384
 10
175.5267525519072
 20
108.2155056329319
 10
175.5267525519072
 20
108.2907239002253
 10
175.5267525519072
 20
108.3659421675188
 72
     1
 10
175.5267525519072
 20
108.3659421675188
 11
171.7712119206111
 21
108.3659421675188
 72
     1
 10
171.7712119206111
 20
108.3659421675188
 11
171.7712119206111
 21
106.8508313548929
 72
     1
 10
171.7712119206111
 20
106.8508313548929
 11
173.4743684014707
 21
106.8508313548929
 97
        0
 75
     0
 76
     1
 98
        0
  0
HATCH
  5
49
330
40
100
AcDbEntity
  8
DV1_Default
  6
Continuous
 62
     7
100
AcDbHatch
 10
0.0
 20
0.0
 30
0.0
210
0.0
220
0.0
230
1.0
  2
SOLID
 70
     1
 71
     0
 91
        2
 92
        1
 93
        1
 72
     4
 94
        3
 73
     0
 74
     0
 95
       45
 96
       41
 40
0.0
 40
0.0
 40
0.0
 40
0.0
 40
0.0611647677611484
 40
0.0611647677611484
 40
0.122329535522297
 40
0.122329535522297
 40
0.122329535522297
 40
0.1822988385052075
 40
0.1822988385052075
 40
0.1822988385052075
 40
0.2441402710472845
 40
0.2441402710472845
 40
0.311282397807254
 40
0.311282397807254
 40
0.311282397807254
 40
0.3750468040720967
 40
0.3750468040720967
 40
0.437887088507014
 40
0.437887088507014
 40
0.5007273729419306
 40
0.5007273729419306
 40
0.5641337860654513
 40
0.5641337860654513
 40
0.6275401991889706
 40
0.6275401991889706
 40
0.6275401991889706
 40
0.6889427212836605
 40
0.6889427212836605
 40
0.6889427212836605
 40
0.7560480535048153
 40
0.7560480535048153
 40
0.8178555963400893
 40
0.8178555963400893
 40
0.8178555963400893
 40
0.8778385406715425
 40
0.8778385406715425
 40
0.8778385406715425
 40
0.9389192703357708
 40
0.9389192703357708
 40
1.0
 40
1.0
 40
1.0
 40
1.0
 10
180.4105671926057
 20
111.9656735308499
 10
179.8732938547951
 20
111.9656735308499
 10
179.3521387171188
 20
111.868964330044
 10
178.3528103087911
 20
111.4928729935766
 10
177.9146175851395
 20
111.2269412180272
 10
177.5307821019408
 20
110.8857541218506
 10
177.1439452987172
 20
110.5418991856518
 10
176.8441559613359
 20
110.1357893186309
 10
176.6120446942847
 20
109.6607709116424
 10
176.3810171590261
 20
109.1879703743691
 10
176.2681897580859
 20
108.6721879700709
 10
176.2681897580859
 20
107.4955593602656
 10
176.3748897343058
 20
106.9440346903778
 10
176.579808294016
 20
106.4371308847787
 10
176.7839721623841
 20
105.9320939472368
 10
177.0687270314237
 20
105.4969025436102
 10
177.8047915042242
 20
104.7608380708096
 10
178.2453556412289
 20
104.47608320177
 10
179.2554295163129
 20
104.0677554650339
 10
179.8141937876359
 20
103.9656735308499
 10
181.0123133309536
 20
103.9656735308499
 10
181.5710776022766
 20
104.0677554650339
 10
182.5811514773606
 20
104.47608320177
 10
183.0190289614358
 20
104.7581909190632
 10
183.3816887506984
 20
105.1261839405208
 10
183.7470346204096
 20
105.4969025436102
 10
184.0364075314851
 20
105.9302270791797
 10
184.2413260911954
 20
106.4371308847787
 10
184.4454899595634
 20
106.9421678223207
 10
184.5475718937474
 20
107.4955593602656
 10
184.5475718937474
 20
108.6721879700709
 10
184.4282766870813
 20
109.1849181514422
 10
184.2037169575486
 20
109.6607709116424
 10
183.9780621556681
 20
110.1389441822938
 10
183.6694078255998
 20
110.5392272254384
 10
183.2849795498925
 20
110.8857541218506
 10
182.9035154800469
 20
111.2296090580494
 10
182.4629513430422
 20
111.4928729935766
 10
181.4743684014707
 20
111.868964330044
 10
180.9532132637944
 20
111.9656735308499
 10
180.4105671926057
 20
111.9656735308499
 97
        0
 92
        1
 93
        1
 72
     4
 94
        3
 73
     0
 74
     0
 95
       49
 96
       45
 40
0.0
 40
0.0
 40
0.0
 40
0.0
 40
0.0640458091489389
 40
0.0640458091489389
 40
0.0640458091489389
 40
0.126036694959619
 40
0.126036694959619
 40
0.126036694959619
 40
0.1893982429950876
 40
0.1893982429950876
 40
0.1893982429950876
 40
0.261056840680254
 40
0.261056840680254
 40
0.3162692028311204
 40
0.3162692028311204
 40
0.3162692028311204
 40
0.3755827546208228
 40
0.3755827546208228
 40
0.3755827546208228
 40
0.4360709593824268
 40
0.4360709593824268
 40
0.4360709593824268
 40
0.5004692921099966
 40
0.5004692921099966
 40
0.5636967460607004
 40
0.5636967460607004
 40
0.5636967460607004
 40
0.6242238586223252
 40
0.6242238586223252
 40
0.6242238586223252
 40
0.6808086566719731
 40
0.6808086566719731
 40
0.7373934547216212
 40
0.7373934547216212
 40
0.8108332989988241
 40
0.8108332989988241
 40
0.8108332989988241
 40
0.8744193566737818
 40
0.8744193566737818
 40
0.8744193566737818
 40
0.9363384967470847
 40
0.9363384967470847
 40
0.9363384967470847
 40
1.0
 40
1.0
 40
1.0
 40
1.0
 10
180.4105671926057
 20
105.8622484133214
 10
180.7060675284015
 20
105.8622484133214
 10
180.980076930685
 20
105.9159757471024
 10
181.2379681328341
 20
106.0288031480427
 10
181.4913497620494
 20
106.1396576108244
 10
181.7161414034855
 20
106.297439816948
 10
181.9041870717192
 20
106.501603685316
 10
182.0920213735218
 20
106.7055380701302
 10
182.248042007918
 20
106.9314223555645
 10
182.3554966754801
 20
107.2054317578479
 10
182.4618413481424
 20
107.4766106731367
 10
182.5220514102014
 20
107.7749414959272
 10
182.5220514102014
 20
108.3551967007626
 10
182.4683240764203
 20
108.6023424361555
 10
182.3554966754801
 20
108.8441154381703
 10
182.2436300918228
 20
109.0838295460073
 10
182.097605473331
 20
109.3007977753093
 10
181.9041870717192
 20
109.4834707101649
 10
181.713608418255
 20
109.6634616606588
 10
181.4904866016051
 20
109.8165801796075
 10
181.2379681328341
 20
109.9240348471696
 10
180.9809006537019
 20
110.0334252638216
 10
180.7060675284015
 20
110.0905895818909
 10
180.120439590188
 20
110.0905895818909
 10
179.8464301879046
 20
110.0314895147317
 10
179.5885389857555
 20
109.9240348471696
 10
179.3352257339404
 20
109.8184876589133
 10
179.110365715104
 20
109.6661436450205
 10
178.9223200468703
 20
109.4834707101649
 10
178.7315101625979
 20
109.2981125368717
 10
178.5784651106715
 20
109.085888440185
 10
178.3528103087911
 20
108.6023424361555
 10
178.2937102416319
 20
108.3551967007626
 10
178.2937102416319
 20
107.7749414959272
 10
178.3528103087911
 20
107.4740684267532
 10
178.4656377097313
 20
107.2054317578479
 10
178.5803832915784
 20
106.9322279915454
 10
178.7289016452585
 20
106.7003948203059
 10
178.9223200468703
 20
106.501603685316
 10
179.1158110257435
 20
106.3027379570296
 10
179.3360205169845
 20
106.1416305489829
 10
179.5885389857555
 20
106.0288031480427
 10
179.8455360839726
 20
105.9139746573499
 10
180.120439590188
 20
105.8622484133214
 10
180.4105671926057
 20
105.8622484133214
 97
        0
 75
     0
 76
     1
 98
        0
  0
HATCH
  5
4A
330
40
100
AcDbEntity
  8
DV1_Default
  6
Continuous
 62
     7
100
AcDbHatch
 10
0.0
 20
0.0
 30
0.0
210
0.0
220
0.0
230
1.0
  2
SOLID
 70
     1
 71
     0
 91
        1
 92
        1
 93
        4
 72
     1
 10
187.9431393887104
 20
108.8011335711454
 11
185.5146639018065
 21
108.8011335711454
 72
     1
 10
185.5146639018065
 20
108.8011335711454
 11
185.5146639018065
 21
107.1517044240668
 72
     1
 10
185.5146639018065
 20
107.1517044240668
 11
187.9431393887105
 21
107.1517044240668
 72
     1
 10
187.9431393887104
 20
107.1517044240668
 11
187.9431393887104
 21
108.8011335711454
 97
        0
 75
     0
 76
     1
 98
        0
  0
HATCH
  5
4B
330
40
100
AcDbEntity
  8
DV1_Default
  6
Continuous
 62
     7
100
AcDbHatch
 10
0.0
 20
0.0
 30
0.0
210
0.0
220
0.0
230
1.0
  2
SOLID
 70
     1
 71
     0
 91
        1
 92
        1
 93
        9
 72
     1
 10
192.9397814303491
 20
108.8011335711454
 11
190.7262152785694
 21
108.8011335711454
 72
     1
 10
190.7262152785694
 20
108.8011335711454
 11
190.7262152785694
 21
110.0529804482441
 72
     1
 10
190.7262152785694
 20
110.0529804482441
 11
193.0526088312894
 21
110.0529804482441
 72
     1
 10
193.0526088312894
 20
110.0529804482441
 11
193.0526088312894
 21
111.7024095953227
 72
     4
 94
        3
 73
     0
 74
     0
 95
       17
 96
       13
 40
0.0
 40
0.0
 40
0.0
 40
0.0
 40
0.3397643196275857
 40
0.3397643196275857
 40
0.3397643196275857
 40
0.3618169596541148
 40
0.3618169596541148
 40
0.3618169596541148
 40
0.3839428718219259
 40
0.3839428718219259
 40
0.3839428718219259
 40
1.0
 40
1.0
 40
1.0
 40
1.0
 10
193.0526088312894
 20
111.7024095953227
 10
191.7362891536534
 20
111.7024095953227
 10
190.4154304426463
 20
111.7795731626324
 10
189.1036497983814
 20
111.7024095953227
 10
189.0123133309536
 20
111.6970368619446
 10
188.934408696971
 20
111.667486828365
 10
188.8726222631228
 20
111.6057003945168
 10
188.8081494625856
 20
111.5412275939795
 10
188.7759130623169
 20
111.460636593308
 10
188.7759130623169
 20
111.3746728592582
 10
188.7759130623169
 20
108.9873883282531
 10
188.7759130623169
 20
106.600103797248
 10
188.7759130623169
 20
104.2128192662428
 72
     1
 10
188.7759130623169
 20
104.2128192662428
 11
190.7262152785694
 21
104.2128192662428
 72
     1
 10
190.7262152785694
 20
104.2128192662428
 11
190.7262152785694
 21
107.1517044240668
 72
     1
 10
190.7262152785694
 20
107.1517044240668
 11
192.9397814303491
 21
107.1517044240668
 72
     1
 10
192.9397814303491
 20
107.1517044240668
 11
192.9397814303491
 21
108.8011335711454
 97
        0
 75
     0
 76
     1
 98
        0
  0
HATCH
  5
4C
330
40
100
AcDbEntity
  8
DV1_Default
  6
Continuous
 62
     7
100
AcDbHatch
 10
0.0
 20
0.0
 30
0.0
210
0.0
220
0.0
230
1.0
  2
SOLID
 70
     1
 71
     0
 91
        1
 92
        1
 93
        4
 72
     1
 10
194.0626827063733
 20
111.3907910593926
 11
194.0626827063733
 21
104.2128192662428
 72
     1
 10
194.0626827063733
 20
104.2128192662428
 11
195.9968667224915
 21
104.2128192662428
 72
     1
 10
195.9968667224915
 20
104.2128192662428
 11
195.9968667224915
 21
111.718527795457
 72
     4
 94
        3
 73
     0
 74
     0
 95
       13
 96
        9
 40
0.0
 40
0.0
 40
0.0
 40
0.0
 40
0.7572050391694479
 40
0.7572050391694479
 40
0.7572050391694479
 40
0.878602519584737
 40
0.878602519584737
 40
1.0
 40
1.0
 40
1.0
 40
1.0
 10
195.9968667224915
 20
111.718527795457
 10
195.4613842958069
 20
111.718527795457
 10
194.9259018691224
 20
111.718527795457
 10
194.3904194424378
 20
111.718527795457
 10
194.29908297501
 20
111.718527795457
 10
194.2238647077165
 20
111.6862913951884
 10
194.094919106642
 20
111.5573457941139
 10
194.0626827063733
 20
111.4821275268204
 10
194.0626827063733
 20
111.3907910593926
 97
        0
 75
     0
 76
     1
 98
        0
  0
HATCH
  5
4D
330
40
100
AcDbEntity
  8
DV1_Default
  6
Continuous
 62
     7
100
AcDbHatch
 10
0.0
 20
0.0
 30
0.0
210
0.0
220
0.0
230
1.0
  2
SOLID
 70
     1
 71
     0
 91
        1
 92
        1
 93
       12
 72
     1
 10
201.7295732369307
 20
108.2155056329319
 11
204.1311850569442
 21
111.7024095953227
 72
     1
 10
204.1311850569442
 20
111.7024095953227
 11
201.7295732369307
 21
111.7024095953227
 72
     1
 10
201.7295732369307
 20
111.7024095953227
 11
200.5905537607723
 21
109.7628528458264
 72
     1
 10
200.5905537607723
 20
109.7628528458264
 11
199.4407888178575
 21
111.7024095953227
 72
     1
 10
199.4407888178575
 20
111.7024095953227
 11
197.0499224646003
 21
111.7024095953227
 72
     1
 10
197.0499224646003
 20
111.7024095953227
 11
199.4407888178576
 21
108.2155056329319
 72
     1
 10
199.4407888178576
 20
108.2155056329319
 11
196.5072763934116
 21
104.2128192662428
 72
     1
 10
196.5072763934116
 20
104.2128192662428
 11
198.8659063464002
 21
104.2128192662428
 72
     1
 10
198.8659063464002
 20
104.2128192662428
 11
200.5905537607723
 21
106.652040219903
 72
     1
 10
200.5905537607723
 20
106.652040219903
 11
201.7618096371994
 21
104.8091926712126
 72
     1
 10
201.7618096371994
 20
104.8091926712126
 11
202.9330655136265
 21
106.4801127518036
 72
     1
 10
202.9330655136265
 20
106.4801127518036
 11
201.7295732369307
 21
108.2155056329318
 97
        0
 75
     0
 76
     1
 98
        0
  0
HATCH
  5
4E
330
40
100
AcDbEntity
  8
DV1_Default
  6
Continuous
 62
     7
100
AcDbHatch
 10
0.0
 20
0.0
 30
0.0
210
0.0
220
0.0
230
1.0
  2
SOLID
 70
     1
 71
     0
 91
        1
 92
        1
 93
        4
 72
     4
 94
        3
 73
     0
 74
     0
 95
       16
 96
       12
 40
0.0
 40
0.0
 40
0.0
 40
0.0
 40
0.5188184827977154
 40
0.5188184827977154
 40
0.5188184827977154
 40
0.5446417937784231
 40
0.5446417937784231
 40
0.5579986787684448
 40
0.5579986787684448
 40
0.5579986787684448
 40
1.0
 40
1.0
 40
1.0
 40
1.0
 10
202.7289016452585
 20
104.2128192662428
 10
205.9847780723908
 20
104.2128192662428
 10
209.2406544995231
 20
104.2128192662428
 10
212.4965309266554
 20
104.2128192662428
 10
212.7221857285359
 20
104.2128192662428
 10
212.8350131294761
 20
104.2934102669144
 10
212.8350131294761
 20
104.5298105355511
 10
212.8030106597956
 20
104.6121535649494
 10
212.7436766620483
 20
104.6963652702724
 10
211.1461839376248
 20
106.9636587558331
 10
209.5486912132012
 20
109.2309522413939
 10
207.9511984887776
 20
111.4982457269547
 72
     4
 94
        3
 73
     0
 74
     0
 95
       14
 96
       10
 40
0.0
 40
0.0
 40
0.0
 40
0.0
 40
0.0459976109390595
 40
0.0459976109390595
 40
0.0459976109390595
 40
0.090887147027833
 40
0.090887147027833
 40
0.090887147027833
 40
1.0
 40
1.0
 40
1.0
 40
1.0
 10
207.9511984887776
 20
111.4982457269547
 10
207.8491165545936
 20
111.6325640614073
 10
207.7304958708575
 20
111.707550597389
 10
207.6019708192007
 20
111.7024095953227
 10
207.4676524847481
 20
111.6970368619446
 10
207.3570314792662
 20
111.6310094762976
 10
207.26348861638
 20
111.4982457269547
 10
205.6659958919565
 20
109.2309522413939
 10
204.068503167533
 20
106.9636587558331
 10
202.4710104431094
 20
104.6963652702724
 72
     4
 94
        3
 73
     0
 74
     0
 95
        8
 96
        4
 40
0.0
 40
0.0
 40
0.0
 40
0.0
 40
1.0
 40
1.0
 40
1.0
 40
1.0
 10
202.4710104431094
 20
104.6963652702724
 10
202.4119103759502
 20
104.5996560694664
 10
202.3850467090597
 20
104.5190650687949
 10
202.3796739756816
 20
104.4599650016357
 72
     4
 94
        3
 73
     0
 74
     0
 95
        8
 96
        4
 40
0.0
 40
0.0
 40
0.0
 40
0.0
 40
1.0
 40
1.0
 40
1.0
 40
1.0
 10
202.3796739756816
 20
104.4599650016357
 10
202.3850467090597
 20
104.2934102669144
 10
202.4978741099999
 20
104.2128192662428
 10
202.7289016452585
 20
104.2128192662428
 97
        0
 75
     0
 76
     1
 98
        0
  0
LINE
  5
50
330
40
100
AcDbEntity
  8
0015020
  6
Continuous
 62
     7
100
AcDbLine
 10
221.4700131295
 20
149.2930643972
 30
0.0
 11
71.4700131295
 21
149.2930643972
 31
0.0
  0
LINE
  5
51
330
40
100
AcDbEntity
  8
0015020
  6
Continuous
 62
     7
100
AcDbLine
 10
221.4700131295
 20
99.2930643972
 30
0.0
 11
221.4700131295
 21
149.2930643972
 31
0.0
  0
LINE
  5
52
330
40
100
AcDbEntity
  8
0015020
  6
Continuous
 62
     7
100
AcDbLine
 10
71.4700131295
 20
99.2930643972
 30
0.0
 11
221.4700131295
 21
99.2930643972
 31
0.0
  0
LINE
  5
53
330
40
100
AcDbEntity
  8
0015020
  6
Continuous
 62
     7
100
AcDbLine
 10
71.4700131295
 20
149.2930643972
 30
0.0
 11
71.4700131295
 21
99.2930643972
 31
0.0
  0
CIRCLE
  5
54
330
40
100
AcDbEntity
  8
0015020
  6
Continuous
 62
     7
100
AcDbCircle
 10
83.4700131295
 20
136.2930643972
 30
0.0
 40
3.75
  0
CIRCLE
  5
55
330
40
100
AcDbEntity
  8
0015020
  6
Continuous
 62
     7
100
AcDbCircle
 10
83.4700131295
 20
136.2930643972
 30
0.0
 40
2.5
  0
CIRCLE
  5
56
330
40
100
AcDbEntity
  8
0015020
  6
Continuous
 62
     7
100
AcDbCircle
 10
83.4700131295
 20
121.2930643972
 30
0.0
 40
3.75
  0
CIRCLE
  5
57
330
40
100
AcDbEntity
  8
0015020
  6
Continuous
 62
     7
100
AcDbCircle
 10
83.4700131295
 20
121.2930643972
 30
0.0
 40
2.5
  0
CIRCLE
  5
58
330
40
100
AcDbEntity
  8
0015020
  6
Continuous
 62
     7
100
AcDbCircle
 10
97.4700131295
 20
136.2930643972
 30
0.0
 40
3.75
  0
CIRCLE
  5
59
330
40
100
AcDbEntity
  8
0015020
  6
Continuous
 62
     7
100
AcDbCircle
 10
97.4700131295
 20
136.2930643972
 30
0.0
 40
2.5
  0
CIRCLE
  5
5A
330
40
100
AcDbEntity
  8
0015020
  6
Continuous
 62
     7
100
AcDbCircle
 10
97.4700131295
 20
121.2930643972
 30
0.0
 40
3.75
  0
CIRCLE
  5
5B
330
40
100
AcDbEntity
  8
0015020
  6
Continuous
 62
     7
100
AcDbCircle
 10
97.4700131295
 20
121.2930643972
 30
0.0
 40
2.5
  0
CIRCLE
  5
5C
330
40
100
AcDbEntity
  8
0015020
  6
Continuous
 62
     7
100
AcDbCircle
 10
111.4700131295
 20
136.2930643972
 30
0.0
 40
3.75
  0
CIRCLE
  5
5D
330
40
100
AcDbEntity
  8
0015020
  6
Continuous
 62
     7
100
AcDbCircle
 10
111.4700131295
 20
136.2930643972
 30
0.0
 40
2.5
  0
CIRCLE
  5
5E
330
40
100
AcDbEntity
  8
0015020
  6
Continuous
 62
     7
100
AcDbCircle
 10
111.4700131295
 20
121.2930643972
 30
0.0
 40
3.75
  0
CIRCLE
  5
5F
330
40
100
AcDbEntity
  8
0015020
  6
Continuous
 62
     7
100
AcDbCircle
 10
111.4700131295
 20
121.2930643972
 30
0.0
 40
2.5
  0
CIRCLE
  5
60
330
40
100
AcDbEntity
  8
0015020
  6
Continuous
 62
     7
100
AcDbCircle
 10
125.4700131295
 20
136.2930643972
 30
0.0
 40
3.75
  0
CIRCLE
  5
61
330
40
100
AcDbEntity
  8
0015020
  6
Continuous
 62
     7
100
AcDbCircle
 10
125.4700131295
 20
136.2930643972
 30
0.0
 40
2.5
  0
CIRCLE
  5
62
330
40
100
AcDbEntity
  8
0015020
  6
Continuous
 62
     7
100
AcDbCircle
 10
125.4700131295
 20
121.2930643972
 30
0.0
 40
3.75
  0
CIRCLE
  5
63
330
40
100
AcDbEntity
  8
0015020
  6
Continuous
 62
     7
100
AcDbCircle
 10
125.4700131295
 20
121.2930643972
 30
0.0
 40
2.5
  0
CIRCLE
  5
64
330
40
100
AcDbEntity
  8
0015020
  6
Continuous
 62
     7
100
AcDbCircle
 10
139.4700131295
 20
136.2930643972
 30
0.0
 40
3.75
  0
CIRCLE
  5
65
330
40
100
AcDbEntity
  8
0015020
  6
Continuous
 62
     7
100
AcDbCircle
 10
139.4700131295
 20
136.2930643972
 30
0.0
 40
2.5
  0
CIRCLE
  5
66
330
40
100
AcDbEntity
  8
0015020
  6
Continuous
 62
     7
100
AcDbCircle
 10
139.4700131295
 20
121.2930643972
 30
0.0
 40
3.75
  0
CIRCLE
  5
67
330
40
100
AcDbEntity
  8
0015020
  6
Continuous
 62
     7
100
AcDbCircle
 10
139.4700131295
 20
121.2930643972
 30
0.0
 40
2.5
  0
CIRCLE
  5
68
330
40
100
AcDbEntity
  8
0015020
  6
Continuous
 62
     7
100
AcDbCircle
 10
153.4700131295
 20
136.2930643972
 30
0.0
 40
3.75
  0
CIRCLE
  5
69
330
40
100
AcDbEntity
  8
0015020
  6
Continuous
 62
     7
100
AcDbCircle
 10
153.4700131295
 20
136.2930643972
 30
0.0
 40
2.5
  0
CIRCLE
  5
6A
330
40
100
AcDbEntity
  8
0015020
  6
Continuous
 62
     7
100
AcDbCircle
 10
153.4700131295
 20
121.2930643972
 30
0.0
 40
3.75
  0
CIRCLE
  5
6B
330
40
100
AcDbEntity
  8
0015020
  6
Continuous
 62
     7
100
AcDbCircle
 10
153.4700131295
 20
121.2930643972
 30
0.0
 40
2.5
  0
CIRCLE
  5
6C
330
40
100
AcDbEntity
  8
0015020
  6
Continuous
 62
     7
100
AcDbCircle
 10
167.4700131295
 20
136.2930643972
 30
0.0
 40
3.75
  0
CIRCLE
  5
6D
330
40
100
AcDbEntity
  8
0015020
  6
Continuous
 62
     7
100
AcDbCircle
 10
167.4700131295
 20
136.2930643972
 30
0.0
 40
2.5
  0
CIRCLE
  5
6E
330
40
100
AcDbEntity
  8
0015020
  6
Continuous
 62
     7
100
AcDbCircle
 10
167.4700131295
 20
121.2930643972
 30
0.0
 40
3.75
  0
CIRCLE
  5
6F
330
40
100
AcDbEntity
  8
0015020
  6
Continuous
 62
     7
100
AcDbCircle
 10
167.4700131295
 20
121.2930643972
 30
0.0
 40
2.5
  0
CIRCLE
  5
70
330
40
100
AcDbEntity
  8
0015020
  6
Continuous
 62
     7
100
AcDbCircle
 10
181.4700131295
 20
136.2930643972
 30
0.0
 40
3.75
  0
CIRCLE
  5
71
330
40
100
AcDbEntity
  8
0015020
  6
Continuous
 62
     7
100
AcDbCircle
 10
181.4700131295
 20
136.2930643972
 30
0.0
 40
2.5
  0
CIRCLE
  5
72
330
40
100
AcDbEntity
  8
0015020
  6
Continuous
 62
     7
100
AcDbCircle
 10
181.4700131295
 20
121.2930643972
 30
0.0
 40
3.75
  0
CIRCLE
  5
73
330
40
100
AcDbEntity
  8
0015020
  6
Continuous
 62
     7
100
AcDbCircle
 10
181.4700131295
 20
121.2930643972
 30
0.0
 40
2.5
  0
CIRCLE
  5
74
330
40
100
AcDbEntity
  8
0015020
  6
Continuous
 62
     7
100
AcDbCircle
 10
195.4700131295
 20
136.2930643972
 30
0.0
 40
3.75
  0
CIRCLE
  5
75
330
40
100
AcDbEntity
  8
0015020
  6
Continuous
 62
     7
100
AcDbCircle
 10
195.4700131295
 20
136.2930643972
 30
0.0
 40
2.5
  0
CIRCLE
  5
76
330
40
100
AcDbEntity
  8
0015020
  6
Continuous
 62
     7
100
AcDbCircle
 10
195.4700131295
 20
121.2930643972
 30
0.0
 40
3.75
  0
CIRCLE
  5
77
330
40
100
AcDbEntity
  8
0015020
  6
Continuous
 62
     7
100
AcDbCircle
 10
195.4700131295
 20
121.2930643972
 30
0.0
 40
2.5
  0
CIRCLE
  5
78
330
40
100
AcDbEntity
  8
0015020
  6
Continuous
 62
     7
100
AcDbCircle
 10
209.4700131295
 20
136.2930643972
 30
0.0
 40
3.75
  0
CIRCLE
  5
79
330
40
100
AcDbEntity
  8
0015020
  6
Continuous
 62
     7
100
AcDbCircle
 10
209.4700131295
 20
136.2930643972
 30
0.0
 40
2.5
  0
CIRCLE
  5
7A
330
40
100
AcDbEntity
  8
0015020
  6
Continuous
 62
     7
100
AcDbCircle
 10
209.4700131295
 20
121.2930643972
 30
0.0
 40
3.75
  0
CIRCLE
  5
7B
330
40
100
AcDbEntity
  8
0015020
  6
Continuous
 62
     7
100
AcDbCircle
 10
209.4700131295
 20
121.2930643972
 30
0.0
 40
2.5
  0
LINE
  5
7C
330
40
100
AcDbEntity
  8
0015020
  6
Continuous
 62
     7
100
AcDbLine
 10
201.7295732369
 20
108.2155056329
 30
0.0
 11
204.1311850569
 21
111.7024095953
 31
0.0
  0
LINE
  5
7D
330
40
100
AcDbEntity
  8
0015020
  6
Continuous
 62
     7
100
AcDbLine
 10
204.1311850569
 20
111.7024095953
 30
0.0
 11
201.7295732369
 21
111.7024095953
 31
0.0
  0
LINE
  5
7E
330
40
100
AcDbEntity
  8
0015020
  6
Continuous
 62
     7
100
AcDbLine
 10
201.7295732369
 20
111.7024095953
 30
0.0
 11
200.5905537608
 21
109.7628528458
 31
0.0
  0
LINE
  5
7F
330
40
100
AcDbEntity
  8
0015020
  6
Continuous
 62
     7
100
AcDbLine
 10
200.5905537608
 20
109.7628528458
 30
0.0
 11
199.4407888179
 21
111.7024095953
 31
0.0
  0
LINE
  5
80
330
40
100
AcDbEntity
  8
0015020
  6
Continuous
 62
     7
100
AcDbLine
 10
199.4407888179
 20
111.7024095953
 30
0.0
 11
197.0499224646
 21
111.7024095953
 31
0.0
  0
LINE
  5
81
330
40
100
AcDbEntity
  8
0015020
  6
Continuous
 62
     7
100
AcDbLine
 10
197.0499224646
 20
111.7024095953
 30
0.0
 11
199.4407888179
 21
108.2155056329
 31
0.0
  0
LINE
  5
82
330
40
100
AcDbEntity
  8
0015020
  6
Continuous
 62
     7
100
AcDbLine
 10
199.4407888179
 20
108.2155056329
 30
0.0
 11
196.5072763934
 21
104.2128192662
 31
0.0
  0
LINE
  5
83
330
40
100
AcDbEntity
  8
0015020
  6
Continuous
 62
     7
100
AcDbLine
 10
196.5072763934
 20
104.2128192662
 30
0.0
 11
198.8659063464
 21
104.2128192662
 31
0.0
  0
LINE
  5
84
330
40
100
AcDbEntity
  8
0015020
  6
Continuous
 62
     7
100
AcDbLine
 10
198.8659063464
 20
104.2128192662
 30
0.0
 11
200.5905537608
 21
106.6520402199
 31
0.0
  0
LINE
  5
85
330
40
100
AcDbEntity
  8
0015020
  6
Continuous
 62
     7
100
AcDbLine
 10
200.5905537608
 20
106.6520402199
 30
0.0
 11
201.7618096372
 21
104.8091926712
 31
0.0
  0
LINE
  5
86
330
40
100
AcDbEntity
  8
0015020
  6
Continuous
 62
     7
100
AcDbLine
 10
201.7618096372
 20
104.8091926712
 30
0.0
 11
202.9330655136
 21
106.4801127518
 31
0.0
  0
LINE
  5
87
330
40
100
AcDbEntity
  8
0015020
  6
Continuous
 62
     7
100
AcDbLine
 10
202.9330655136
 20
106.4801127518
 30
0.0
 11
201.7295732369
 21
108.2155056329
 31
0.0
  0
SPLINE
  5
88
330
40
100
AcDbEntity
  8
0015020
  6
Continuous
 62
     7
100
AcDbSpline
210
0.0
220
0.0
230
1.0
 70
     8
 71
     3
 72
    55
 73
    51
 74
     0
 42
0.0000000006984068
 43
0.0000000001
 12
1.0
 22
0.0
 32
0.0
 13
1.0
 23
0.0
 33
0.0
 40
0.0
 40
0.0
 40
0.0
 40
0.0
 40
0.030356466841912
 40
0.030356466841912
 40
0.030356466841912
 40
0.0738014963219046
 40
0.0738014963219046
 40
0.1215198073900939
 40
0.1215198073900939
 40
0.1215198073900939
 40
0.1676094197585976
 40
0.1676094197585976
 40
0.1676094197585976
 40
0.2138941757043961
 40
0.2138941757043961
 40
0.2138941757043961
 40
0.2626348431068857
 40
0.2626348431068857
 40
0.3136964946713985
 40
0.3136964946713985
 40
0.3136964946713985
 40
0.3615091708024273
 40
0.3615091708024273
 40
0.3615091708024273
 40
0.4123714093140986
 40
0.4123714093140986
 40
0.4632336478257689
 40
0.4632336478257689
 40
0.5167380805458375
 40
0.5167380805458375
 40
0.5702425132659059
 40
0.5702425132659059
 40
0.6237469459859741
 40
0.6237469459859741
 40
0.6237469459859741
 40
0.676088393823982
 40
0.676088393823982
 40
0.7260861947438698
 40
0.7260861947438698
 40
0.7260861947438698
 40
0.7793240076351463
 40
0.7793240076351463
 40
0.7793240076351463
 40
0.8390672153870518
 40
0.8390672153870518
 40
0.8390672153870518
 40
0.9079891406423414
 40
0.9079891406423414
 40
0.9079891406423414
 40
1.0
 40
1.0
 40
1.0
 40
1.0
 10
92.05078236024531
 20
106.639218243357
 30
0.0
 10
92.17385928332223
 20
106.7046028587416
 30
0.0
 10
92.30462851409146
 20
106.7622951664339
 30
0.0
 10
92.44693620639916
 20
106.8122951664339
 30
0.0
 10
92.59266742576497
 20
106.8634980272922
 30
0.0
 10
92.78155159101453
 20
106.889218243357
 30
0.0
 10
93.27385928332222
 20
106.889218243357
 30
0.0
 10
93.5084746679376
 20
106.8430643972032
 30
0.0
 10
93.72001312947607
 20
106.7507567048955
 30
0.0
 10
93.92691078610991
 20
106.6604740910916
 30
0.0
 10
94.10847466793761
 20
106.5353720895109
 30
0.0
 10
94.2584746679376
 20
106.3815259356647
 30
0.0
 10
94.41039712868738
 20
106.2257080272034
 30
0.0
 10
94.52770543716838
 20
106.039218243357
 30
0.0
 10
94.60847466793761
 20
105.8276797818185
 30
0.0
 10
94.68973326796423
 20
105.6148596388917
 30
0.0
 10
94.7353977448607
 20
105.389218243357
 30
0.0
 10
94.7353977448607
 20
104.8930643972032
 30
0.0
 10
94.69693620639916
 20
104.6546028587416
 30
0.0
 10
94.61232082178377
 20
104.4353720895108
 30
0.0
 10
94.52691209710368
 20
104.2140858482943
 30
0.0
 10
94.41616697562992
 20
104.0199874741263
 30
0.0
 10
94.2584746679376
 20
103.8584490125878
 30
0.0
 10
94.10073658599052
 20
103.6968636603493
 30
0.0
 10
93.90847466793761
 20
103.5622951664339
 30
0.0
 10
93.44693620639916
 20
103.3699874741262
 30
0.0
 10
93.1853977448607
 20
103.3238336279724
 30
0.0
 10
92.57770543716838
 20
103.3238336279724
 30
0.0
 10
92.30462851409146
 20
103.3699874741262
 30
0.0
 10
91.84309005255301
 20
103.5699874741262
 30
0.0
 10
91.6507823602453
 20
103.7046028587416
 30
0.0
 10
91.35078236024529
 20
104.0430643972032
 30
0.0
 10
91.23924389870685
 20
104.2430643972032
 30
0.0
 10
91.16616697562992
 20
104.4661413202801
 30
0.0
 10
91.09195221052924
 20
104.6926916558506
 30
0.0
 10
91.05847466793762
 20
104.9315259356647
 30
0.0
 10
91.05847466793762
 20
105.4353720895108
 30
0.0
 10
91.09309005255301
 20
105.6738336279724
 30
0.0
 10
91.15847466793761
 20
105.9046028587416
 30
0.0
 10
91.22414509933188
 20
106.1363808518979
 30
0.0
 10
91.32001312947608
 20
106.3699874741262
 30
0.0
 10
91.43924389870683
 20
106.6084490125878
 30
0.0
 10
91.55770543716838
 20
106.8453720895109
 30
0.0
 10
91.70847466793761
 20
107.0853720895109
 30
0.0
 10
91.88155159101453
 20
107.3353720895109
 30
0.0
 10
92.05282851409147
 20
107.5827720895109
 30
0.0
 10
92.24693620639916
 20
107.8469105510493
 30
0.0
 10
92.46232082178376
 20
108.1276797818186
 30
0.0
 10
92.72842408257101
 20
108.4745643896305
 30
0.0
 10
92.99309005255299
 20
108.8225515766904
 30
0.0
 10
93.2584746679376
 20
109.1699874741262
 30
0.0
  0
LINE
  5
89
330
40
100
AcDbEntity
  8
0015020
  6
Continuous
 62
     7
100
AcDbLine
 10
93.2584746679
 20
109.1699874741
 30
0.0
 11
93.9046285141
 21
109.1699874741
 31
0.0
  0
SPLINE
  5
8A
330
40
100
AcDbEntity
  8
0015020
  6
Continuous
 62
     7
100
AcDbSpline
210
0.0
220
0.0
230
1.0
 70
     8
 71
     3
 72
    19
 73
    15
 74
     0
 42
0.000000003183419
 43
0.0000000001
 12
1.0
 22
0.0
 32
0.0
 13
1.0
 23
0.0
 33
0.0
 40
0.0
 40
0.0
 40
0.0
 40
0.0
 40
0.247107612534881
 40
0.247107612534881
 40
0.247107612534881
 40
0.4486309043150095
 40
0.4486309043150095
 40
0.6501541960951377
 40
0.6501541960951377
 40
0.6501541960951377
 40
0.8400705171467817
 40
0.8400705171467817
 40
0.8400705171467817
 40
1.0
 40
1.0
 40
1.0
 40
1.0
 10
93.90462851409146
 20
109.1699874741262
 30
0.0
 10
93.74052594998889
 20
108.9699874741262
 30
0.0
 10
93.57642338588633
 20
108.7699874741263
 30
0.0
 10
93.41232082178378
 20
108.5699874741263
 30
0.0
 10
93.28237673836227
 20
108.4116181224563
 30
0.0
 10
93.1507823602453
 20
108.2507567048955
 30
0.0
 10
92.88155159101454
 20
107.9122951664339
 30
0.0
 10
92.75462851409145
 20
107.7430643972032
 30
0.0
 10
92.63155159101454
 20
107.5738336279724
 30
0.0
 10
92.50531458477752
 20
107.4002577443965
 30
0.0
 10
92.393090052553
 20
107.239218243357
 30
0.0
 10
92.28924389870686
 20
107.0853720895109
 30
0.0
 10
92.18241032867019
 20
106.927100133901
 30
0.0
 10
92.09693620639915
 20
106.7853720895109
 30
0.0
 10
92.03155159101453
 20
106.6546028587416
 30
0.0
  0
SPLINE
  5
8B
330
40
100
AcDbEntity
  8
0015020
  6
Continuous
 62
     7
100
AcDbSpline
210
0.0
220
0.0
230
1.0
 70
     8
 71
     3
 72
    30
 73
    26
 74
     0
 42
0.0000000018738841
 43
0.0000000001
 12
1.0
 22
0.0
 32
0.0
 13
1.0
 23
0.0
 33
0.0
 40
0.0
 40
0.0
 40
0.0
 40
0.0
 40
0.0683444802491893
 40
0.0683444802491893
 40
0.0683444802491893
 40
0.1655212613438832
 40
0.1655212613438832
 40
0.27031975075973
 40
0.27031975075973
 40
0.3751182401755772
 40
0.3751182401755772
 40
0.4799167295914222
 40
0.4799167295914222
 40
0.4799167295914222
 40
0.5980835059891484
 40
0.5980835059891484
 40
0.6993693143300567
 40
0.6993693143300567
 40
0.8006551226709655
 40
0.8006551226709655
 40
0.8006551226709655
 40
0.8966526015976759
 40
0.8966526015976759
 40
0.8966526015976759
 40
1.0
 40
1.0
 40
1.0
 40
1.0
 10
91.79693620639914
 20
106.1238336279724
 30
0.0
 10
91.74309005255299
 20
106.0353720895109
 30
0.0
 10
91.69309005255299
 20
105.9276797818186
 30
0.0
 10
91.6507823602453
 20
105.7930643972032
 30
0.0
 10
91.60957479366627
 20
105.6619494126335
 30
0.0
 10
91.58539774486069
 20
105.4969105510493
 30
0.0
 10
91.58539774486069
 20
105.089218243357
 30
0.0
 10
91.60847466793761
 20
104.889218243357
 30
0.0
 10
91.70078236024531
 20
104.5046028587416
 30
0.0
 10
91.77770543716838
 20
104.339218243357
 30
0.0
 10
91.98539774486069
 20
104.0622951664339
 30
0.0
 10
92.12001312947606
 20
103.9507567048955
 30
0.0
 10
92.28155159101453
 20
103.8661413202801
 30
0.0
 10
92.4461081198949
 20
103.7799450432475
 30
0.0
 10
92.64693620639916
 20
103.7430643972032
 30
0.0
 10
93.09693620639915
 20
103.7430643972032
 30
0.0
 10
93.28539774486069
 20
103.7776797818185
 30
0.0
 10
93.60847466793761
 20
103.9161413202801
 30
0.0
 10
93.74693620639916
 20
104.0122951664339
 30
0.0
 10
93.85847466793761
 20
104.1315259356647
 30
0.0
 10
93.97372695172486
 20
104.2547266528166
 30
0.0
 10
94.05847466793762
 20
104.3969105510493
 30
0.0
 10
94.11616697562991
 20
104.5661413202801
 30
0.0
 10
94.17308506910516
 20
104.7331010611408
 30
0.0
 10
94.20462851409145
 20
104.9122951664339
 30
0.0
 10
94.20462851409145
 20
105.1046028587416
 30
0.0
  0
SPLINE
  5
8C
330
40
100
AcDbEntity
  8
0015020
  6
Continuous
 62
     7
100
AcDbSpline
210
0.0
220
0.0
230
1.0
 70
     8
 71
     3
 72
    28
 73
    24
 74
     0
 42
0.0000000030232783
 43
0.0000000001
 12
1.0
 22
0.0
 32
0.0
 13
1.0
 23
0.0
 33
0.0
 40
0.0
 40
0.0
 40
0.0
 40
0.0
 40
0.1878669591321831
 40
0.1878669591321831
 40
0.1878669591321831
 40
0.3442543429560377
 40
0.3442543429560377
 40
0.3442543429560377
 40
0.491244470402204
 40
0.491244470402204
 40
0.491244470402204
 40
0.6314554411982877
 40
0.6314554411982877
 40
0.7393100341183507
 40
0.7393100341183507
 40
0.7393100341183507
 40
0.8433740603708401
 40
0.8433740603708401
 40
0.8433740603708401
 40
0.9330057971744607
 40
0.9330057971744607
 40
0.9330057971744607
 40
1.0
 40
1.0
 40
1.0
 40
1.0
 10
94.20462851409145
 20
105.1046028587416
 30
0.0
 10
94.20462851409145
 20
105.3353720895109
 30
0.0
 10
94.17001312947606
 20
105.5353720895109
 30
0.0
 10
94.093090052553
 20
105.7084490125878
 30
0.0
 10
94.01965626984087
 20
105.8736750236901
 30
0.0
 10
93.92001312947606
 20
106.0161413202801
 30
0.0
 10
93.80462851409146
 20
106.1315259356647
 30
0.0
 10
93.68924389870683
 20
106.2469105510493
 30
0.0
 10
93.55078236024531
 20
106.3276797818185
 30
0.0
 10
93.39693620639915
 20
106.3853720895109
 30
0.0
 10
93.24772651198398
 20
106.4413257249166
 30
0.0
 10
93.09309005255301
 20
106.4699874741262
 30
0.0
 10
92.82770543716838
 20
106.4699874741262
 30
0.0
 10
92.70847466793761
 20
106.4546028587416
 30
0.0
 10
92.59309005255301
 20
106.4315259356647
 30
0.0
 10
92.47400721231631
 20
106.4077093676174
 30
0.0
 10
92.36232082178377
 20
106.3776797818186
 30
0.0
 10
92.26232082178376
 20
106.3430643972032
 30
0.0
 10
92.15888621147994
 20
106.3072601090211
 30
0.0
 10
92.07001312947608
 20
106.2699874741263
 30
0.0
 10
91.98924389870685
 20
106.2315259356647
 30
0.0
 10
91.90698170618587
 20
106.1923534630357
 30
0.0
 10
91.84309005255301
 20
106.1546028587416
 30
0.0
 10
91.79693620639914
 20
106.1238336279724
 30
0.0
  0
LINE
  5
8D
330
40
100
AcDbEntity
  8
0015020
  6
Continuous
 62
     7
100
AcDbLine
 10
92.031551591
 20
106.6546028587
 30
0.0
 11
92.0507823602
 21
106.6392182434
 31
0.0
  0
SPLINE
  5
8E
330
40
100
AcDbEntity
  8
0015020
  6
Continuous
 62
     7
100
AcDbSpline
210
0.0
220
0.0
230
1.0
 70
     8
 71
     3
 72
    50
 73
    46
 74
     0
 42
0.0000000007505791
 43
0.0000000001
 12
1.0
 22
0.0
 32
0.0
 13
1.0
 23
0.0
 33
0.0
 40
0.0
 40
0.0
 40
0.0
 40
0.0
 40
0.0318114685352493
 40
0.0318114685352493
 40
0.0318114685352493
 40
0.0663170141632775
 40
0.0663170141632775
 40
0.0663170141632775
 40
0.1049371204506332
 40
0.1049371204506332
 40
0.1049371204506332
 40
0.1476132551081598
 40
0.1476132551081598
 40
0.2383970324705363
 40
0.2383970324705363
 40
0.2383970324705363
 40
0.3143183237465881
 40
0.3143183237465881
 40
0.3143183237465881
 40
0.3913712161169603
 40
0.3913712161169603
 40
0.3913712161169603
 40
0.4690204242010009
 40
0.4690204242010009
 40
0.5650382621543842
 40
0.5650382621543842
 40
0.5650382621543842
 40
0.6467046739969637
 40
0.6467046739969637
 40
0.6467046739969637
 40
0.7228109612984618
 40
0.7228109612984618
 40
0.7228109612984618
 40
0.8081420388711237
 40
0.8081420388711237
 40
0.8081420388711237
 40
0.8545066482333111
 40
0.8545066482333111
 40
0.8545066482333111
 40
0.8987538171175218
 40
0.8987538171175218
 40
0.8987538171175218
 40
0.9493769085587607
 40
0.9493769085587607
 40
1.0
 40
1.0
 40
1.0
 40
1.0
 10
88.10078236024529
 20
103.8199874741262
 30
0.0
 10
87.97770543716837
 20
103.7584490125878
 30
0.0
 10
87.8507823602453
 20
103.6969105510493
 30
0.0
 10
87.72001312947609
 20
103.639218243357
 30
0.0
 10
87.58962266548677
 20
103.5816930386558
 30
0.0
 10
87.45078236024531
 20
103.5199874741262
 30
0.0
 10
87.29693620639915
 20
103.4661413202801
 30
0.0
 10
87.1442892987411
 20
103.4127149025998
 30
0.0
 10
86.97770543716837
 20
103.3738336279724
 30
0.0
 10
86.8007823602453
 20
103.3430643972032
 30
0.0
 10
86.6201260440844
 20
103.311645907436
 30
0.0
 10
86.42770543716838
 20
103.2930643972032
 30
0.0
 10
85.76616697562991
 20
103.2930643972032
 30
0.0
 10
85.38539774486068
 20
103.3815259356647
 30
0.0
 10
85.07770543716839
 20
103.5546028587416
 30
0.0
 10
84.77165658987323
 20
103.7267553353451
 30
0.0
 10
84.52385928332224
 20
103.9469105510493
 30
0.0
 10
84.33924389870684
 20
104.2238336279724
 30
0.0
 10
84.15640366202045
 20
104.498093983002
 30
0.0
 10
84.02001312947607
 20
104.8084490125878
 30
0.0
 10
83.943090052553
 20
105.1584490125878
 30
0.0
 10
83.86697333434435
 20
105.5047800804371
 30
0.0
 10
83.82770543716839
 20
105.8546028587416
 30
0.0
 10
83.82770543716839
 20
106.6546028587416
 30
0.0
 10
83.87385928332222
 20
107.0622951664339
 30
0.0
 10
83.97385928332223
 20
107.439218243357
 30
0.0
 10
84.0736063650343
 20
107.8151880128871
 30
0.0
 10
84.22001312947607
 20
108.1430643972032
 30
0.0
 10
84.42385928332223
 20
108.4161413202801
 30
0.0
 10
84.62817285510077
 20
108.6898444070023
 30
0.0
 10
84.88155159101454
 20
108.9046028587416
 30
0.0
 10
85.18924389870685
 20
109.0584490125878
 30
0.0
 10
85.50001312947609
 20
109.2138336279724
 30
0.0
 10
85.86616697562992
 20
109.289218243357
 30
0.0
 10
86.28539774486069
 20
109.2930643972032
 30
0.0
 10
86.50072895043344
 20
109.2950399128506
 30
0.0
 10
86.70462851409145
 20
109.2661413202801
 30
0.0
 10
86.89309005255299
 20
109.2161413202801
 30
0.0
 10
87.08419151917975
 20
109.165440931175
 30
0.0
 10
87.26232082178376
 20
109.089218243357
 30
0.0
 10
87.42770543716838
 20
108.9815259356647
 30
0.0
 10
87.5948487951397
 20
108.8726884002415
 30
0.0
 10
87.73539774486069
 20
108.7238336279724
 30
0.0
 10
87.98924389870685
 20
108.3699874741262
 30
0.0
 10
88.09693620639915
 20
108.1546028587416
 30
0.0
 10
88.18155159101454
 20
107.9007567048955
 30
0.0
  0
LINE
  5
8F
330
40
100
AcDbEntity
  8
0015020
  6
Continuous
 62
     7
100
AcDbLine
 10
88.181551591
 20
107.9007567049
 30
0.0
 11
87.6738592833
 21
107.7892182434
 31
0.0
  0
SPLINE
  5
90
330
40
100
AcDbEntity
  8
0015020
  6
Continuous
 62
     7
100
AcDbSpline
210
0.0
220
0.0
230
1.0
 70
     8
 71
     3
 72
    43
 73
    39
 74
     0
 42
0.0000000009332033
 43
0.0000000001
 12
1.0
 22
0.0
 32
0.0
 13
1.0
 23
0.0
 33
0.0
 40
0.0
 40
0.0
 40
0.0
 40
0.0
 40
0.1615325525873964
 40
0.1615325525873964
 40
0.2300899731622794
 40
0.2300899731622794
 40
0.298647393737163
 40
0.298647393737163
 40
0.367204814312046
 40
0.367204814312046
 40
0.367204814312046
 40
0.4220980646458319
 40
0.4220980646458319
 40
0.4769913149796177
 40
0.4769913149796177
 40
0.4769913149796177
 40
0.5162877036723459
 40
0.5162877036723459
 40
0.6139672984228414
 40
0.6139672984228414
 40
0.6139672984228414
 40
0.6985324509077749
 40
0.6985324509077749
 40
0.6985324509077749
 40
0.7875889418236757
 40
0.7875889418236757
 40
0.8766454327395767
 40
0.8766454327395767
 40
0.9033623800143472
 40
0.9033623800143472
 40
0.9033623800143472
 40
0.9325682909425134
 40
0.9325682909425134
 40
0.9325682909425134
 40
0.9640856721434186
 40
0.9640856721434186
 40
0.9640856721434186
 40
1.0
 40
1.0
 40
1.0
 40
1.0
 10
87.67385928332222
 20
107.789218243357
 30
0.0
 10
87.42001312947608
 20
108.5084490125878
 30
0.0
 10
86.96232082178376
 20
108.8699874741262
 30
0.0
 10
86.02001312947607
 20
108.8699874741262
 30
0.0
 10
85.77770543716838
 20
108.8238336279724
 30
0.0
 10
85.36232082178377
 20
108.6469105510493
 30
0.0
 10
85.18924389870685
 20
108.5315259356647
 30
0.0
 10
84.89693620639915
 20
108.2469105510493
 30
0.0
 10
84.78155159101452
 20
108.0815259356647
 30
0.0
 10
84.68924389870685
 20
107.8969105510493
 30
0.0
 10
84.59616697562993
 20
107.7107567048955
 30
0.0
 10
84.53539774486069
 20
107.5238336279724
 30
0.0
 10
84.4353977448607
 20
107.1469105510493
 30
0.0
 10
84.40078236024532
 20
106.9622951664339
 30
0.0
 10
84.38539774486068
 20
106.7853720895109
 30
0.0
 10
84.36998426528211
 20
106.6081170743572
 30
0.0
 10
84.35462851409144
 20
106.4507567048955
 30
0.0
 10
84.35462851409144
 20
105.9815259356647
 30
0.0
 10
84.38539774486068
 20
105.6584490125878
 30
0.0
 10
84.44309005255299
 20
105.3469105510493
 30
0.0
 10
84.5009098852402
 20
105.0346834545384
 30
0.0
 10
84.60847466793761
 20
104.7584490125878
 30
0.0
 10
84.75462851409146
 20
104.5161413202801
 30
0.0
 10
84.90248339337069
 20
104.2710134941066
 30
0.0
 10
85.1007823602453
 20
104.0776797818185
 30
0.0
 10
85.6007823602453
 20
103.7853720895109
 30
0.0
 10
85.91616697562992
 20
103.7161413202801
 30
0.0
 10
86.41616697562992
 20
103.7161413202801
 30
0.0
 10
86.52770543716838
 20
103.7199874741263
 30
0.0
 10
86.63155159101454
 20
103.7315259356647
 30
0.0
 10
86.73117635649297
 20
103.7425953540512
 30
0.0
 10
86.83539774486069
 20
103.7584490125878
 30
0.0
 10
86.9353977448607
 20
103.7815259356647
 30
0.0
 10
87.03989212688315
 20
103.8056400238237
 30
0.0
 10
87.14309005255299
 20
103.839218243357
 30
0.0
 10
87.25078236024531
 20
103.8853720895109
 30
0.0
 10
87.35708209499332
 20
103.9309291186886
 30
0.0
 10
87.47385928332223
 20
103.9776797818185
 30
0.0
 10
87.59693620639915
 20
104.039218243357
 30
0.0
  0
LINE
  5
91
330
40
100
AcDbEntity
  8
0015020
  6
Continuous
 62
     7
100
AcDbLine
 10
87.5969362064
 20
104.0392182434
 30
0.0
 11
87.5969362064
 21
105.9930643972
 31
0.0
  0
LINE
  5
92
330
40
100
AcDbEntity
  8
0015020
  6
Continuous
 62
     7
100
AcDbLine
 10
87.5969362064
 20
105.9930643972
 30
0.0
 11
86.331551591
 21
105.9930643972
 31
0.0
  0
LINE
  5
93
330
40
100
AcDbEntity
  8
0015020
  6
Continuous
 62
     7
100
AcDbLine
 10
86.331551591
 20
105.9930643972
 30
0.0
 11
86.331551591
 21
106.4161413203
 31
0.0
  0
LINE
  5
94
330
40
100
AcDbEntity
  8
0015020
  6
Continuous
 62
     7
100
AcDbLine
 10
86.331551591
 20
106.4161413203
 30
0.0
 11
88.1007823602
 21
106.4161413203
 31
0.0
  0
LINE
  5
95
330
40
100
AcDbEntity
  8
0015020
  6
Continuous
 62
     7
100
AcDbLine
 10
88.1007823602
 20
106.4161413203
 30
0.0
 11
88.1007823602
 21
103.8199874741
 31
0.0
  0
LINE
  5
96
330
40
100
AcDbEntity
  8
0015020
  6
Continuous
 62
     7
100
AcDbLine
 10
79.9738592833
 20
103.4161413203
 30
0.0
 11
79.4700131295
 21
103.4161413203
 31
0.0
  0
LINE
  5
97
330
40
100
AcDbEntity
  8
0015020
  6
Continuous
 62
     7
100
AcDbLine
 10
79.4700131295
 20
103.4161413203
 30
0.0
 11
79.4700131295
 21
109.1699874741
 31
0.0
  0
SPLINE
  5
98
330
40
100
AcDbEntity
  8
0015020
  6
Continuous
 62
     7
100
AcDbSpline
210
0.0
220
0.0
230
1.0
 70
     8
 71
     3
 72
    21
 73
    17
 74
     0
 42
0.0000000011323204
 43
0.0000000001
 12
1.0
 22
0.0
 32
0.0
 13
1.0
 23
0.0
 33
0.0
 40
0.0
 40
0.0
 40
0.0
 40
0.0
 40
0.2080968393708693
 40
0.2080968393708693
 40
0.2080968393708693
 40
0.3784185797009656
 40
0.3784185797009656
 40
0.3784185797009656
 40
0.534898350850844
 40
0.534898350850844
 40
0.6913781220007224
 40
0.6913781220007224
 40
0.8498900979707282
 40
0.8498900979707282
 40
0.8498900979707282
 40
1.0
 40
1.0
 40
1.0
 40
1.0
 10
79.47001312947607
 20
109.1699874741262
 30
0.0
 10
80.07257723204017
 20
109.1699874741262
 30
0.0
 10
80.67514133460428
 20
109.1699874741262
 30
0.0
 10
81.27770543716838
 20
109.1699874741262
 30
0.0
 10
81.89309005255299
 20
109.1699874741262
 30
0.0
 10
82.34693620639916
 20
109.0199874741263
 30
0.0
 10
82.64693620639915
 20
108.7199874741262
 30
0.0
 10
82.94501312947607
 20
108.4219105510493
 30
0.0
 10
83.093090052553
 20
108.0238336279724
 30
0.0
 10
83.093090052553
 20
107.0315259356647
 30
0.0
 10
82.943090052553
 20
106.6315259356647
 30
0.0
 10
82.34693620639916
 20
106.0353720895109
 30
0.0
 10
81.89309005255299
 20
105.8853720895109
 30
0.0
 10
81.27770543716838
 20
105.8853720895109
 30
0.0
 10
80.843090052553
 20
105.8853720895109
 30
0.0
 10
80.40847466793761
 20
105.8853720895109
 30
0.0
 10
79.97385928332224
 20
105.8853720895109
 30
0.0
  0
SPLINE
  5
99
330
40
100
AcDbEntity
  8
0015020
  6
Continuous
 62
     7
100
AcDbSpline
210
0.0
220
0.0
230
1.0
 70
     8
 71
     3
 72
    31
 73
    27
 74
     0
 42
0.0000000018456314
 43
0.0000000001
 12
1.0
 22
0.0
 32
0.0
 13
1.0
 23
0.0
 33
0.0
 40
0.0
 40
0.0
 40
0.0
 40
0.0
 40
0.1009288093765432
 40
0.1009288093765432
 40
0.1009288093765432
 40
0.190299634461232
 40
0.190299634461232
 40
0.190299634461232
 40
0.2778951528860762
 40
0.2778951528860762
 40
0.2778951528860762
 40
0.3860831626481461
 40
0.3860831626481461
 40
0.4905405513839374
 40
0.4905405513839374
 40
0.4905405513839374
 40
0.578666400598386
 40
0.578666400598386
 40
0.578666400598386
 40
0.6678164918377038
 40
0.6678164918377038
 40
0.6678164918377038
 40
0.7688315071295597
 40
0.7688315071295597
 40
0.7688315071295597
 40
1.0
 40
1.0
 40
1.0
 40
1.0
 10
81.22001312947607
 20
106.3084490125878
 30
0.0
 10
81.41232082178377
 20
106.3084490125878
 30
0.0
 10
81.593090052553
 20
106.3276797818185
 30
0.0
 10
81.75847466793762
 20
106.3738336279724
 30
0.0
 10
81.92742754145647
 20
106.4209832670939
 30
0.0
 10
82.07001312947608
 20
106.4930643972032
 30
0.0
 10
82.1853977448607
 20
106.589218243357
 30
0.0
 10
82.30305222153156
 20
106.6872636405827
 30
0.0
 10
82.39693620639915
 20
106.8122951664339
 30
0.0
 10
82.46232082178378
 20
106.9661413202801
 30
0.0
 10
82.5282938640935
 20
107.1213720080677
 30
0.0
 10
82.56616697562993
 20
107.3046028587416
 30
0.0
 10
82.56616697562993
 20
107.7430643972032
 30
0.0
 10
82.53155159101453
 20
107.9276797818186
 30
0.0
 10
82.46232082178378
 20
108.0853720895109
 30
0.0
 10
82.39512726720866
 20
108.2384240749319
 30
0.0
 10
82.30462851409145
 20
108.3661413202801
 30
0.0
 10
82.1853977448607
 20
108.4661413202801
 30
0.0
 10
82.07031856625066
 20
108.5626593410498
 30
0.0
 10
81.92770543716837
 20
108.6353720895109
 30
0.0
 10
81.75847466793762
 20
108.6776797818186
 30
0.0
 10
81.59195883083353
 20
108.7193087410946
 30
0.0
 10
81.41232082178377
 20
108.7469105510493
 30
0.0
 10
81.22001312947607
 20
108.7507567048955
 30
0.0
 10
80.80479460150265
 20
108.7590610754549
 30
0.0
 10
80.38924389870684
 20
108.7507567048955
 30
0.0
 10
79.97385928332224
 20
108.7507567048955
 30
0.0
  0
LINE
  5
9A
330
40
100
AcDbEntity
  8
0015020
  6
Continuous
 62
     7
100
AcDbLine
 10
79.9738592833
 20
108.7507567049
 30
0.0
 11
79.9738592833
 21
106.3084490126
 31
0.0
  0
LINE
  5
9B
330
40
100
AcDbEntity
  8
0015020
  6
Continuous
 62
     7
100
AcDbLine
 10
79.9738592833
 20
106.3084490126
 30
0.0
 11
81.2200131295
 21
106.3084490126
 31
0.0
  0
LINE
  5
9C
330
40
100
AcDbEntity
  8
0015020
  6
Continuous
 62
     7
100
AcDbLine
 10
79.9738592833
 20
105.8853720895
 30
0.0
 11
79.9738592833
 21
103.4161413203
 31
0.0
  0
SPLINE
  5
9D
330
40
100
AcDbEntity
  8
0015020
  6
Continuous
 62
     7
100
AcDbSpline
210
0.0
220
0.0
230
1.0
 70
     8
 71
     3
 72
    14
 73
    10
 74
     0
 42
0.0000000010888508
 43
0.0000000001
 12
1.0
 22
0.0
 32
0.0
 13
1.0
 23
0.0
 33
0.0
 40
0.0
 40
0.0
 40
0.0
 40
0.0
 40
0.909112852972167
 40
0.909112852972167
 40
0.909112852972167
 40
0.9540023890609405
 40
0.9540023890609405
 40
0.9540023890609405
 40
1.0
 40
1.0
 40
1.0
 40
1.0
 10
202.4710104431094
 20
104.6963652702724
 30
0.0
 10
204.068503167533
 20
106.9636587558331
 30
0.0
 10
205.6659958919565
 20
109.2309522413939
 30
0.0
 10
207.26348861638
 20
111.4982457269547
 30
0.0
 10
207.3570314792662
 20
111.6310094762976
 30
0.0
 10
207.4676524847481
 20
111.6970368619446
 30
0.0
 10
207.6019708192007
 20
111.7024095953227
 30
0.0
 10
207.7304958708575
 20
111.707550597389
 30
0.0
 10
207.8491165545936
 20
111.6325640614073
 30
0.0
 10
207.9511984887776
 20
111.4982457269547
 30
0.0
  0
SPLINE
  5
9E
330
40
100
AcDbEntity
  8
0015020
  6
Continuous
 62
     7
100
AcDbSpline
210
0.0
220
0.0
230
1.0
 70
     8
 71
     3
 72
    16
 73
    12
 74
     0
 42
0.0000000005296509
 43
0.0000000001
 12
1.0
 22
0.0
 32
0.0
 13
1.0
 23
0.0
 33
0.0
 40
0.0
 40
0.0
 40
0.0
 40
0.0
 40
0.4420013212315552
 40
0.4420013212315552
 40
0.4420013212315552
 40
0.4553582062215768
 40
0.4553582062215768
 40
0.4811815172022847
 40
0.4811815172022847
 40
0.4811815172022847
 40
1.0
 40
1.0
 40
1.0
 40
1.0
 10
207.9511984887776
 20
111.4982457269547
 30
0.0
 10
209.5486912132012
 20
109.2309522413939
 30
0.0
 10
211.1461839376248
 20
106.9636587558331
 30
0.0
 10
212.7436766620483
 20
104.6963652702724
 30
0.0
 10
212.8030106597956
 20
104.6121535649494
 30
0.0
 10
212.8350131294761
 20
104.5298105355511
 30
0.0
 10
212.8350131294761
 20
104.2934102669144
 30
0.0
 10
212.7221857285359
 20
104.2128192662428
 30
0.0
 10
212.4965309266554
 20
104.2128192662428
 30
0.0
 10
209.2406544995231
 20
104.2128192662428
 30
0.0
 10
205.9847780723908
 20
104.2128192662428
 30
0.0
 10
202.7289016452585
 20
104.2128192662428
 30
0.0
  0
SPLINE
  5
9F
330
40
100
AcDbEntity
  8
0015020
  6
Continuous
 62
     7
100
AcDbSpline
210
0.0
220
0.0
230
1.0
 70
     8
 71
     3
 72
     8
 73
     4
 74
     0
 42
0.0000000186454837
 43
0.0000000001
 12
1.0
 22
0.0
 32
0.0
 13
1.0
 23
0.0
 33
0.0
 40
0.0
 40
0.0
 40
0.0
 40
0.0
 40
1.0
 40
1.0
 40
1.0
 40
1.0
 10
202.7289016452585
 20
104.2128192662428
 30
0.0
 10
202.4978741099999
 20
104.2128192662428
 30
0.0
 10
202.3850467090597
 20
104.2934102669144
 30
0.0
 10
202.3796739756816
 20
104.4599650016357
 30
0.0
  0
SPLINE
  5
A0
330
40
100
AcDbEntity
  8
0015020
  6
Continuous
 62
     7
100
AcDbSpline
210
0.0
220
0.0
230
1.0
 70
     8
 71
     3
 72
     8
 73
     4
 74
     0
 42
0.0000000388150407
 43
0.0000000001
 12
1.0
 22
0.0
 32
0.0
 13
1.0
 23
0.0
 33
0.0
 40
0.0
 40
0.0
 40
0.0
 40
0.0
 40
1.0
 40
1.0
 40
1.0
 40
1.0
 10
202.3796739756816
 20
104.4599650016357
 30
0.0
 10
202.3850467090597
 20
104.5190650687949
 30
0.0
 10
202.4119103759502
 20
104.5996560694664
 30
0.0
 10
202.4710104431094
 20
104.6963652702724
 30
0.0
  0
LINE
  5
A1
330
40
100
AcDbEntity
  8
0015020
  6
Continuous
 62
     7
100
AcDbLine
 10
195.9968667225
 20
104.2128192662
 30
0.0
 11
194.0626827064
 21
104.2128192662
 31
0.0
  0
LINE
  5
A2
330
40
100
AcDbEntity
  8
0015020
  6
Continuous
 62
     7
100
AcDbLine
 10
194.0626827064
 20
104.2128192662
 30
0.0
 11
194.0626827064
 21
111.3907910594
 31
0.0
  0
SPLINE
  5
A3
330
40
100
AcDbEntity
  8
0015020
  6
Continuous
 62
     7
100
AcDbSpline
210
0.0
220
0.0
230
1.0
 70
     8
 71
     3
 72
    13
 73
     9
 74
     0
 42
0.0000000046835185
 43
0.0000000001
 12
1.0
 22
0.0
 32
0.0
 13
1.0
 23
0.0
 33
0.0
 40
0.0
 40
0.0
 40
0.0
 40
0.0
 40
0.121397480415263
 40
0.121397480415263
 40
0.2427949608305521
 40
0.2427949608305521
 40
0.2427949608305521
 40
1.0
 40
1.0
 40
1.0
 40
1.0
 10
194.0626827063733
 20
111.3907910593926
 30
0.0
 10
194.0626827063733
 20
111.4821275268204
 30
0.0
 10
194.094919106642
 20
111.5573457941139
 30
0.0
 10
194.2238647077165
 20
111.6862913951884
 30
0.0
 10
194.29908297501
 20
111.718527795457
 30
0.0
 10
194.3904194424378
 20
111.718527795457
 30
0.0
 10
194.9259018691224
 20
111.718527795457
 30
0.0
 10
195.4613842958069
 20
111.718527795457
 30
0.0
 10
195.9968667224915
 20
111.718527795457
 30
0.0
  0
LINE
  5
A4
330
40
100
AcDbEntity
  8
0015020
  6
Continuous
 62
     7
100
AcDbLine
 10
195.9968667225
 20
111.7185277955
 30
0.0
 11
195.9968667225
 21
104.2128192662
 31
0.0
  0
LINE
  5
A5
330
40
100
AcDbEntity
  8
0015020
  6
Continuous
 62
     7
100
AcDbLine
 10
193.0526088313
 20
111.7024095953
 30
0.0
 11
193.0526088313
 21
110.0529804482
 31
0.0
  0
LINE
  5
A6
330
40
100
AcDbEntity
  8
0015020
  6
Continuous
 62
     7
100
AcDbLine
 10
193.0526088313
 20
110.0529804482
 30
0.0
 11
190.7262152786
 21
110.0529804482
 31
0.0
  0
LINE
  5
A7
330
40
100
AcDbEntity
  8
0015020
  6
Continuous
 62
     7
100
AcDbLine
 10
190.7262152786
 20
110.0529804482
 30
0.0
 11
190.7262152786
 21
108.8011335711
 31
0.0
  0
LINE
  5
A8
330
40
100
AcDbEntity
  8
0015020
  6
Continuous
 62
     7
100
AcDbLine
 10
190.7262152786
 20
108.8011335711
 30
0.0
 11
192.9397814303
 21
108.8011335711
 31
0.0
  0
LINE
  5
A9
330
40
100
AcDbEntity
  8
0015020
  6
Continuous
 62
     7
100
AcDbLine
 10
192.9397814303
 20
108.8011335711
 30
0.0
 11
192.9397814303
 21
107.1517044241
 31
0.0
  0
LINE
  5
AA
330
40
100
AcDbEntity
  8
0015020
  6
Continuous
 62
     7
100
AcDbLine
 10
192.9397814303
 20
107.1517044241
 30
0.0
 11
190.7262152786
 21
107.1517044241
 31
0.0
  0
LINE
  5
AB
330
40
100
AcDbEntity
  8
0015020
  6
Continuous
 62
     7
100
AcDbLine
 10
190.7262152786
 20
107.1517044241
 30
0.0
 11
190.7262152786
 21
104.2128192662
 31
0.0
  0
LINE
  5
AC
330
40
100
AcDbEntity
  8
0015020
  6
Continuous
 62
     7
100
AcDbLine
 10
190.7262152786
 20
104.2128192662
 30
0.0
 11
188.7759130623
 21
104.2128192662
 31
0.0
  0
SPLINE
  5
AD
330
40
100
AcDbEntity
  8
0015020
  6
Continuous
 62
     7
100
AcDbSpline
210
0.0
220
0.0
230
1.0
 70
     8
 71
     3
 72
    17
 73
    13
 74
     0
 42
0.0000000008589982
 43
0.0000000001
 12
1.0
 22
0.0
 32
0.0
 13
1.0
 23
0.0
 33
0.0
 40
0.0
 40
0.0
 40
0.0
 40
0.0
 40
0.6160571281780741
 40
0.6160571281780741
 40
0.6160571281780741
 40
0.6381830403458852
 40
0.6381830403458852
 40
0.6381830403458852
 40
0.6602356803724143
 40
0.6602356803724143
 40
0.6602356803724143
 40
1.0
 40
1.0
 40
1.0
 40
1.0
 10
188.7759130623169
 20
104.2128192662428
 30
0.0
 10
188.7759130623169
 20
106.600103797248
 30
0.0
 10
188.7759130623169
 20
108.9873883282531
 30
0.0
 10
188.7759130623169
 20
111.3746728592582
 30
0.0
 10
188.7759130623169
 20
111.460636593308
 30
0.0
 10
188.8081494625856
 20
111.5412275939795
 30
0.0
 10
188.8726222631228
 20
111.6057003945168
 30
0.0
 10
188.934408696971
 20
111.667486828365
 30
0.0
 10
189.0123133309536
 20
111.6970368619446
 30
0.0
 10
189.1036497983814
 20
111.7024095953227
 30
0.0
 10
190.4154304426463
 20
111.7795731626324
 30
0.0
 10
191.7362891536534
 20
111.7024095953227
 30
0.0
 10
193.0526088312894
 20
111.7024095953227
 30
0.0
  0
LINE
  5
AE
330
40
100
AcDbEntity
  8
0015020
  6
Continuous
 62
     7
100
AcDbLine
 10
187.9431393887
 20
107.1517044241
 30
0.0
 11
185.5146639018
 21
107.1517044241
 31
0.0
  0
LINE
  5
AF
330
40
100
AcDbEntity
  8
0015020
  6
Continuous
 62
     7
100
AcDbLine
 10
185.5146639018
 20
107.1517044241
 30
0.0
 11
185.5146639018
 21
108.8011335711
 31
0.0
  0
LINE
  5
B0
330
40
100
AcDbEntity
  8
0015020
  6
Continuous
 62
     7
100
AcDbLine
 10
185.5146639018
 20
108.8011335711
 30
0.0
 11
187.9431393887
 21
108.8011335711
 31
0.0
  0
LINE
  5
B1
330
40
100
AcDbEntity
  8
0015020
  6
Continuous
 62
     7
100
AcDbLine
 10
187.9431393887
 20
108.8011335711
 30
0.0
 11
187.9431393887
 21
107.1517044241
 31
0.0
  0
SPLINE
  5
B2
330
40
100
AcDbEntity
  8
0015020
  6
Continuous
 62
     7
100
AcDbSpline
210
0.0
220
0.0
230
1.0
 70
    11
 71
     3
 72
    49
 73
    45
 74
     0
 42
0.0000000007484757
 43
0.0000000001
 12
1.0
 22
0.0
 32
0.0
 13
1.0
 23
0.0
 33
0.0
 40
0.0
 40
0.0
 40
0.0
 40
0.0
 40
0.0640458091489388
 40
0.0640458091489388
 40
0.0640458091489388
 40
0.126036694959619
 40
0.126036694959619
 40
0.126036694959619
 40
0.1893982429950875
 40
0.1893982429950875
 40
0.1893982429950875
 40
0.2610568406802541
 40
0.2610568406802541
 40
0.3162692028311204
 40
0.3162692028311204
 40
0.3162692028311204
 40
0.3755827546208229
 40
0.3755827546208229
 40
0.3755827546208229
 40
0.4360709593824267
 40
0.4360709593824267
 40
0.4360709593824267
 40
0.5004692921099966
 40
0.5004692921099966
 40
0.5636967460607004
 40
0.5636967460607004
 40
0.5636967460607004
 40
0.6242238586223252
 40
0.6242238586223252
 40
0.6242238586223252
 40
0.6808086566719731
 40
0.6808086566719731
 40
0.7373934547216212
 40
0.7373934547216212
 40
0.8108332989988241
 40
0.8108332989988241
 40
0.8108332989988241
 40
0.8744193566737818
 40
0.8744193566737818
 40
0.8744193566737818
 40
0.9363384967470847
 40
0.9363384967470847
 40
0.9363384967470847
 40
1.0
 40
1.0
 40
1.0
 40
1.0
 10
180.4105671926057
 20
105.8622484133214
 30
0.0
 10
180.7060675284015
 20
105.8622484133214
 30
0.0
 10
180.980076930685
 20
105.9159757471024
 30
0.0
 10
181.2379681328341
 20
106.0288031480427
 30
0.0
 10
181.4913497620494
 20
106.1396576108244
 30
0.0
 10
181.7161414034855
 20
106.297439816948
 30
0.0
 10
181.9041870717192
 20
106.501603685316
 30
0.0
 10
182.0920213735218
 20
106.7055380701302
 30
0.0
 10
182.248042007918
 20
106.9314223555645
 30
0.0
 10
182.3554966754801
 20
107.2054317578479
 30
0.0
 10
182.4618413481424
 20
107.4766106731367
 30
0.0
 10
182.5220514102014
 20
107.7749414959272
 30
0.0
 10
182.5220514102014
 20
108.3551967007626
 30
0.0
 10
182.4683240764203
 20
108.6023424361555
 30
0.0
 10
182.3554966754801
 20
108.8441154381703
 30
0.0
 10
182.2436300918228
 20
109.0838295460073
 30
0.0
 10
182.097605473331
 20
109.3007977753093
 30
0.0
 10
181.9041870717192
 20
109.4834707101649
 30
0.0
 10
181.713608418255
 20
109.6634616606588
 30
0.0
 10
181.4904866016051
 20
109.8165801796075
 30
0.0
 10
181.2379681328341
 20
109.9240348471696
 30
0.0
 10
180.9809006537019
 20
110.0334252638216
 30
0.0
 10
180.7060675284015
 20
110.0905895818909
 30
0.0
 10
180.120439590188
 20
110.0905895818909
 30
0.0
 10
179.8464301879046
 20
110.0314895147317
 30
0.0
 10
179.5885389857555
 20
109.9240348471696
 30
0.0
 10
179.3352257339404
 20
109.8184876589133
 30
0.0
 10
179.110365715104
 20
109.6661436450205
 30
0.0
 10
178.9223200468703
 20
109.4834707101649
 30
0.0
 10
178.7315101625979
 20
109.2981125368717
 30
0.0
 10
178.5784651106715
 20
109.085888440185
 30
0.0
 10
178.3528103087911
 20
108.6023424361555
 30
0.0
 10
178.2937102416319
 20
108.3551967007626
 30
0.0
 10
178.2937102416319
 20
107.7749414959272
 30
0.0
 10
178.3528103087911
 20
107.4740684267532
 30
0.0
 10
178.4656377097313
 20
107.2054317578479
 30
0.0
 10
178.5803832915784
 20
106.9322279915454
 30
0.0
 10
178.7289016452585
 20
106.7003948203059
 30
0.0
 10
178.9223200468703
 20
106.501603685316
 30
0.0
 10
179.1158110257435
 20
106.3027379570296
 30
0.0
 10
179.3360205169845
 20
106.1416305489829
 30
0.0
 10
179.5885389857555
 20
106.0288031480427
 30
0.0
 10
179.8455360839726
 20
105.9139746573499
 30
0.0
 10
180.120439590188
 20
105.8622484133214
 30
0.0
 10
180.4105671926057
 20
105.8622484133214
 30
0.0
  0
SPLINE
  5
B3
330
40
100
AcDbEntity
  8
0015020
  6
Continuous
 62
     7
100
AcDbSpline
210
0.0
220
0.0
230
1.0
 70
    11
 71
     3
 72
    45
 73
    41
 74
     0
 42
0.0000000003865992
 43
0.0000000001
 12
1.0
 22
0.0
 32
0.0
 13
1.0
 23
0.0
 33
0.0
 40
0.0
 40
0.0
 40
0.0
 40
0.0
 40
0.0610807296642292
 40
0.0610807296642292
 40
0.1221614593284574
 40
0.1221614593284574
 40
0.1221614593284574
 40
0.1821444036599107
 40
0.1821444036599107
 40
0.1821444036599107
 40
0.2439519464951847
 40
0.2439519464951847
 40
0.3110572787163395
 40
0.3110572787163395
 40
0.3110572787163395
 40
0.3724598008110294
 40
0.3724598008110294
 40
0.3724598008110294
 40
0.4358662139345487
 40
0.4358662139345487
 40
0.4992726270580694
 40
0.4992726270580694
 40
0.562112911492986
 40
0.562112911492986
 40
0.6249531959279033
 40
0.6249531959279033
 40
0.688717602192746
 40
0.688717602192746
 40
0.688717602192746
 40
0.7558597289527155
 40
0.7558597289527155
 40
0.8177011614947925
 40
0.8177011614947925
 40
0.8177011614947925
 40
0.877670464477703
 40
0.877670464477703
 40
0.877670464477703
 40
0.9388352322388516
 40
0.9388352322388516
 40
1.0
 40
1.0
 40
1.0
 40
1.0
 10
180.4105671926057
 20
111.9656735308499
 30
0.0
 10
180.9532132637944
 20
111.9656735308499
 30
0.0
 10
181.4743684014707
 20
111.868964330044
 30
0.0
 10
182.4629513430422
 20
111.4928729935766
 30
0.0
 10
182.9035154800469
 20
111.2296090580494
 30
0.0
 10
183.2849795498925
 20
110.8857541218506
 30
0.0
 10
183.6694078255998
 20
110.5392272254384
 30
0.0
 10
183.9780621556681
 20
110.1389441822938
 30
0.0
 10
184.2037169575486
 20
109.6607709116424
 30
0.0
 10
184.4282766870813
 20
109.1849181514422
 30
0.0
 10
184.5475718937474
 20
108.6721879700709
 30
0.0
 10
184.5475718937474
 20
107.4955593602656
 30
0.0
 10
184.4454899595634
 20
106.9421678223207
 30
0.0
 10
184.2413260911954
 20
106.4371308847787
 30
0.0
 10
184.0364075314851
 20
105.9302270791797
 30
0.0
 10
183.7470346204096
 20
105.4969025436102
 30
0.0
 10
183.3816887506984
 20
105.1261839405208
 30
0.0
 10
183.0190289614358
 20
104.7581909190632
 30
0.0
 10
182.5811514773606
 20
104.47608320177
 30
0.0
 10
181.5710776022766
 20
104.0677554650339
 30
0.0
 10
181.0123133309536
 20
103.9656735308499
 30
0.0
 10
179.8141937876359
 20
103.9656735308499
 30
0.0
 10
179.2554295163129
 20
104.0677554650339
 30
0.0
 10
178.2453556412289
 20
104.47608320177
 30
0.0
 10
177.8047915042242
 20
104.7608380708096
 30
0.0
 10
177.0687270314237
 20
105.4969025436102
 30
0.0
 10
176.7839721623841
 20
105.9320939472368
 30
0.0
 10
176.579808294016
 20
106.4371308847787
 30
0.0
 10
176.3748897343058
 20
106.9440346903778
 30
0.0
 10
176.2681897580859
 20
107.4955593602656
 30
0.0
 10
176.2681897580859
 20
108.6721879700709
 30
0.0
 10
176.3810171590261
 20
109.1879703743691
 30
0.0
 10
176.6120446942847
 20
109.6607709116424
 30
0.0
 10
176.8441559613359
 20
110.1357893186309
 30
0.0
 10
177.1439452987172
 20
110.5418991856518
 30
0.0
 10
177.5307821019408
 20
110.8857541218506
 30
0.0
 10
177.9146175851395
 20
111.2269412180272
 30
0.0
 10
178.3528103087911
 20
111.4928729935766
 30
0.0
 10
179.3521387171188
 20
111.868964330044
 30
0.0
 10
179.8732938547951
 20
111.9656735308499
 30
0.0
 10
180.4105671926057
 20
111.9656735308499
 30
0.0
  0
LINE
  5
B4
330
40
100
AcDbEntity
  8
0015020
  6
Continuous
 62
     7
100
AcDbLine
 10
171.7712119206
 20
106.8508313549
 30
0.0
 11
171.7712119206
 21
108.3659421675
 31
0.0
  0
LINE
  5
B5
330
40
100
AcDbEntity
  8
0015020
  6
Continuous
 62
     7
100
AcDbLine
 10
171.7712119206
 20
108.3659421675
 30
0.0
 11
175.5267525519
 21
108.3659421675
 31
0.0
  0
SPLINE
  5
B6
330
40
100
AcDbEntity
  8
0015020
  6
Continuous
 62
     7
100
AcDbSpline
210
0.0
220
0.0
230
1.0
 70
     8
 71
     3
 72
    50
 73
    46
 74
     0
 42
0.0000000004194392
 43
0.0000000001
 12
1.0
 22
0.0
 32
0.0
 13
1.0
 23
0.0
 33
0.0
 40
0.0
 40
0.0
 40
0.0
 40
0.0
 40
0.0095368391895993
 40
0.0095368391895993
 40
0.0095368391895993
 40
0.0395037170514113
 40
0.0395037170514113
 40
0.0694705949132233
 40
0.0694705949132233
 40
0.0694705949132233
 40
0.0987700269060016
 40
0.0987700269060016
 40
0.0987700269060016
 40
0.1304682656977111
 40
0.1304682656977111
 40
0.1304682656977111
 40
0.2060266945562954
 40
0.2060266945562954
 40
0.2815851234148796
 40
0.2815851234148796
 40
0.3513806212588266
 40
0.3513806212588266
 40
0.3513806212588266
 40
0.4149509500200373
 40
0.4149509500200373
 40
0.4149509500200373
 40
0.4786752836575528
 40
0.4786752836575528
 40
0.4786752836575528
 40
0.5480445314405915
 40
0.5480445314405915
 40
0.6199594396927317
 40
0.6199594396927317
 40
0.6199594396927317
 40
0.6846107975061422
 40
0.6846107975061422
 40
0.6846107975061422
 40
0.7533545842126637
 40
0.7533545842126637
 40
0.8220983709191848
 40
0.8220983709191848
 40
0.9104832395418525
 40
0.9104832395418525
 40
0.9104832395418525
 40
1.0
 40
1.0
 40
1.0
 40
1.0
 10
175.5267525519072
 20
108.3659421675188
 30
0.0
 10
175.5267525519072
 20
108.2907239002253
 30
0.0
 10
175.5267525519072
 20
108.2155056329319
 30
0.0
 10
175.5267525519072
 20
108.1402873656384
 30
0.0
 10
175.5267525519072
 20
107.8877688968674
 30
0.0
 10
175.5106343517729
 20
107.6459958948526
 30
0.0
 10
175.4891434182605
 20
107.1839408243355
 30
0.0
 10
175.46227975137
 20
106.9529132890769
 30
0.0
 10
175.4246706177233
 20
106.7272584871965
 30
0.0
 10
175.3869162750663
 20
106.5007324312547
 30
0.0
 10
175.3172159501611
 20
106.2813216168137
 30
0.0
 10
175.2366249494895
 20
106.0610395483113
 30
0.0
 10
175.1553997069448
 20
105.8390238853559
 30
0.0
 10
175.0324610811215
 20
105.6258481446847
 30
0.0
 10
174.8766518131564
 20
105.4055660761824
 30
0.0
 10
174.5073307172424
 20
104.8834224578211
 30
0.0
 10
174.0599963396843
 20
104.5083196020386
 30
0.0
 10
172.9961951308193
 20
104.0462645315215
 30
0.0
 10
172.4159399259838
 20
103.9280643972032
 30
0.0
 10
171.1963294491537
 20
103.9280643972032
 30
0.0
 10
170.6590561113431
 20
104.0247735980091
 30
0.0
 10
170.1647646405574
 20
104.2181919996209
 30
0.0
 10
169.6769556808639
 20
104.4090737664575
 30
0.0
 10
169.2567726996574
 20
104.6748743367599
 30
0.0
 10
168.9075450300805
 20
105.0241020063368
 30
0.0
 10
168.5583173605036
 20
105.3733296759137
 30
0.0
 10
168.2843079582202
 20
105.7870301460279
 30
0.0
 10
168.0855168232303
 20
106.2759488834356
 30
0.0
 10
167.8893625032951
 20
106.7583824811139
 30
0.0
 10
167.7953892208126
 20
107.3021409586538
 30
0.0
 10
167.7953892208126
 20
108.4948877685934
 30
0.0
 10
167.8920984216184
 20
109.0482793065383
 30
0.0
 10
168.0855168232303
 20
109.5479435107022
 30
0.0
 10
168.2778266427514
 20
110.0447438777984
 30
0.0
 10
168.5583173605037
 20
110.4666809183583
 30
0.0
 10
168.9129177634586
 20
110.8212813213133
 30
0.0
 10
169.2702045331027
 20
111.1785680909574
 30
0.0
 10
169.7027095700402
 20
111.4445183931736
 30
0.0
 10
170.702037978368
 20
111.8313551963973
 30
0.0
 10
171.2500567829348
 20
111.9280643972032
 30
0.0
 10
172.6254765277299
 20
111.9280643972032
 30
0.0
 10
173.3024409333713
 20
111.7507641957257
 30
0.0
 10
173.8826961382068
 20
111.4069092595269
 30
0.0
 10
174.4653077093563
 20
111.0616579581049
 30
0.0
 10
174.9142609468032
 20
110.5311537188956
 30
0.0
 10
175.2366249494895
 20
109.8219529129856
 30
0.0
  0
LINE
  5
B7
330
40
100
AcDbEntity
  8
0015020
  6
Continuous
 62
     7
100
AcDbLine
 10
175.2366249495
 20
109.821952913
 30
0.0
 11
173.3884046674
 21
109.0429065732
 31
0.0
  0
SPLINE
  5
B8
330
40
100
AcDbEntity
  8
0015020
  6
Continuous
 62
     7
100
AcDbSpline
210
0.0
220
0.0
230
1.0
 70
     8
 71
     3
 72
    41
 73
    37
 74
     0
 42
0.0000000008724768
 43
0.0000000001
 12
1.0
 22
0.0
 32
0.0
 13
1.0
 23
0.0
 33
0.0
 40
0.0
 40
0.0
 40
0.0
 40
0.0
 40
0.0950597166345052
 40
0.0950597166345052
 40
0.0950597166345052
 40
0.1912748478683917
 40
0.1912748478683917
 40
0.2656812160225952
 40
0.2656812160225952
 40
0.3400875841768013
 40
0.3400875841768013
 40
0.4144939523310092
 40
0.4144939523310092
 40
0.4144939523310092
 40
0.4893885391969743
 40
0.4893885391969743
 40
0.5671093368880714
 40
0.5671093368880714
 40
0.5671093368880714
 40
0.6403836161345473
 40
0.6403836161345473
 40
0.7136578953810259
 40
0.7136578953810259
 40
0.7136578953810259
 40
0.7917322936413138
 40
0.7917322936413138
 40
0.7917322936413138
 40
0.845755651811398
 40
0.845755651811398
 40
0.845755651811398
 40
0.895979689947168
 40
0.895979689947168
 40
0.9462037280829362
 40
0.9462037280829362
 40
0.9462037280829362
 40
1.0
 40
1.0
 40
1.0
 40
1.0
 10
173.388404667421
 20
109.0429065731602
 30
0.0
 10
173.2487135995903
 20
109.4028797094933
 30
0.0
 10
173.0499224646003
 20
109.693007311911
 30
0.0
 10
172.7705403289388
 20
109.9132893804134
 30
0.0
 10
172.4970835156528
 20
110.1288995601197
 30
0.0
 10
172.1634214572128
 20
110.2410261164779
 30
0.0
 10
171.4488479179247
 20
110.2410261164779
 30
0.0
 10
171.1640930488851
 20
110.1711805825625
 30
0.0
 10
170.6805470448555
 20
109.891798446901
 30
0.0
 10
170.4763831764875
 20
109.7091255120454
 30
0.0
 10
170.1540191738011
 20
109.2578159082844
 30
0.0
 10
170.0304463061047
 20
109.0052974395135
 30
0.0
 10
169.9498553054331
 20
108.7205425704738
 30
0.0
 10
169.8688658654042
 20
108.4343798823717
 30
0.0
 10
169.8209097043586
 20
108.1564055657727
 30
0.0
 10
169.8209097043586
 20
107.5761503609372
 30
0.0
 10
169.8692643047615
 20
107.2860227585195
 30
0.0
 10
169.9552280388112
 20
107.0120133562361
 30
0.0
 10
170.0427263022402
 20
106.7331126415563
 30
0.0
 10
170.1647646405574
 20
106.4801127518036
 30
0.0
 10
170.4978741099999
 20
106.0395486147989
 30
0.0
 10
170.702037978368
 20
105.8568756799433
 30
0.0
 10
170.9438109803828
 20
105.7225573454906
 30
0.0
 10
171.189689561677
 20
105.5859581336605
 30
0.0
 10
171.4703388514371
 20
105.5183934771226
 30
0.0
 10
171.7980755875016
 20
105.5237662105007
 30
0.0
 10
172.007467838539
 20
105.5271988703538
 30
0.0
 10
172.2117760576158
 20
105.5506298773912
 30
0.0
 10
172.4051944592276
 20
105.6043572111723
 30
0.0
 10
172.5999983794756
 20
105.6584694112412
 30
0.0
 10
172.7759130623169
 20
105.7440482790031
 30
0.0
 10
173.0767861314908
 20
105.9697030808835
 30
0.0
 10
173.2003589991873
 20
106.1040214153361
 30
0.0
 10
173.2970681999932
 20
106.2705761500575
 30
0.0
 10
173.3914443383672
 20
106.4331128328127
 30
0.0
 10
173.4528774679583
 20
106.6251765530124
 30
0.0
 10
173.4743684014707
 20
106.8508313548929
 30
0.0
  0
LINE
  5
B9
330
40
100
AcDbEntity
  8
0015020
  6
Continuous
 62
     7
100
AcDbLine
 10
173.4743684015
 20
106.8508313549
 30
0.0
 11
171.7712119206
 21
106.8508313549
 31
0.0
  0
LINE
  5
BA
330
40
100
AcDbEntity
  8
0015020
  6
Continuous
 62
     7
100
AcDbLine
 10
167.1614066822
 20
111.7024095953
 30
0.0
 11
167.1614066822
 21
110.0529804482
 31
0.0
  0
LINE
  5
BB
330
40
100
AcDbEntity
  8
0015020
  6
Continuous
 62
     7
100
AcDbLine
 10
167.1614066822
 20
110.0529804482
 30
0.0
 11
164.8403858629
 21
110.0529804482
 31
0.0
  0
LINE
  5
BC
330
40
100
AcDbEntity
  8
0015020
  6
Continuous
 62
     7
100
AcDbLine
 10
164.8403858629
 20
110.0529804482
 30
0.0
 11
164.8403858629
 21
108.8011335711
 31
0.0
  0
LINE
  5
BD
330
40
100
AcDbEntity
  8
0015020
  6
Continuous
 62
     7
100
AcDbLine
 10
164.8403858629
 20
108.8011335711
 30
0.0
 11
167.0485792813
 21
108.8011335711
 31
0.0
  0
LINE
  5
BE
330
40
100
AcDbEntity
  8
0015020
  6
Continuous
 62
     7
100
AcDbLine
 10
167.0485792813
 20
108.8011335711
 30
0.0
 11
167.0485792813
 21
107.1517044241
 31
0.0
  0
LINE
  5
BF
330
40
100
AcDbEntity
  8
0015020
  6
Continuous
 62
     7
100
AcDbLine
 10
167.0485792813
 20
107.1517044241
 30
0.0
 11
164.8403858629
 21
107.1517044241
 31
0.0
  0
LINE
  5
C0
330
40
100
AcDbEntity
  8
0015020
  6
Continuous
 62
     7
100
AcDbLine
 10
164.8403858629
 20
107.1517044241
 30
0.0
 11
164.8403858629
 21
105.8622484133
 31
0.0
  0
LINE
  5
C1
330
40
100
AcDbEntity
  8
0015020
  6
Continuous
 62
     7
100
AcDbLine
 10
164.8403858629
 20
105.8622484133
 30
0.0
 11
167.1614066822
 21
105.8622484133
 31
0.0
  0
LINE
  5
C2
330
40
100
AcDbEntity
  8
0015020
  6
Continuous
 62
     7
100
AcDbLine
 10
167.1614066822
 20
105.8622484133
 30
0.0
 11
167.1614066822
 21
104.2128192662
 31
0.0
  0
LINE
  5
C3
330
40
100
AcDbEntity
  8
0015020
  6
Continuous
 62
     7
100
AcDbLine
 10
167.1614066822
 20
104.2128192662
 30
0.0
 11
162.9062018467
 21
104.2128192662
 31
0.0
  0
SPLINE
  5
C4
330
40
100
AcDbEntity
  8
0015020
  6
Continuous
 62
     7
100
AcDbSpline
210
0.0
220
0.0
230
1.0
 70
     8
 71
     3
 72
    17
 73
    13
 74
     0
 42
0.000000000860545
 43
0.0000000001
 12
1.0
 22
0.0
 32
0.0
 13
1.0
 23
0.0
 33
0.0
 40
0.0
 40
0.0
 40
0.0
 40
0.0
 40
0.6171827868259717
 40
0.6171827868259717
 40
0.6171827868259717
 40
0.6393491274268537
 40
0.6393491274268537
 40
0.6393491274268537
 40
0.6609942361429079
 40
0.6609942361429079
 40
0.6609942361429079
 40
1.0
 40
1.0
 40
1.0
 40
1.0
 10
162.906201846736
 20
104.2128192662428
 30
0.0
 10
162.906201846736
 20
106.600103797248
 30
0.0
 10
162.906201846736
 20
108.9873883282531
 30
0.0
 10
162.906201846736
 20
111.3746728592582
 30
0.0
 10
162.906201846736
 20
111.460636593308
 30
0.0
 10
162.9384382470046
 20
111.5412275939795
 30
0.0
 10
163.0029110475419
 20
111.6057003945168
 30
0.0
 10
163.0646974813901
 20
111.667486828365
 30
0.0
 10
163.1426021153727
 20
111.6970368619446
 30
0.0
 10
163.2285658494224
 20
111.7024095953227
 30
0.0
 10
164.5344118328076
 20
111.7840249692843
 30
0.0
 10
165.8504597379381
 20
111.7024095953227
 30
0.0
 10
167.161406682196
 20
111.7024095953227
 30
0.0
  0
SPLINE
  5
C5
330
40
100
AcDbEntity
  8
0015020
  6
Continuous
 62
     7
100
AcDbSpline
210
0.0
220
0.0
230
1.0
 70
     8
 71
     3
 72
    38
 73
    34
 74
     0
 42
0.0000000005824381
 43
0.0000000001
 12
1.0
 22
0.0
 32
0.0
 13
1.0
 23
0.0
 33
0.0
 40
0.0
 40
0.0
 40
0.0
 40
0.0
 40
0.4185161019968237
 40
0.4185161019968237
 40
0.4185161019968237
 40
0.4335472575342684
 40
0.4335472575342684
 40
0.4335472575342684
 40
0.4479217186260064
 40
0.4479217186260064
 40
0.4479217186260064
 40
0.598983570946455
 40
0.598983570946455
 40
0.598983570946455
 40
0.6597092518894547
 40
0.6597092518894547
 40
0.6597092518894547
 40
0.714253313465565
 40
0.714253313465565
 40
0.714253313465565
 40
0.7673648438628522
 40
0.7673648438628522
 40
0.7673648438628522
 40
0.8310017362219541
 40
0.8310017362219541
 40
0.8731396784597377
 40
0.8731396784597377
 40
0.8731396784597377
 40
0.9154264523064914
 40
0.9154264523064914
 40
0.9577132261532453
 40
0.9577132261532453
 40
1.0
 40
1.0
 40
1.0
 40
1.0
 10
156.0613395230288
 20
104.2128192662428
 30
0.0
 10
156.0613395230288
 20
106.600103797248
 30
0.0
 10
156.0613395230288
 20
108.9873883282531
 30
0.0
 10
156.0613395230288
 20
111.3746728592582
 30
0.0
 10
156.0613395230288
 20
111.460636593308
 30
0.0
 10
156.0935759232975
 20
111.5412275939795
 30
0.0
 10
156.1580487238347
 20
111.6057003945168
 30
0.0
 10
156.219835157683
 20
111.667486828365
 30
0.0
 10
156.2977397916655
 20
111.6970368619446
 30
0.0
 10
156.3783307923371
 20
111.7024095953227
 30
0.0
 10
157.2359474145281
 20
111.7595840368021
 30
0.0
 10
158.1011872955831
 20
111.7024095953227
 30
0.0
 10
158.9626155472061
 20
111.7024095953227
 30
0.0
 10
159.3333341502954
 20
111.7024095953227
 30
0.0
 10
159.6771890864942
 20
111.6540549949198
 30
0.0
 10
159.9888076224244
 20
111.562718527492
 30
0.0
 10
160.3053738383666
 20
111.4699318779917
 30
0.0
 10
160.5798082940161
 20
111.3316909922334
 30
0.0
 10
160.8162085626527
 20
111.1436453239997
 30
0.0
 10
161.0493182233109
 20
110.9582171848398
 30
0.0
 10
161.2299090327669
 20
110.7191993871293
 30
0.0
 10
161.3642273672195
 20
110.4290717847116
 30
0.0
 10
161.4975973937475
 20
110.1409925274112
 30
0.0
 10
161.5576457688313
 20
109.795089246095
 30
0.0
 10
161.5576457688313
 20
109.134243040588
 30
0.0
 10
161.5254093685627
 20
108.8870973051951
 30
0.0
 10
161.4501911012692
 20
108.6560697699366
 30
0.0
 10
161.3739061690606
 20
108.4217660495814
 30
0.0
 10
161.2728908997917
 20
108.2101328995538
 30
0.0
 10
160.9935087641302
 20
107.8340415630863
 30
0.0
 10
160.8215812960308
 20
107.6728595617431
 30
0.0
 10
160.4132535592948
 20
107.414968359594
 30
0.0
 10
160.1822260240362
 20
107.3236318921662
 30
0.0
 10
159.918962088509
 20
107.2806500251414
 30
0.0
  0
LINE
  5
C6
330
40
100
AcDbEntity
  8
0015020
  6
Continuous
 62
     7
100
AcDbLine
 10
159.9189620885
 20
107.2806500251
 30
0.0
 11
162.2722193081
 21
104.2128192662
 31
0.0
  0
LINE
  5
C7
330
40
100
AcDbEntity
  8
0015020
  6
Continuous
 62
     7
100
AcDbLine
 10
162.2722193081
 20
104.2128192662
 30
0.0
 11
159.8491165546
 21
104.2128192662
 31
0.0
  0
LINE
  5
C8
330
40
100
AcDbEntity
  8
0015020
  6
Continuous
 62
     7
100
AcDbLine
 10
159.8491165546
 20
104.2128192662
 30
0.0
 11
157.9955235391
 21
107.0872316235
 31
0.0
  0
LINE
  5
C9
330
40
100
AcDbEntity
  8
0015020
  6
Continuous
 62
     7
100
AcDbLine
 10
157.9955235391
 20
107.0872316235
 30
0.0
 11
157.9955235391
 21
104.2128192662
 31
0.0
  0
SPLINE
  5
CA
330
40
100
AcDbEntity
  8
0015020
  6
Continuous
 62
     7
100
AcDbSpline
210
0.0
220
0.0
230
1.0
 70
     8
 71
     3
 72
    29
 73
    25
 74
     0
 42
0.0000000025219643
 43
0.0000000001
 12
1.0
 22
0.0
 32
0.0
 13
1.0
 23
0.0
 33
0.0
 40
0.0
 40
0.0
 40
0.0
 40
0.0
 40
0.1206573395253218
 40
0.1206573395253218
 40
0.1206573395253218
 40
0.2363689058369833
 40
0.2363689058369833
 40
0.2363689058369833
 40
0.360519731054316
 40
0.360519731054316
 40
0.4846705562716489
 40
0.4846705562716489
 40
0.6055542545095784
 40
0.6055542545095784
 40
0.6055542545095784
 40
0.7179039257351768
 40
0.7179039257351768
 40
0.8302535969607805
 40
0.8302535969607805
 40
0.8302535969607805
 40
0.9508710001166434
 40
0.9508710001166434
 40
0.9508710001166434
 40
1.0
 40
1.0
 40
1.0
 40
1.0
 10
158.1889419407588
 20
108.3283330338721
 30
0.0
 10
158.3447512087239
 20
108.3283330338721
 30
0.0
 10
158.5059332100671
 20
108.3390785006283
 30
0.0
 10
158.6617424780322
 20
108.3659421675188
 30
0.0
 10
158.8218697857561
 20
108.393550324023
 30
0.0
 10
158.9626155472061
 20
108.4304149680561
 30
0.0
 10
159.0969338816588
 20
108.4948877685934
 30
0.0
 10
159.2291562212955
 20
108.558354491619
 30
0.0
 10
159.3333341502954
 20
108.6506970365584
 30
0.0
 10
159.4945161516386
 20
108.8978427719513
 30
0.0
 10
159.5321252852854
 20
109.0643975066726
 30
0.0
 10
159.5321252852854
 20
109.4673525100306
 30
0.0
 10
159.4945161516386
 20
109.6285345113738
 30
0.0
 10
159.413925150967
 20
109.7574801124483
 30
0.0
 10
159.335748861926
 20
109.8825621749139
 30
0.0
 10
159.2312522161114
 20
109.9723894475726
 30
0.0
 10
158.9626155472061
 20
110.1013350486471
 30
0.0
 10
158.8229244793754
 20
110.144316915672
 30
0.0
 10
158.6617424780322
 20
110.1658078491844
 30
0.0
 10
158.5051355116616
 20
110.1866887780338
 30
0.0
 10
158.3447512087239
 20
110.2034169828311
 30
0.0
 10
158.1889419407588
 20
110.2034169828311
 30
0.0
 10
158.1244691402215
 20
110.2034169828311
 30
0.0
 10
158.0599963396843
 20
110.2034169828311
 30
0.0
 10
157.995523539147
 20
110.2034169828311
 30
0.0
  0
LINE
  5
CB
330
40
100
AcDbEntity
  8
0015020
  6
Continuous
 62
     7
100
AcDbLine
 10
157.9955235391
 20
110.2034169828
 30
0.0
 11
157.9955235391
 21
108.3283330339
 31
0.0
  0
LINE
  5
CC
330
40
100
AcDbEntity
  8
0015020
  6
Continuous
 62
     7
100
AcDbLine
 10
157.9955235391
 20
108.3283330339
 30
0.0
 11
158.1889419408
 21
108.3283330339
 31
0.0
  0
LINE
  5
CD
330
40
100
AcDbEntity
  8
0015020
  6
Continuous
 62
     7
100
AcDbLine
 10
157.9955235391
 20
104.2128192662
 30
0.0
 11
156.061339523
 21
104.2128192662
 31
0.0
  0
ENDBLK
  5
CF
330
40
100
AcDbEntity
  8
0
100
AcDbBlockEnd
  0
BLOCK
  5
D6
330
D0
100
AcDbEntity
  8
0
100
AcDbBlockBegin
  2
SE1
 70
     0
 10
0.0
 20
0.0
 30
0.0
  3
SE1
  1

  0
LINE
  5
D2
330
D0
100
AcDbEntity
  8
0015020
  6
Continuous
 62
     7
100
AcDbLine
 10
221.4700131295
 20
83.6238098481
 30
0.0
 11
71.4700131295
 21
83.6238098481
 31
0.0
  0
LINE
  5
D3
330
D0
100
AcDbEntity
  8
0015020
  6
Continuous
 62
     7
100
AcDbLine
 10
221.4700131295
 20
53.6238098481
 30
0.0
 11
71.4700131295
 21
53.6238098481
 31
0.0
  0
LINE
  5
D4
330
D0
100
AcDbEntity
  8
0015020
  6
Continuous
 62
     7
100
AcDbLine
 10
71.4700131295
 20
83.6238098481
 30
0.0
 11
71.4700131295
 21
53.6238098481
 31
0.0
  0
LINE
  5
D5
330
D0
100
AcDbEntity
  8
0015020
  6
Continuous
 62
     7
100
AcDbLine
 10
221.4700131295
 20
83.6238098481
 30
0.0
 11
221.4700131295
 21
53.6238098481
 31
0.0
  0
ENDBLK
  5
D7
330
D0
100
AcDbEntity
  8
0
100
AcDbBlockEnd
  0
BLOCK
  5
DA
330
D9
100
AcDbEntity
  8
0
100
AcDbBlockBegin
  2
_OBLIQUE
 70
     0
 10
0.0
 20
0.0
 30
0.0
  3
_OBLIQUE
  1

  0
LINE
  5
DC
330
D9
100
AcDbEntity
  8
0
  6
ByBlock
 62
     0
370
    -2
100
AcDbLine
 10
-0.5
 20
-0.5
 30
0.0
 11
0.5
 21
0.5
 31
0.0
  0
ENDBLK
  5
DB
330
D9
100
AcDbEntity
  8
0
100
AcDbBlockEnd
  0
BLOCK
  5
DE
330
DD
100
AcDbEntity
  8
0
100
AcDbBlockBegin
  2
_DOT
 70
     0
 10
0.0
 20
0.0
 30
0.0
  3
_DOT
  1

  0
POLYLINE
  5
E0
330
DD
100
AcDbEntity
  8
0
  6
ByBlock
 62
     0
100
AcDb2dPolyline
 66
     1
 10
0.0
 20
0.0
 30
0.0
 70
     1
 40
0.5
 41
0.5
  0
VERTEX
  5
E2
330
E0
100
AcDbEntity
  8
0
  6
ByBlock
 62
     0
100
AcDbVertex
100
AcDb2dVertex
 10
-0.25
 20
0.0
 30
0.0
 42
1.0
  0
VERTEX
  5
E3
330
E0
100
AcDbEntity
  8
0
  6
ByBlock
 62
     0
100
AcDbVertex
100
AcDb2dVertex
 10
0.25
 20
0.0
 30
0.0
 42
1.0
  0
SEQEND
  5
E4
330
E0
100
AcDbEntity
  8
0
  6
ByBlock
 62
     0
  0
LINE
  5
E1
330
DD
100
AcDbEntity
  8
0
  6
ByBlock
 62
     0
370
    -2
100
AcDbLine
 10
-0.5
 20
0.0
 30
0.0
 11
-1.0
 21
0.0
 31
0.0
  0
ENDBLK
  5
DF
330
DD
100
AcDbEntity
  8
0
100
AcDbBlockEnd
  0
BLOCK
  5
E8
330
E5
100
AcDbEntity
  8
0
100
AcDbBlockBegin
  2
_SE_FILLED
 70
     0
 10
0.0
 20
0.0
 30
0.0
  3
_SE_FILLED
  1

  0
SOLID
  5
E6
330
E5
100
AcDbEntity
  8
0
 62
     0
100
AcDbTrace
 10
0.0
 20
0.0
 30
0.0
 11
-1.0
 21
-0.1665
 31
0.0
 12
-1.0
 22
0.1665
 32
0.0
 13
0.0
 23
0.0
 33
0.0
  0
LINE
  5
E7
330
E5
100
AcDbEntity
  8
0
 62
     0
100
AcDbLine
 10
0.0
 20
0.0
 30
0.0
 11
-1.0
 21
0.0
 31
0.0
  0
ENDBLK
  5
E9
330
E5
100
AcDbEntity
  8
0
100
AcDbBlockEnd
  0
BLOCK
  5
F4
330
ED
100
AcDbEntity
  8
0
100
AcDbBlockBegin
  2
DMBLK78
 70
     0
 10
0.0
 20
0.0
 30
0.0
  3
DMBLK78
  1

  0
HATCH
  5
EE
330
ED
100
AcDbEntity
  8
Default
  6
Continuous
 62
     7
100
AcDbHatch
 10
0.0
 20
0.0
 30
0.0
210
0.0
220
0.0
230
1.0
  2
SOLID
 70
     1
 71
     0
 91
        1
 92
        1
 93
        3
 72
     1
 10
217.9700130214426
 20
160.7447598996284
 11
217.9700130214426
 21
159.5780931969506
 72
     1
 10
217.9700130214426
 20
159.5780931969506
 11
221.4700131294761
 21
160.1614265482895
 72
     1
 10
221.4700131294761
 20
160.1614265482895
 11
217.9700130214426
 21
160.7447598996284
 97
        0
 75
     0
 76
     1
 98
        0
  0
HATCH
  5
EF
330
ED
100
AcDbEntity
  8
Default
  6
Continuous
 62
     7
100
AcDbHatch
 10
0.0
 20
0.0
 30
0.0
210
0.0
220
0.0
230
1.0
  2
SOLID
 70
     1
 71
     0
 91
        1
 92
        1
 93
        3
 72
     1
 10
74.970007277045
 20
160.7447598996284
 11
71.47000716901158
 21
160.1614265482895
 72
     1
 10
71.47000716901158
 20
160.1614265482895
 11
74.970007277045
 21
159.5780931969506
 72
     1
 10
74.970007277045
 20
159.5780931969506
 11
74.970007277045
 21
160.7447598996284
 97
        0
 75
     0
 76
     1
 98
        0
  0
LINE
  5
F0
330
ED
100
AcDbEntity
  8
Default
  6
Continuous
 62
     7
100
AcDbLine
 10
221.4700131295
 20
149.2930643972
 30
0.0
 11
221.4700131295
 21
161.9114266023
 31
0.0
  0
LINE
  5
F1
330
ED
100
AcDbEntity
  8
Default
  6
Continuous
 62
     7
100
AcDbLine
 10
71.4700131295
 20
149.2930643972
 30
0.0
 11
71.4700131295
 21
161.9114266023
 31
0.0
  0
LINE
  5
F2
330
ED
100
AcDbEntity
  8
Default
  6
Continuous
 62
     7
100
AcDbLine
 10
221.4700131295
 20
160.1614265483
 30
0.0
 11
71.470007169
 21
160.1614265483
 31
0.0
  0
TEXT
  5
F3
330
ED
100
AcDbEntity
  8
Default
  6
Continuous
 62
     7
100
AcDbText
 10
143.7256919674
 20
161.0364265483
 30
0.0
 40
3.5
  1
150
  7
SEACAD_Solid_Edge_ISO
 11
143.7256919674
 21
164.5364265483
 31
0.0
100
AcDbText
 73
     3
  0
ENDBLK
  5
F5
330
ED
100
AcDbEntity
  8
0
100
AcDbBlockEnd
  0
BLOCK
  5
FE
330
F7
100
AcDbEntity
  8
0
100
AcDbBlockBegin
  2
DMBLK79
 70
     0
 10
0.0
 20
0.0
 30
0.0
  3
DMBLK79
  1

  0
HATCH
  5
F8
330
F7
100
AcDbEntity
  8
Default
  6
Continuous
 62
     7
100
AcDbHatch
 10
0.0
 20
0.0
 30
0.0
210
0.0
220
0.0
230
1.0
  2
SOLID
 70
     1
 71
     0
 91
        1
 92
        1
 93
        3
 72
     1
 10
62.61992346707817
 20
145.7930642891697
 11
63.78659016975599
 21
145.7930642891697
 72
     1
 10
63.78659016975599
 20
145.7930642891697
 11
63.20325681841708
 21
149.2930643972032
 72
     1
 10
63.20325681841708
 20
149.2930643972032
 11
62.61992346707817
 21
145.7930642891697
 97
        0
 75
     0
 76
     1
 98
        0
  0
HATCH
  5
F9
330
F7
100
AcDbEntity
  8
Default
  6
Continuous
 62
     7
100
AcDbHatch
 10
0.0
 20
0.0
 30
0.0
210
0.0
220
0.0
230
1.0
  2
SOLID
 70
     1
 71
     0
 91
        1
 92
        1
 93
        3
 72
     1
 10
62.61992346707817
 20
102.7930637601785
 11
63.20325681841708
 21
99.29306365214511
 72
     1
 10
63.20325681841708
 20
99.29306365214511
 11
63.78659016975599
 21
102.7930637601785
 72
     1
 10
63.78659016975599
 20
102.7930637601785
 11
62.61992346707817
 21
102.7930637601785
 97
        0
 75
     0
 76
     1
 98
        0
  0
LINE
  5
FA
330
F7
100
AcDbEntity
  8
Default
  6
Continuous
 62
     7
100
AcDbLine
 10
71.4700131295
 20
149.2930643972
 30
0.0
 11
61.4532567644
 21
149.2930643972
 31
0.0
  0
LINE
  5
FB
330
F7
100
AcDbEntity
  8
Default
  6
Continuous
 62
     7
100
AcDbLine
 10
71.4700131295
 20
99.2930643972
 30
0.0
 11
61.4532567644
 21
99.2930643972
 31
0.0
  0
LINE
  5
FC
330
F7
100
AcDbEntity
  8
Default
  6
Continuous
 62
     7
100
AcDbLine
 10
63.2032568184
 20
149.2930643972
 30
0.0
 11
63.2032568184
 21
99.2930636521
 31
0.0
  0
TEXT
  5
FD
330
F7
100
AcDbEntity
  8
Default
  6
Continuous
 62
     7
100
AcDbText
 10
62.3282568184
 20
122.2646549338
 30
0.0
 40
3.5
  1
50
 50
90.0
  7
SEACAD_Solid_Edge_ISO
 11
58.8282568184
 21
122.2646549338
 31
0.0
100
AcDbText
 73
     3
  0
ENDBLK
  5
FF
330
F7
100
AcDbEntity
  8
0
100
AcDbBlockEnd
  0
BLOCK
  5
108
330
101
100
AcDbEntity
  8
0
100
AcDbBlockBegin
  2
DMBLK80
 70
     0
 10
0.0
 20
0.0
 30
0.0
  3
DMBLK80
  1

  0
HATCH
  5
102
330
101
100
AcDbEntity
  8
Default
  6
Continuous
 62
     7
100
AcDbHatch
 10
0.0
 20
0.0
 30
0.0
210
0.0
220
0.0
230
1.0
  2
SOLID
 70
     1
 71
     0
 91
        1
 92
        1
 93
        3
 72
     1
 10
62.61992346707817
 20
80.12380974006807
 11
63.78659016975599
 21
80.12380974006807
 72
     1
 10
63.78659016975599
 20
80.12380974006807
 11
63.20325681841708
 21
83.62380984810149
 72
     1
 10
63.20325681841708
 20
83.62380984810149
 11
62.61992346707817
 21
80.12380974006807
 97
        0
 75
     0
 76
     1
 98
        0
  0
HATCH
  5
103
330
101
100
AcDbEntity
  8
Default
  6
Continuous
 62
     7
100
AcDbHatch
 10
0.0
 20
0.0
 30
0.0
210
0.0
220
0.0
230
1.0
  2
SOLID
 70
     1
 71
     0
 91
        1
 92
        1
 93
        3
 72
     1
 10
62.61992346707817
 20
57.12381062668716
 11
63.20325681841708
 21
53.62381051865374
 72
     1
 10
63.20325681841708
 20
53.62381051865374
 11
63.78659016975599
 21
57.12381062668716
 72
     1
 10
63.78659016975599
 20
57.12381062668716
 11
62.61992346707817
 21
57.12381062668716
 97
        0
 75
     0
 76
     1
 98
        0
  0
LINE
  5
104
330
101
100
AcDbEntity
  8
Default
  6
Continuous
 62
     7
100
AcDbLine
 10
71.4700131295
 20
83.6238098481
 30
0.0
 11
61.4532567644
 21
83.6238098481
 31
0.0
  0
LINE
  5
105
330
101
100
AcDbEntity
  8
Default
  6
Continuous
 62
     7
100
AcDbLine
 10
71.4700131295
 20
53.6238098481
 30
0.0
 11
61.4532567644
 21
53.6238098481
 31
0.0
  0
LINE
  5
106
330
101
100
AcDbEntity
  8
Default
  6
Continuous
 62
     7
100
AcDbLine
 10
63.2032568184
 20
83.6238098481
 30
0.0
 11
63.2032568184
 21
53.6238105187
 31
0.0
  0
TEXT
  5
107
330
101
100
AcDbEntity
  8
Default
  6
Continuous
 62
     7
100
AcDbText
 10
62.3282568184
 20
66.674946547
 30
0.0
 40
3.5
  1
30
 50
90.0
  7
SEACAD_Solid_Edge_ISO
 11
58.8282568184
 21
66.674946547
 31
0.0
100
AcDbText
 73
     3
  0
ENDBLK
  5
109
330
101
100
AcDbEntity
  8
0
100
AcDbBlockEnd
  0
BLOCK
  5
10D
330
10A
100
AcDbEntity
  8
0
100
AcDbBlockBegin
  2
SEANNOT_GROUP
 70
     0
 10
0.0
 20
0.0
 30
0.0
  3
SEANNOT_GROUP
  1

  0
TEXT
  5
10C
330
10A
100
AcDbEntity
  8
Default
  6
Continuous
 62
     7
100
AcDbText
 10
243.1483969886
 20
25.7525109624
 30
0.0
 40
3.5
  1
769806000
  7
SEACAD_Solid_Edge_ANSIB
 11
243.1483969886
 21
29.2525109624
 31
0.0
100
AcDbText
 73
     3
  0
ENDBLK
  5
10E
330
10A
100
AcDbEntity
  8
0
100
AcDbBlockEnd
  0
BLOCK
  5
112
330
10F
100
AcDbEntity
  8
0
100
AcDbBlockBegin
  2
SEANNOT_GROUP1
 70
     0
 10
0.0
 20
0.0
 30
0.0
  3
SEANNOT_GROUP1
  1

  0
TEXT
  5
111
330
10F
100
AcDbEntity
  8
Default
  6
Continuous
 62
     7
100
AcDbText
 10
243.1477357349
 20
20.0537100543
 30
0.0
 40
3.5
  1
03.05.2016
  7
SEACAD_Solid_Edge_ANSI
 11
243.1477357349
 21
23.5537100543
 31
0.0
100
AcDbText
 73
     3
  0
ENDBLK
  5
113
330
10F
100
AcDbEntity
  8
0
100
AcDbBlockEnd
  0
BLOCK
  5
116
330
114
100
AcDbEntity
  8
0
100
AcDbBlockBegin
  2
SEANNOT_GROUP2
 70
     0
 10
0.0
 20
0.0
 30
0.0
  3
SEANNOT_GROUP2
  1

  0
TEXT
  5
115
330
114
100
AcDbEntity
  8
Default
  6
Continuous
 62
     7
100
AcDbText
 10
243.1795282745
 20
31.5598894014
 30
0.0
 40
3.5
  1
CTPG 6
  7
SEACAD_Solid_Edge_ANSIB
 11
243.1795282745
 21
35.0598894014
 31
0.0
100
AcDbText
 73
     3
  0
ENDBLK
  5
117
330
114
100
AcDbEntity
  8
0
100
AcDbBlockEnd
  0
BLOCK
  5
11A
330
118
100
AcDbEntity
  8
0
100
AcDbBlockBegin
  2
SEANNOT_GROUP3
 70
     0
 10
0.0
 20
0.0
 30
0.0
  3
SEANNOT_GROUP3
  1

  0
TEXT
  5
119
330
118
100
AcDbEntity
  8
Default
  6
Continuous
 62
     7
100
AcDbText
 10
243.2357917511
 20
14.1955389783
 30
0.0
 40
3.5
  1
1:1
  7
SEACAD_Solid_Edge_ANSI
 11
243.2357917511
 21
17.6955389783
 31
0.0
100
AcDbText
 73
     3
  0
ENDBLK
  5
11B
330
118
100
AcDbEntity
  8
0
100
AcDbBlockEnd
  0
BLOCK
  5
169
330
11C
100
AcDbEntity
  8
0
100
AcDbBlockBegin
  2
RF-Massblatt_2016
 70
     0
 10
0.0
 20
0.0
 30
0.0
  3
RF-Massblatt_2016
  1

  0
MTEXT
  5
11D
102
{ACAD_XDICTIONARY
360
173
102
}
330
11C
100
AcDbEntity
  8
Default
100
AcDbMText
 10
15.2206856049
 20
34.8070876502
 30
0.0
 40
2.5
 41
48.9706096033
 71
     1
 72
     1
  3
{\fVectora Com 45 Light|b1||i0||c0|p34;\C7;\H2.5;\W1.;REGO-FIX AG\P}{\fVectora Com 45 Light|b0||i0||c0|p34;\C7;\H2.5;\W1.;Obermattweg 60\P}{\fVectora Com 45 Light|b0||i0||c0|p34;\C7;\H2.5;\W1.;4456 Tenniken / Switzerland\P}{\fVectora Com 45 Light|b0
  3
||i0||c0|p34;\C7;\H2.5;\W1.;\P}{\fVectora Com 45 Light|b0||i0||c0|p34;\C7;\H2.5;\W1.;P +41 61 976 14 66\P}{\fVectora Com 45 Light|b0||i0||c0|p34;\C7;\H2.5;\W1.;F +41 61 976 14 14\P}{\fVectora Com 45 Light|b1||i0||c0|p34;\C7;\H2.5;\W1.;www.rego-fix.c
  1
om}
 73
     1
 44
1.0
1001
ACAD
1000
ACAD_MTEXT_DEFINED_HEIGHT_BEGIN
1070
    46
1040
31.3191355437
1000
ACAD_MTEXT_DEFINED_HEIGHT_END
  0
MTEXT
  5
11E
102
{ACAD_XDICTIONARY
360
175
102
}
330
11C
100
AcDbEntity
  8
Default
100
AcDbMText
 10
90.3836341545
 20
34.4892285804
 30
0.0
 40
2.5
 41
104.0282149141
 71
     1
 72
     1
  3
{\fSolid Edge ISO|b0||i0||c0|p34;\C7;\H2.;\W1.;This is a non-controlled copy. All information given herein is subject to change without notice\P}{\fSolid Edge ISO|b0||i0||c0|p34;\C7;\H2.;\W1.;\P}{\fSolid Edge ISO|b0||i0||c0|p34;\C7;\H2.;\W1.;The inf
  3
ormation given herein has been carefully checked and is believed to be correct. REGO-FIX,\P}{\fSolid Edge ISO|b0||i0||c0|p34;\C7;\H2.;\W1.;however, assumes no responsibility or liability for any errors, inaccuracies or omissions that may appear\P}{\
  3
fSolid Edge ISO|b0||i0||c0|p34;\C7;\H2.;\W1.;in this drawing\P}{\fSolid Edge ISO|b0||i0||c0|p34;\C7;\H2.;\W1.;\P}{\fSolid Edge ISO|b0||i0||c0|p34;\C7;\H2.;\W1.;This document is subject to copyright laws. No part of this document may be reproduced or
  3
 transmitted\P}{\fSolid Edge ISO|b0||i0||c0|p34;\C7;\H2.;\W1.;in any form or any means, electronic or mechanic, for any purpose, without the express written permission\P}{\fSolid Edge ISO|b0||i0||c0|p34;\C7;\H2.;\W1.;of REGO-FIX\P}{\fSolid Edge ISO|
  1
b0||i0||c0|p34;\C7;\H1.5;\W1.;\P}
 73
     1
 44
1.0
1001
ACAD
1000
ACAD_MTEXT_DEFINED_HEIGHT_BEGIN
1070
    46
1040
38.4545554545
1000
ACAD_MTEXT_DEFINED_HEIGHT_END
  0
INSERT
  5
11F
330
11C
100
AcDbEntity
  8
Default
100
AcDbBlockReference
  2
SEANNOT_GROUP
 10
0.0
 20
0.0
 30
0.0
  0
INSERT
  5
120
330
11C
100
AcDbEntity
  8
Default
100
AcDbBlockReference
  2
SEANNOT_GROUP1
 10
0.0
 20
0.0
 30
0.0
  0
MTEXT
  5
121
102
{ACAD_XDICTIONARY
360
177
102
}
330
11C
100
AcDbEntity
  8
Default
100
AcDbMText
 10
219.0323311835
 20
34.8066733186
 30
0.0
 40
2.5
 41
20.1335141444
 71
     1
 72
     1
  3
{\fVectora Com 45 Light|b0||i0||c0|p34;\C7;\H3.5;\W1.;Type :\P}{\fVectora Com 45 Light|b0||i0||c0|p34;\C7;\H3.5;\W1.;Part No. :\P}{\fVectora Com 45 Light|b0||i0||c0|p34;\C7;\H3.5;\W1.;Date : \P}{\fVectora Com 45 Light|b0||i0||c0|p34;\C7;\H3.5;\W1.;S
  1
cale :}
 73
     1
 44
1.0
1001
ACAD
1000
ACAD_MTEXT_DEFINED_HEIGHT_BEGIN
1070
    46
1040
23.6666666667
1000
ACAD_MTEXT_DEFINED_HEIGHT_END
  0
INSERT
  5
122
330
11C
100
AcDbEntity
  8
Default
100
AcDbBlockReference
  2
SEANNOT_GROUP2
 10
0.0
 20
0.0
 30
0.0
  0
INSERT
  5
123
330
11C
100
AcDbEntity
  8
Default
100
AcDbBlockReference
  2
SEANNOT_GROUP3
 10
0.0
 20
0.0
 30
0.0
  0
LINE
  5
124
330
11C
100
AcDbEntity
  8
Default
  6
Continuous
 62
     7
100
AcDbLine
 10
269.3420202893
 20
189.711288453
 30
0.0
 11
267.226096305
 21
186.6436606679
 31
0.0
  0
LINE
  5
125
330
11C
100
AcDbEntity
  8
Default
  6
Continuous
 62
     7
100
AcDbLine
 10
267.226096305
 20
186.6436606679
 30
0.0
 11
268.2886782185
 21
185.1144666968
 31
0.0
  0
LINE
  5
126
330
11C
100
AcDbEntity
  8
Default
  6
Continuous
 62
     7
100
AcDbLine
 10
268.2886782185
 20
185.1144666968
 30
0.0
 11
267.2561257939
 21
183.6453317033
 31
0.0
  0
LINE
  5
127
330
11C
100
AcDbEntity
  8
Default
  6
Continuous
 62
     7
100
AcDbLine
 10
267.2561257939
 20
183.6453317033
 30
0.0
 11
266.2235733692
 21
185.2646141411
 31
0.0
  0
LINE
  5
128
330
11C
100
AcDbEntity
  8
Default
  6
Continuous
 62
     7
100
AcDbLine
 10
266.2235733692
 20
185.2646141411
 30
0.0
 11
264.7036192408
 21
183.1186606679
 31
0.0
  0
LINE
  5
129
330
11C
100
AcDbEntity
  8
Default
  6
Continuous
 62
     7
100
AcDbLine
 10
264.7036192408
 20
183.1186606679
 30
0.0
 11
262.6269645881
 21
183.1186606679
 31
0.0
  0
LINE
  5
12A
330
11C
100
AcDbEntity
  8
Default
  6
Continuous
 62
     7
100
AcDbLine
 10
262.6269645881
 20
183.1186606679
 30
0.0
 11
265.20950063
 21
186.6436606679
 31
0.0
  0
LINE
  5
12B
330
11C
100
AcDbEntity
  8
Default
  6
Continuous
 62
     7
100
AcDbLine
 10
265.20950063
 20
186.6436606679
 30
0.0
 11
263.1051264492
 21
189.711288453
 31
0.0
  0
LINE
  5
12C
330
11C
100
AcDbEntity
  8
Default
  6
Continuous
 62
     7
100
AcDbLine
 10
263.1051264492
 20
189.711288453
 30
0.0
 11
265.20950063
 21
189.711288453
 31
0.0
  0
LINE
  5
12D
330
11C
100
AcDbEntity
  8
Default
  6
Continuous
 62
     7
100
AcDbLine
 10
265.20950063
 20
189.711288453
 30
0.0
 11
266.2235733692
 21
188.0042275094
 31
0.0
  0
LINE
  5
12E
330
11C
100
AcDbEntity
  8
Default
  6
Continuous
 62
     7
100
AcDbLine
 10
266.2235733692
 20
188.0042275094
 30
0.0
 11
267.226096305
 21
189.711288453
 31
0.0
  0
LINE
  5
12F
330
11C
100
AcDbEntity
  8
Default
  6
Continuous
 62
     7
100
AcDbLine
 10
267.226096305
 20
189.711288453
 30
0.0
 11
269.3420202893
 21
189.711288453
 31
0.0
  0
SPLINE
  5
130
330
11C
100
AcDbEntity
  8
Default
  6
Continuous
 62
     7
100
AcDbSpline
210
0.0
220
0.0
230
1.0
 70
     8
 71
     3
 72
    13
 73
     9
 74
     0
 42
0.0000000012369638
 43
0.0000000001
 12
1.0
 22
0.0
 32
0.0
 13
1.0
 23
0.0
 33
0.0
 40
0.0
 40
0.0
 40
0.0
 40
0.0
 40
0.9091644120227717
 40
0.9091644120227717
 40
0.9091644120227717
 40
0.9554905618911577
 40
0.9554905618911577
 40
1.0
 40
1.0
 40
1.0
 40
1.0
 10
267.8844350992403
 20
183.5460033940301
 30
0.0
 10
269.2912011542862
 20
185.5418094228636
 30
0.0
 10
270.697967209332
 20
187.5376154516972
 30
0.0
 10
272.1047332643779
 20
189.5334214805307
 30
0.0
 10
272.1870447473536
 20
189.6501983627819
 30
0.0
 10
272.2849101975365
 20
189.7112884530078
 30
0.0
 10
272.5159062656886
 20
189.7112884530078
 30
0.0
 10
272.6198544963569
 20
189.6512294752883
 30
0.0
 10
272.7122529236178
 20
189.5334214805307
 30
0.0
  0
SPLINE
  5
131
330
11C
100
AcDbEntity
  8
Default
  6
Continuous
 62
     7
100
AcDbSpline
210
0.0
220
0.0
230
1.0
 70
     8
 71
     3
 72
    16
 73
    12
 74
     0
 42
0.0000000006014133
 43
0.0000000001
 12
1.0
 22
0.0
 32
0.0
 13
1.0
 23
0.0
 33
0.0
 40
0.0
 40
0.0
 40
0.0
 40
0.0
 40
0.4418652593848311
 40
0.4418652593848311
 40
0.4418652593848311
 40
0.455090010411123
 40
0.455090010411123
 40
0.4811129075918901
 40
0.4811129075918901
 40
0.4811129075918901
 40
1.0
 40
1.0
 40
1.0
 40
1.0
 10
272.7122529236178
 20
189.5334214805307
 30
0.0
 10
274.1190189786636
 20
187.5376154516972
 30
0.0
 10
275.5257850337095
 20
185.5418094228636
 30
0.0
 10
276.9325510887554
 20
183.5460033940301
 30
0.0
 10
276.9849943017649
 20
183.4716012002038
 30
0.0
 10
277.0133997126086
 20
183.4004758710943
 30
0.0
 10
277.0133997126086
 20
183.1879594883945
 30
0.0
 10
276.9140714033032
 20
183.1186606679488
 30
0.0
 10
276.7154147846925
 20
183.1186606679488
 30
0.0
 10
273.8479835920319
 20
183.1186606679488
 30
0.0
 10
270.9805523993713
 20
183.1186606679488
 30
0.0
 10
268.1131212067108
 20
183.1186606679488
 30
0.0
  0
SPLINE
  5
132
330
11C
100
AcDbEntity
  8
Default
  6
Continuous
 62
     7
100
AcDbSpline
210
0.0
220
0.0
230
1.0
 70
     8
 71
     3
 72
    11
 73
     7
 74
     0
 42
0.0000000141737466
 43
0.0000000001
 12
1.0
 22
0.0
 32
0.0
 13
1.0
 23
0.0
 33
0.0
 40
0.0
 40
0.0
 40
0.0
 40
0.0
 40
0.6560933575639865
 40
0.6560933575639865
 40
0.6560933575639865
 40
1.0
 40
1.0
 40
1.0
 40
1.0
 10
268.1131212067108
 20
183.1186606679488
 30
0.0
 10
267.9075347060556
 20
183.1186606679488
 30
0.0
 10
267.8058964360686
 20
183.1925794097575
 30
0.0
 10
267.8035864753871
 20
183.3381069326933
 30
0.0
 10
267.8027439506852
 20
183.3911859889177
 30
0.0
 10
267.8313060035653
 20
183.4605348488138
 30
0.0
 10
267.8844350992403
 20
183.5460033940301
 30
0.0
  0
LINE
  5
133
330
11C
100
AcDbEntity
  8
Default
  6
Continuous
 62
     7
100
AcDbLine
 10
262.1857620979
 20
189.7274581778
 30
0.0
 11
262.1857620979
 21
183.1186606679
 31
0.0
  0
SPLINE
  5
134
330
11C
100
AcDbEntity
  8
Default
  6
Continuous
 62
     7
100
AcDbSpline
210
0.0
220
0.0
230
1.0
 70
     8
 71
     3
 72
    14
 73
    10
 74
     0
 42
0.0000000052950889
 43
0.0000000001
 12
1.0
 22
0.0
 32
0.0
 13
1.0
 23
0.0
 33
0.0
 40
0.0
 40
0.0
 40
0.0
 40
0.0
 40
0.1210177131110554
 40
0.1210177131110554
 40
0.1210177131110554
 40
0.2419901306838391
 40
0.2419901306838391
 40
0.2419901306838391
 40
1.0
 40
1.0
 40
1.0
 40
1.0
 10
260.4740812329231
 20
189.4387130925884
 30
0.0
 10
260.4740812329231
 20
189.5195617164416
 30
0.0
 10
260.5018007611014
 20
189.5865505762057
 30
0.0
 10
260.5595497781394
 20
189.6419896325622
 30
0.0
 10
260.6172507110666
 20
189.6973825281723
 30
0.0
 10
260.68197769426
 20
189.7274581777785
 30
0.0
 10
260.7628263181132
 20
189.7274581777785
 30
0.0
 10
261.2371382447187
 20
189.7274581777785
 30
0.0
 10
261.7114501713242
 20
189.7274581777785
 30
0.0
 10
262.1857620979297
 20
189.7274581777785
 30
0.0
  0
LINE
  5
135
330
11C
100
AcDbEntity
  8
Default
  6
Continuous
 62
     7
100
AcDbLine
 10
260.4740812329
 20
183.1186606679
 30
0.0
 11
260.4740812329
 21
189.4387130926
 31
0.0
  0
LINE
  5
136
330
11C
100
AcDbEntity
  8
Default
  6
Continuous
 62
     7
100
AcDbLine
 10
262.1857620979
 20
183.1186606679
 30
0.0
 11
260.4740812329
 21
183.1186606679
 31
0.0
  0
SPLINE
  5
137
330
11C
100
AcDbEntity
  8
Default
  6
Continuous
 62
     7
100
AcDbSpline
210
0.0
220
0.0
230
1.0
 70
     8
 71
     3
 72
    16
 73
    12
 74
     0
 42
0.0000000009758823
 43
0.0000000001
 12
1.0
 22
0.0
 32
0.0
 13
1.0
 23
0.0
 33
0.0
 40
0.0
 40
0.0
 40
0.0
 40
0.0
 40
0.6159054655977501
 40
0.6159054655977501
 40
0.6159054655977501
 40
0.6376683166669079
 40
0.6376683166669079
 40
0.6603379531972834
 40
0.6603379531972834
 40
0.6603379531972834
 40
1.0
 40
1.0
 40
1.0
 40
1.0
 10
255.8218204203412
 20
183.1186606679488
 30
0.0
 10
255.8218204203412
 20
185.2199549012385
 30
0.0
 10
255.8218204203412
 20
187.3212491345281
 30
0.0
 10
255.8218204203412
 20
189.4225433678178
 30
0.0
 10
255.8218204203412
 20
189.503391991671
 30
0.0
 10
255.8495399485194
 20
189.5703808514351
 30
0.0
 10
255.962728021914
 20
189.6835689248296
 30
0.0
 10
256.0297168816781
 20
189.7112884530078
 30
0.0
 10
256.1105655055312
 20
189.7112884530078
 30
0.0
 10
257.2693957807606
 20
189.7112884530078
 30
0.0
 10
258.42822605599
 20
189.7112884530078
 30
0.0
 10
259.5870563312193
 20
189.7112884530078
 30
0.0
  0
LINE
  5
138
330
11C
100
AcDbEntity
  8
Default
  6
Continuous
 62
     7
100
AcDbLine
 10
257.5404311674
 20
183.1186606679
 30
0.0
 11
255.8218204203
 21
183.1186606679
 31
0.0
  0
LINE
  5
139
330
11C
100
AcDbEntity
  8
Default
  6
Continuous
 62
     7
100
AcDbLine
 10
257.5404311674
 20
185.7035066706
 30
0.0
 11
257.5404311674
 21
183.1186606679
 31
0.0
  0
LINE
  5
13A
330
11C
100
AcDbEntity
  8
Default
  6
Continuous
 62
     7
100
AcDbLine
 10
259.4877280219
 20
185.7035066706
 30
0.0
 11
257.5404311674
 21
185.7035066706
 31
0.0
  0
LINE
  5
13B
330
11C
100
AcDbEntity
  8
Default
  6
Continuous
 62
     7
100
AcDbLine
 10
259.4877280219
 20
187.1610918606
 30
0.0
 11
259.4877280219
 21
185.7035066706
 31
0.0
  0
LINE
  5
13C
330
11C
100
AcDbEntity
  8
Default
  6
Continuous
 62
     7
100
AcDbLine
 10
257.5404311674
 20
187.1610918606
 30
0.0
 11
259.4877280219
 21
187.1610918606
 31
0.0
  0
LINE
  5
13D
330
11C
100
AcDbEntity
  8
Default
  6
Continuous
 62
     7
100
AcDbLine
 10
257.5404311674
 20
188.260633145
 30
0.0
 11
257.5404311674
 21
187.1610918606
 31
0.0
  0
LINE
  5
13E
330
11C
100
AcDbEntity
  8
Default
  6
Continuous
 62
     7
100
AcDbLine
 10
259.5870563312
 20
188.260633145
 30
0.0
 11
257.5404311674
 21
188.260633145
 31
0.0
  0
LINE
  5
13F
330
11C
100
AcDbEntity
  8
Default
  6
Continuous
 62
     7
100
AcDbLine
 10
259.5870563312
 20
189.711288453
 30
0.0
 11
259.5870563312
 21
188.260633145
 31
0.0
  0
LINE
  5
140
330
11C
100
AcDbEntity
  8
Default
  6
Continuous
 62
     7
100
AcDbLine
 10
255.0710831988
 20
187.1610918606
 30
0.0
 11
255.0710831988
 21
185.7035066706
 31
0.0
  0
LINE
  5
141
330
11C
100
AcDbEntity
  8
Default
  6
Continuous
 62
     7
100
AcDbLine
 10
252.9366795291
 20
187.1610918606
 30
0.0
 11
255.0710831988
 21
187.1610918606
 31
0.0
  0
LINE
  5
142
330
11C
100
AcDbEntity
  8
Default
  6
Continuous
 62
     7
100
AcDbLine
 10
252.9366795291
 20
185.7035066706
 30
0.0
 11
252.9366795291
 21
187.1610918606
 31
0.0
  0
LINE
  5
143
330
11C
100
AcDbEntity
  8
Default
  6
Continuous
 62
     7
100
AcDbLine
 10
255.0710831988
 20
185.7035066706
 30
0.0
 11
252.9366795291
 21
185.7035066706
 31
0.0
  0
SPLINE
  5
144
330
11C
100
AcDbEntity
  8
Default
  6
Continuous
 62
     7
100
AcDbSpline
210
0.0
220
0.0
230
1.0
 70
    11
 71
     3
 72
    47
 73
    43
 74
     0
 42
0.0000000008494054
 43
0.0000000001
 12
1.0
 22
0.0
 32
0.0
 13
1.0
 23
0.0
 33
0.0
 40
0.0
 40
0.0
 40
0.0
 40
0.0
 40
0.0637917384076936
 40
0.0637917384076936
 40
0.0637917384076936
 40
0.1265834997779105
 40
0.1265834997779105
 40
0.1893752611481286
 40
0.1893752611481286
 40
0.1893752611481286
 40
0.2604081010642026
 40
0.2604081010642026
 40
0.3159741129340349
 40
0.3159741129340349
 40
0.3159741129340349
 40
0.3751091105868484
 40
0.3751091105868484
 40
0.3751091105868484
 40
0.435995169879425
 40
0.435995169879425
 40
0.435995169879425
 40
0.4997689343159713
 40
0.4997689343159713
 40
0.5635426987525196
 40
0.5635426987525196
 40
0.5635426987525196
 40
0.624232315369434
 40
0.624232315369434
 40
0.624232315369434
 40
0.6835869381889372
 40
0.6835869381889372
 40
0.6835869381889372
 40
0.7357943705008892
 40
0.7357943705008892
 40
0.8025337685079206
 40
0.8025337685079206
 40
0.8692731665149518
 40
0.8692731665149518
 40
0.9360125645219831
 40
0.9360125645219831
 40
0.9360125645219831
 40
1.0
 40
1.0
 40
1.0
 40
1.0
 10
248.4438060035654
 20
184.5693159759436
 30
0.0
 10
248.7025215998956
 20
184.5693159759436
 30
0.0
 10
248.9450674714552
 20
184.620135110937
 30
0.0
 10
249.1691336575627
 20
184.7194634202424
 30
0.0
 10
249.3951304192655
 20
184.8196475517189
 30
0.0
 10
249.5941664229625
 20
184.9550794097575
 30
0.0
 10
249.9314206824644
 20
185.3061934333486
 30
0.0
 10
250.0653984019926
 20
185.5140898946854
 30
0.0
 10
250.160106789935
 20
185.752015844882
 30
0.0
 10
250.2551311293749
 20
185.9907355268896
 30
0.0
 10
250.3056343128707
 20
186.2509673520904
 30
0.0
 10
250.3056343128707
 20
186.7614686627064
 30
0.0
 10
250.2571251385588
 20
186.9809149274508
 30
0.0
 10
250.160106789935
 20
187.1934313101507
 30
0.0
 10
250.0643595068875
 20
187.4031634539689
 30
0.0
 10
249.9314206824644
 20
187.5907445473721
 30
0.0
 10
249.7627935527134
 20
187.7547517557601
 30
0.0
 10
249.5953209577949
 20
187.9176360604069
 30
0.0
 10
249.3955098043517
 20
188.0458068016317
 30
0.0
 10
249.1691336575627
 20
188.140515189574
 30
0.0
 10
248.9439009259591
 20
188.2347452099388
 30
0.0
 10
248.7025215998956
 20
188.2860427125098
 30
0.0
 10
248.1850904072351
 20
188.2860427125098
 30
0.0
 10
247.9425445356754
 20
188.2375335381978
 30
0.0
 10
247.7161683888864
 20
188.140515189574
 30
0.0
 10
247.4925801256786
 20
188.0446916481992
 30
0.0
 10
247.2934455841682
 20
187.9164490034665
 30
0.0
 10
247.1248184544172
 20
187.7547517557601
 30
0.0
 10
246.9550373605366
 20
187.5919479671074
 30
0.0
 10
246.8222136051381
 20
187.403637732169
 30
0.0
 10
246.7228852958327
 20
187.1934313101507
 30
0.0
 10
246.622664698655
 20
186.9813365579839
 30
0.0
 10
246.5727378515339
 20
186.7614686627064
 30
0.0
 10
246.5727378515339
 20
186.2509673520904
 30
0.0
 10
246.6235569865273
 20
185.9899417950786
 30
0.0
 10
246.8222136051381
 20
185.5140898946854
 30
0.0
 10
246.9561913246663
 20
185.3061934333486
 30
0.0
 10
247.2934455841682
 20
184.9550794097575
 30
0.0
 10
247.492102202779
 20
184.8187917295478
 30
0.0
 10
247.7161683888864
 20
184.7194634202424
 30
0.0
 10
247.9421651505893
 20
184.6192792887659
 30
0.0
 10
248.1850904072351
 20
184.5693159759436
 30
0.0
 10
248.4438060035654
 20
184.5693159759436
 30
0.0
  0
SPLINE
  5
145
330
11C
100
AcDbEntity
  8
Default
  6
Continuous
 62
     7
100
AcDbSpline
210
0.0
220
0.0
230
1.0
 70
    11
 71
     3
 72
    49
 73
    45
 74
     0
 42
0.0000000004385322
 43
0.0000000001
 12
1.0
 22
0.0
 32
0.0
 13
1.0
 23
0.0
 33
0.0
 40
0.0
 40
0.0
 40
0.0
 40
0.0
 40
0.0617996483207596
 40
0.0617996483207596
 40
0.0617996483207596
 40
0.1220737652654132
 40
0.1220737652654132
 40
0.1220737652654132
 40
0.1820249318660078
 40
0.1820249318660078
 40
0.1820249318660078
 40
0.2438982680995642
 40
0.2438982680995642
 40
0.3109516975991858
 40
0.3109516975991858
 40
0.3109516975991858
 40
0.3722543214771952
 40
0.3722543214771952
 40
0.3722543214771952
 40
0.4335172266527087
 40
0.4335172266527087
 40
0.4335172266527087
 40
0.4994898970728853
 40
0.4994898970728853
 40
0.5657506577569065
 40
0.5657506577569065
 40
0.5657506577569065
 40
0.626961718898901
 40
0.626961718898901
 40
0.6886100019061948
 40
0.6886100019061948
 40
0.6886100019061948
 40
0.7556907268882871
 40
0.7556907268882871
 40
0.8175892499404324
 40
0.8175892499404324
 40
0.8175892499404324
 40
0.8774725210786118
 40
0.8774725210786118
 40
0.8774725210786118
 40
0.9379094648157675
 40
0.9379094648157675
 40
0.9379094648157675
 40
1.0
 40
1.0
 40
1.0
 40
1.0
 10
248.4438060035654
 20
189.9492144032044
 30
0.0
 10
248.9196356399268
 20
189.9515130970999
 30
0.0
 10
249.3770301188996
 20
189.8637458579882
 30
0.0
 10
249.8136126877069
 20
189.6997386496002
 30
0.0
 10
250.2509557040483
 20
189.5354457704455
 30
0.0
 10
250.6382686510096
 20
189.3001154516972
 30
0.0
 10
250.9755229105116
 20
188.997510602418
 30
0.0
 10
251.3129086463213
 20
188.694787784671
 30
0.0
 10
251.585352530433
 20
188.3368618475032
 30
0.0
 10
251.7863191097253
 20
187.918758964148
 30
0.0
 10
251.9868172819147
 20
187.5016305829262
 30
0.0
 10
252.0889239590044
 20
187.0455938265333
 30
0.0
 10
252.0889239590044
 20
186.0107314412123
 30
0.0
 10
251.9988354924251
 20
185.52101977673
 30
0.0
 10
251.816348598585
 20
185.0775073258781
 30
0.0
 10
251.6330488643873
 20
184.6320193642835
 30
0.0
 10
251.3820759904592
 20
184.2482314412123
 30
0.0
 10
251.0609914557278
 20
183.9225269851179
 30
0.0
 10
250.7410617834882
 20
183.5979940082417
 30
0.0
 10
250.3564534478642
 20
183.3473467754193
 30
0.0
 10
249.9083210756492
 20
183.1671698422608
 30
0.0
 10
249.4629767181928
 20
182.9881138634896
 30
0.0
 10
248.9727869996335
 20
182.8992144032044
 30
0.0
 10
247.9125150468157
 20
182.8992144032044
 30
0.0
 10
247.4251133430149
 20
182.9893028697837
 30
0.0
 10
246.9792909314815
 20
183.1671698422608
 30
0.0
 10
246.530680710158
 20
183.3461490497318
 30
0.0
 10
246.1453951254526
 20
183.5991324897051
 30
0.0
 10
245.4962961739454
 20
184.2482314412123
 30
0.0
 10
245.2445104596597
 20
184.6316849143446
 30
0.0
 10
245.0620235658196
 20
185.0775073258781
 30
0.0
 10
244.8803465126443
 20
185.521351265914
 30
0.0
 10
244.7871382447187
 20
186.0107314412123
 30
0.0
 10
244.7871382447187
 20
187.0455938265333
 30
0.0
 10
244.8887765147056
 20
187.5029660414744
 30
0.0
 10
245.0920530546794
 20
187.918758964148
 30
0.0
 10
245.2957954536029
 20
188.335504780128
 30
0.0
 10
245.5632850337095
 20
188.6972157138204
 30
0.0
 10
245.9005392932115
 20
188.997510602418
 30
0.0
 10
246.2389407961124
 20
189.2988270091107
 30
0.0
 10
246.6281769078904
 20
189.5334214805307
 30
0.0
 10
247.0670694373792
 20
189.6997386496002
 30
0.0
 10
247.5072164315149
 20
189.8665311947464
 30
0.0
 10
247.9656441424906
 20
189.9469044425229
 30
0.0
 10
248.4438060035654
 20
189.9492144032044
 30
0.0
  0
LINE
  5
146
330
11C
100
AcDbEntity
  8
Default
  6
Continuous
 62
     7
100
AcDbLine
 10
242.3339600009
 20
185.4332412708
 30
0.0
 11
240.8347955186
 21
185.4332412708
 31
0.0
  0
SPLINE
  5
147
330
11C
100
AcDbEntity
  8
Default
  6
Continuous
 62
     7
100
AcDbSpline
210
0.0
220
0.0
230
1.0
 70
     8
 71
     3
 72
    43
 73
    39
 74
     0
 42
0.0000000009932047
 43
0.0000000001
 12
1.0
 22
0.0
 32
0.0
 13
1.0
 23
0.0
 33
0.0
 40
0.0
 40
0.0
 40
0.0
 40
0.0
 40
0.0949373847537602
 40
0.0949373847537602
 40
0.0949373847537602
 40
0.1911787086491429
 40
0.1911787086491429
 40
0.2677918678027036
 40
0.2677918678027036
 40
0.2677918678027036
 40
0.3406026976746725
 40
0.3406026976746725
 40
0.3406026976746725
 40
0.4151543081273698
 40
0.4151543081273698
 40
0.4151543081273698
 40
0.4895478942304584
 40
0.4895478942304584
 40
0.5659890102262922
 40
0.5659890102262922
 40
0.6424301262221261
 40
0.6424301262221261
 40
0.6424301262221261
 40
0.714798401889747
 40
0.714798401889747
 40
0.714798401889747
 40
0.7953127750919691
 40
0.7953127750919691
 40
0.8472575319966263
 40
0.8472575319966263
 40
0.8472575319966263
 40
0.898191982468852
 40
0.898191982468852
 40
0.898191982468852
 40
0.9471592991231073
 40
0.9471592991231073
 40
0.9471592991231073
 40
1.0
 40
1.0
 40
1.0
 40
1.0
 10
242.2554213377724
 20
187.3782281646723
 30
0.0
 10
242.1353033823333
 20
187.6970027387221
 30
0.0
 10
241.9551264491748
 20
187.9510984136893
 30
0.0
 10
241.7148905382967
 20
188.1428251502555
 30
0.0
 10
241.4721172585773
 20
188.3365769023392
 30
0.0
 10
241.1766696995024
 20
188.4315702354455
 30
0.0
 10
240.5460504334474
 20
188.4315702354455
 30
0.0
 10
240.3011946012062
 20
188.371511257726
 30
0.0
 10
240.0840582971433
 20
188.2490833416055
 30
0.0
 10
239.8686747464151
 20
188.1276436800246
 30
0.0
 10
239.6913649812849
 20
187.9649581777784
 30
0.0
 10
239.5481474190306
 20
187.7663015591677
 30
0.0
 10
239.4057198468884
 20
187.5687407332931
 30
0.0
 10
239.2986716654264
 20
187.345888715131
 30
0.0
 10
239.2270628842993
 20
187.0987229222083
 30
0.0
 10
239.1546578089098
 20
186.848808629735
 30
0.0
 10
239.1161847715863
 20
186.5997714149999
 30
0.0
 10
239.1161847715863
 20
186.089270104384
 30
0.0
 10
239.1554541031722
 20
185.8397943507798
 30
0.0
 10
239.3079115081525
 20
185.3500826862975
 30
0.0
 10
239.4187896208655
 20
185.1283264608715
 30
0.0
 10
239.5643171438012
 20
184.9342897636238
 30
0.0
 10
239.7109534478642
 20
184.7387746915399
 30
0.0
 10
239.8900215998956
 20
184.5808657793512
 30
0.0
 10
240.104847943277
 20
184.4630577845936
 30
0.0
 10
240.3206481660817
 20
184.3447157269266
 30
0.0
 10
240.5691500402626
 20
184.2851908121166
 30
0.0
 10
241.0403820192927
 20
184.2851908121166
 30
0.0
 10
241.2182489917698
 20
184.3082904189318
 30
0.0
 10
241.3914960428838
 20
184.3591095539252
 30
0.0
 10
241.5619922405099
 20
184.4091217718955
 30
0.0
 10
241.7148905382967
 20
184.4815374700458
 30
0.0
 10
241.8488682578248
 20
184.5762458579881
 30
0.0
 10
241.9813056983178
 20
184.6698654279918
 30
0.0
 10
242.089104168703
 20
184.7910722013695
 30
0.0
 10
242.1768826746007
 20
184.9342897636238
 30
0.0
 10
242.2630012238817
 20
185.0747989756085
 30
0.0
 10
242.315480315492
 20
185.241514534266
 30
0.0
 10
242.3339600009441
 20
185.4332412708322
 30
0.0
  0
LINE
  5
148
330
11C
100
AcDbEntity
  8
Default
  6
Continuous
 62
     7
100
AcDbLine
 10
243.8839436182
 20
188.0642864871
 30
0.0
 11
242.2554213378
 21
187.3782281647
 31
0.0
  0
SPLINE
  5
149
330
11C
100
AcDbEntity
  8
Default
  6
Continuous
 62
     7
100
AcDbSpline
210
0.0
220
0.0
230
1.0
 70
     8
 71
     3
 72
    51
 73
    47
 74
     0
 42
0.0000000004766382
 43
0.0000000001
 12
1.0
 22
0.0
 32
0.0
 13
1.0
 23
0.0
 33
0.0
 40
0.0
 40
0.0
 40
0.0
 40
0.0
 40
0.0095402040290222
 40
0.0095402040290222
 40
0.0095402040290222
 40
0.0400756007423482
 40
0.0400756007423482
 40
0.0400756007423482
 40
0.0693620114069116
 40
0.0693620114069116
 40
0.0986484220714753
 40
0.0986484220714753
 40
0.0986484220714753
 40
0.1302632519246672
 40
0.1302632519246672
 40
0.1302632519246672
 40
0.2055179711079718
 40
0.2055179711079718
 40
0.2055179711079718
 40
0.281182745691462
 40
0.281182745691462
 40
0.3511962093102096
 40
0.3511962093102096
 40
0.3511962093102096
 40
0.4149417185613706
 40
0.4149417185613706
 40
0.4149417185613706
 40
0.4786592191897758
 40
0.4786592191897758
 40
0.4786592191897758
 40
0.5478830793697405
 40
0.5478830793697405
 40
0.6199007276287178
 40
0.6199007276287178
 40
0.6199007276287178
 40
0.6846819262147057
 40
0.6846819262147057
 40
0.6846819262147057
 40
0.7494892886116509
 40
0.7494892886116509
 40
0.7494892886116509
 40
0.8193637744922013
 40
0.8193637744922013
 40
0.9096818872461009
 40
0.9096818872461009
 40
1.0
 40
1.0
 40
1.0
 40
1.0
 10
244.1426592145745
 20
186.777638387477
 30
0.0
 10
244.1426592145745
 20
186.7114195146068
 30
0.0
 10
244.1426592145745
 20
186.6452006417365
 30
0.0
 10
244.1426592145745
 20
186.5789817688662
 30
0.0
 10
244.1426592145745
 20
186.3618454648034
 30
0.0
 10
244.1287994504854
 20
186.1493290821035
 30
0.0
 10
244.1172496470778
 20
185.9437425814482
 30
0.0
 10
244.1057071113542
 20
185.738285445568
 30
0.0
 10
244.0849101975365
 20
185.5371895015006
 30
0.0
 10
244.0109914557279
 20
185.1398762642791
 30
0.0
 10
243.9578623600529
 20
184.9435296063499
 30
0.0
 10
243.8839436182442
 20
184.7518028697837
 30
0.0
 10
243.8103238022207
 20
184.5608514719727
 30
0.0
 10
243.7060766457672
 20
184.3683493966513
 30
0.0
 10
243.567479004876
 20
184.1766226600851
 30
0.0
 10
243.2385391943749
 20
183.7215892555586
 30
0.0
 10
242.8467712722416
 20
183.3866161070052
 30
0.0
 10
242.3801592145745
 20
183.1833395670314
 30
0.0
 10
241.9127013576763
 20
182.9796945600658
 30
0.0
 10
241.4007358856099
 20
182.8761147963892
 30
0.0
 10
240.3289141293845
 20
182.8761147963892
 30
0.0
 10
239.8530622289913
 20
182.9592733809239
 30
0.0
 10
239.4187896208655
 20
183.1279005106749
 30
0.0
 10
238.9865243210358
 20
183.2957482068854
 30
0.0
 10
238.6149233036964
 20
183.5344535906225
 30
0.0
 10
238.3076985330542
 20
183.8370584399017
 30
0.0
 10
237.9993189146371
 20
184.1408007708237
 30
0.0
 10
237.7625478122154
 20
184.5092569982241
 30
0.0
 10
237.5893007611014
 20
184.9412196456684
 30
0.0
 10
237.4171718734448
 20
185.3703943388921
 30
0.0
 10
237.3328951254526
 20
185.8444142721428
 30
0.0
 10
237.3328951254526
 20
186.8954463822346
 30
0.0
 10
237.4183636706689
 20
187.3828480860353
 30
0.0
 10
237.5893007611014
 20
187.8194306548426
 30
0.0
 10
237.760544896821
 20
188.2567974339103
 30
0.0
 10
238.005093683775
 20
188.6302268540563
 30
0.0
 10
238.3192483364618
 20
188.9420715460616
 30
0.0
 10
238.6322480402607
 20
189.2527697814501
 30
0.0
 10
239.0099265802364
 20
189.4918421882634
 30
0.0
 10
239.4488191097252
 20
189.6627792786959
 30
0.0
 10
239.8889361806183
 20
189.8341932957806
 30
0.0
 10
240.3751133430149
 20
189.9145649929816
 30
0.0
 10
241.587842700813
 20
189.9145649929816
 30
0.0
 10
242.1815025959638
 20
189.7621075880012
 30
0.0
 10
243.2025052171957
 20
189.1522779680799
 30
0.0
 10
243.5998184544173
 20
188.6879758710943
 30
0.0
 10
243.8839436182442
 20
188.0642864870838
 30
0.0
  0
LINE
  5
14A
330
11C
100
AcDbEntity
  8
Default
  6
Continuous
 62
     7
100
AcDbLine
 10
240.8347955186
 20
186.7776383875
 30
0.0
 11
244.1426592146
 21
186.7776383875
 31
0.0
  0
LINE
  5
14B
330
11C
100
AcDbEntity
  8
Default
  6
Continuous
 62
     7
100
AcDbLine
 10
240.8347955186
 20
185.4332412708
 30
0.0
 11
240.8347955186
 21
186.7776383875
 31
0.0
  0
SPLINE
  5
14C
330
11C
100
AcDbEntity
  8
Default
  6
Continuous
 62
     7
100
AcDbSpline
210
0.0
220
0.0
230
1.0
 70
     8
 71
     3
 72
    16
 73
    12
 74
     0
 42
0.000000000976763
 43
0.0000000001
 12
1.0
 22
0.0
 32
0.0
 13
1.0
 23
0.0
 33
0.0
 40
0.0
 40
0.0
 40
0.0
 40
0.0
 40
0.6164577788718584
 40
0.6164577788718584
 40
0.6164577788718584
 40
0.6381328433885463
 40
0.6381328433885463
 40
0.6607110355934293
 40
0.6607110355934293
 40
0.6607110355934293
 40
1.0
 40
1.0
 40
1.0
 40
1.0
 10
233.0225084937357
 20
183.1186606679488
 30
0.0
 10
233.0225084937357
 20
185.2199549012385
 30
0.0
 10
233.0225084937357
 20
187.3212491345281
 30
0.0
 10
233.0225084937357
 20
189.4225433678178
 30
0.0
 10
233.0225084937357
 20
189.503391991671
 30
0.0
 10
233.050228021914
 20
189.5703808514351
 30
0.0
 10
233.1634160953085
 20
189.6835689248296
 30
0.0
 10
233.2304049550725
 20
189.7112884530078
 30
0.0
 10
233.3089436182443
 20
189.7112884530078
 30
0.0
 10
234.4654639327921
 20
189.7112884530078
 30
0.0
 10
235.6219842473399
 20
189.7112884530078
 30
0.0
 10
236.7785045618878
 20
189.7112884530078
 30
0.0
  0
LINE
  5
14D
330
11C
100
AcDbEntity
  8
Default
  6
Continuous
 62
     7
100
AcDbLine
 10
236.7785045619
 20
183.1186606679
 30
0.0
 11
233.0225084937
 21
183.1186606679
 31
0.0
  0
LINE
  5
14E
330
11C
100
AcDbEntity
  8
Default
  6
Continuous
 62
     7
100
AcDbLine
 10
236.7785045619
 20
184.5693159759
 30
0.0
 11
236.7785045619
 21
183.1186606679
 31
0.0
  0
LINE
  5
14F
330
11C
100
AcDbEntity
  8
Default
  6
Continuous
 62
     7
100
AcDbLine
 10
234.7318793981
 20
184.5693159759
 30
0.0
 11
236.7785045619
 21
184.5693159759
 31
0.0
  0
LINE
  5
150
330
11C
100
AcDbEntity
  8
Default
  6
Continuous
 62
     7
100
AcDbLine
 10
234.7318793981
 20
185.7035066706
 30
0.0
 11
234.7318793981
 21
184.5693159759
 31
0.0
  0
LINE
  5
151
330
11C
100
AcDbEntity
  8
Default
  6
Continuous
 62
     7
100
AcDbLine
 10
236.6791762526
 20
185.7035066706
 30
0.0
 11
234.7318793981
 21
185.7035066706
 31
0.0
  0
LINE
  5
152
330
11C
100
AcDbEntity
  8
Default
  6
Continuous
 62
     7
100
AcDbLine
 10
236.6791762526
 20
187.1610918606
 30
0.0
 11
236.6791762526
 21
185.7035066706
 31
0.0
  0
LINE
  5
153
330
11C
100
AcDbEntity
  8
Default
  6
Continuous
 62
     7
100
AcDbLine
 10
234.7318793981
 20
187.1610918606
 30
0.0
 11
236.6791762526
 21
187.1610918606
 31
0.0
  0
LINE
  5
154
330
11C
100
AcDbEntity
  8
Default
  6
Continuous
 62
     7
100
AcDbLine
 10
234.7318793981
 20
188.260633145
 30
0.0
 11
234.7318793981
 21
187.1610918606
 31
0.0
  0
LINE
  5
155
330
11C
100
AcDbEntity
  8
Default
  6
Continuous
 62
     7
100
AcDbLine
 10
236.7785045619
 20
188.260633145
 30
0.0
 11
234.7318793981
 21
188.260633145
 31
0.0
  0
LINE
  5
156
330
11C
100
AcDbEntity
  8
Default
  6
Continuous
 62
     7
100
AcDbLine
 10
236.7785045619
 20
189.711288453
 30
0.0
 11
236.7785045619
 21
188.260633145
 31
0.0
  0
LINE
  5
157
330
11C
100
AcDbEntity
  8
Default
  6
Continuous
 62
     7
100
AcDbLine
 10
228.7098119013
 20
188.3992307859
 30
0.0
 11
228.7098119013
 21
186.7499188593
 31
0.0
  0
LINE
  5
158
330
11C
100
AcDbEntity
  8
Default
  6
Continuous
 62
     7
100
AcDbLine
 10
228.7098119013
 20
186.7499188593
 30
0.0
 11
228.8807489918
 21
186.7499188593
 31
0.0
  0
SPLINE
  5
159
330
11C
100
AcDbEntity
  8
Default
  6
Continuous
 62
     7
100
AcDbSpline
210
0.0
220
0.0
230
1.0
 70
     8
 71
     3
 72
    29
 73
    25
 74
     0
 42
0.0000000028633018
 43
0.0000000001
 12
1.0
 22
0.0
 32
0.0
 13
1.0
 23
0.0
 33
0.0
 40
0.0
 40
0.0
 40
0.0
 40
0.0
 40
0.1203556671631279
 40
0.1203556671631279
 40
0.1203556671631279
 40
0.2363519504887718
 40
0.2363519504887718
 40
0.2363519504887718
 40
0.3551316836966588
 40
0.3551316836966588
 40
0.4739114169045465
 40
0.4739114169045465
 40
0.5942337440501996
 40
0.5942337440501996
 40
0.7145560711958533
 40
0.7145560711958533
 40
0.7145560711958533
 40
0.8303426976884648
 40
0.8303426976884648
 40
0.8303426976884648
 40
0.9506957818555967
 40
0.9506957818555967
 40
0.9506957818555967
 40
1.0
 40
1.0
 40
1.0
 40
1.0
 10
228.8807489917698
 20
186.7499188592988
 30
0.0
 10
229.019346632661
 20
186.7499188592988
 30
0.0
 10
229.1579442735522
 20
186.7591587020248
 30
0.0
 10
229.2965419144435
 20
186.7799483481585
 30
0.0
 10
229.4373986855855
 20
186.8010768638298
 30
0.0
 10
229.5644973534998
 20
186.8376973651965
 30
0.0
 10
229.6799953875758
 20
186.8954463822346
 30
0.0
 10
229.7964174059245
 20
186.9536573914089
 30
0.0
 10
229.8902018095942
 20
187.0340440231258
 30
0.0
 10
230.0287994504854
 20
187.2511803271887
 30
0.0
 10
230.0634488607082
 20
187.3967078501244
 30
0.0
 10
230.0634488607082
 20
187.7547517557601
 30
0.0
 10
230.0287994504854
 20
187.8979693180144
 30
0.0
 10
229.8902018095942
 20
188.1151056220773
 30
0.0
 10
229.7978033823333
 20
188.198264206612
 30
0.0
 10
229.6799953875758
 20
188.25601322365
 30
0.0
 10
229.5649627826514
 20
188.3124017554757
 30
0.0
 10
229.4374495160162
 20
188.3484116509108
 30
0.0
 10
229.2965419144435
 20
188.3692012970445
 30
0.0
 10
229.1578950608181
 20
188.3896573902023
 30
0.0
 10
229.019346632661
 20
188.3992307859043
 30
0.0
 10
228.8807489917698
 20
188.3992307859043
 30
0.0
 10
228.8237699616256
 20
188.3992307859043
 30
0.0
 10
228.7667909314815
 20
188.3992307859043
 30
0.0
 10
228.7098119013373
 20
188.3992307859043
 30
0.0
  0
LINE
  5
15A
330
11C
100
AcDbEntity
  8
Default
  6
Continuous
 62
     7
100
AcDbLine
 10
228.7098119013
 20
183.1186606679
 30
0.0
 11
227.000440997
 21
183.1186606679
 31
0.0
  0
LINE
  5
15B
330
11C
100
AcDbEntity
  8
Default
  6
Continuous
 62
     7
100
AcDbLine
 10
228.7098119013
 20
185.6526875356
 30
0.0
 11
228.7098119013
 21
183.1186606679
 31
0.0
  0
LINE
  5
15C
330
11C
100
AcDbEntity
  8
Default
  6
Continuous
 62
     7
100
AcDbLine
 10
230.3406441425
 20
183.1186606679
 30
0.0
 11
228.7098119013
 21
185.6526875356
 31
0.0
  0
LINE
  5
15D
330
11C
100
AcDbEntity
  8
Default
  6
Continuous
 62
     7
100
AcDbLine
 10
232.4773577729
 20
183.1186606679
 30
0.0
 11
230.3406441425
 21
183.1186606679
 31
0.0
  0
LINE
  5
15E
330
11C
100
AcDbEntity
  8
Default
  6
Continuous
 62
     7
100
AcDbLine
 10
230.4007031202
 20
185.8190047046
 30
0.0
 11
232.4773577729
 21
183.1186606679
 31
0.0
  0
SPLINE
  5
15F
330
11C
100
AcDbEntity
  8
Default
  6
Continuous
 62
     7
100
AcDbSpline
210
0.0
220
0.0
230
1.0
 70
     8
 71
     3
 72
    39
 73
    35
 74
     0
 42
0.0000000006617465
 43
0.0000000001
 12
1.0
 22
0.0
 32
0.0
 13
1.0
 23
0.0
 33
0.0
 40
0.0
 40
0.0
 40
0.0
 40
0.0
 40
0.4184837171182216
 40
0.4184837171182216
 40
0.4184837171182216
 40
0.4329116956232541
 40
0.4329116956232541
 40
0.447940839899329
 40
0.447940839899329
 40
0.447940839899329
 40
0.5989875461512338
 40
0.5989875461512338
 40
0.5989875461512338
 40
0.65983019696195
 40
0.65983019696195
 40
0.65983019696195
 40
0.7141636694202442
 40
0.7141636694202442
 40
0.7141636694202442
 40
0.7672492360561214
 40
0.7672492360561214
 40
0.7672492360561214
 40
0.8311842098663922
 40
0.8311842098663922
 40
0.8732466926363075
 40
0.8732466926363075
 40
0.8732466926363075
 40
0.9147241024096695
 40
0.9147241024096695
 40
0.9147241024096695
 40
0.9560702513872078
 40
0.9560702513872078
 40
0.9560702513872078
 40
1.0
 40
1.0
 40
1.0
 40
1.0
 10
227.0004409970123
 20
183.1186606679488
 30
0.0
 10
227.0004409970123
 20
185.2199549012385
 30
0.0
 10
227.0004409970123
 20
187.3212491345281
 30
0.0
 10
227.0004409970123
 20
189.4225433678178
 30
0.0
 10
227.0004409970123
 20
189.503391991671
 30
0.0
 10
227.0281605251905
 20
189.5703808514351
 30
0.0
 10
227.141348598585
 20
189.6835689248296
 30
0.0
 10
227.2060274976676
 20
189.7112884530078
 30
0.0
 10
227.2776362787947
 20
189.7112884530078
 30
0.0
 10
228.0360733692272
 20
189.7112884530078
 30
0.0
 10
228.7945104596597
 20
189.7112884530078
 30
0.0
 10
229.5529475500922
 20
189.7112884530078
 30
0.0
 10
229.8786520061866
 20
189.7112884530078
 30
0.0
 10
230.1812568554658
 20
189.672019121422
 30
0.0
 10
230.4584521372482
 20
189.5911704975687
 30
0.0
 10
230.7371553613635
 20
189.5098820572018
 30
0.0
 10
230.9781932905902
 20
189.3902039182765
 30
0.0
 10
231.1837797912455
 20
189.223886749207
 30
0.0
 10
231.3882367819392
 20
189.0584833410054
 30
0.0
 10
231.5510635396073
 20
188.8496731188007
 30
0.0
 10
231.6665615736833
 20
188.5955774438335
 30
0.0
 10
231.782929798427
 20
188.3395673493973
 30
0.0
 10
231.8398086247973
 20
188.0365669589056
 30
0.0
 10
231.8398086247973
 20
187.4544568671624
 30
0.0
 10
231.8097791359376
 20
187.235010602418
 30
0.0
 10
231.745100236855
 20
187.0317340624443
 30
0.0
 10
231.679966279852
 20
186.827027340435
 30
0.0
 10
231.5903328711931
 20
186.6390407465858
 30
0.0
 10
231.4679049550726
 20
186.4750335381978
 30
0.0
 10
231.3443697291374
 20
186.3095429525111
 30
0.0
 10
231.1953295946532
 20
186.1678087675556
 30
0.0
 10
231.0151526614946
 20
186.0523107334796
 30
0.0
 10
230.8366129371881
 20
185.9378621922575
 30
0.0
 10
230.6316991883622
 20
185.8582740362319
 30
0.0
 10
230.4007031202102
 20
185.8190047046461
 30
0.0
  0
HATCH
  5
160
330
11C
100
AcDbEntity
  8
Default
  6
Continuous
 62
     7
100
AcDbHatch
 10
0.0
 20
0.0
 30
0.0
210
0.0
220
0.0
230
1.0
  2
SOLID
 70
     1
 71
     0
 91
        2
 92
        1
 93
        6
 72
     4
 94
        3
 73
     0
 74
     0
 95
       39
 96
       35
 40
0.0
 40
0.0
 40
0.0
 40
0.0
 40
0.0439297486127922
 40
0.0439297486127922
 40
0.0439297486127922
 40
0.0852758975903305
 40
0.0852758975903305
 40
0.0852758975903305
 40
0.1267533073636925
 40
0.1267533073636925
 40
0.1267533073636925
 40
0.1688157901336078
 40
0.1688157901336078
 40
0.2327507639438786
 40
0.2327507639438786
 40
0.2327507639438786
 40
0.2858363305797558
 40
0.2858363305797558
 40
0.2858363305797558
 40
0.34016980303805
 40
0.34016980303805
 40
0.34016980303805
 40
0.4010124538487662
 40
0.4010124538487662
 40
0.4010124538487662
 40
0.552059160100671
 40
0.552059160100671
 40
0.552059160100671
 40
0.5670883043767458
 40
0.5670883043767458
 40
0.5815162828817784
 40
0.5815162828817784
 40
0.5815162828817784
 40
1.0
 40
1.0
 40
1.0
 40
1.0
 10
230.4007031202102
 20
185.8190047046461
 10
230.6316991883622
 20
185.8582740362319
 10
230.8366129371881
 20
185.9378621922575
 10
231.0151526614946
 20
186.0523107334796
 10
231.1953295946532
 20
186.1678087675556
 10
231.3443697291374
 20
186.3095429525111
 10
231.4679049550726
 20
186.4750335381978
 10
231.5903328711931
 20
186.6390407465858
 10
231.679966279852
 20
186.827027340435
 10
231.745100236855
 20
187.0317340624443
 10
231.8097791359376
 20
187.235010602418
 10
231.8398086247973
 20
187.4544568671624
 10
231.8398086247973
 20
188.0365669589056
 10
231.782929798427
 20
188.3395673493973
 10
231.6665615736833
 20
188.5955774438335
 10
231.5510635396073
 20
188.8496731188007
 10
231.3882367819392
 20
189.0584833410054
 10
231.1837797912455
 20
189.223886749207
 10
230.9781932905902
 20
189.3902039182765
 10
230.7371553613635
 20
189.5098820572018
 10
230.4584521372482
 20
189.5911704975687
 10
230.1812568554658
 20
189.672019121422
 10
229.8786520061866
 20
189.7112884530078
 10
229.5529475500922
 20
189.7112884530078
 10
228.7945104596597
 20
189.7112884530078
 10
228.0360733692272
 20
189.7112884530078
 10
227.2776362787947
 20
189.7112884530078
 10
227.2060274976676
 20
189.7112884530078
 10
227.141348598585
 20
189.6835689248296
 10
227.0281605251905
 20
189.5703808514351
 10
227.0004409970123
 20
189.503391991671
 10
227.0004409970123
 20
189.4225433678178
 10
227.0004409970123
 20
187.3212491345281
 10
227.0004409970123
 20
185.2199549012385
 10
227.0004409970123
 20
183.1186606679488
 72
     1
 10
227.0004409970123
 20
183.1186606679488
 11
228.7098119013373
 21
183.1186606679488
 72
     1
 10
228.7098119013373
 20
183.1186606679488
 11
228.7098119013373
 21
185.6526875355766
 72
     1
 10
228.7098119013373
 20
185.6526875355766
 11
230.3406441424906
 21
183.1186606679488
 72
     1
 10
230.3406441424906
 20
183.1186606679488
 11
232.4773577728969
 21
183.1186606679488
 72
     1
 10
232.4773577728969
 20
183.1186606679488
 11
230.4007031202102
 21
185.8190047046461
 97
        0
 92
        1
 93
        3
 72
     1
 10
228.7098119013373
 20
188.3992307859043
 11
228.7098119013373
 21
186.7499188592988
 72
     1
 10
228.7098119013373
 20
186.7499188592988
 11
228.8807489917698
 21
186.7499188592988
 72
     4
 94
        3
 73
     0
 74
     0
 95
       29
 96
       25
 40
0.0
 40
0.0
 40
0.0
 40
0.0
 40
0.120355667163128
 40
0.120355667163128
 40
0.120355667163128
 40
0.2363519504887718
 40
0.2363519504887718
 40
0.2363519504887718
 40
0.3551316836966587
 40
0.3551316836966587
 40
0.4739114169045465
 40
0.4739114169045465
 40
0.5942337440501996
 40
0.5942337440501996
 40
0.7145560711958533
 40
0.7145560711958533
 40
0.7145560711958533
 40
0.8303426976884648
 40
0.8303426976884648
 40
0.8303426976884648
 40
0.9506957818555967
 40
0.9506957818555967
 40
0.9506957818555967
 40
1.0
 40
1.0
 40
1.0
 40
1.0
 10
228.8807489917698
 20
186.7499188592988
 10
229.019346632661
 20
186.7499188592988
 10
229.1579442735522
 20
186.7591587020248
 10
229.2965419144435
 20
186.7799483481585
 10
229.4373986855855
 20
186.8010768638298
 10
229.5644973534998
 20
186.8376973651965
 10
229.6799953875758
 20
186.8954463822346
 10
229.7964174059245
 20
186.9536573914089
 10
229.8902018095942
 20
187.0340440231258
 10
230.0287994504854
 20
187.2511803271887
 10
230.0634488607082
 20
187.3967078501244
 10
230.0634488607082
 20
187.7547517557601
 10
230.0287994504854
 20
187.8979693180144
 10
229.8902018095942
 20
188.1151056220773
 10
229.7978033823333
 20
188.198264206612
 10
229.6799953875758
 20
188.25601322365
 10
229.5649627826514
 20
188.3124017554757
 10
229.4374495160162
 20
188.3484116509108
 10
229.2965419144435
 20
188.3692012970445
 10
229.1578950608181
 20
188.3896573902023
 10
229.019346632661
 20
188.3992307859043
 10
228.8807489917698
 20
188.3992307859043
 10
228.8237699616256
 20
188.3992307859043
 10
228.7667909314815
 20
188.3992307859043
 10
228.7098119013373
 20
188.3992307859043
 97
        0
 75
     0
 76
     1
 98
        0
  0
HATCH
  5
161
330
11C
100
AcDbEntity
  8
Default
  6
Continuous
 62
     7
100
AcDbHatch
 10
0.0
 20
0.0
 30
0.0
210
0.0
220
0.0
230
1.0
  2
SOLID
 70
     1
 71
     0
 91
        1
 92
        1
 93
       11
 72
     4
 94
        3
 73
     0
 74
     0
 95
       16
 96
       12
 40
0.0
 40
0.0
 40
0.0
 40
0.0
 40
0.3392889644065707
 40
0.3392889644065707
 40
0.3392889644065707
 40
0.3618671566114537
 40
0.3618671566114537
 40
0.3835422211281416
 40
0.3835422211281416
 40
0.3835422211281416
 40
1.0
 40
1.0
 40
1.0
 40
1.0
 10
236.7785045618878
 20
189.7112884530078
 10
235.6219842473399
 20
189.7112884530078
 10
234.4654639327921
 20
189.7112884530078
 10
233.3089436182443
 20
189.7112884530078
 10
233.2304049550725
 20
189.7112884530078
 10
233.1634160953085
 20
189.6835689248296
 10
233.050228021914
 20
189.5703808514351
 10
233.0225084937357
 20
189.503391991671
 10
233.0225084937357
 20
189.4225433678178
 10
233.0225084937357
 20
187.3212491345281
 10
233.0225084937357
 20
185.2199549012385
 10
233.0225084937357
 20
183.1186606679488
 72
     1
 10
233.0225084937357
 20
183.1186606679488
 11
236.7785045618878
 21
183.1186606679488
 72
     1
 10
236.7785045618878
 20
183.1186606679488
 11
236.7785045618878
 21
184.5693159759436
 72
     1
 10
236.7785045618878
 20
184.5693159759436
 11
234.7318793980608
 21
184.5693159759436
 72
     1
 10
234.7318793980608
 20
184.5693159759436
 11
234.7318793980608
 21
185.7035066705701
 72
     1
 10
234.7318793980608
 20
185.7035066705701
 11
236.6791762525824
 21
185.7035066705701
 72
     1
 10
236.6791762525824
 20
185.7035066705701
 11
236.6791762525824
 21
187.1610918606094
 72
     1
 10
236.6791762525824
 20
187.1610918606094
 11
234.7318793980608
 21
187.1610918606094
 72
     1
 10
234.7318793980608
 20
187.1610918606094
 11
234.7318793980608
 21
188.260633145013
 72
     1
 10
234.7318793980608
 20
188.260633145013
 11
236.7785045618878
 21
188.260633145013
 72
     1
 10
236.7785045618878
 20
188.260633145013
 11
236.7785045618878
 21
189.7112884530078
 97
        0
 75
     0
 76
     1
 98
        0
  0
HATCH
  5
162
330
11C
100
AcDbEntity
  8
Default
  6
Continuous
 62
     7
100
AcDbHatch
 10
0.0
 20
0.0
 30
0.0
210
0.0
220
0.0
230
1.0
  2
SOLID
 70
     1
 71
     0
 91
        1
 92
        1
 93
        6
 72
     4
 94
        3
 73
     0
 74
     0
 95
       51
 96
       47
 40
0.0
 40
0.0
 40
0.0
 40
0.0
 40
0.0903181127538991
 40
0.0903181127538991
 40
0.1806362255077987
 40
0.1806362255077987
 40
0.2505107113883491
 40
0.2505107113883491
 40
0.2505107113883491
 40
0.3153180737852943
 40
0.3153180737852943
 40
0.3153180737852943
 40
0.3800992723712822
 40
0.3800992723712822
 40
0.3800992723712822
 40
0.4521169206302595
 40
0.4521169206302595
 40
0.5213407808102242
 40
0.5213407808102242
 40
0.5213407808102242
 40
0.5850582814386294
 40
0.5850582814386294
 40
0.5850582814386294
 40
0.6488037906897904
 40
0.6488037906897904
 40
0.6488037906897904
 40
0.718817254308538
 40
0.718817254308538
 40
0.7944820288920282
 40
0.7944820288920282
 40
0.7944820288920282
 40
0.8697367480753329
 40
0.8697367480753329
 40
0.8697367480753329
 40
0.9013515779285247
 40
0.9013515779285247
 40
0.9013515779285247
 40
0.9306379885930884
 40
0.9306379885930884
 40
0.9599243992576518
 40
0.9599243992576518
 40
0.9599243992576518
 40
0.9904597959709778
 40
0.9904597959709778
 40
0.9904597959709778
 40
1.0
 40
1.0
 40
1.0
 40
1.0
 10
243.8839436182442
 20
188.0642864870838
 10
243.5998184544173
 20
188.6879758710943
 10
243.2025052171957
 20
189.1522779680799
 10
242.1815025959638
 20
189.7621075880012
 10
241.587842700813
 20
189.9145649929816
 10
240.3751133430149
 20
189.9145649929816
 10
239.8889361806183
 20
189.8341932957806
 10
239.4488191097252
 20
189.6627792786959
 10
239.0099265802364
 20
189.4918421882634
 10
238.6322480402607
 20
189.2527697814501
 10
238.3192483364618
 20
188.9420715460616
 10
238.005093683775
 20
188.6302268540563
 10
237.760544896821
 20
188.2567974339103
 10
237.5893007611014
 20
187.8194306548426
 10
237.4183636706689
 20
187.3828480860353
 10
237.3328951254526
 20
186.8954463822346
 10
237.3328951254526
 20
185.8444142721428
 10
237.4171718734448
 20
185.3703943388921
 10
237.5893007611014
 20
184.9412196456684
 10
237.7625478122154
 20
184.5092569982241
 10
237.9993189146371
 20
184.1408007708237
 10
238.3076985330542
 20
183.8370584399017
 10
238.6149233036964
 20
183.5344535906225
 10
238.9865243210358
 20
183.2957482068854
 10
239.4187896208655
 20
183.1279005106749
 10
239.8530622289913
 20
182.9592733809239
 10
240.3289141293845
 20
182.8761147963892
 10
241.4007358856099
 20
182.8761147963892
 10
241.9127013576763
 20
182.9796945600658
 10
242.3801592145745
 20
183.1833395670314
 10
242.8467712722416
 20
183.3866161070052
 10
243.2385391943749
 20
183.7215892555586
 10
243.567479004876
 20
184.1766226600851
 10
243.7060766457672
 20
184.3683493966513
 10
243.8103238022207
 20
184.5608514719727
 10
243.8839436182442
 20
184.7518028697837
 10
243.9578623600529
 20
184.9435296063499
 10
244.0109914557279
 20
185.1398762642791
 10
244.0849101975365
 20
185.5371895015006
 10
244.1057071113542
 20
185.738285445568
 10
244.1172496470778
 20
185.9437425814482
 10
244.1287994504854
 20
186.1493290821035
 10
244.1426592145745
 20
186.3618454648034
 10
244.1426592145745
 20
186.5789817688662
 10
244.1426592145745
 20
186.6452006417365
 10
244.1426592145745
 20
186.7114195146068
 10
244.1426592145745
 20
186.777638387477
 72
     1
 10
244.1426592145745
 20
186.777638387477
 11
240.8347955186374
 21
186.777638387477
 72
     1
 10
240.8347955186374
 20
186.777638387477
 11
240.8347955186374
 21
185.4332412708322
 72
     1
 10
240.8347955186374
 20
185.4332412708322
 11
242.3339600009441
 21
185.4332412708322
 72
     4
 94
        3
 73
     0
 74
     0
 95
       43
 96
       39
 40
0.0
 40
0.0
 40
0.0
 40
0.0
 40
0.0528407008768927
 40
0.0528407008768927
 40
0.0528407008768927
 40
0.101808017531148
 40
0.101808017531148
 40
0.101808017531148
 40
0.1527424680033737
 40
0.1527424680033737
 40
0.1527424680033737
 40
0.2046872249080309
 40
0.2046872249080309
 40
0.285201598110253
 40
0.285201598110253
 40
0.285201598110253
 40
0.3575698737778739
 40
0.3575698737778739
 40
0.3575698737778739
 40
0.4340109897737078
 40
0.4340109897737078
 40
0.5104521057695417
 40
0.5104521057695417
 40
0.5848456918726302
 40
0.5848456918726302
 40
0.5848456918726302
 40
0.6593973023253275
 40
0.6593973023253275
 40
0.6593973023253275
 40
0.7322081321972964
 40
0.7322081321972964
 40
0.7322081321972964
 40
0.808821291350857
 40
0.808821291350857
 40
0.9050626152462398
 40
0.9050626152462398
 40
0.9050626152462398
 40
1.0
 40
1.0
 40
1.0
 40
1.0
 10
242.3339600009441
 20
185.4332412708322
 10
242.315480315492
 20
185.241514534266
 10
242.2630012238817
 20
185.0747989756085
 10
242.1768826746007
 20
184.9342897636238
 10
242.089104168703
 20
184.7910722013695
 10
241.9813056983178
 20
184.6698654279918
 10
241.8488682578248
 20
184.5762458579881
 10
241.7148905382967
 20
184.4815374700458
 10
241.5619922405099
 20
184.4091217718955
 10
241.3914960428838
 20
184.3591095539252
 10
241.2182489917698
 20
184.3082904189318
 10
241.0403820192927
 20
184.2851908121166
 10
240.5691500402626
 20
184.2851908121166
 10
240.3206481660817
 20
184.3447157269266
 10
240.104847943277
 20
184.4630577845936
 10
239.8900215998956
 20
184.5808657793512
 10
239.7109534478642
 20
184.7387746915399
 10
239.5643171438012
 20
184.9342897636238
 10
239.4187896208655
 20
185.1283264608715
 10
239.3079115081525
 20
185.3500826862975
 10
239.1554541031722
 20
185.8397943507798
 10
239.1161847715863
 20
186.089270104384
 10
239.1161847715863
 20
186.5997714149999
 10
239.1546578089098
 20
186.848808629735
 10
239.2270628842993
 20
187.0987229222083
 10
239.2986716654264
 20
187.345888715131
 10
239.4057198468884
 20
187.5687407332931
 10
239.5481474190306
 20
187.7663015591677
 10
239.6913649812849
 20
187.9649581777784
 10
239.8686747464151
 20
188.1276436800246
 10
240.0840582971433
 20
188.2490833416055
 10
240.3011946012062
 20
188.371511257726
 10
240.5460504334474
 20
188.4315702354455
 10
241.1766696995024
 20
188.4315702354455
 10
241.4721172585773
 20
188.3365769023392
 10
241.7148905382967
 20
188.1428251502555
 10
241.9551264491748
 20
187.9510984136893
 10
242.1353033823333
 20
187.6970027387221
 10
242.2554213377724
 20
187.3782281646723
 72
     1
 10
242.2554213377724
 20
187.3782281646723
 11
243.8839436182442
 21
188.0642864870838
 97
        0
 75
     0
 76
     1
 98
        0
  0
HATCH
  5
163
330
11C
100
AcDbEntity
  8
Default
  6
Continuous
 62
     7
100
AcDbHatch
 10
0.0
 20
0.0
 30
0.0
210
0.0
220
0.0
230
1.0
  2
SOLID
 70
     1
 71
     0
 91
        2
 92
        1
 93
        1
 72
     4
 94
        3
 73
     0
 74
     0
 95
       49
 96
       45
 40
0.0
 40
0.0
 40
0.0
 40
0.0
 40
0.0620905351842325
 40
0.0620905351842325
 40
0.0620905351842325
 40
0.1225274789213882
 40
0.1225274789213882
 40
0.1225274789213882
 40
0.1824107500595676
 40
0.1824107500595676
 40
0.1824107500595676
 40
0.2443092731117129
 40
0.2443092731117129
 40
0.3113899980938052
 40
0.3113899980938052
 40
0.3113899980938052
 40
0.373038281101099
 40
0.373038281101099
 40
0.4342493422430935
 40
0.4342493422430935
 40
0.4342493422430935
 40
0.5005101029271146
 40
0.5005101029271146
 40
0.5664827733472912
 40
0.5664827733472912
 40
0.5664827733472912
 40
0.6277456785228048
 40
0.6277456785228048
 40
0.6277456785228048
 40
0.6890483024008142
 40
0.6890483024008142
 40
0.6890483024008142
 40
0.7561017319004357
 40
0.7561017319004357
 40
0.8179750681339922
 40
0.8179750681339922
 40
0.8179750681339922
 40
0.8779262347345869
 40
0.8779262347345869
 40
0.8779262347345869
 40
0.9382003516792404
 40
0.9382003516792404
 40
0.9382003516792404
 40
1.0
 40
1.0
 40
1.0
 40
1.0
 10
248.4438060035654
 20
189.9492144032044
 10
247.9656441424906
 20
189.9469044425229
 10
247.5072164315149
 20
189.8665311947464
 10
247.0670694373792
 20
189.6997386496002
 10
246.6281769078904
 20
189.5334214805307
 10
246.2389407961124
 20
189.2988270091107
 10
245.9005392932115
 20
188.997510602418
 10
245.5632850337095
 20
188.6972157138204
 10
245.2957954536029
 20
188.335504780128
 10
245.0920530546794
 20
187.918758964148
 10
244.8887765147056
 20
187.5029660414744
 10
244.7871382447187
 20
187.0455938265333
 10
244.7871382447187
 20
186.0107314412123
 10
244.8803465126443
 20
185.521351265914
 10
245.0620235658196
 20
185.0775073258781
 10
245.2445104596597
 20
184.6316849143446
 10
245.4962961739454
 20
184.2482314412123
 10
246.1453951254526
 20
183.5991324897051
 10
246.530680710158
 20
183.3461490497318
 10
246.9792909314815
 20
183.1671698422608
 10
247.4251133430149
 20
182.9893028697837
 10
247.9125150468157
 20
182.8992144032044
 10
248.9727869996335
 20
182.8992144032044
 10
249.4629767181928
 20
182.9881138634896
 10
249.9083210756492
 20
183.1671698422608
 10
250.3564534478642
 20
183.3473467754193
 10
250.7410617834882
 20
183.5979940082417
 10
251.0609914557278
 20
183.9225269851179
 10
251.3820759904592
 20
184.2482314412123
 10
251.6330488643873
 20
184.6320193642835
 10
251.816348598585
 20
185.0775073258781
 10
251.9988354924251
 20
185.52101977673
 10
252.0889239590044
 20
186.0107314412123
 10
252.0889239590044
 20
187.0455938265333
 10
251.9868172819147
 20
187.5016305829262
 10
251.7863191097253
 20
187.918758964148
 10
251.585352530433
 20
188.3368618475032
 10
251.3129086463213
 20
188.694787784671
 10
250.9755229105116
 20
188.997510602418
 10
250.6382686510096
 20
189.3001154516972
 10
250.2509557040483
 20
189.5354457704455
 10
249.8136126877069
 20
189.6997386496002
 10
249.3770301188996
 20
189.8637458579882
 10
248.9196356399268
 20
189.9515130970999
 10
248.4438060035654
 20
189.9492144032044
 97
        0
 92
        1
 93
        1
 72
     4
 94
        3
 73
     0
 74
     0
 95
       47
 96
       43
 40
0.0
 40
0.0
 40
0.0
 40
0.0
 40
0.0637917384076936
 40
0.0637917384076936
 40
0.0637917384076936
 40
0.1265834997779105
 40
0.1265834997779105
 40
0.1893752611481285
 40
0.1893752611481285
 40
0.1893752611481285
 40
0.2604081010642026
 40
0.2604081010642026
 40
0.3159741129340349
 40
0.3159741129340349
 40
0.3159741129340349
 40
0.3751091105868485
 40
0.3751091105868485
 40
0.3751091105868485
 40
0.435995169879425
 40
0.435995169879425
 40
0.435995169879425
 40
0.4997689343159712
 40
0.4997689343159712
 40
0.5635426987525196
 40
0.5635426987525196
 40
0.5635426987525196
 40
0.624232315369434
 40
0.624232315369434
 40
0.624232315369434
 40
0.6835869381889372
 40
0.6835869381889372
 40
0.6835869381889372
 40
0.7357943705008892
 40
0.7357943705008892
 40
0.8025337685079206
 40
0.8025337685079206
 40
0.8692731665149518
 40
0.8692731665149518
 40
0.9360125645219831
 40
0.9360125645219831
 40
0.9360125645219831
 40
1.0
 40
1.0
 40
1.0
 40
1.0
 10
248.4438060035654
 20
184.5693159759436
 10
248.7025215998956
 20
184.5693159759436
 10
248.9450674714552
 20
184.620135110937
 10
249.1691336575627
 20
184.7194634202424
 10
249.3951304192655
 20
184.8196475517189
 10
249.5941664229625
 20
184.9550794097575
 10
249.9314206824644
 20
185.3061934333486
 10
250.0653984019926
 20
185.5140898946854
 10
250.160106789935
 20
185.752015844882
 10
250.2551311293749
 20
185.9907355268896
 10
250.3056343128707
 20
186.2509673520904
 10
250.3056343128707
 20
186.7614686627064
 10
250.2571251385588
 20
186.9809149274508
 10
250.160106789935
 20
187.1934313101507
 10
250.0643595068875
 20
187.4031634539689
 10
249.9314206824644
 20
187.5907445473721
 10
249.7627935527134
 20
187.7547517557601
 10
249.5953209577949
 20
187.9176360604069
 10
249.3955098043517
 20
188.0458068016317
 10
249.1691336575627
 20
188.140515189574
 10
248.9439009259591
 20
188.2347452099388
 10
248.7025215998956
 20
188.2860427125098
 10
248.1850904072351
 20
188.2860427125098
 10
247.9425445356754
 20
188.2375335381978
 10
247.7161683888864
 20
188.140515189574
 10
247.4925801256786
 20
188.0446916481992
 10
247.2934455841682
 20
187.9164490034665
 10
247.1248184544172
 20
187.7547517557601
 10
246.9550373605366
 20
187.5919479671074
 10
246.8222136051381
 20
187.403637732169
 10
246.7228852958327
 20
187.1934313101507
 10
246.622664698655
 20
186.9813365579839
 10
246.5727378515339
 20
186.7614686627064
 10
246.5727378515339
 20
186.2509673520904
 10
246.6235569865273
 20
185.9899417950786
 10
246.8222136051381
 20
185.5140898946854
 10
246.9561913246663
 20
185.3061934333486
 10
247.2934455841682
 20
184.9550794097575
 10
247.492102202779
 20
184.8187917295478
 10
247.7161683888864
 20
184.7194634202424
 10
247.9421651505893
 20
184.6192792887659
 10
248.1850904072351
 20
184.5693159759436
 10
248.4438060035654
 20
184.5693159759436
 97
        0
 75
     0
 76
     1
 98
        0
  0
HATCH
  5
164
330
11C
100
AcDbEntity
  8
Default
  6
Continuous
 62
     7
100
AcDbHatch
 10
0.0
 20
0.0
 30
0.0
210
0.0
220
0.0
230
1.0
  2
SOLID
 70
     1
 71
     0
 91
        1
 92
        1
 93
        4
 72
     1
 10
255.0710831988471
 20
185.7035066705701
 11
255.0710831988471
 21
187.1610918606094
 72
     1
 10
255.0710831988471
 20
187.1610918606094
 11
252.9366795291224
 21
187.1610918606094
 72
     1
 10
252.9366795291224
 20
187.1610918606094
 11
252.9366795291224
 21
185.70350667057
 72
     1
 10
252.9366795291224
 20
185.70350667057
 11
255.0710831988471
 21
185.7035066705701
 97
        0
 75
     0
 76
     1
 98
        0
  0
HATCH
  5
165
330
11C
100
AcDbEntity
  8
Default
  6
Continuous
 62
     7
100
AcDbHatch
 10
0.0
 20
0.0
 30
0.0
210
0.0
220
0.0
230
1.0
  2
SOLID
 70
     1
 71
     0
 91
        1
 92
        1
 93
        9
 72
     4
 94
        3
 73
     0
 74
     0
 95
       16
 96
       12
 40
0.0
 40
0.0
 40
0.0
 40
0.0
 40
0.3396620468027166
 40
0.3396620468027166
 40
0.3396620468027166
 40
0.3623316833330921
 40
0.3623316833330921
 40
0.3840945344022499
 40
0.3840945344022499
 40
0.3840945344022499
 40
1.0
 40
1.0
 40
1.0
 40
1.0
 10
259.5870563312193
 20
189.7112884530078
 10
258.42822605599
 20
189.7112884530078
 10
257.2693957807606
 20
189.7112884530078
 10
256.1105655055312
 20
189.7112884530078
 10
256.0297168816781
 20
189.7112884530078
 10
255.962728021914
 20
189.6835689248296
 10
255.8495399485194
 20
189.5703808514351
 10
255.8218204203412
 20
189.503391991671
 10
255.8218204203412
 20
189.4225433678178
 10
255.8218204203412
 20
187.3212491345281
 10
255.8218204203412
 20
185.2199549012385
 10
255.8218204203412
 20
183.1186606679488
 72
     1
 10
255.8218204203412
 20
183.1186606679488
 11
257.5404311673923
 21
183.1186606679488
 72
     1
 10
257.5404311673923
 20
183.1186606679488
 11
257.5404311673923
 21
185.7035066705701
 72
     1
 10
257.5404311673923
 20
185.7035066705701
 11
259.4877280219139
 21
185.7035066705701
 72
     1
 10
259.4877280219139
 20
185.7035066705701
 11
259.4877280219139
 21
187.1610918606094
 72
     1
 10
259.4877280219139
 20
187.1610918606094
 11
257.5404311673923
 21
187.1610918606094
 72
     1
 10
257.5404311673923
 20
187.1610918606094
 11
257.5404311673923
 21
188.260633145013
 72
     1
 10
257.5404311673923
 20
188.260633145013
 11
259.5870563312194
 21
188.260633145013
 72
     1
 10
259.5870563312193
 20
188.260633145013
 11
259.5870563312193
 21
189.7112884530078
 97
        0
 75
     0
 76
     1
 98
        0
  0
HATCH
  5
166
330
11C
100
AcDbEntity
  8
Default
  6
Continuous
 62
     7
100
AcDbHatch
 10
0.0
 20
0.0
 30
0.0
210
0.0
220
0.0
230
1.0
  2
SOLID
 70
     1
 71
     0
 91
        1
 92
        1
 93
        4
 72
     4
 94
        3
 73
     0
 74
     0
 95
       14
 96
       10
 40
0.0
 40
0.0
 40
0.0
 40
0.0
 40
0.7580098693161609
 40
0.7580098693161609
 40
0.7580098693161609
 40
0.8789822868889446
 40
0.8789822868889446
 40
0.8789822868889446
 40
1.0
 40
1.0
 40
1.0
 40
1.0
 10
262.1857620979297
 20
189.7274581777785
 10
261.7114501713242
 20
189.7274581777785
 10
261.2371382447187
 20
189.7274581777785
 10
260.7628263181132
 20
189.7274581777785
 10
260.68197769426
 20
189.7274581777785
 10
260.6172507110666
 20
189.6973825281723
 10
260.5595497781394
 20
189.6419896325622
 10
260.5018007611014
 20
189.5865505762057
 10
260.4740812329231
 20
189.5195617164416
 10
260.4740812329231
 20
189.4387130925884
 72
     1
 10
260.4740812329231
 20
189.4387130925884
 11
260.4740812329231
 21
183.1186606679488
 72
     1
 10
260.4740812329231
 20
183.1186606679488
 11
262.1857620979297
 21
183.1186606679488
 72
     1
 10
262.1857620979297
 20
183.1186606679488
 11
262.1857620979297
 21
189.7274581777785
 97
        0
 75
     0
 76
     1
 98
        0
  0
HATCH
  5
167
330
11C
100
AcDbEntity
  8
Default
  6
Continuous
 62
     7
100
AcDbHatch
 10
0.0
 20
0.0
 30
0.0
210
0.0
220
0.0
230
1.0
  2
SOLID
 70
     1
 71
     0
 91
        1
 92
        1
 93
       12
 72
     1
 10
266.2235733692272
 20
188.0042275093643
 11
265.2095006300398
 21
189.7112884530078
 72
     1
 10
265.2095006300398
 20
189.7112884530078
 11
263.1051264491747
 21
189.7112884530078
 72
     1
 10
263.1051264491747
 20
189.7112884530078
 11
265.2095006300398
 21
186.6436606679488
 72
     1
 10
265.2095006300398
 20
186.6436606679488
 11
262.6269645881001
 21
183.1186606679488
 72
     1
 10
262.6269645881001
 20
183.1186606679488
 11
264.7036192407868
 21
183.1186606679488
 72
     1
 10
264.7036192407868
 20
183.1186606679488
 11
266.2235733692272
 21
185.2646141410812
 72
     1
 10
266.2235733692272
 20
185.2646141410812
 11
267.2561257938668
 21
183.6453317033355
 72
     1
 10
267.2561257938668
 20
183.6453317033355
 11
268.2886782185064
 21
185.1144666967824
 72
     1
 10
268.2886782185064
 20
185.1144666967824
 11
267.226096305007
 21
186.6436606679488
 72
     1
 10
267.226096305007
 20
186.6436606679488
 11
269.3420202892797
 21
189.7112884530078
 72
     1
 10
269.3420202892797
 20
189.7112884530078
 11
267.226096305007
 21
189.7112884530078
 72
     1
 10
267.226096305007
 20
189.7112884530078
 11
266.2235733692272
 21
188.0042275093643
 97
        0
 75
     0
 76
     1
 98
        0
  0
HATCH
  5
168
330
11C
100
AcDbEntity
  8
Default
  6
Continuous
 62
     7
100
AcDbHatch
 10
0.0
 20
0.0
 30
0.0
210
0.0
220
0.0
230
1.0
  2
SOLID
 70
     1
 71
     0
 91
        1
 92
        1
 93
        3
 72
     4
 94
        3
 73
     0
 74
     0
 95
       13
 96
        9
 40
0.0
 40
0.0
 40
0.0
 40
0.0
 40
0.0445094381088423
 40
0.0445094381088423
 40
0.0908355879772283
 40
0.0908355879772283
 40
0.0908355879772283
 40
1.0
 40
1.0
 40
1.0
 40
1.0
 10
272.7122529236178
 20
189.5334214805307
 10
272.6198544963569
 20
189.6512294752883
 10
272.5159062656886
 20
189.7112884530078
 10
272.2849101975365
 20
189.7112884530078
 10
272.1870447473536
 20
189.6501983627819
 10
272.1047332643779
 20
189.5334214805307
 10
270.697967209332
 20
187.5376154516972
 10
269.2912011542862
 20
185.5418094228636
 10
267.8844350992403
 20
183.5460033940301
 72
     4
 94
        3
 73
     0
 74
     0
 95
       11
 96
        7
 40
0.0
 40
0.0
 40
0.0
 40
0.0
 40
0.3439066424360135
 40
0.3439066424360135
 40
0.3439066424360135
 40
1.0
 40
1.0
 40
1.0
 40
1.0
 10
267.8844350992403
 20
183.5460033940301
 10
267.8313060035653
 20
183.4605348488138
 10
267.8027439506852
 20
183.3911859889177
 10
267.8035864753871
 20
183.3381069326933
 10
267.8058964360686
 20
183.1925794097575
 10
267.9075347060556
 20
183.1186606679488
 10
268.1131212067108
 20
183.1186606679488
 72
     4
 94
        3
 73
     0
 74
     0
 95
       16
 96
       12
 40
0.0
 40
0.0
 40
0.0
 40
0.0
 40
0.5188870924081099
 40
0.5188870924081099
 40
0.5188870924081099
 40
0.544909989588877
 40
0.544909989588877
 40
0.5581347406151689
 40
0.5581347406151689
 40
0.5581347406151689
 40
1.0
 40
1.0
 40
1.0
 40
1.0
 10
268.1131212067108
 20
183.1186606679488
 10
270.9805523993713
 20
183.1186606679488
 10
273.8479835920319
 20
183.1186606679488
 10
276.7154147846925
 20
183.1186606679488
 10
276.9140714033032
 20
183.1186606679488
 10
277.0133997126086
 20
183.1879594883945
 10
277.0133997126086
 20
183.4004758710943
 10
276.9849943017649
 20
183.4716012002038
 10
276.9325510887554
 20
183.5460033940301
 10
275.5257850337095
 20
185.5418094228636
 10
274.1190189786636
 20
187.5376154516972
 10
272.7122529236178
 20
189.5334214805307
 97
        0
 75
     0
 76
     1
 98
        0
  0
ENDBLK
  5
16A
330
11C
100
AcDbEntity
  8
0
100
AcDbBlockEnd
  0
ENDSEC
  0
SECTION
  2
ENTITIES
  0
INSERT
  5
41
330
1F
100
AcDbEntity
  8
Default
100
AcDbBlockReference
  2
SE
 10
0.0
 20
0.0
 30
0.0
  0
INSERT
  5
D1
330
1F
100
AcDbEntity
  8
Default
100
AcDbBlockReference
  2
SE1
 10
0.0
 20
0.0
 30
0.0
  0
DIMENSION
  5
EC
330
1F
100
AcDbEntity
  8
Default
  6
Continuous
 62
     7
100
AcDbDimension
  2
DMBLK78
 10
71.4700131295
 20
160.1614265483
 30
0.0
 11
146.4700101492
 21
160.1614265483
 31
0.0
 70
   160
  1
\A1;<>
 71
     5
 42
-1.0
  3
DIN
100
AcDbAlignedDimension
 13
221.4700131295
 23
149.2930643972
 33
0.0
 14
71.4700131295
 24
149.2930643972
 34
0.0
100
AcDbRotatedDimension
  0
DIMENSION
  5
F6
330
1F
100
AcDbEntity
  8
Default
  6
Continuous
 62
     7
100
AcDbDimension
  2
DMBLK79
 10
63.2032568184
 20
149.2930643972
 30
0.0
 11
63.2032568184
 21
124.2930640247
 31
0.0
 70
   161
  1
\A1;<>
 71
     5
 42
-1.0
  3
DIN
100
AcDbAlignedDimension
 13
71.4700131295
 23
149.2930643972
 33
0.0
 14
71.4700131295
 24
99.2930643972
 34
0.0
  0
DIMENSION
  5
100
330
1F
100
AcDbEntity
  8
Default
  6
Continuous
 62
     7
100
AcDbDimension
  2
DMBLK80
 10
63.2032568184
 20
83.6238098481
 30
0.0
 11
63.2032568184
 21
68.6238101834
 31
0.0
 70
   161
  1
\A1;<>
 71
     5
 42
-1.0
  3
DIN
100
AcDbAlignedDimension
 13
71.4700131295
 23
83.6238098481
 33
0.0
 14
71.4700131295
 24
53.6238098481
 34
0.0
  0
INSERT
  5
16B
330
1F
100
AcDbEntity
  8
Default
 62
     7
100
AcDbBlockReference
  2
RF-Massblatt_2016
 10
0.0
 20
0.0
 30
0.0
  0
ENDSEC
  0
SECTION
  2
OBJECTS
  0
DICTIONARY
  5
C
330
0
100
AcDbDictionary
281
     1
  3
ACAD_GROUP
350
D
  3
ACAD_LAYOUT
350
1A
  3
ACAD_MATERIAL
350
3B
  3
ACAD_MLEADERSTYLE
350
16E
  3
ACAD_MLINESTYLE
350
17
  3
ACAD_PLOTSETTINGS
350
19
  3
ACAD_PLOTSTYLENAME
350
E
  3
ACAD_VISUALSTYLE
350
2A
  3
AcDbVariableDictionary
350
16C
  0
DICTIONARY
  5
173
330
11D
100
AcDbDictionary
280
     1
281
     1
  3
ACAD_MTEXT_RT
360
174
  0
DICTIONARY
  5
175
330
11E
100
AcDbDictionary
280
     1
281
     1
  3
ACAD_MTEXT_RT
360
176
  0
DICTIONARY
  5
177
330
121
100
AcDbDictionary
280
     1
281
     1
  3
ACAD_MTEXT_RT
360
178
  0
DICTIONARY
  5
D
102
{ACAD_REACTORS
330
C
102
}
330
C
100
AcDbDictionary
281
     1
  0
DICTIONARY
  5
1A
102
{ACAD_REACTORS
330
C
102
}
330
C
100
AcDbDictionary
281
     1
  3
Layout1
350
1E
  3
Model
350
22
  0
DICTIONARY
  5
3B
102
{ACAD_REACTORS
330
C
102
}
330
C
100
AcDbDictionary
281
     1
  3
ByBlock
350
3D
  3
ByLayer
350
3C
  3
Global
350
3E
  0
DICTIONARY
  5
16E
102
{ACAD_REACTORS
330
C
102
}
330
C
100
AcDbDictionary
281
     1
  0
DICTIONARY
  5
17
102
{ACAD_REACTORS
330
C
102
}
330
C
100
AcDbDictionary
281
     1
  3
Standard
350
18
  0
DICTIONARY
  5
19
102
{ACAD_REACTORS
330
C
102
}
330
C
100
AcDbDictionary
281
     1
  0
ACDBDICTIONARYWDFLT
  5
E
102
{ACAD_REACTORS
330
C
102
}
330
C
100
AcDbDictionary
281
     1
  3
Normal
350
F
100
AcDbDictionaryWithDefault
340
F
  0
DICTIONARY
  5
2A
102
{ACAD_REACTORS
330
C
102
}
330
C
100
AcDbDictionary
281
     1
  3
2dWireframe
350
2F
  3
3D Hidden
350
31
  3
3dWireframe
350
30
  3
Basic
350
32
  3
Brighten
350
36
  3
ColorChange
350
3A
  3
Conceptual
350
34
  3
Dim
350
35
  3
Facepattern
350
39
  3
Flat
350
2B
  3
FlatWithEdges
350
2C
  3
Gouraud
350
2D
  3
GouraudWithEdges
350
2E
  3
Linepattern
350
38
  3
Realistic
350
33
  3
Thicken
350
37
  0
DICTIONARY
  5
16C
102
{ACAD_REACTORS
330
C
102
}
330
C
100
AcDbDictionary
281
     1
  3
DIMASSOC
350
171
  3
HIDETEXT
350
172
  3
PSOLHEIGHT
350
170
  3
PSOLWIDTH
350
16F
  0
XRECORD
  5
174
102
{ACAD_REACTORS
330
173
102
}
330
173
100
AcDbXrecord
280
     1
 40
10118767.0
  1
\pxsm1.;{\fVectora Com 45 Light|b1||i0||c0|p34;\C7;\H2.5;\W1.;REGO-FIX AG\P}{\fVectora Com 45 Light|b0||i0||c0|p34;\C7;\H2.5;\W1.;Obermattweg 60\P}{\fVectora Com 45 Light|b0||i0||c0|p34;\C7;\H2.5;\W1.;4456 Tenniken / Switzerland\P}{\fVectora Com 45 L
  1
ight|b0||i0||c0|p34;\C7;\H2.5;\W1.;\P}{\fVectora Com 45 Light|b0||i0||c0|p34;\C7;\H2.5;\W1.;P +41 61 976 14 66\P}{\fVectora Com 45 Light|b0||i0||c0|p34;\C7;\H2.5;\W1.;F +41 61 976 14 14\P}{\fVectora Com 45 Light|b1||i0||c0|p34;\C7;\H2.5;\W1.;www.rego
  1
-fix.com}
  0
XRECORD
  5
176
102
{ACAD_REACTORS
330
175
102
}
330
175
100
AcDbXrecord
280
     1
 40
47111022.0
  1
\pxsm1.;{\fSolid Edge ISO|b0||i0||c0|p34;\C7;\H2.;\W1.;This is a non-controlled copy. All information given herein is subject to change without notice\P}{\fSolid Edge ISO|b0||i0||c0|p34;\C7;\H2.;\W1.;\P}{\fSolid Edge ISO|b0||i0||c0|p34;\C7;\H2.;\W1.;
  1
The information given herein has been carefully checked and is believed to be correct. REGO-FIX,\P}{\fSolid Edge ISO|b0||i0||c0|p34;\C7;\H2.;\W1.;however, assumes no responsibility or liability for any errors, inaccuracies or omissions that may appea
  1
r\P}{\fSolid Edge ISO|b0||i0||c0|p34;\C7;\H2.;\W1.;in this drawing\P}{\fSolid Edge ISO|b0||i0||c0|p34;\C7;\H2.;\W1.;\P}{\fSolid Edge ISO|b0||i0||c0|p34;\C7;\H2.;\W1.;This document is subject to copyright laws. No part of this document may be reproduc
  1
ed or transmitted\P}{\fSolid Edge ISO|b0||i0||c0|p34;\C7;\H2.;\W1.;in any form or any means, electronic or mechanic, for any purpose, without the express written permission\P}{\fSolid Edge ISO|b0||i0||c0|p34;\C7;\H2.;\W1.;of REGO-FIX\P}{\fSolid Edge 
  1
ISO|b0||i0||c0|p34;\C7;\H1.5;\W1.;\P}
  0
XRECORD
  5
178
102
{ACAD_REACTORS
330
177
102
}
330
177
100
AcDbXrecord
280
     1
 40
2697483.0
  1
\pxsm1.;{\fVectora Com 45 Light|b0||i0||c0|p34;\C7;\H3.5;\W1.;Type :\P}{\fVectora Com 45 Light|b0||i0||c0|p34;\C7;\H3.5;\W1.;Part No. :\P}{\fVectora Com 45 Light|b0||i0||c0|p34;\C7;\H3.5;\W1.;Date : \P}{\fVectora Com 45 Light|b0||i0||c0|p34;\C7;\H3.5
  1
;\W1.;Scale :}
  0
LAYOUT
  5
1E
102
{ACAD_REACTORS
330
1A
102
}
330
1A
100
AcDbPlotSettings
  1

  2
none_device
  4

  6

 40
0.0
 41
0.0
 42
0.0
 43
0.0
 44
0.0
 45
0.0
 46
0.0
 47
0.0
 48
0.0
 49
0.0
140
0.0
141
0.0
142
1.0
143
1.0
 70
   688
 72
     0
 73
     0
 74
     5
  7

 75
    16
147
1.0
148
0.0
149
0.0
100
AcDbLayout
  1
Layout1
 70
     1
 71
     1
 10
0.0
 20
0.0
 11
297.0
 21
210.0
 12
0.0
 22
0.0
 32
0.0
 14
0.0
 24
0.0
 34
0.0
 15
297.0
 25
210.0
 35
0.0
146
0.0
 13
0.0
 23
0.0
 33
0.0
 16
1.0
 26
0.0
 36
0.0
 17
0.0
 27
1.0
 37
0.0
 76
     0
330
1B
  0
LAYOUT
  5
22
102
{ACAD_REACTORS
330
1A
102
}
330
1A
100
AcDbPlotSettings
  1

  2
none_device
  4

  6

 40
0.0
 41
0.0
 42
0.0
 43
0.0
 44
0.0
 45
0.0
 46
0.0
 47
0.0
 48
0.0
 49
0.0
140
0.0
141
0.0
142
1.0
143
1.0
 70
  1712
 72
     0
 73
     0
 74
     0
  7

 75
     0
147
1.0
148
0.0
149
0.0
100
AcDbLayout
  1
Model
 70
     1
 71
     0
 10
0.0
 20
0.0
 11
297.0
 21
210.0
 12
0.0
 22
0.0
 32
0.0
 14
0.0
 24
0.0
 34
0.0
 15
297.0
 25
210.0
 35
0.0
146
0.0
 13
0.0
 23
0.0
 33
0.0
 16
1.0
 26
0.0
 36
0.0
 17
0.0
 27
1.0
 37
0.0
 76
     0
330
1F
331
29
  0
MATERIAL
  5
3D
102
{ACAD_REACTORS
330
3B
102
}
102
{ACAD_XDICTIONARY
360
19B
102
}
330
3B
100
AcDbMaterial
  1
ByBlock
  0
MATERIAL
  5
3C
102
{ACAD_REACTORS
330
3B
102
}
102
{ACAD_XDICTIONARY
360
199
102
}
330
3B
100
AcDbMaterial
  1
ByLayer
  0
MATERIAL
  5
3E
102
{ACAD_REACTORS
330
3B
102
}
102
{ACAD_XDICTIONARY
360
19D
102
}
330
3B
100
AcDbMaterial
  1
Global
  0
MLINESTYLE
  5
18
102
{ACAD_REACTORS
330
17
102
}
330
17
100
AcDbMlineStyle
  2
Standard
 70
     0
  3

 62
   256
 51
90.0
 52
90.0
 71
     2
 49
0.5
 62
   256
  6
BYLAYER
 49
-0.5
 62
   256
  6
BYLAYER
  0
ACDBPLACEHOLDER
  5
F
102
{ACAD_REACTORS
330
E
102
}
330
E
  0
VISUALSTYLE
  5
2F
102
{ACAD_REACTORS
330
2A
102
}
102
{ACAD_XDICTIONARY
360
181
102
}
330
2A
100
AcDbVisualStyle
  2
2dWireframe
 70
     4
 71
     0
 72
     2
 73
     0
 90
        0
 40
-0.6
 41
-30.0
 62
     5
 63
     7
 74
     1
 91
        4
 64
     7
 65
   257
 75
     1
175
     1
 42
1.0
 92
        0
 66
   257
 43
1.0
 76
     1
 77
     6
 78
     2
 67
     7
 79
     5
170
     0
171
     0
290
     0
174
     0
 93
        1
 44
0.0
173
     0
291
     0
 45
0.0
1001
ACAD
1000
AcDbSavedByObjectVersion
1070
     0
  0
VISUALSTYLE
  5
31
102
{ACAD_REACTORS
330
2A
102
}
102
{ACAD_XDICTIONARY
360
185
102
}
330
2A
100
AcDbVisualStyle
  2
3D Hidden
 70
     6
 71
     1
 72
     2
 73
     2
 90
        0
 40
-0.6
 41
-30.0
 62
     5
 63
     7
 74
     2
 91
        2
 64
     7
 65
   257
 75
     2
175
     1
 42
40.0
 92
        0
 66
   257
 43
1.0
 76
     1
 77
     6
 78
     2
 67
     7
 79
     3
170
     0
171
     0
290
     0
174
     0
 93
        1
 44
0.0
173
     0
291
     0
 45
0.0
1001
ACAD
1000
AcDbSavedByObjectVersion
1070
     0
  0
VISUALSTYLE
  5
30
102
{ACAD_REACTORS
330
2A
102
}
102
{ACAD_XDICTIONARY
360
183
102
}
330
2A
100
AcDbVisualStyle
  2
3dWireframe
 70
     5
 71
     0
 72
     2
 73
     0
 90
        0
 40
-0.6
 41
-30.0
 62
     5
 63
     7
 74
     1
 91
        4
 64
     7
 65
   257
 75
     1
175
     1
 42
1.0
 92
        0
 66
   257
 43
1.0
 76
     1
 77
     6
 78
     2
 67
     7
 79
     5
170
     0
171
     0
290
     0
174
     0
 93
        1
 44
0.0
173
     0
291
     0
 45
0.0
1001
ACAD
1000
AcDbSavedByObjectVersion
1070
     0
  0
VISUALSTYLE
  5
32
102
{ACAD_REACTORS
330
2A
102
}
102
{ACAD_XDICTIONARY
360
187
102
}
330
2A
100
AcDbVisualStyle
  2
Basic
 70
     7
 71
     1
 72
     0
 73
     1
 90
        0
 40
-0.6
 41
-30.0
 62
     5
 63
     7
 74
     0
 91
        4
 64
     7
 65
   257
 75
     1
175
     1
 42
1.0
 92
        8
 66
     7
 43
1.0
 76
     1
 77
     6
 78
     2
 67
     7
 79
     5
170
     0
171
     0
290
     0
174
     0
 93
        1
 44
0.0
173
     0
291
     1
 45
0.0
1001
ACAD
1000
AcDbSavedByObjectVersion
1070
     0
  0
VISUALSTYLE
  5
36
102
{ACAD_REACTORS
330
2A
102
}
102
{ACAD_XDICTIONARY
360
18F
102
}
330
2A
100
AcDbVisualStyle
  2
Brighten
 70
    12
 71
     2
 72
     2
 73
     0
 90
        0
 40
-0.6
 41
-30.0
 62
     5
 63
     7
 74
     1
 91
        4
 64
     7
 65
   257
 75
     1
175
     1
 42
1.0
 92
        8
 66
     7
 43
1.0
 76
     1
 77
     6
 78
     2
 67
     7
 79
     5
170
     0
171
     0
290
     0
174
     0
 93
        1
 44
50.0
173
     0
291
     1
 45
0.0
1001
ACAD
1000
AcDbSavedByObjectVersion
1070
     0
  0
VISUALSTYLE
  5
3A
102
{ACAD_REACTORS
330
2A
102
}
102
{ACAD_XDICTIONARY
360
197
102
}
330
2A
100
AcDbVisualStyle
  2
ColorChange
 70
    16
 71
     2
 72
     2
 73
     3
 90
        0
 40
-0.6
 41
-30.0
 62
     5
 63
     8
 74
     1
 91
        4
 64
     7
 65
   257
 75
     1
175
     1
 42
1.0
 92
        8
 66
     8
 43
1.0
 76
     1
 77
     6
 78
     2
 67
     7
 79
     5
170
     0
171
     0
290
     0
174
     0
 93
        1
 44
0.0
173
     0
291
     1
 45
0.0
1001
ACAD
1000
AcDbSavedByObjectVersion
1070
     0
  0
VISUALSTYLE
  5
34
102
{ACAD_REACTORS
330
2A
102
}
102
{ACAD_XDICTIONARY
360
18B
102
}
330
2A
100
AcDbVisualStyle
  2
Conceptual
 70
     9
 71
     3
 72
     2
 73
     0
 90
        0
 40
-0.6
 41
-30.0
 62
     5
 63
     7
 74
     2
 91
        2
 64
     7
 65
   257
 75
     1
175
     1
 42
40.0
 92
        8
 66
     7
 43
1.0
 76
     1
 77
     6
 78
     2
 67
     7
 79
     3
170
     0
171
     0
290
     0
174
     0
 93
        1
 44
0.0
173
     0
291
     0
 45
0.0
1001
ACAD
1000
AcDbSavedByObjectVersion
1070
     0
  0
VISUALSTYLE
  5
35
102
{ACAD_REACTORS
330
2A
102
}
102
{ACAD_XDICTIONARY
360
18D
102
}
330
2A
100
AcDbVisualStyle
  2
Dim
 70
    11
 71
     2
 72
     2
 73
     0
 90
        0
 40
-0.6
 41
-30.0
 62
     5
 63
     7
 74
     1
 91
        4
 64
     7
 65
   257
 75
     1
175
     1
 42
1.0
 92
        8
 66
     7
 43
1.0
 76
     1
 77
     6
 78
     2
 67
     7
 79
     5
170
     0
171
     0
290
     0
174
     0
 93
        1
 44
-50.0
173
     0
291
     1
 45
0.0
1001
ACAD
1000
AcDbSavedByObjectVersion
1070
     0
  0
VISUALSTYLE
  5
39
102
{ACAD_REACTORS
330
2A
102
}
102
{ACAD_XDICTIONARY
360
195
102
}
330
2A
100
AcDbVisualStyle
  2
Facepattern
 70
    15
 71
     2
 72
     2
 73
     0
 90
        0
 40
-0.6
 41
-30.0
 62
     5
 63
     7
 74
     1
 91
        4
 64
     7
 65
   257
 75
     1
175
     1
 42
1.0
 92
        8
 66
     7
 43
1.0
 76
     1
 77
     6
 78
     2
 67
     7
 79
     5
170
     0
171
     0
290
     0
174
     0
 93
        1
 44
0.0
173
     0
291
     1
 45
0.0
1001
ACAD
1000
AcDbSavedByObjectVersion
1070
     0
  0
VISUALSTYLE
  5
2B
102
{ACAD_REACTORS
330
2A
102
}
102
{ACAD_XDICTIONARY
360
179
102
}
330
2A
100
AcDbVisualStyle
  2
Flat
 70
     0
 71
     2
 72
     1
 73
     1
 90
        2
 40
-0.6
 41
30.0
 62
     5
 63
     7
 74
     0
 91
        4
 64
     7
 65
   257
 75
     1
175
     1
 42
1.0
 92
        8
 66
     7
 43
1.0
 76
     1
 77
     6
 78
     2
 67
     7
 79
     5
170
     0
171
     0
290
     0
174
     0
 93
       13
 44
0.0
173
     0
291
     1
 45
0.0
1001
ACAD
1000
AcDbSavedByObjectVersion
1070
     0
  0
VISUALSTYLE
  5
2C
102
{ACAD_REACTORS
330
2A
102
}
102
{ACAD_XDICTIONARY
360
17B
102
}
330
2A
100
AcDbVisualStyle
  2
FlatWithEdges
 70
     1
 71
     2
 72
     1
 73
     1
 90
        2
 40
-0.6
 41
30.0
 62
     5
 63
     7
 74
     1
 91
        4
 64
     7
 65
   257
 75
     1
175
     1
 42
1.0
 92
        0
 66
   257
 43
1.0
 76
     1
 77
     6
 78
     2
 67
     7
 79
     5
170
     0
171
     0
290
     0
174
     0
 93
       13
 44
0.0
173
     0
291
     1
 45
0.0
1001
ACAD
1000
AcDbSavedByObjectVersion
1070
     0
  0
VISUALSTYLE
  5
2D
102
{ACAD_REACTORS
330
2A
102
}
102
{ACAD_XDICTIONARY
360
17D
102
}
330
2A
100
AcDbVisualStyle
  2
Gouraud
 70
     2
 71
     2
 72
     2
 73
     1
 90
        2
 40
-0.6
 41
30.0
 62
     5
 63
     7
 74
     0
 91
        4
 64
     7
 65
   257
 75
     1
175
     1
 42
1.0
 92
        0
 66
     7
 43
1.0
 76
     1
 77
     6
 78
     2
 67
     7
 79
     5
170
     0
171
     0
290
     0
174
     0
 93
       13
 44
0.0
173
     0
291
     1
 45
0.0
1001
ACAD
1000
AcDbSavedByObjectVersion
1070
     0
  0
VISUALSTYLE
  5
2E
102
{ACAD_REACTORS
330
2A
102
}
102
{ACAD_XDICTIONARY
360
17F
102
}
330
2A
100
AcDbVisualStyle
  2
GouraudWithEdges
 70
     3
 71
     2
 72
     2
 73
     1
 90
        2
 40
-0.6
 41
30.0
 62
     5
 63
     7
 74
     1
 91
        4
 64
     7
 65
   257
 75
     1
175
     1
 42
1.0
 92
        0
 66
   257
 43
1.0
 76
     1
 77
     6
 78
     2
 67
     7
 79
     5
170
     0
171
     0
290
     0
174
     0
 93
       13
 44
0.0
173
     0
291
     1
 45
0.0
1001
ACAD
1000
AcDbSavedByObjectVersion
1070
     0
  0
VISUALSTYLE
  5
38
102
{ACAD_REACTORS
330
2A
102
}
102
{ACAD_XDICTIONARY
360
193
102
}
330
2A
100
AcDbVisualStyle
  2
Linepattern
 70
    14
 71
     2
 72
     2
 73
     0
 90
        0
 40
-0.6
 41
-30.0
 62
     5
 63
     7
 74
     1
 91
        4
 64
     7
 65
   257
 75
     7
175
     7
 42
1.0
 92
        8
 66
     7
 43
1.0
 76
     1
 77
     6
 78
     2
 67
     7
 79
     5
170
     0
171
     0
290
     0
174
     0
 93
        1
 44
0.0
173
     0
291
     1
 45
0.0
1001
ACAD
1000
AcDbSavedByObjectVersion
1070
     0
  0
VISUALSTYLE
  5
33
102
{ACAD_REACTORS
330
2A
102
}
102
{ACAD_XDICTIONARY
360
189
102
}
330
2A
100
AcDbVisualStyle
  2
Realistic
 70
     8
 71
     2
 72
     2
 73
     0
 90
        0
 40
-0.6
 41
-30.0
 62
     5
 63
     7
 74
     1
 91
        0
 64
     7
 65
   257
 75
     1
175
     1
 42
1.0
 92
        8
 66
     8
 43
1.0
 76
     1
 77
     6
 78
     2
 67
     7
 79
     5
170
     0
171
     0
290
     0
174
     0
 93
       13
 44
0.0
173
     0
291
     0
 45
0.0
1001
ACAD
1000
AcDbSavedByObjectVersion
1070
     0
  0
VISUALSTYLE
  5
37
102
{ACAD_REACTORS
330
2A
102
}
102
{ACAD_XDICTIONARY
360
191
102
}
330
2A
100
AcDbVisualStyle
  2
Thicken
 70
    13
 71
     2
 72
     2
 73
     0
 90
        0
 40
-0.6
 41
-30.0
 62
     5
 63
     7
 74
     1
 91
        4
 64
     7
 65
   257
 75
     1
175
     1
 42
1.0
 92
       12
 66
     7
 43
1.0
 76
     1
 77
     6
 78
     2
 67
     7
 79
     5
170
     0
171
     0
290
     0
174
     0
 93
        1
 44
0.0
173
     0
291
     1
 45
0.0
1001
ACAD
1000
AcDbSavedByObjectVersion
1070
     0
  0
DICTIONARYVAR
  5
171
102
{ACAD_REACTORS
330
16C
102
}
330
16C
100
DictionaryVariables
280
     0
  1
2
  0
DICTIONARYVAR
  5
172
102
{ACAD_REACTORS
330
16C
102
}
330
16C
100
DictionaryVariables
280
     0
  1
1
  0
DICTIONARYVAR
  5
170
102
{ACAD_REACTORS
330
16C
102
}
330
16C
100
DictionaryVariables
280
     0
  1
80.000000
  0
DICTIONARYVAR
  5
16F
102
{ACAD_REACTORS
330
16C
102
}
330
16C
100
DictionaryVariables
280
     0
  1
5.000000
  0
DICTIONARY
  5
19B
330
3D
100
AcDbDictionary
280
     1
281
     1
  3
ACAD_XREC_ROUNDTRIP
360
19C
  0
DICTIONARY
  5
199
330
3C
100
AcDbDictionary
280
     1
281
     1
  3
ACAD_XREC_ROUNDTRIP
360
19A
  0
DICTIONARY
  5
19D
330
3E
100
AcDbDictionary
280
     1
281
     1
  3
ACAD_XREC_ROUNDTRIP
360
19E
  0
DICTIONARY
  5
181
330
2F
100
AcDbDictionary
280
     1
281
     1
  3
ACAD_XREC_ROUNDTRIP
360
182
  0
DICTIONARY
  5
185
330
31
100
AcDbDictionary
280
     1
281
     1
  3
ACAD_XREC_ROUNDTRIP
360
186
  0
DICTIONARY
  5
183
330
30
100
AcDbDictionary
280
     1
281
     1
  3
ACAD_XREC_ROUNDTRIP
360
184
  0
DICTIONARY
  5
187
330
32
100
AcDbDictionary
280
     1
281
     1
  3
ACAD_XREC_ROUNDTRIP
360
188
  0
DICTIONARY
  5
18F
330
36
100
AcDbDictionary
280
     1
281
     1
  3
ACAD_XREC_ROUNDTRIP
360
190
  0
DICTIONARY
  5
197
330
3A
100
AcDbDictionary
280
     1
281
     1
  3
ACAD_XREC_ROUNDTRIP
360
198
  0
DICTIONARY
  5
18B
330
34
100
AcDbDictionary
280
     1
281
     1
  3
ACAD_XREC_ROUNDTRIP
360
18C
  0
DICTIONARY
  5
18D
330
35
100
AcDbDictionary
280
     1
281
     1
  3
ACAD_XREC_ROUNDTRIP
360
18E
  0
DICTIONARY
  5
195
330
39
100
AcDbDictionary
280
     1
281
     1
  3
ACAD_XREC_ROUNDTRIP
360
196
  0
DICTIONARY
  5
179
330
2B
100
AcDbDictionary
280
     1
281
     1
  3
ACAD_XREC_ROUNDTRIP
360
17A
  0
DICTIONARY
  5
17B
330
2C
100
AcDbDictionary
280
     1
281
     1
  3
ACAD_XREC_ROUNDTRIP
360
17C
  0
DICTIONARY
  5
17D
330
2D
100
AcDbDictionary
280
     1
281
     1
  3
ACAD_XREC_ROUNDTRIP
360
17E
  0
DICTIONARY
  5
17F
330
2E
100
AcDbDictionary
280
     1
281
     1
  3
ACAD_XREC_ROUNDTRIP
360
180
  0
DICTIONARY
  5
193
330
38
100
AcDbDictionary
280
     1
281
     1
  3
ACAD_XREC_ROUNDTRIP
360
194
  0
DICTIONARY
  5
189
330
33
100
AcDbDictionary
280
     1
281
     1
  3
ACAD_XREC_ROUNDTRIP
360
18A
  0
DICTIONARY
  5
191
330
37
100
AcDbDictionary
280
     1
281
     1
  3
ACAD_XREC_ROUNDTRIP
360
192
  0
XRECORD
  5
19C
102
{ACAD_REACTORS
330
19B
102
}
330
19B
100
AcDbXrecord
280
     1
102
MATERIAL
148
0.0
149
0.0
149
0.0
 93
        0
 94
      127
282
     0
 72
     1
 77
     1
171
     1
175
     1
179
     1
273
     0
  0
XRECORD
  5
19A
102
{ACAD_REACTORS
330
199
102
}
330
199
100
AcDbXrecord
280
     1
102
MATERIAL
148
0.0
149
0.0
149
0.0
 93
        0
 94
      127
282
     0
 72
     1
 77
     1
171
     1
175
     1
179
     1
273
     0
  0
XRECORD
  5
19E
102
{ACAD_REACTORS
330
19D
102
}
330
19D
100
AcDbXrecord
280
     1
102
MATERIAL
148
0.0
149
0.0
149
0.0
 93
        0
 94
      127
282
     0
 72
     1
 77
     1
171
     1
175
     1
179
     1
273
     0
  0
XRECORD
  5
182
102
{ACAD_REACTORS
330
181
102
}
330
181
100
AcDbXrecord
280
     1
102
RTVSPropertyOp0
 70
     1
102
RTVSPropertyOp1
 70
     1
102
RTVSPropertyOp2
 70
     1
102
RTVSPropertyOp3
 70
     1
102
RTVSPropertyOp4
 70
     1
102
RTVSPropertyOp5
 70
     1
102
RTVSPropertyOp6
 70
     1
102
RTVSPropertyOp7
 70
     1
102
RTVSPropertyOp8
 70
     1
102
RTVSPropertyOp9
 70
     1
102
RTVSPropertyOp10
 70
     1
102
RTVSPropertyOp11
 70
     1
102
RTVSPropertyOp12
 70
     1
102
RTVSPropertyOp13
 70
     1
102
RTVSPropertyOp14
 70
     1
102
RTVSPropertyOp15
 70
     1
102
RTVSPropertyOp16
 70
     1
102
RTVSPropertyOp17
 70
     1
102
RTVSPropertyOp18
 70
     1
102
RTVSPropertyOp19
 70
     1
102
RTVSPropertyOp20
 70
     1
102
RTVSPropertyOp21
 70
     1
102
RTVSPropertyOp22
 70
     1
102
RTVSPropertyOp23
 70
     1
102
RTVSPropertyOp24
 70
     1
102
RTVSPropertyOp25
 70
     1
102
RTVSPropertyOp26
 70
     1
102
RTVSPropertyOp27
 70
     1
102
RTVSPropertyOp28
 70
     1
102
RTVSPropertyOp29
 70
     1
102
RTVSPropertyOp30
 70
     1
102
RTVSPropertyOp31
 70
     1
102
RTVSPropertyOp32
 70
     1
  0
XRECORD
  5
186
102
{ACAD_REACTORS
330
185
102
}
330
185
100
AcDbXrecord
280
     1
102
RTVSPropertyOp0
 70
     1
102
RTVSPropertyOp1
 70
     1
102
RTVSPropertyOp2
 70
     1
102
RTVSPropertyOp3
 70
     1
102
RTVSPropertyOp4
 70
     1
102
RTVSPropertyOp5
 70
     1
102
RTVSPropertyOp6
 70
     1
102
RTVSPropertyOp7
 70
     1
102
RTVSPropertyOp8
 70
     1
102
RTVSPropertyOp9
 70
     1
102
RTVSPropertyOp10
 70
     1
102
RTVSPropertyOp11
 70
     1
102
RTVSPropertyOp12
 70
     1
102
RTVSPropertyOp13
 70
     1
102
RTVSPropertyOp14
 70
     1
102
RTVSPropertyOp15
 70
     1
102
RTVSPropertyOp16
 70
     1
102
RTVSPropertyOp17
 70
     1
102
RTVSPropertyOp18
 70
     1
102
RTVSPropertyOp19
 70
     1
102
RTVSPropertyOp20
 70
     1
102
RTVSPropertyOp21
 70
     1
102
RTVSPropertyOp22
 70
     1
102
RTVSPropertyOp23
 70
     1
102
RTVSPropertyOp24
 70
     1
102
RTVSPropertyOp25
 70
     1
102
RTVSPropertyOp26
 70
     1
102
RTVSPropertyOp27
 70
     1
102
RTVSPropertyOp28
 70
     1
102
RTVSPropertyOp29
 70
     1
102
RTVSPropertyOp30
 70
     1
102
RTVSPropertyOp31
 70
     1
102
RTVSPropertyOp32
 70
     1
  0
XRECORD
  5
184
102
{ACAD_REACTORS
330
183
102
}
330
183
100
AcDbXrecord
280
     1
102
RTVSPropertyOp0
 70
     1
102
RTVSPropertyOp1
 70
     1
102
RTVSPropertyOp2
 70
     1
102
RTVSPropertyOp3
 70
     1
102
RTVSPropertyOp4
 70
     1
102
RTVSPropertyOp5
 70
     1
102
RTVSPropertyOp6
 70
     1
102
RTVSPropertyOp7
 70
     1
102
RTVSPropertyOp8
 70
     1
102
RTVSPropertyOp9
 70
     1
102
RTVSPropertyOp10
 70
     1
102
RTVSPropertyOp11
 70
     1
102
RTVSPropertyOp12
 70
     1
102
RTVSPropertyOp13
 70
     1
102
RTVSPropertyOp14
 70
     1
102
RTVSPropertyOp15
 70
     1
102
RTVSPropertyOp16
 70
     1
102
RTVSPropertyOp17
 70
     1
102
RTVSPropertyOp18
 70
     1
102
RTVSPropertyOp19
 70
     1
102
RTVSPropertyOp20
 70
     1
102
RTVSPropertyOp21
 70
     1
102
RTVSPropertyOp22
 70
     1
102
RTVSPropertyOp23
 70
     1
102
RTVSPropertyOp24
 70
     1
102
RTVSPropertyOp25
 70
     1
102
RTVSPropertyOp26
 70
     1
102
RTVSPropertyOp27
 70
     1
102
RTVSPropertyOp28
 70
     1
102
RTVSPropertyOp29
 70
     1
102
RTVSPropertyOp30
 70
     1
102
RTVSPropertyOp31
 70
     1
102
RTVSPropertyOp32
 70
     1
  0
XRECORD
  5
188
102
{ACAD_REACTORS
330
187
102
}
330
187
100
AcDbXrecord
280
     1
102
RTVSPropertyOp0
 70
     1
102
RTVSPropertyOp1
 70
     1
102
RTVSPropertyOp2
 70
     1
102
RTVSPropertyOp3
 70
     1
102
RTVSPropertyOp4
 70
     1
102
RTVSPropertyOp5
 70
     1
102
RTVSPropertyOp6
 70
     1
102
RTVSPropertyOp7
 70
     1
102
RTVSPropertyOp8
 70
     1
102
RTVSPropertyOp9
 70
     1
102
RTVSPropertyOp10
 70
     1
102
RTVSPropertyOp11
 70
     1
102
RTVSPropertyOp12
 70
     1
102
RTVSPropertyOp13
 70
     1
102
RTVSPropertyOp14
 70
     1
102
RTVSPropertyOp15
 70
     1
102
RTVSPropertyOp16
 70
     1
102
RTVSPropertyOp17
 70
     1
102
RTVSPropertyOp18
 70
     1
102
RTVSPropertyOp19
 70
     1
102
RTVSPropertyOp20
 70
     1
102
RTVSPropertyOp21
 70
     1
102
RTVSPropertyOp22
 70
     1
102
RTVSPropertyOp23
 70
     1
102
RTVSPropertyOp24
 70
     1
102
RTVSPropertyOp25
 70
     1
102
RTVSPropertyOp26
 70
     1
102
RTVSPropertyOp27
 70
     1
102
RTVSPropertyOp28
 70
     1
102
RTVSPropertyOp29
 70
     1
102
RTVSPropertyOp30
 70
     1
102
RTVSPropertyOp31
 70
     1
102
RTVSPropertyOp32
 70
     1
  0
XRECORD
  5
190
102
{ACAD_REACTORS
330
18F
102
}
330
18F
100
AcDbXrecord
280
     1
102
RTVSPropertyOp0
 70
     1
102
RTVSPropertyOp1
 70
     1
102
RTVSPropertyOp2
 70
     1
102
RTVSPropertyOp3
 70
     1
102
RTVSPropertyOp4
 70
     1
102
RTVSPropertyOp5
 70
     1
102
RTVSPropertyOp6
 70
     1
102
RTVSPropertyOp7
 70
     1
102
RTVSPropertyOp8
 70
     1
102
RTVSPropertyOp9
 70
     1
102
RTVSPropertyOp10
 70
     1
102
RTVSPropertyOp11
 70
     1
102
RTVSPropertyOp12
 70
     1
102
RTVSPropertyOp13
 70
     1
102
RTVSPropertyOp14
 70
     1
102
RTVSPropertyOp15
 70
     1
102
RTVSPropertyOp16
 70
     1
102
RTVSPropertyOp17
 70
     1
102
RTVSPropertyOp18
 70
     1
102
RTVSPropertyOp19
 70
     1
102
RTVSPropertyOp20
 70
     1
102
RTVSPropertyOp21
 70
     1
102
RTVSPropertyOp22
 70
     1
102
RTVSPropertyOp23
 70
     1
102
RTVSPropertyOp24
 70
     1
102
RTVSPropertyOp25
 70
     1
102
RTVSPropertyOp26
 70
     1
102
RTVSPropertyOp27
 70
     1
102
RTVSPropertyOp28
 70
     1
102
RTVSPropertyOp29
 70
     1
102
RTVSPropertyOp30
 70
     1
102
RTVSPropertyOp31
 70
     1
102
RTVSPropertyOp32
 70
     1
  0
XRECORD
  5
198
102
{ACAD_REACTORS
330
197
102
}
330
197
100
AcDbXrecord
280
     1
102
RTVSPropertyOp0
 70
     1
102
RTVSPropertyOp1
 70
     1
102
RTVSPropertyOp2
 70
     1
102
RTVSPropertyOp3
 70
     1
102
RTVSPropertyOp4
 70
     1
102
RTVSPropertyOp5
 70
     1
102
RTVSPropertyOp6
 70
     1
102
RTVSPropertyOp7
 70
     1
102
RTVSPropertyOp8
 70
     1
102
RTVSPropertyOp9
 70
     1
102
RTVSPropertyOp10
 70
     1
102
RTVSPropertyOp11
 70
     1
102
RTVSPropertyOp12
 70
     1
102
RTVSPropertyOp13
 70
     1
102
RTVSPropertyOp14
 70
     1
102
RTVSPropertyOp15
 70
     1
102
RTVSPropertyOp16
 70
     1
102
RTVSPropertyOp17
 70
     1
102
RTVSPropertyOp18
 70
     1
102
RTVSPropertyOp19
 70
     1
102
RTVSPropertyOp20
 70
     1
102
RTVSPropertyOp21
 70
     1
102
RTVSPropertyOp22
 70
     1
102
RTVSPropertyOp23
 70
     1
102
RTVSPropertyOp24
 70
     1
102
RTVSPropertyOp25
 70
     1
102
RTVSPropertyOp26
 70
     1
102
RTVSPropertyOp27
 70
     1
102
RTVSPropertyOp28
 70
     1
102
RTVSPropertyOp29
 70
     1
102
RTVSPropertyOp30
 70
     1
102
RTVSPropertyOp31
 70
     1
102
RTVSPropertyOp32
 70
     1
  0
XRECORD
  5
18C
102
{ACAD_REACTORS
330
18B
102
}
330
18B
100
AcDbXrecord
280
     1
102
RTVSPropertyOp0
 70
     1
102
RTVSPropertyOp1
 70
     1
102
RTVSPropertyOp2
 70
     1
102
RTVSPropertyOp3
 70
     1
102
RTVSPropertyOp4
 70
     1
102
RTVSPropertyOp5
 70
     1
102
RTVSPropertyOp6
 70
     1
102
RTVSPropertyOp7
 70
     1
102
RTVSPropertyOp8
 70
     1
102
RTVSPropertyOp9
 70
     1
102
RTVSPropertyOp10
 70
     1
102
RTVSPropertyOp11
 70
     1
102
RTVSPropertyOp12
 70
     1
102
RTVSPropertyOp13
 70
     1
102
RTVSPropertyOp14
 70
     1
102
RTVSPropertyOp15
 70
     1
102
RTVSPropertyOp16
 70
     1
102
RTVSPropertyOp17
 70
     1
102
RTVSPropertyOp18
 70
     1
102
RTVSPropertyOp19
 70
     1
102
RTVSPropertyOp20
 70
     1
102
RTVSPropertyOp21
 70
     1
102
RTVSPropertyOp22
 70
     1
102
RTVSPropertyOp23
 70
     1
102
RTVSPropertyOp24
 70
     1
102
RTVSPropertyOp25
 70
     1
102
RTVSPropertyOp26
 70
     1
102
RTVSPropertyOp27
 70
     1
102
RTVSPropertyOp28
 70
     1
102
RTVSPropertyOp29
 70
     1
102
RTVSPropertyOp30
 70
     1
102
RTVSPropertyOp31
 70
     1
102
RTVSPropertyOp32
 70
     1
  0
XRECORD
  5
18E
102
{ACAD_REACTORS
330
18D
102
}
330
18D
100
AcDbXrecord
280
     1
102
RTVSPropertyOp0
 70
     1
102
RTVSPropertyOp1
 70
     1
102
RTVSPropertyOp2
 70
     1
102
RTVSPropertyOp3
 70
     1
102
RTVSPropertyOp4
 70
     1
102
RTVSPropertyOp5
 70
     1
102
RTVSPropertyOp6
 70
     1
102
RTVSPropertyOp7
 70
     1
102
RTVSPropertyOp8
 70
     1
102
RTVSPropertyOp9
 70
     1
102
RTVSPropertyOp10
 70
     1
102
RTVSPropertyOp11
 70
     1
102
RTVSPropertyOp12
 70
     1
102
RTVSPropertyOp13
 70
     1
102
RTVSPropertyOp14
 70
     1
102
RTVSPropertyOp15
 70
     1
102
RTVSPropertyOp16
 70
     1
102
RTVSPropertyOp17
 70
     1
102
RTVSPropertyOp18
 70
     1
102
RTVSPropertyOp19
 70
     1
102
RTVSPropertyOp20
 70
     1
102
RTVSPropertyOp21
 70
     1
102
RTVSPropertyOp22
 70
     1
102
RTVSPropertyOp23
 70
     1
102
RTVSPropertyOp24
 70
     1
102
RTVSPropertyOp25
 70
     1
102
RTVSPropertyOp26
 70
     1
102
RTVSPropertyOp27
 70
     1
102
RTVSPropertyOp28
 70
     1
102
RTVSPropertyOp29
 70
     1
102
RTVSPropertyOp30
 70
     1
102
RTVSPropertyOp31
 70
     1
102
RTVSPropertyOp32
 70
     1
  0
XRECORD
  5
196
102
{ACAD_REACTORS
330
195
102
}
330
195
100
AcDbXrecord
280
     1
102
RTVSPropertyOp0
 70
     1
102
RTVSPropertyOp1
 70
     1
102
RTVSPropertyOp2
 70
     1
102
RTVSPropertyOp3
 70
     1
102
RTVSPropertyOp4
 70
     1
102
RTVSPropertyOp5
 70
     1
102
RTVSPropertyOp6
 70
     1
102
RTVSPropertyOp7
 70
     1
102
RTVSPropertyOp8
 70
     1
102
RTVSPropertyOp9
 70
     1
102
RTVSPropertyOp10
 70
     1
102
RTVSPropertyOp11
 70
     1
102
RTVSPropertyOp12
 70
     1
102
RTVSPropertyOp13
 70
     1
102
RTVSPropertyOp14
 70
     1
102
RTVSPropertyOp15
 70
     1
102
RTVSPropertyOp16
 70
     1
102
RTVSPropertyOp17
 70
     1
102
RTVSPropertyOp18
 70
     1
102
RTVSPropertyOp19
 70
     1
102
RTVSPropertyOp20
 70
     1
102
RTVSPropertyOp21
 70
     1
102
RTVSPropertyOp22
 70
     1
102
RTVSPropertyOp23
 70
     1
102
RTVSPropertyOp24
 70
     1
102
RTVSPropertyOp25
 70
     1
102
RTVSPropertyOp26
 70
     1
102
RTVSPropertyOp27
 70
     1
102
RTVSPropertyOp28
 70
     1
102
RTVSPropertyOp29
 70
     1
102
RTVSPropertyOp30
 70
     1
102
RTVSPropertyOp31
 70
     1
102
RTVSPropertyOp32
 70
     1
  0
XRECORD
  5
17A
102
{ACAD_REACTORS
330
179
102
}
330
179
100
AcDbXrecord
280
     1
102
RTVSPropertyOp0
 70
     1
102
RTVSPropertyOp1
 70
     1
102
RTVSPropertyOp2
 70
     1
102
RTVSPropertyOp3
 70
     1
102
RTVSPropertyOp4
 70
     1
102
RTVSPropertyOp5
 70
     1
102
RTVSPropertyOp6
 70
     1
102
RTVSPropertyOp7
 70
     1
102
RTVSPropertyOp8
 70
     1
102
RTVSPropertyOp9
 70
     1
102
RTVSPropertyOp10
 70
     1
102
RTVSPropertyOp11
 70
     1
102
RTVSPropertyOp12
 70
     1
102
RTVSPropertyOp13
 70
     1
102
RTVSPropertyOp14
 70
     1
102
RTVSPropertyOp15
 70
     1
102
RTVSPropertyOp16
 70
     1
102
RTVSPropertyOp17
 70
     1
102
RTVSPropertyOp18
 70
     1
102
RTVSPropertyOp19
 70
     1
102
RTVSPropertyOp20
 70
     1
102
RTVSPropertyOp21
 70
     1
102
RTVSPropertyOp22
 70
     1
102
RTVSPropertyOp23
 70
     1
102
RTVSPropertyOp24
 70
     1
102
RTVSPropertyOp25
 70
     1
102
RTVSPropertyOp26
 70
     1
102
RTVSPropertyOp27
 70
     1
102
RTVSPropertyOp28
 70
     1
102
RTVSPropertyOp29
 70
     1
102
RTVSPropertyOp30
 70
     1
102
RTVSPropertyOp31
 70
     1
102
RTVSPropertyOp32
 70
     1
  0
XRECORD
  5
17C
102
{ACAD_REACTORS
330
17B
102
}
330
17B
100
AcDbXrecord
280
     1
102
RTVSPropertyOp0
 70
     1
102
RTVSPropertyOp1
 70
     1
102
RTVSPropertyOp2
 70
     1
102
RTVSPropertyOp3
 70
     1
102
RTVSPropertyOp4
 70
     1
102
RTVSPropertyOp5
 70
     1
102
RTVSPropertyOp6
 70
     1
102
RTVSPropertyOp7
 70
     1
102
RTVSPropertyOp8
 70
     1
102
RTVSPropertyOp9
 70
     1
102
RTVSPropertyOp10
 70
     1
102
RTVSPropertyOp11
 70
     1
102
RTVSPropertyOp12
 70
     1
102
RTVSPropertyOp13
 70
     1
102
RTVSPropertyOp14
 70
     1
102
RTVSPropertyOp15
 70
     1
102
RTVSPropertyOp16
 70
     1
102
RTVSPropertyOp17
 70
     1
102
RTVSPropertyOp18
 70
     1
102
RTVSPropertyOp19
 70
     1
102
RTVSPropertyOp20
 70
     1
102
RTVSPropertyOp21
 70
     1
102
RTVSPropertyOp22
 70
     1
102
RTVSPropertyOp23
 70
     1
102
RTVSPropertyOp24
 70
     1
102
RTVSPropertyOp25
 70
     1
102
RTVSPropertyOp26
 70
     1
102
RTVSPropertyOp27
 70
     1
102
RTVSPropertyOp28
 70
     1
102
RTVSPropertyOp29
 70
     1
102
RTVSPropertyOp30
 70
     1
102
RTVSPropertyOp31
 70
     1
102
RTVSPropertyOp32
 70
     1
  0
XRECORD
  5
17E
102
{ACAD_REACTORS
330
17D
102
}
330
17D
100
AcDbXrecord
280
     1
102
RTVSPropertyOp0
 70
     1
102
RTVSPropertyOp1
 70
     1
102
RTVSPropertyOp2
 70
     1
102
RTVSPropertyOp3
 70
     1
102
RTVSPropertyOp4
 70
     1
102
RTVSPropertyOp5
 70
     1
102
RTVSPropertyOp6
 70
     1
102
RTVSPropertyOp7
 70
     1
102
RTVSPropertyOp8
 70
     1
102
RTVSPropertyOp9
 70
     1
102
RTVSPropertyOp10
 70
     1
102
RTVSPropertyOp11
 70
     1
102
RTVSPropertyOp12
 70
     1
102
RTVSPropertyOp13
 70
     1
102
RTVSPropertyOp14
 70
     1
102
RTVSPropertyOp15
 70
     1
102
RTVSPropertyOp16
 70
     1
102
RTVSPropertyOp17
 70
     1
102
RTVSPropertyOp18
 70
     1
102
RTVSPropertyOp19
 70
     1
102
RTVSPropertyOp20
 70
     1
102
RTVSPropertyOp21
 70
     1
102
RTVSPropertyOp22
 70
     1
102
RTVSPropertyOp23
 70
     1
102
RTVSPropertyOp24
 70
     1
102
RTVSPropertyOp25
 70
     1
102
RTVSPropertyOp26
 70
     1
102
RTVSPropertyOp27
 70
     1
102
RTVSPropertyOp28
 70
     1
102
RTVSPropertyOp29
 70
     1
102
RTVSPropertyOp30
 70
     1
102
RTVSPropertyOp31
 70
     1
102
RTVSPropertyOp32
 70
     1
  0
XRECORD
  5
180
102
{ACAD_REACTORS
330
17F
102
}
330
17F
100
AcDbXrecord
280
     1
102
RTVSPropertyOp0
 70
     1
102
RTVSPropertyOp1
 70
     1
102
RTVSPropertyOp2
 70
     1
102
RTVSPropertyOp3
 70
     1
102
RTVSPropertyOp4
 70
     1
102
RTVSPropertyOp5
 70
     1
102
RTVSPropertyOp6
 70
     1
102
RTVSPropertyOp7
 70
     1
102
RTVSPropertyOp8
 70
     1
102
RTVSPropertyOp9
 70
     1
102
RTVSPropertyOp10
 70
     1
102
RTVSPropertyOp11
 70
     1
102
RTVSPropertyOp12
 70
     1
102
RTVSPropertyOp13
 70
     1
102
RTVSPropertyOp14
 70
     1
102
RTVSPropertyOp15
 70
     1
102
RTVSPropertyOp16
 70
     1
102
RTVSPropertyOp17
 70
     1
102
RTVSPropertyOp18
 70
     1
102
RTVSPropertyOp19
 70
     1
102
RTVSPropertyOp20
 70
     1
102
RTVSPropertyOp21
 70
     1
102
RTVSPropertyOp22
 70
     1
102
RTVSPropertyOp23
 70
     1
102
RTVSPropertyOp24
 70
     1
102
RTVSPropertyOp25
 70
     1
102
RTVSPropertyOp26
 70
     1
102
RTVSPropertyOp27
 70
     1
102
RTVSPropertyOp28
 70
     1
102
RTVSPropertyOp29
 70
     1
102
RTVSPropertyOp30
 70
     1
102
RTVSPropertyOp31
 70
     1
102
RTVSPropertyOp32
 70
     1
  0
XRECORD
  5
194
102
{ACAD_REACTORS
330
193
102
}
330
193
100
AcDbXrecord
280
     1
102
RTVSPropertyOp0
 70
     1
102
RTVSPropertyOp1
 70
     1
102
RTVSPropertyOp2
 70
     1
102
RTVSPropertyOp3
 70
     1
102
RTVSPropertyOp4
 70
     1
102
RTVSPropertyOp5
 70
     1
102
RTVSPropertyOp6
 70
     1
102
RTVSPropertyOp7
 70
     1
102
RTVSPropertyOp8
 70
     1
102
RTVSPropertyOp9
 70
     1
102
RTVSPropertyOp10
 70
     1
102
RTVSPropertyOp11
 70
     1
102
RTVSPropertyOp12
 70
     1
102
RTVSPropertyOp13
 70
     1
102
RTVSPropertyOp14
 70
     1
102
RTVSPropertyOp15
 70
     1
102
RTVSPropertyOp16
 70
     1
102
RTVSPropertyOp17
 70
     1
102
RTVSPropertyOp18
 70
     1
102
RTVSPropertyOp19
 70
     1
102
RTVSPropertyOp20
 70
     1
102
RTVSPropertyOp21
 70
     1
102
RTVSPropertyOp22
 70
     1
102
RTVSPropertyOp23
 70
     1
102
RTVSPropertyOp24
 70
     1
102
RTVSPropertyOp25
 70
     1
102
RTVSPropertyOp26
 70
     1
102
RTVSPropertyOp27
 70
     1
102
RTVSPropertyOp28
 70
     1
102
RTVSPropertyOp29
 70
     1
102
RTVSPropertyOp30
 70
     1
102
RTVSPropertyOp31
 70
     1
102
RTVSPropertyOp32
 70
     1
  0
XRECORD
  5
18A
102
{ACAD_REACTORS
330
189
102
}
330
189
100
AcDbXrecord
280
     1
102
RTVSPropertyOp0
 70
     1
102
RTVSPropertyOp1
 70
     1
102
RTVSPropertyOp2
 70
     1
102
RTVSPropertyOp3
 70
     1
102
RTVSPropertyOp4
 70
     1
102
RTVSPropertyOp5
 70
     1
102
RTVSPropertyOp6
 70
     1
102
RTVSPropertyOp7
 70
     1
102
RTVSPropertyOp8
 70
     1
102
RTVSPropertyOp9
 70
     1
102
RTVSPropertyOp10
 70
     1
102
RTVSPropertyOp11
 70
     1
102
RTVSPropertyOp12
 70
     1
102
RTVSPropertyOp13
 70
     1
102
RTVSPropertyOp14
 70
     1
102
RTVSPropertyOp15
 70
     1
102
RTVSPropertyOp16
 70
     1
102
RTVSPropertyOp17
 70
     1
102
RTVSPropertyOp18
 70
     1
102
RTVSPropertyOp19
 70
     1
102
RTVSPropertyOp20
 70
     1
102
RTVSPropertyOp21
 70
     1
102
RTVSPropertyOp22
 70
     1
102
RTVSPropertyOp23
 70
     1
102
RTVSPropertyOp24
 70
     1
102
RTVSPropertyOp25
 70
     1
102
RTVSPropertyOp26
 70
     1
102
RTVSPropertyOp27
 70
     1
102
RTVSPropertyOp28
 70
     1
102
RTVSPropertyOp29
 70
     1
102
RTVSPropertyOp30
 70
     1
102
RTVSPropertyOp31
 70
     1
102
RTVSPropertyOp32
 70
     1
  0
XRECORD
  5
192
102
{ACAD_REACTORS
330
191
102
}
330
191
100
AcDbXrecord
280
     1
102
RTVSPropertyOp0
 70
     1
102
RTVSPropertyOp1
 70
     1
102
RTVSPropertyOp2
 70
     1
102
RTVSPropertyOp3
 70
     1
102
RTVSPropertyOp4
 70
     1
102
RTVSPropertyOp5
 70
     1
102
RTVSPropertyOp6
 70
     1
102
RTVSPropertyOp7
 70
     1
102
RTVSPropertyOp8
 70
     1
102
RTVSPropertyOp9
 70
     1
102
RTVSPropertyOp10
 70
     1
102
RTVSPropertyOp11
 70
     1
102
RTVSPropertyOp12
 70
     1
102
RTVSPropertyOp13
 70
     1
102
RTVSPropertyOp14
 70
     1
102
RTVSPropertyOp15
 70
     1
102
RTVSPropertyOp16
 70
     1
102
RTVSPropertyOp17
 70
     1
102
RTVSPropertyOp18
 70
     1
102
RTVSPropertyOp19
 70
     1
102
RTVSPropertyOp20
 70
     1
102
RTVSPropertyOp21
 70
     1
102
RTVSPropertyOp22
 70
     1
102
RTVSPropertyOp23
 70
     1
102
RTVSPropertyOp24
 70
     1
102
RTVSPropertyOp25
 70
     1
102
RTVSPropertyOp26
 70
     1
102
RTVSPropertyOp27
 70
     1
102
RTVSPropertyOp28
 70
     1
102
RTVSPropertyOp29
 70
     1
102
RTVSPropertyOp30
 70
     1
102
RTVSPropertyOp31
 70
     1
102
RTVSPropertyOp32
 70
     1
  0
ENDSEC
  0
EOF
