  0
SECTION
  2
HEADER
  9
$ACADVER
  1
AC1015
  9
$ACADMAINTVER
 70
     6
  9
$DWGCODEPAGE
  3
ANSI_1252
  9
$INSBASE
 10
0.0
 20
0.0
 30
0.0
  9
$EXTMIN
 10
0.0
 20
0.0
 30
0.0
  9
$EXTMAX
 10
297.0
 20
210.0
 30
0.0
  9
$LIMMIN
 10
0.0
 20
0.0
  9
$LIMMAX
 10
297.0
 20
210.0
  9
$ORTHOMODE
 70
     0
  9
$REGENMODE
 70
     1
  9
$FILLMODE
 70
     1
  9
$QTEXTMODE
 70
     0
  9
$MIRRTEXT
 70
     1
  9
$LTSCALE
 40
1.0
  9
$ATTMODE
 70
     1
  9
$TEXTSIZE
 40
2.5
  9
$TRACEWID
 40
1.0
  9
$TEXTSTYLE
  7
Standard
  9
$CLAYER
  8
0
  9
$CELTYPE
  6
ByLayer
  9
$CECOLOR
 62
   256
  9
$CELTSCALE
 40
1.0
  9
$DISPSILH
 70
     0
  9
$DIMSCALE
 40
1.0
  9
$DIMASZ
 40
2.5
  9
$DIMEXO
 40
0.625
  9
$DIMDLI
 40
3.75
  9
$DIMRND
 40
0.0
  9
$DIMDLE
 40
0.0
  9
$DIMEXE
 40
1.25
  9
$DIMTP
 40
0.0
  9
$DIMTM
 40
0.0
  9
$DIMTXT
 40
2.5
  9
$DIMCEN
 40
2.5
  9
$DIMTSZ
 40
0.0
  9
$DIMTOL
 70
     0
  9
$DIMLIM
 70
     0
  9
$DIMTIH
 70
     0
  9
$DIMTOH
 70
     0
  9
$DIMSE1
 70
     0
  9
$DIMSE2
 70
     0
  9
$DIMTAD
 70
     1
  9
$DIMZIN
 70
     8
  9
$DIMBLK
  1

  9
$DIMASO
 70
     1
  9
$DIMSHO
 70
     1
  9
$DIMPOST
  1

  9
$DIMAPOST
  1

  9
$DIMALT
 70
     0
  9
$DIMALTD
 70
     3
  9
$DIMALTF
 40
0.0393700787
  9
$DIMLFAC
 40
1.0
  9
$DIMTOFL
 70
     1
  9
$DIMTVP
 40
0.0
  9
$DIMTIX
 70
     0
  9
$DIMSOXD
 70
     0
  9
$DIMSAH
 70
     0
  9
$DIMBLK1
  1

  9
$DIMBLK2
  1

  9
$DIMSTYLE
  2
ISO-25
  9
$DIMCLRD
 70
     0
  9
$DIMCLRE
 70
     0
  9
$DIMCLRT
 70
     0
  9
$DIMTFAC
 40
1.0
  9
$DIMGAP
 40
0.625
  9
$DIMJUST
 70
     0
  9
$DIMSD1
 70
     0
  9
$DIMSD2
 70
     0
  9
$DIMTOLJ
 70
     0
  9
$DIMTZIN
 70
     8
  9
$DIMALTZ
 70
     0
  9
$DIMALTTZ
 70
     0
  9
$DIMUPT
 70
     0
  9
$DIMDEC
 70
     2
  9
$DIMTDEC
 70
     2
  9
$DIMALTU
 70
     2
  9
$DIMALTTD
 70
     3
  9
$DIMTXSTY
  7
Standard
  9
$DIMAUNIT
 70
     0
  9
$DIMADEC
 70
     0
  9
$DIMALTRND
 40
0.0
  9
$DIMAZIN
 70
     0
  9
$DIMDSEP
 70
    44
  9
$DIMATFIT
 70
     3
  9
$DIMFRAC
 70
     0
  9
$DIMLDRBLK
  1

  9
$DIMLUNIT
 70
     2
  9
$DIMLWD
 70
    -2
  9
$DIMLWE
 70
    -2
  9
$DIMTMOVE
 70
     0
  9
$LUNITS
 70
     2
  9
$LUPREC
 70
     4
  9
$SKETCHINC
 40
1.0
  9
$FILLETRAD
 40
10.0
  9
$AUNITS
 70
     0
  9
$AUPREC
 70
     0
  9
$MENU
  1
.
  9
$ELEVATION
 40
0.0
  9
$PELEVATION
 40
0.0
  9
$THICKNESS
 40
0.0
  9
$LIMCHECK
 70
     0
  9
$CHAMFERA
 40
10.0
  9
$CHAMFERB
 40
10.0
  9
$CHAMFERC
 40
20.0
  9
$CHAMFERD
 40
0.0
  9
$SKPOLY
 70
     0
  9
$TDCREATE
 40
2457512.35645507
  9
$TDUCREATE
 40
2457512.273121736
  9
$TDUPDATE
 40
2457512.356456215
  9
$TDUUPDATE
 40
2457512.273122882
  9
$TDINDWG
 40
0.0000000116
  9
$TDUSRTIMER
 40
0.0000000116
  9
$USRTIMER
 70
     1
  9
$ANGBASE
 50
0.0
  9
$ANGDIR
 70
     0
  9
$PDMODE
 70
     0
  9
$PDSIZE
 40
0.0
  9
$PLINEWID
 40
0.0
  9
$SPLFRAME
 70
     0
  9
$SPLINETYPE
 70
     6
  9
$SPLINESEGS
 70
     8
  9
$HANDSEED
  5
19E
  9
$SURFTAB1
 70
     6
  9
$SURFTAB2
 70
     6
  9
$SURFTYPE
 70
     6
  9
$SURFU
 70
     6
  9
$SURFV
 70
     6
  9
$UCSBASE
  2

  9
$UCSNAME
  2

  9
$UCSORG
 10
0.0
 20
0.0
 30
0.0
  9
$UCSXDIR
 10
1.0
 20
0.0
 30
0.0
  9
$UCSYDIR
 10
0.0
 20
1.0
 30
0.0
  9
$UCSORTHOREF
  2

  9
$UCSORTHOVIEW
 70
     0
  9
$UCSORGTOP
 10
0.0
 20
0.0
 30
0.0
  9
$UCSORGBOTTOM
 10
0.0
 20
0.0
 30
0.0
  9
$UCSORGLEFT
 10
0.0
 20
0.0
 30
0.0
  9
$UCSORGRIGHT
 10
0.0
 20
0.0
 30
0.0
  9
$UCSORGFRONT
 10
0.0
 20
0.0
 30
0.0
  9
$UCSORGBACK
 10
0.0
 20
0.0
 30
0.0
  9
$PUCSBASE
  2

  9
$PUCSNAME
  2

  9
$PUCSORG
 10
0.0
 20
0.0
 30
0.0
  9
$PUCSXDIR
 10
1.0
 20
0.0
 30
0.0
  9
$PUCSYDIR
 10
0.0
 20
1.0
 30
0.0
  9
$PUCSORTHOREF
  2

  9
$PUCSORTHOVIEW
 70
     0
  9
$PUCSORGTOP
 10
0.0
 20
0.0
 30
0.0
  9
$PUCSORGBOTTOM
 10
0.0
 20
0.0
 30
0.0
  9
$PUCSORGLEFT
 10
0.0
 20
0.0
 30
0.0
  9
$PUCSORGRIGHT
 10
0.0
 20
0.0
 30
0.0
  9
$PUCSORGFRONT
 10
0.0
 20
0.0
 30
0.0
  9
$PUCSORGBACK
 10
0.0
 20
0.0
 30
0.0
  9
$USERI1
 70
     0
  9
$USERI2
 70
     0
  9
$USERI3
 70
     0
  9
$USERI4
 70
     0
  9
$USERI5
 70
     0
  9
$USERR1
 40
0.0
  9
$USERR2
 40
0.0
  9
$USERR3
 40
0.0
  9
$USERR4
 40
0.0
  9
$USERR5
 40
0.0
  9
$WORLDVIEW
 70
     1
  9
$SHADEDGE
 70
     3
  9
$SHADEDIF
 70
    70
  9
$TILEMODE
 70
     1
  9
$MAXACTVP
 70
    64
  9
$PINSBASE
 10
0.0
 20
0.0
 30
0.0
  9
$PLIMCHECK
 70
     0
  9
$PEXTMIN
 10
0.0
 20
0.0
 30
0.0
  9
$PEXTMAX
 10
297.0
 20
210.0
 30
0.0
  9
$PLIMMIN
 10
0.0
 20
0.0
  9
$PLIMMAX
 10
297.0
 20
210.0
  9
$UNITMODE
 70
     0
  9
$VISRETAIN
 70
     1
  9
$PLINEGEN
 70
     0
  9
$PSLTSCALE
 70
     1
  9
$TREEDEPTH
 70
  3020
  9
$CMLSTYLE
  2
Standard
  9
$CMLJUST
 70
     0
  9
$CMLSCALE
 40
20.0
  9
$PROXYGRAPHICS
 70
     1
  9
$MEASUREMENT
 70
     1
  9
$CELWEIGHT
370
    -1
  9
$ENDCAPS
280
     0
  9
$JOINSTYLE
280
     0
  9
$LWDISPLAY
290
     0
  9
$INSUNITS
 70
     4
  9
$HYPERLINKBASE
  1

  9
$STYLESHEET
  1

  9
$XEDIT
290
     1
  9
$CEPSNTYPE
380
     0
  9
$PSTYLEMODE
290
     1
  9
$FINGERPRINTGUID
  2
{89ECFF26-3899-402E-8CE6-AD45A2DB3B47}
  9
$VERSIONGUID
  2
{FAEB1C32-E019-11D5-929B-00C0DF256EC4}
  9
$EXTNAMES
290
     1
  9
$PSVPSCALE
 40
0.0
  9
$OLESTARTUP
290
     0
  0
ENDSEC
  0
SECTION
  2
CLASSES
  0
CLASS
  1
ACDBDICTIONARYWDFLT
  2
AcDbDictionaryWithDefault
  3
ObjectDBX Classes
 90
        0
280
     0
281
     0
  0
CLASS
  1
VISUALSTYLE
  2
AcDbVisualStyle
  3
ObjectDBX Classes
 90
     4095
280
     0
281
     0
  0
CLASS
  1
MATERIAL
  2
AcDbMaterial
  3
ObjectDBX Classes
 90
     1153
280
     0
281
     0
  0
CLASS
  1
DICTIONARYVAR
  2
AcDbDictionaryVar
  3
ObjectDBX Classes
 90
        0
280
     0
281
     0
  0
CLASS
  1
ACDBPLACEHOLDER
  2
AcDbPlaceHolder
  3
ObjectDBX Classes
 90
        0
280
     0
281
     0
  0
CLASS
  1
LAYOUT
  2
AcDbLayout
  3
ObjectDBX Classes
 90
        0
280
     0
281
     0
  0
ENDSEC
  0
SECTION
  2
TABLES
  0
TABLE
  2
VPORT
  5
8
330
0
100
AcDbSymbolTable
 70
     1
  0
VPORT
  5
29
330
8
100
AcDbSymbolTableRecord
100
AcDbViewportTableRecord
  2
*Active
 70
     0
 10
0.0
 20
0.0
 11
1.0
 21
1.0
 12
344.1869158879
 22
148.5
 13
0.0
 23
0.0
 14
10.0
 24
10.0
 15
10.0
 25
10.0
 16
0.0
 26
0.0
 36
1.0
 17
0.0
 27
0.0
 37
0.0
 40
297.0
 41
1.9729729729
 42
50.0
 43
0.0
 44
0.0
 50
0.0
 51
0.0
 71
     0
 72
   100
 73
     1
 74
     3
 75
     0
 76
     0
 77
     0
 78
     0
281
     0
 65
     1
110
0.0
120
0.0
130
0.0
111
1.0
121
0.0
131
0.0
112
0.0
122
1.0
132
0.0
 79
     0
146
0.0
  0
ENDTAB
  0
TABLE
  2
LTYPE
  5
5
330
0
100
AcDbSymbolTable
 70
     1
  0
LTYPE
  5
14
330
5
100
AcDbSymbolTableRecord
100
AcDbLinetypeTableRecord
  2
ByBlock
 70
     0
  3

 72
    65
 73
     0
 40
0.0
  0
LTYPE
  5
15
330
5
100
AcDbSymbolTableRecord
100
AcDbLinetypeTableRecord
  2
ByLayer
 70
     0
  3

 72
    65
 73
     0
 40
0.0
  0
LTYPE
  5
16
330
5
100
AcDbSymbolTableRecord
100
AcDbLinetypeTableRecord
  2
Continuous
 70
     0
  3
Solid line
 72
    65
 73
     0
 40
0.0
  0
ENDTAB
  0
TABLE
  2
LAYER
  5
2
330
0
100
AcDbSymbolTable
 70
     4
  0
LAYER
  5
10
330
2
100
AcDbSymbolTableRecord
100
AcDbLayerTableRecord
  2
0
 70
     0
 62
     7
  6
Continuous
370
    -3
390
F
  0
LAYER
  5
3F
330
2
100
AcDbSymbolTableRecord
100
AcDbLayerTableRecord
  2
Default
 70
     0
 62
     7
  6
Continuous
370
    -3
390
F
  0
LAYER
  5
42
330
2
100
AcDbSymbolTableRecord
100
AcDbLayerTableRecord
  2
DV1_Default
 70
     0
 62
     7
  6
Continuous
370
    -3
390
F
  0
LAYER
  5
50
330
2
100
AcDbSymbolTableRecord
100
AcDbLayerTableRecord
  2
0015021
 70
     0
 62
     7
  6
Continuous
370
    -3
390
F
  0
ENDTAB
  0
TABLE
  2
STYLE
  5
3
330
0
100
AcDbSymbolTable
 70
     4
  0
STYLE
  5
11
330
3
100
AcDbSymbolTableRecord
100
AcDbTextStyleTableRecord
  2
Standard
 70
     0
 40
0.0
 41
1.0
 50
0.0
 71
     0
 42
2.5
  3
txt
  4

  0
STYLE
  5
E9
330
3
100
AcDbSymbolTableRecord
100
AcDbTextStyleTableRecord
  2
SEACAD_Solid_Edge_ISO
 70
     0
 40
0.0
 41
1.0
 50
0.0
 71
     0
 42
0.2
  3
seiso.ttf
  4

1001
ACAD
1000
Solid Edge ISO
1071
        0
  0
STYLE
  5
10A
330
3
100
AcDbSymbolTableRecord
100
AcDbTextStyleTableRecord
  2
SEACAD_Solid_Edge_ANSIB
 70
     0
 40
0.0
 41
1.0
 50
0.0
 71
     0
 42
0.2
  3
seansbd.ttf
  4

1001
ACAD
1000
Solid Edge ANSI
1071
 33554432
  0
STYLE
  5
10F
330
3
100
AcDbSymbolTableRecord
100
AcDbTextStyleTableRecord
  2
SEACAD_Solid_Edge_ANSI
 70
     0
 40
0.0
 41
1.0
 50
0.0
 71
     0
 42
0.2
  3
seans.ttf
  4

1001
ACAD
1000
Solid Edge ANSI
1071
        0
  0
ENDTAB
  0
TABLE
  2
VIEW
  5
6
330
0
100
AcDbSymbolTable
 70
     0
  0
ENDTAB
  0
TABLE
  2
UCS
  5
7
330
0
100
AcDbSymbolTable
 70
     0
  0
ENDTAB
  0
TABLE
  2
APPID
  5
9
330
0
100
AcDbSymbolTable
 70
     1
  0
APPID
  5
12
330
9
100
AcDbSymbolTableRecord
100
AcDbRegAppTableRecord
  2
ACAD
 70
     0
  0
ENDTAB
  0
TABLE
  2
DIMSTYLE
  5
A
330
0
100
AcDbSymbolTable
 70
     3
100
AcDbDimStyleTable
  0
DIMSTYLE
105
27
330
A
100
AcDbSymbolTableRecord
100
AcDbDimStyleTableRecord
  2
ISO-25
 70
     0
 41
2.5
 42
0.625
 43
3.75
 44
1.25
 73
     0
 74
     0
 77
     1
 78
     8
140
2.5
141
2.5
143
0.0393700787
147
0.625
171
     3
172
     1
178
     0
271
     2
272
     2
274
     3
278
    44
283
     0
284
     8
340
11
  0
DIMSTYLE
105
D7
330
A
100
AcDbSymbolTableRecord
100
AcDbDimStyleTableRecord
  2
Standard
 70
     0
178
     0
340
11
  0
DIMSTYLE
105
EA
102
{ACAD_REACTORS
330
EB
330
F5
330
FF
102
}
330
A
100
AcDbSymbolTableRecord
100
AcDbDimStyleTableRecord
  2
DIN
 70
     0
 41
3.5
 42
0.0
 44
1.75
 73
     0
 74
     0
 77
     1
 78
     8
140
3.5
141
1.75
147
1.75
172
     1
173
     1
178
     0
179
     3
271
     3
272
     3
278
    44
284
     8
340
E9
343
E4
344
E4
  0
ENDTAB
  0
TABLE
  2
BLOCK_RECORD
  5
1
330
0
100
AcDbSymbolTable
 70
    14
  0
BLOCK_RECORD
  5
1F
330
1
100
AcDbSymbolTableRecord
100
AcDbBlockTableRecord
  2
*Model_Space
340
22
  0
BLOCK_RECORD
  5
1B
330
1
100
AcDbSymbolTableRecord
100
AcDbBlockTableRecord
  2
*Paper_Space
340
1E
  0
BLOCK_RECORD
  5
40
330
1
100
AcDbSymbolTableRecord
100
AcDbBlockTableRecord
  2
SE
340
0
102
{BLKREFS
331
41
102
}
  0
BLOCK_RECORD
  5
C8
330
1
100
AcDbSymbolTableRecord
100
AcDbBlockTableRecord
  2
SE1
340
0
102
{BLKREFS
331
C9
102
}
  0
BLOCK_RECORD
  5
D8
330
1
100
AcDbSymbolTableRecord
100
AcDbBlockTableRecord
  2
_OBLIQUE
340
0
  0
BLOCK_RECORD
  5
DC
330
1
100
AcDbSymbolTableRecord
100
AcDbBlockTableRecord
  2
_DOT
340
0
  0
BLOCK_RECORD
  5
E4
330
1
100
AcDbSymbolTableRecord
100
AcDbBlockTableRecord
  2
_SE_FILLED
340
0
  0
BLOCK_RECORD
  5
EC
330
1
100
AcDbSymbolTableRecord
100
AcDbBlockTableRecord
  2
DMBLK81
340
0
  0
BLOCK_RECORD
  5
F6
330
1
100
AcDbSymbolTableRecord
100
AcDbBlockTableRecord
  2
DMBLK82
340
0
  0
BLOCK_RECORD
  5
100
330
1
100
AcDbSymbolTableRecord
100
AcDbBlockTableRecord
  2
DMBLK83
340
0
  0
BLOCK_RECORD
  5
109
330
1
100
AcDbSymbolTableRecord
100
AcDbBlockTableRecord
  2
SEANNOT_GROUP
340
0
102
{BLKREFS
331
11E
102
}
  0
BLOCK_RECORD
  5
10E
330
1
100
AcDbSymbolTableRecord
100
AcDbBlockTableRecord
  2
SEANNOT_GROUP1
340
0
102
{BLKREFS
331
11F
102
}
  0
BLOCK_RECORD
  5
113
330
1
100
AcDbSymbolTableRecord
100
AcDbBlockTableRecord
  2
SEANNOT_GROUP2
340
0
102
{BLKREFS
331
121
102
}
  0
BLOCK_RECORD
  5
117
330
1
100
AcDbSymbolTableRecord
100
AcDbBlockTableRecord
  2
SEANNOT_GROUP3
340
0
102
{BLKREFS
331
122
102
}
  0
BLOCK_RECORD
  5
11B
330
1
100
AcDbSymbolTableRecord
100
AcDbBlockTableRecord
  2
RF-Massblatt_2016
340
0
102
{BLKREFS
331
16A
102
}
  0
ENDTAB
  0
ENDSEC
  0
SECTION
  2
BLOCKS
  0
BLOCK
  5
20
330
1F
100
AcDbEntity
  8
0
100
AcDbBlockBegin
  2
*Model_Space
 70
     0
 10
0.0
 20
0.0
 30
0.0
  3
*Model_Space
  1

  0
ENDBLK
  5
21
330
1F
100
AcDbEntity
  8
0
100
AcDbBlockEnd
  0
BLOCK
  5
1C
330
1B
100
AcDbEntity
 67
     1
  8
0
100
AcDbBlockBegin
  2
*Paper_Space
 70
     0
 10
0.0
 20
0.0
 30
0.0
  3
*Paper_Space
  1

  0
ENDBLK
  5
1D
330
1B
100
AcDbEntity
 67
     1
  8
0
100
AcDbBlockEnd
  0
BLOCK
  5
C6
330
40
100
AcDbEntity
  8
0
100
AcDbBlockBegin
  2
SE
 70
     0
 10
0.0
 20
0.0
 30
0.0
  3
SE
  1

  0
HATCH
  5
43
330
40
100
AcDbEntity
  8
DV1_Default
  6
Continuous
 62
     7
100
AcDbHatch
 10
0.0
 20
0.0
 30
0.0
210
0.0
220
0.0
230
1.0
  2
SOLID
 70
     1
 71
     0
 91
        2
 92
        1
 93
        4
 72
     4
 94
        3
 73
     0
 74
     0
 95
       21
 96
       17
 40
0.0
 40
0.0
 40
0.0
 40
0.0
 40
0.1501099020292714
 40
0.1501099020292714
 40
0.1501099020292714
 40
0.3086218779992774
 40
0.3086218779992774
 40
0.4651016491491557
 40
0.4651016491491557
 40
0.6215814202990343
 40
0.6215814202990343
 40
0.6215814202990343
 40
0.7919031606291307
 40
0.7919031606291307
 40
0.7919031606291307
 40
1.0
 40
1.0
 40
1.0
 40
1.0
 10
84.68883116989053
 20
110.693749920741
 10
85.12344655450592
 20
110.693749920741
 10
85.5580619391213
 20
110.693749920741
 10
85.99267732373669
 20
110.693749920741
 10
86.6080619391213
 20
110.693749920741
 10
87.06190809296746
 20
110.843749920741
 10
87.65806193912131
 20
111.4399037668949
 10
87.8080619391213
 20
111.8399037668949
 10
87.8080619391213
 20
112.8322114592026
 10
87.65998501604439
 20
113.2302883822795
 10
87.36190809296745
 20
113.5283653053564
 10
87.06190809296746
 20
113.8283653053564
 10
86.6080619391213
 20
113.9783653053564
 10
85.99267732373669
 20
113.9783653053564
 10
85.39011322117258
 20
113.9783653053564
 10
84.78754911860847
 20
113.9783653053564
 10
84.18498501604438
 20
113.9783653053564
 72
     1
 10
84.18498501604438
 20
113.9783653053564
 11
84.18498501604438
 21
108.2245191515103
 72
     1
 10
84.18498501604438
 20
108.2245191515103
 11
84.68883116989053
 21
108.2245191515103
 72
     1
 10
84.68883116989053
 20
108.2245191515103
 11
84.68883116989053
 21
110.693749920741
 97
        0
 92
        1
 93
        3
 72
     1
 10
84.68883116989053
 20
113.5591345361257
 11
84.68883116989053
 21
111.116826843818
 72
     1
 10
84.68883116989053
 20
111.116826843818
 11
85.93498501604438
 21
111.116826843818
 72
     4
 94
        3
 73
     0
 74
     0
 95
       31
 96
       27
 40
0.0
 40
0.0
 40
0.0
 40
0.0
 40
0.1009288093765435
 40
0.1009288093765435
 40
0.1009288093765435
 40
0.1902996344612322
 40
0.1902996344612322
 40
0.1902996344612322
 40
0.2778951528860762
 40
0.2778951528860762
 40
0.2778951528860762
 40
0.386083162648146
 40
0.386083162648146
 40
0.4905405513839376
 40
0.4905405513839376
 40
0.4905405513839376
 40
0.5786664005983861
 40
0.5786664005983861
 40
0.5786664005983861
 40
0.6678164918377036
 40
0.6678164918377036
 40
0.6678164918377036
 40
0.7688315071295604
 40
0.7688315071295604
 40
0.7688315071295604
 40
1.0
 40
1.0
 40
1.0
 40
1.0
 10
85.93498501604438
 20
111.116826843818
 10
86.12729270835206
 20
111.116826843818
 10
86.3080619391213
 20
111.1360576130487
 10
86.47344655450593
 20
111.1822114592026
 10
86.64239942802477
 20
111.2293610983241
 10
86.78498501604439
 20
111.3014422284333
 10
86.900369631429
 20
111.3975960745872
 10
87.01802410809987
 20
111.4956414718129
 10
87.11190809296745
 20
111.6206729976641
 10
87.17729270835207
 20
111.7745191515103
 10
87.24326575066179
 20
111.9297498392979
 10
87.28113886219822
 20
112.1129806899718
 10
87.28113886219822
 20
112.5514422284333
 10
87.24652347758284
 20
112.7360576130487
 10
87.17729270835207
 20
112.893749920741
 10
87.11009915377697
 20
113.0468019061621
 10
87.01960040065975
 20
113.1745191515103
 10
86.900369631429
 20
113.2745191515103
 10
86.78529045281897
 20
113.37103717228
 10
86.64267732373669
 20
113.443749920741
 10
86.47344655450593
 20
113.4860576130487
 10
86.30693071740185
 20
113.5276865723247
 10
86.12729270835206
 20
113.5552883822795
 10
85.93498501604438
 20
113.5591345361257
 10
85.51976648807096
 20
113.5674389066851
 10
85.10421578527514
 20
113.5591345361257
 10
84.68883116989053
 20
113.5591345361257
 97
        0
 75
     0
 76
     1
 98
        0
  0
HATCH
  5
44
330
40
100
AcDbEntity
  8
DV1_Default
  6
Continuous
 62
     7
100
AcDbHatch
 10
0.0
 20
0.0
 30
0.0
210
0.0
220
0.0
230
1.0
  2
SOLID
 70
     1
 71
     0
 91
        1
 92
        1
 93
        8
 72
     4
 94
        3
 73
     0
 74
     0
 95
       43
 96
       39
 40
0.0
 40
0.0
 40
0.0
 40
0.0
 40
0.0359143278565816
 40
0.0359143278565816
 40
0.0359143278565816
 40
0.067431709057487
 40
0.067431709057487
 40
0.067431709057487
 40
0.0966376199856529
 40
0.0966376199856529
 40
0.0966376199856529
 40
0.123354567260423
 40
0.123354567260423
 40
0.2124110581763234
 40
0.2124110581763234
 40
0.301467549092225
 40
0.301467549092225
 40
0.301467549092225
 40
0.3860327015771586
 40
0.3860327015771586
 40
0.3860327015771586
 40
0.4837122963276541
 40
0.4837122963276541
 40
0.5230086850203823
 40
0.5230086850203823
 40
0.5230086850203823
 40
0.5779019353541683
 40
0.5779019353541683
 40
0.6327951856879543
 40
0.6327951856879543
 40
0.6327951856879543
 40
0.7013526062628375
 40
0.7013526062628375
 40
0.7699100268377209
 40
0.7699100268377209
 40
0.8384674474126039
 40
0.8384674474126039
 40
1.0
 40
1.0
 40
1.0
 40
1.0
 10
92.31190809296746
 20
108.8475960745872
 10
92.18883116989053
 20
108.7860576130487
 10
92.07205398156162
 20
108.7393069499187
 10
91.9657542468136
 20
108.693749920741
 10
91.8580619391213
 20
108.6475960745872
 10
91.75486401345145
 20
108.6140178550539
 10
91.650369631429
 20
108.5899037668949
 10
91.55036963142898
 20
108.566826843818
 10
91.44614824306127
 20
108.5509731852814
 10
91.34652347758285
 20
108.5399037668949
 10
91.24267732373669
 20
108.5283653053564
 10
91.13113886219823
 20
108.5245191515103
 10
90.63113886219823
 20
108.5245191515103
 10
90.31575424681361
 20
108.593749920741
 10
89.81575424681361
 20
108.8860576130487
 10
89.617455279939
 20
109.0793913253368
 10
89.46960040065977
 20
109.3245191515103
 10
89.32344655450592
 20
109.5668268438179
 10
89.2158817718085
 20
109.8430612857686
 10
89.1580619391213
 20
110.1552883822795
 10
89.10036963142899
 20
110.466826843818
 10
89.06960040065975
 20
110.7899037668949
 10
89.06960040065975
 20
111.2591345361257
 10
89.08495615185042
 20
111.4164949055873
 10
89.10036963142899
 20
111.593749920741
 10
89.11575424681362
 20
111.7706729976641
 10
89.150369631429
 20
111.9552883822795
 10
89.250369631429
 20
112.3322114592026
 10
89.31113886219823
 20
112.5191345361256
 10
89.40421578527514
 20
112.7052883822795
 10
89.49652347758283
 20
112.8899037668949
 10
89.61190809296745
 20
113.0552883822795
 10
89.90421578527514
 20
113.3399037668949
 10
90.07729270835208
 20
113.4552883822795
 10
90.49267732373669
 20
113.6322114592026
 10
90.73498501604438
 20
113.6783653053564
 10
91.67729270835207
 20
113.6783653053564
 10
92.13498501604438
 20
113.3168268438179
 10
92.38883116989052
 20
112.5975960745872
 72
     1
 10
92.38883116989052
 20
112.5975960745872
 11
92.89652347758283
 21
112.7091345361256
 72
     4
 94
        3
 73
     0
 74
     0
 95
       50
 96
       46
 40
0.0
 40
0.0
 40
0.0
 40
0.0
 40
0.0506230914412389
 40
0.0506230914412389
 40
0.1012461828824783
 40
0.1012461828824783
 40
0.1012461828824783
 40
0.145493351766689
 40
0.145493351766689
 40
0.145493351766689
 40
0.1918579611288764
 40
0.1918579611288764
 40
0.1918579611288764
 40
0.2771890387015381
 40
0.2771890387015381
 40
0.2771890387015381
 40
0.3532953260030363
 40
0.3532953260030363
 40
0.3532953260030363
 40
0.4349617378456155
 40
0.4349617378456155
 40
0.4349617378456155
 40
0.5309795757989997
 40
0.5309795757989997
 40
0.60862878388304
 40
0.60862878388304
 40
0.60862878388304
 40
0.6856816762534119
 40
0.6856816762534119
 40
0.6856816762534119
 40
0.7616029675294638
 40
0.7616029675294638
 40
0.7616029675294638
 40
0.8523867448918401
 40
0.8523867448918401
 40
0.895062879549367
 40
0.895062879549367
 40
0.895062879549367
 40
0.9336829858367225
 40
0.9336829858367225
 40
0.9336829858367225
 40
0.9681885314647509
 40
0.9681885314647509
 40
0.9681885314647509
 40
1.0
 40
1.0
 40
1.0
 40
1.0
 10
92.89652347758285
 20
112.7091345361256
 10
92.81190809296746
 20
112.9629806899718
 10
92.70421578527514
 20
113.1783653053564
 10
92.450369631429
 20
113.5322114592026
 10
92.30982068170799
 20
113.6810662314717
 10
92.14267732373668
 20
113.7899037668949
 10
91.97729270835205
 20
113.8975960745872
 10
91.79916340574806
 20
113.9738187624052
 10
91.6080619391213
 20
114.0245191515103
 10
91.41960040065976
 20
114.0745191515103
 10
91.21570083700175
 20
114.1034177440808
 10
91.000369631429
 20
114.1014422284333
 10
90.58113886219822
 20
114.0975960745872
 10
90.21498501604438
 20
114.0222114592026
 10
89.90421578527514
 20
113.866826843818
 10
89.59652347758285
 20
113.7129806899718
 10
89.34314474166908
 20
113.4982222382325
 10
89.13883116989054
 20
113.2245191515103
 10
88.93498501604438
 20
112.9514422284333
 10
88.78857825160259
 20
112.6235658441173
 10
88.68883116989055
 20
112.2475960745872
 10
88.58883116989053
 20
111.8706729976641
 10
88.5426773237367
 20
111.4629806899718
 10
88.5426773237367
 20
110.6629806899718
 10
88.58194522091266
 20
110.3131579116673
 10
88.65806193912131
 20
109.966826843818
 10
88.73498501604438
 20
109.616826843818
 10
88.87137554858876
 20
109.3064718142322
 10
89.05421578527515
 20
109.0322114592026
 10
89.23883116989053
 20
108.7552883822795
 10
89.48662847644155
 20
108.5351331665753
 10
89.7926773237367
 20
108.3629806899718
 10
90.10036963142899
 20
108.1899037668949
 10
90.48113886219822
 20
108.1014422284333
 10
91.14267732373668
 20
108.1014422284333
 10
91.3350979306527
 20
108.1200237386662
 10
91.5157542468136
 20
108.1514422284333
 10
91.69267732373667
 20
108.1822114592026
 10
91.8592611853094
 20
108.2210927338299
 10
92.01190809296746
 20
108.2745191515103
 10
92.16575424681362
 20
108.3283653053564
 10
92.30459455205508
 20
108.390070869886
 10
92.43498501604438
 20
108.4475960745872
 10
92.56575424681361
 20
108.5052883822795
 10
92.69267732373667
 20
108.566826843818
 10
92.8157542468136
 20
108.6283653053564
 72
     1
 10
92.8157542468136
 20
108.6283653053564
 11
92.8157542468136
 21
111.2245191515103
 72
     1
 10
92.8157542468136
 20
111.2245191515103
 11
91.04652347758282
 21
111.2245191515103
 72
     1
 10
91.04652347758282
 20
111.2245191515103
 11
91.04652347758284
 21
110.8014422284333
 72
     1
 10
91.04652347758284
 20
110.8014422284334
 11
92.31190809296746
 21
110.8014422284333
 72
     1
 10
92.31190809296746
 20
110.8014422284333
 11
92.31190809296746
 21
108.8475960745872
 97
        0
 75
     0
 76
     1
 98
        0
  0
HATCH
  5
45
330
40
100
AcDbEntity
  8
DV1_Default
  6
Continuous
 62
     7
100
AcDbHatch
 10
0.0
 20
0.0
 30
0.0
210
0.0
220
0.0
230
1.0
  2
SOLID
 70
     1
 71
     0
 91
        1
 92
        1
 93
        7
 72
     1
 10
96.51190809296745
 20
112.3322114592026
 11
97.83498501604437
 21
113.3629806899718
 72
     1
 10
97.83498501604437
 20
113.3629806899718
 11
97.83498501604437
 21
108.2245191515103
 72
     1
 10
97.83498501604437
 20
108.2245191515103
 11
98.36575424681361
 21
108.2245191515103
 72
     1
 10
98.36575424681361
 20
108.2245191515103
 11
98.36575424681361
 21
113.9783653053564
 72
     1
 10
98.36575424681361
 20
113.9783653053564
 11
97.8426773237367
 21
113.9783653053564
 72
     1
 10
97.8426773237367
 20
113.9783653053564
 11
96.18113886219822
 21
112.7245191515103
 72
     1
 10
96.18113886219822
 20
112.7245191515103
 11
96.51190809296745
 21
112.3322114592026
 97
        0
 75
     0
 76
     1
 98
        0
  0
HATCH
  5
46
330
40
100
AcDbEntity
  8
DV1_Default
  6
Continuous
 62
     7
100
AcDbHatch
 10
0.0
 20
0.0
 30
0.0
210
0.0
220
0.0
230
1.0
  2
SOLID
 70
     1
 71
     0
 91
        2
 92
        1
 93
        1
 72
     4
 94
        3
 73
     0
 74
     0
 95
       47
 96
       43
 40
0.0
 40
0.0
 40
0.0
 40
0.0
 40
0.0654074975894325
 40
0.0654074975894325
 40
0.0654074975894325
 40
0.1237819800084382
 40
0.1237819800084382
 40
0.1237819800084382
 40
0.1864389371858434
 40
0.1864389371858434
 40
0.2490958943632483
 40
0.2490958943632483
 40
0.3125077546391763
 40
0.3125077546391763
 40
0.3125077546391763
 40
0.3756382148529527
 40
0.3756382148529527
 40
0.3756382148529527
 40
0.4377890257722914
 40
0.4377890257722914
 40
0.4999398366916299
 40
0.4999398366916299
 40
0.4999398366916299
 40
0.5621496862150208
 40
0.5621496862150208
 40
0.6243595357384129
 40
0.6243595357384129
 40
0.6243595357384129
 40
0.6874036866887757
 40
0.6874036866887757
 40
0.6874036866887757
 40
0.7507959012210851
 40
0.7507959012210851
 40
0.8134334465327719
 40
0.8134334465327719
 40
0.8760709918444591
 40
0.8760709918444591
 40
0.8760709918444591
 40
0.9345608353659668
 40
0.9345608353659668
 40
0.9345608353659668
 40
1.0
 40
1.0
 40
1.0
 40
1.0
 10
101.8042157852751
 20
108.1322114592026
 10
102.2119080929675
 20
108.1322114592026
 10
102.5408285461937
 20
108.2269716115163
 10
102.7926773237367
 20
108.416826843818
 10
103.0426773237367
 20
108.6052883822795
 10
103.233511124972
 20
108.848283890421
 10
103.3696004006598
 20
109.1399037668949
 10
103.5042157852752
 20
109.4283653053564
 10
103.5965234775828
 20
109.7514422284333
 10
103.6888311698905
 20
110.4514422284333
 10
103.7119080929675
 20
110.7822114592026
 10
103.7119080929675
 20
111.4245191515103
 10
103.6893350328398
 20
111.7630478716984
 10
103.6426773237367
 20
112.1129806899718
 10
103.5965234775828
 20
112.4591345361256
 10
103.5056646788473
 20
112.7828700471899
 10
103.3696004006598
 20
113.0822114592026
 10
103.2349850160444
 20
113.3783653053564
 10
103.0426773237367
 20
113.6206729976641
 10
102.5426773237367
 20
114.0052883822795
 10
102.211835530485
 20
114.1052876977278
 10
101.8042157852751
 20
114.1014422284333
 10
101.3965234775828
 20
114.0975960745872
 10
101.0657542468136
 20
114.0052883822795
 10
100.5657542468136
 20
113.6206729976641
 10
100.3655736263291
 20
113.3817970945617
 10
100.2349850160444
 20
113.0822114592026
 10
100.1042157852751
 20
112.7822114592026
 10
100.011409576647
 20
112.4592002745415
 10
99.96575424681362
 20
112.1129806899718
 10
99.91960040065975
 20
111.7629806899718
 10
99.89652347758285
 20
111.4245191515103
 10
99.89652347758285
 20
110.7822114592026
 10
99.91960040065975
 20
110.4514422284333
 10
100.0119080929674
 20
109.7514422284333
 10
100.0994211455258
 20
109.426094160212
 10
100.2349850160444
 20
109.1399037668949
 10
100.3734465545059
 20
108.8475960745872
 10
100.5676129828731
 20
108.6077047391568
 10
100.8157542468136
 20
108.416826843818
 10
101.0657542468136
 20
108.2245191515103
 10
101.3965234775828
 20
108.1322114592026
 10
101.8042157852751
 20
108.1322114592026
 97
        0
 92
        1
 93
        1
 72
     4
 94
        3
 73
     0
 74
     0
 95
       69
 96
       65
 40
0.0
 40
0.0
 40
0.0
 40
0.0
 40
0.0411175729171012
 40
0.0411175729171012
 40
0.0822351458342043
 40
0.0822351458342043
 40
0.0822351458342043
 40
0.1235465894391989
 40
0.1235465894391989
 40
0.1235465894391989
 40
0.1646146549158406
 40
0.1646146549158406
 40
0.2056827203924824
 40
0.2056827203924824
 40
0.246750785869124
 40
0.246750785869124
 40
0.2878188513457657
 40
0.2878188513457657
 40
0.2878188513457657
 40
0.3317775003425475
 40
0.3317775003425475
 40
0.3757361493393288
 40
0.3757361493393288
 40
0.3757361493393288
 40
0.4172982691054477
 40
0.4172982691054477
 40
0.4172982691054477
 40
0.4569474152028072
 40
0.4569474152028072
 40
0.4569474152028072
 40
0.4997129108121362
 40
0.4997129108121362
 40
0.543270360043862
 40
0.543270360043862
 40
0.543270360043862
 40
0.5827369075658215
 40
0.5827369075658215
 40
0.5827369075658215
 40
0.6241707086251834
 40
0.6241707086251834
 40
0.6241707086251834
 40
0.6683877404516279
 40
0.6683877404516279
 40
0.6683877404516279
 40
0.7121594317670784
 40
0.7121594317670784
 40
0.7121594317670784
 40
0.7522969374445871
 40
0.7522969374445871
 40
0.792434443122096
 40
0.792434443122096
 40
0.8325719487996049
 40
0.8325719487996049
 40
0.8325719487996049
 40
0.8764994055087719
 40
0.8764994055087719
 40
0.8764994055087719
 40
0.9176434081020474
 40
0.9176434081020474
 40
0.9176434081020474
 40
0.9566960550082444
 40
0.9566960550082444
 40
0.9566960550082444
 40
1.0
 40
1.0
 40
1.0
 40
1.0
 10
101.8042157852751
 20
108.5514422284333
 10
102.0119080929674
 20
108.5514422284333
 10
102.1926773237367
 20
108.593749920741
 10
102.4926773237367
 20
108.7629806899718
 10
102.6196004006598
 20
108.8783653053564
 10
102.7234465545059
 20
109.0129806899718
 10
102.827717871725
 20
109.1481472122929
 10
102.9042157852751
 20
109.3091345361256
 10
102.9657542468136
 20
109.4899037668949
 10
103.0268932700622
 20
109.6694996476875
 10
103.0696004006598
 20
109.8552883822795
 10
103.1311388621982
 20
110.2322114592026
 10
103.1542157852751
 20
110.416826843818
 10
103.1772927083521
 20
110.7860576130487
 10
103.1811388621982
 20
110.9514422284333
 10
103.1811388621982
 20
111.2514422284333
 10
103.1772927083521
 20
111.4206729976641
 10
103.1657542468136
 20
111.6052883822795
 10
103.1539763360085
 20
111.7937349551619
 10
103.1311388621982
 20
111.9783653053564
 10
103.0696004006598
 20
112.3629806899718
 10
103.0234465545059
 20
112.5475960745872
 10
102.9657542468136
 20
112.7283653053564
 10
102.9077063990164
 20
112.9102485617877
 10
102.8234465545059
 20
113.0706729976641
 10
102.7234465545059
 20
113.2091345361256
 10
102.6203025382787
 20
113.3519493278248
 10
102.4926773237367
 20
113.4629806899718
 10
102.3426773237367
 20
113.5514422284333
 10
102.1943602505659
 20
113.6389112715853
 10
102.0119080929674
 20
113.6783653053564
 10
101.5926773237367
 20
113.6783653053564
 10
101.4157542468136
 20
113.6360576130487
 10
101.2619080929674
 20
113.5514422284333
 10
101.1093907446728
 20
113.4675576868712
 10
100.9888311698905
 20
113.3514422284333
 10
100.8849850160444
 20
113.2091345361256
 10
100.7843067143651
 20
113.0711679745652
 10
100.7042157852752
 20
112.9091345361256
 10
100.6465234775828
 20
112.7283653053564
 10
100.5884756297856
 20
112.5464820489251
 10
100.5388311698905
 20
112.3629806899718
 10
100.5080619391213
 20
112.1706729976641
 10
100.4771967045119
 20
111.9777652813555
 10
100.4542157852752
 20
111.793749920741
 10
100.4426773237367
 20
111.6052883822795
 10
100.4313734616237
 20
111.420658634434
 10
100.4272927083521
 20
111.2514422284333
 10
100.4272927083521
 20
110.9514422284333
 10
100.4311388621982
 20
110.7860576130487
 10
100.4542157852752
 20
110.416826843818
 10
100.4734465545059
 20
110.2322114592026
 10
100.5080619391213
 20
110.043749920741
 10
100.5425518046144
 20
109.8559717641675
 10
100.5849850160444
 20
109.6706729976641
 10
100.6465234775828
 20
109.4899037668949
 10
100.7076625008314
 20
109.3103078861022
 10
100.7849850160444
 20
109.1514422284333
 10
100.8849850160444
 20
109.0129806899718
 10
100.9844779166529
 20
108.8752212891292
 10
101.1119080929675
 20
108.7629806899718
 10
101.2619080929674
 20
108.6783653053564
 10
101.4148257987031
 20
108.5921040354542
 10
101.5926773237367
 20
108.5514422284333
 10
101.8042157852751
 20
108.5514422284333
 97
        0
 75
     0
 76
     1
 98
        0
  0
HATCH
  5
47
330
40
100
AcDbEntity
  8
DV1_Default
  6
Continuous
 62
     7
100
AcDbHatch
 10
0.0
 20
0.0
 30
0.0
210
0.0
220
0.0
230
1.0
  2
SOLID
 70
     1
 71
     0
 91
        2
 92
        1
 93
        6
 72
     1
 10
167.891651682711
 20
108.3841088951
 11
165.5929850160443
 21
111.4027755617667
 72
     4
 94
        3
 73
     0
 74
     0
 95
       34
 96
       30
 40
0.0
 40
0.0
 40
0.0
 40
0.0
 40
0.0415820087345694
 40
0.0415820087345694
 40
0.0831640174691397
 40
0.1247460262037099
 40
0.1247460262037099
 40
0.1247460262037099
 40
0.1640874422095103
 40
0.1640874422095103
 40
0.2230995662182118
 40
0.2230995662182118
 40
0.2821116902269133
 40
0.2821116902269133
 40
0.3411238142356136
 40
0.3411238142356136
 40
0.3411238142356136
 40
0.4023597237258039
 40
0.4023597237258039
 40
0.4023597237258039
 40
0.5491378638520606
 40
0.5491378638520606
 40
0.5491378638520606
 40
0.5688259102600842
 40
0.5688259102600842
 40
0.5872834537676072
 40
0.5872834537676072
 40
0.5872834537676072
 40
1.0
 40
1.0
 40
1.0
 40
1.0
 10
165.5929850160443
 20
111.4027755617667
 10
165.8009850160443
 20
111.4294422284334
 10
166.0089850160443
 20
111.5094422284334
 10
166.435651682711
 20
111.7867755617667
 10
166.787651682711
 20
112.1174422284334
 10
167.00678900824
 20
112.5562883938243
 10
167.0809850160443
 20
112.7947755617667
 10
167.155651682711
 20
113.0347755617667
 10
167.1929850160444
 20
113.2854422284334
 10
167.1929850160444
 20
113.9521088951
 10
167.123651682711
 20
114.2987755617667
 10
166.8569850160443
 20
114.8854422284334
 10
166.6703183493777
 20
115.1307755617667
 10
166.1903183493777
 20
115.5147755617667
 10
165.9094152737335
 20
115.6651037413178
 10
165.587651682711
 20
115.7547755617667
 10
165.2623183493777
 20
115.8454422284334
 10
164.915651682711
 20
115.8934422284334
 10
164.547651682711
 20
115.8934422284334
 10
163.7067627938221
 20
115.8934422284334
 10
162.8658739049332
 20
115.8934422284334
 10
162.0249850160444
 20
115.8934422284334
 10
161.9129850160443
 20
115.8934422284334
 10
161.811651682711
 20
115.8507755617667
 10
161.6463183493777
 20
115.6854422284334
 10
161.603651682711
 20
115.5894422284334
 10
161.603651682711
 20
115.4774422284334
 10
161.603651682711
 20
113.1129977839889
 10
161.603651682711
 20
110.7485533395445
 10
161.603651682711
 20
108.3841088951
 72
     1
 10
161.603651682711
 20
108.3841088951
 11
163.7103183493777
 21
108.3841088951
 72
     1
 10
163.7103183493777
 20
108.3841088951
 11
163.7103183493777
 21
111.1841088951
 72
     1
 10
163.7103183493777
 20
111.1841088951
 11
165.3529850160444
 21
108.3841088951001
 72
     1
 10
165.3529850160443
 20
108.3841088951001
 11
167.891651682711
 21
108.3841088951
 97
        0
 92
        1
 93
        3
 72
     1
 10
163.7103183493777
 20
114.2347755617667
 11
163.7103183493777
 21
112.6187755617667
 72
     1
 10
163.7103183493777
 20
112.6187755617667
 11
163.7903183493777
 21
112.6187755617667
 72
     4
 94
        3
 73
     0
 74
     0
 95
       29
 96
       25
 40
0.0
 40
0.0
 40
0.0
 40
0.0
 40
0.1308964236226227
 40
0.1308964236226227
 40
0.1308964236226227
 40
0.2493217166254654
 40
0.2493217166254654
 40
0.2493217166254654
 40
0.3732390540949203
 40
0.3732390540949203
 40
0.4971563915643744
 40
0.4971563915643744
 40
0.6174291014611967
 40
0.6174291014611967
 40
0.6174291014611967
 40
0.7257090160055032
 40
0.7257090160055032
 40
0.7257090160055032
 40
0.8510653940362908
 40
0.8510653940362908
 40
0.976421772067078
 40
0.976421772067078
 40
0.976421772067078
 40
1.0
 40
1.0
 40
1.0
 40
1.0
 10
163.7903183493777
 20
112.6187755617667
 10
163.939651682711
 20
112.6187755617667
 10
164.0889850160443
 20
112.6294422284334
 10
164.2329850160443
 20
112.6507755617667
 10
164.3762118616819
 20
112.671994353713
 10
164.5049850160443
 20
112.7041088951
 10
164.6169850160443
 20
112.7627755617667
 10
164.7267928452258
 20
112.8202939484808
 10
164.819651682711
 20
112.8961088951
 10
164.9583183493777
 20
113.1094422284334
 10
164.9903183493777
 20
113.2534422284334
 10
164.9903183493777
 20
113.6107755617667
 10
164.9583183493777
 20
113.7494422284334
 10
164.8943183493777
 20
113.8507755617667
 10
164.8287975572985
 20
113.9545168158921
 10
164.739651682711
 20
114.0321088951
 10
164.6223183493777
 20
114.0907755617667
 10
164.5113850160443
 20
114.1462422284334
 10
164.3769850160443
 20
114.1814422284334
 10
164.0783183493777
 20
114.2241088951
 10
163.9289850160443
 20
114.2347755617667
 10
163.7903183493777
 20
114.2347755617667
 10
163.763651682711
 20
114.2347755617667
 10
163.7369850160443
 20
114.2347755617667
 10
163.7103183493777
 20
114.2347755617667
 97
        0
 75
     0
 76
     1
 98
        0
  0
HATCH
  5
48
330
40
100
AcDbEntity
  8
DV1_Default
  6
Continuous
 62
     7
100
AcDbHatch
 10
0.0
 20
0.0
 30
0.0
210
0.0
220
0.0
230
1.0
  2
SOLID
 70
     1
 71
     0
 91
        1
 92
        1
 93
       11
 72
     1
 10
170.5209850160443
 20
111.2427755617667
 11
172.675651682711
 21
111.2427755617667
 72
     1
 10
172.675651682711
 20
111.2427755617667
 11
172.675651682711
 21
113.0721088951
 72
     1
 10
172.675651682711
 20
113.0721088951
 11
170.5209850160444
 21
113.0721088951001
 72
     1
 10
170.5209850160443
 20
113.0721088951001
 11
170.5209850160443
 21
114.0854422284334
 72
     1
 10
170.5209850160443
 20
114.0854422284334
 11
172.787651682711
 21
114.0854422284334
 72
     1
 10
172.787651682711
 20
114.0854422284334
 11
172.787651682711
 21
115.8934422284334
 72
     4
 94
        3
 73
     0
 74
     0
 95
       16
 96
       12
 40
0.0
 40
0.0
 40
0.0
 40
0.0
 40
0.3368485193490252
 40
0.3368485193490252
 40
0.3368485193490252
 40
0.3662241627847875
 40
0.3662241627847875
 40
0.3937638285058145
 40
0.3937638285058145
 40
0.3937638285058145
 40
1.0
 40
1.0
 40
1.0
 40
1.0
 10
172.787651682711
 20
115.8934422284334
 10
171.4738739049332
 20
115.8934422284334
 10
170.1600961271554
 20
115.8934422284334
 10
168.8463183493777
 20
115.8934422284334
 10
168.723651682711
 20
115.8934422284334
 10
168.6223183493777
 20
115.8507755617667
 10
168.4569850160443
 20
115.6854422284334
 10
168.4143183493777
 20
115.5894422284334
 10
168.4143183493777
 20
115.4774422284334
 10
168.4143183493777
 20
113.1129977839889
 10
168.4143183493777
 20
110.7485533395445
 10
168.4143183493777
 20
108.3841088951
 72
     1
 10
168.4143183493777
 20
108.3841088951
 11
172.787651682711
 21
108.3841088951
 72
     1
 10
172.787651682711
 20
108.3841088951
 11
172.787651682711
 21
110.1921088951
 72
     1
 10
172.787651682711
 20
110.1921088951
 11
170.5209850160443
 21
110.1921088951
 72
     1
 10
170.5209850160443
 20
110.1921088951
 11
170.5209850160443
 21
111.2427755617667
 97
        0
 75
     0
 76
     1
 98
        0
  0
HATCH
  5
49
330
40
100
AcDbEntity
  8
DV1_Default
  6
Continuous
 62
     7
100
AcDbHatch
 10
0.0
 20
0.0
 30
0.0
210
0.0
220
0.0
230
1.0
  2
SOLID
 70
     1
 71
     0
 91
        1
 92
        1
 93
        6
 72
     4
 94
        3
 73
     0
 74
     0
 95
       51
 96
       47
 40
0.0
 40
0.0
 40
0.0
 40
0.0
 40
0.0922516436564444
 40
0.0922516436564444
 40
0.0922516436564444
 40
0.181798105812628
 40
0.181798105812628
 40
0.181798105812628
 40
0.2525593687458036
 40
0.2525593687458036
 40
0.2525593687458036
 40
0.3168167835704595
 40
0.3168167835704595
 40
0.3810741983951155
 40
0.3810741983951155
 40
0.3810741983951155
 40
0.4499854777063258
 40
0.4499854777063258
 40
0.5170672540269736
 40
0.5170672540269736
 40
0.5841490303476204
 40
0.5841490303476204
 40
0.5841490303476204
 40
0.6475415160614171
 40
0.6475415160614171
 40
0.6475415160614171
 40
0.7172657348280771
 40
0.7172657348280771
 40
0.7920608058686753
 40
0.7920608058686753
 40
0.7920608058686753
 40
0.869022095030768
 40
0.869022095030768
 40
0.869022095030768
 40
0.8987471906776034
 40
0.8987471906776034
 40
0.8987471906776034
 40
0.9280069826880412
 40
0.9280069826880412
 40
0.9280069826880412
 40
0.9586389909847085
 40
0.9586389909847085
 40
0.9892709992813757
 40
0.9892709992813757
 40
0.9892709992813757
 40
1.0
 40
1.0
 40
1.0
 40
1.0
 10
180.7663183493777
 20
113.8987755617667
 10
180.435651682711
 20
114.6667755617667
 10
179.9807011977697
 20
115.2277311513532
 10
179.395651682711
 20
115.5734422284334
 10
178.8089850160443
 20
115.9201088951
 10
178.1315419975775
 20
116.1083936300542
 10
177.3529850160444
 20
116.1014422284334
 10
176.755651682711
 20
116.0961088951001
 10
176.1998838679461
 20
116.0029361672442
 10
175.699651682711
 20
115.8081088951
 10
175.1929850160443
 20
115.6107755617667
 10
174.7663183493777
 20
115.3387755617667
 10
174.051651682711
 20
114.6347755617667
 10
173.7770909586809
 20
114.2070058139794
 10
173.5823183493777
 20
113.7174422284334
 10
173.3849850160443
 20
113.2214422284334
 10
173.2889850160443
 20
112.6721088951
 10
173.2889850160443
 20
111.4827755617667
 10
173.3849850160443
 20
110.9441088951
 10
173.779651682711
 20
109.9627755617667
 10
174.0543183493777
 20
109.5494422284334
 10
174.403651682711
 20
109.2001088951
 10
174.7503183493777
 20
108.8534422284334
 10
175.1762899934199
 20
108.5796467533203
 10
175.667651682711
 20
108.3894422284334
 10
176.163651682711
 20
108.1974422284334
 10
176.7023183493777
 20
108.1014422284334
 10
177.9183183493777
 20
108.1014422284334
 10
178.5041199579568
 20
108.2207416028748
 10
179.0329850160443
 20
108.4534422284334
 10
179.5663183493777
 20
108.6881088951
 10
180.0104783493777
 20
109.0936555617667
 10
180.4143183493777
 20
109.6321088951
 10
180.5583183493777
 20
109.8241088951001
 10
180.6767376555617
 20
110.0298162857486
 10
180.755651682711
 20
110.2507755617667
 10
180.835651682711
 20
110.4747755617667
 10
180.8986713763653
 20
110.6936289534516
 10
180.9423183493777
 20
110.9227755617667
 10
180.9849850160443
 20
111.1467755617667
 10
181.011651682711
 20
111.3761088951
 10
181.0329850160443
 20
111.8347755617667
 10
181.0489850160443
 20
112.0907755617667
 10
181.0489850160443
 20
112.3787755617667
 10
181.0489850160443
 20
112.4641088951
 10
181.0489850160443
 20
112.5494422284334
 10
181.0489850160443
 20
112.6347755617667
 72
     1
 10
181.0489850160443
 20
112.6347755617667
 11
177.1663183493777
 21
112.6347755617667
 72
     1
 10
177.1663183493777
 20
112.6347755617667
 11
177.1663183493777
 21
110.9441088951
 72
     1
 10
177.1663183493777
 20
110.9441088951
 11
178.8249850160444
 21
110.9441088951
 72
     4
 94
        3
 73
     0
 74
     0
 95
       39
 96
       35
 40
0.0
 40
0.0
 40
0.0
 40
0.0
 40
0.0469658628883125
 40
0.0469658628883125
 40
0.0939317257766247
 40
0.0939317257766247
 40
0.1408975886649372
 40
0.1408975886649372
 40
0.1408975886649372
 40
0.1909664386559423
 40
0.1909664386559423
 40
0.2674605150310866
 40
0.2674605150310866
 40
0.3439545914062312
 40
0.3439545914062312
 40
0.4204486677813754
 40
0.4204486677813754
 40
0.4204486677813754
 40
0.5003414574440452
 40
0.5003414574440452
 40
0.5771614475043052
 40
0.5771614475043052
 40
0.5771614475043052
 40
0.6516271061958094
 40
0.6516271061958094
 40
0.7260927648873148
 40
0.7260927648873148
 40
0.7260927648873148
 40
0.8019288831410891
 40
0.8019288831410891
 40
0.8974262172384324
 40
0.8974262172384324
 40
0.8974262172384324
 40
1.0
 40
1.0
 40
1.0
 40
1.0
 10
178.8249850160443
 20
110.9441088951
 10
178.803651682711
 20
110.8214422284334
 10
178.7503183493777
 20
110.6881088951
 10
178.5689850160443
 20
110.3894422284334
 10
178.4569850160443
 20
110.2667755617667
 10
178.1903183493777
 20
110.0747755617667
 10
178.0352031265013
 20
110.0015891305921
 10
177.8543183493777
 20
109.9467755617667
 10
177.6783183493777
 20
109.8934422284334
 10
177.491651682711
 20
109.8721088951
 10
177.0063183493777
 20
109.8721088951
 10
176.7449850160443
 20
109.9307755617667
 10
176.307651682711
 20
110.1761088951
 10
176.1209850160443
 20
110.3361088951
 10
175.811651682711
 20
110.7521088951
 10
175.6991378199585
 20
110.9883492664462
 10
175.6143183493777
 20
111.2481088951
 10
175.5289850160443
 20
111.5094422284334
 10
175.491651682711
 20
111.7814422284334
 10
175.491651682711
 20
112.3254422284334
 10
175.5241086514848
 20
112.5936016597611
 10
175.603651682711
 20
112.8534422284334
 10
175.683651682711
 20
113.1147755617667
 10
175.795651682711
 20
113.3547755617667
 10
176.0943183493777
 20
113.7707755617667
 10
176.2823461148481
 20
113.9337836846437
 10
176.5049850160443
 20
114.0641088951
 10
176.723651682711
 20
114.1921088951
 10
176.979651682711
 20
114.2561088951
 10
177.6303183493777
 20
114.2561088951
 10
177.9391003718496
 20
114.1605643258117
 10
178.1849850160444
 20
113.9574422284334
 10
178.4303183493777
 20
113.7547755617667
 10
178.6329850160443
 20
113.4667755617667
 10
178.7823183493777
 20
113.0881088951
 72
     1
 10
178.7823183493777
 20
113.0881088951
 11
180.7663183493777
 21
113.8987755617667
 97
        0
 75
     0
 76
     1
 98
        0
  0
HATCH
  5
4A
330
40
100
AcDbEntity
  8
DV1_Default
  6
Continuous
 62
     7
100
AcDbHatch
 10
0.0
 20
0.0
 30
0.0
210
0.0
220
0.0
230
1.0
  2
SOLID
 70
     1
 71
     0
 91
        2
 92
        1
 93
        2
 72
     4
 94
        3
 73
     0
 74
     0
 95
       26
 96
       22
 40
0.0
 40
0.0
 40
0.0
 40
0.0
 40
0.1241042764671998
 40
0.1241042764671998
 40
0.1241042764671998
 40
0.2444649733050971
 40
0.2444649733050971
 40
0.3648256701429933
 40
0.3648256701429933
 40
0.3648256701429933
 40
0.4876410301322777
 40
0.4876410301322777
 40
0.6221530910729228
 40
0.6221530910729228
 40
0.6221530910729228
 40
0.7448779302950169
 40
0.7448779302950169
 40
0.7448779302950169
 40
0.8724389651475078
 40
0.8724389651475078
 40
1.0
 40
1.0
 40
1.0
 40
1.0
 10
185.8703183493777
 20
116.1387755617667
 10
185.331651682711
 20
116.1334422284334
 10
184.8107290441396
 20
116.0380916005965
 10
184.307651682711
 20
115.8507755617667
 10
183.8063183493776
 20
115.6641088951
 10
183.363651682711
 20
115.3974422284334
 10
182.595651682711
 20
114.7147755617667
 10
182.2798979742271
 20
114.3071387350587
 10
182.0569850160443
 20
113.8347755617667
 10
181.8329850160443
 20
113.3601088951
 10
181.715651682711
 20
112.8427755617667
 10
181.715651682711
 20
111.6694422284334
 10
181.8287551309869
 20
111.1173502744104
 10
182.0303183493777
 20
110.6134422284334
 10
182.2329850160444
 20
110.1067755617667
 10
182.5183567166964
 20
109.6667758377906
 10
182.8889850160443
 20
109.3014422284334
 10
183.2623183493777
 20
108.9334422284334
 10
183.699651682711
 20
108.6454422284334
 10
184.7129850160443
 20
108.2401088951001
 10
185.267651682711
 20
108.1387755617667
 10
185.8703183493777
 20
108.1387755617667
 72
     4
 94
        3
 73
     0
 74
     0
 95
       25
 96
       21
 40
0.0
 40
0.0
 40
0.0
 40
0.0
 40
0.127685019915057
 40
0.127685019915057
 40
0.2553700398301132
 40
0.2553700398301132
 40
0.2553700398301132
 40
0.3854318872146879
 40
0.3854318872146879
 40
0.515493734599263
 40
0.515493734599263
 40
0.6352875414008451
 40
0.6352875414008451
 40
0.6352875414008451
 40
0.7557134277178664
 40
0.7557134277178664
 40
0.8761393140348891
 40
0.8761393140348891
 40
0.8761393140348891
 40
1.0
 40
1.0
 40
1.0
 40
1.0
 10
185.8703183493777
 20
108.1387755617667
 10
186.4729850160443
 20
108.1387755617667
 10
187.027651682711
 20
108.2401088951001
 10
188.0409850160443
 20
108.6454422284334
 10
188.4810239434107
 20
108.9307758459081
 10
188.8463183493777
 20
109.3014422284334
 10
189.2089850160443
 20
109.6694422284334
 10
189.4969850160443
 20
110.1067755617667
 10
189.9129850160443
 20
111.1201088951
 10
190.0143183493777
 20
111.6747755617667
 10
190.0143183493777
 20
112.8427755617667
 10
189.9002292330351
 20
113.3590995467548
 10
189.6729850160444
 20
113.8294422284334
 10
189.443651682711
 20
114.3041088951
 10
189.1343183493777
 20
114.7147755617667
 10
188.3663183493777
 20
115.3974422284334
 10
187.9264945183068
 20
115.657675109278
 10
187.427651682711
 20
115.8507755617667
 10
186.931651682711
 20
116.0427755617667
 10
186.4089850160444
 20
116.1334422284334
 10
185.8703183493777
 20
116.1387755617667
 97
        0
 92
        1
 93
        1
 72
     4
 94
        3
 73
     0
 74
     0
 95
       48
 96
       44
 40
0.0
 40
0.0
 40
0.0
 40
0.0
 40
0.0632788595816798
 40
0.0632788595816798
 40
0.0632788595816798
 40
0.1250789860121007
 40
0.1250789860121007
 40
0.1250789860121007
 40
0.1891908261276199
 40
0.1891908261276199
 40
0.1891908261276199
 40
0.2616760554832847
 40
0.2616760554832847
 40
0.3163578951726458
 40
0.3163578951726458
 40
0.3163578951726458
 40
0.3755097855289364
 40
0.3755097855289364
 40
0.3755097855289364
 40
0.4363134546957769
 40
0.4363134546957769
 40
0.4363134546957769
 40
0.5004773328136454
 40
0.5004773328136454
 40
0.5633830956742987
 40
0.5633830956742987
 40
0.5633830956742987
 40
0.6244677781113531
 40
0.6244677781113531
 40
0.6244677781113531
 40
0.6791034896171407
 40
0.6791034896171407
 40
0.7337392011229283
 40
0.7337392011229283
 40
0.8045172819372445
 40
0.8045172819372445
 40
0.8752953627515608
 40
0.8752953627515608
 40
0.8752953627515608
 40
0.9367643121370143
 40
0.9367643121370143
 40
0.9367643121370143
 40
1.0
 40
1.0
 40
1.0
 40
1.0
 10
185.8703183493777
 20
110.1921088951
 10
186.1423183493777
 20
110.1921088951
 10
186.3929850160443
 20
110.2401088951001
 10
186.6223183493777
 20
110.3467755617667
 10
186.8539970213801
 20
110.4545330836283
 10
187.059651682711
 20
110.5867755617667
 10
187.2409850160444
 20
110.7734422284334
 10
187.4197289611654
 20
110.957443348411
 10
187.555651682711
 20
111.1787755617667
 10
187.6623183493777
 20
111.4294422284334
 10
187.7700888872594
 20
111.6827029924554
 10
187.811651682711
 20
111.9627755617667
 10
187.811651682711
 20
112.4961088951001
 10
187.763651682711
 20
112.7201088951001
 10
187.6623183493777
 20
112.9441088951
 10
187.5629878395738
 20
113.1636816009824
 10
187.4223183493777
 20
113.3601088951
 10
187.2463183493777
 20
113.5307755617667
 10
187.0729837540156
 20
113.6988575936329
 10
186.8623183493777
 20
113.8347755617667
 10
186.627651682711
 20
113.9361088951
 10
186.3949260986158
 20
114.0366040336866
 10
186.1423183493777
 20
114.0854422284334
 10
185.603651682711
 20
114.0854422284334
 10
185.347651682711
 20
114.0321088951
 10
185.1129850160443
 20
113.9361088951
 10
184.876449322829
 20
113.8393442933301
 10
184.6703183493777
 20
113.6961088951
 10
184.4943183493777
 20
113.5254422284334
 10
184.3155696508448
 20
113.3521101571288
 10
184.1743183493777
 20
113.1627755617667
 10
183.971651682711
 20
112.7254422284334
 10
183.9183183493777
 20
112.5014422284334
 10
183.9183183493777
 20
111.9627755617667
 10
183.971651682711
 20
111.6801088951
 10
184.1849850160444
 20
111.1787755617667
 10
184.323651682711
 20
110.9601088951
 10
184.5049850160443
 20
110.7734422284334
 10
184.6837289611654
 20
110.5894411084558
 10
184.8889850160443
 20
110.4481088951
 10
185.1183183493777
 20
110.3467755617667
 10
185.354085468533
 20
110.2425993928376
 10
185.603651682711
 20
110.1921088951
 10
185.8703183493777
 20
110.1921088951
 97
        0
 75
     0
 76
     1
 98
        0
  0
HATCH
  5
4B
330
40
100
AcDbEntity
  8
DV1_Default
  6
Continuous
 62
     7
100
AcDbHatch
 10
0.0
 20
0.0
 30
0.0
210
0.0
220
0.0
230
1.0
  2
SOLID
 70
     1
 71
     0
 91
        1
 92
        1
 93
        4
 72
     1
 10
190.899651682711
 20
111.2427755617667
 11
193.4969850160444
 21
111.2427755617667
 72
     1
 10
193.4969850160443
 20
111.2427755617667
 11
193.4969850160443
 21
113.0721088951
 72
     1
 10
193.4969850160443
 20
113.0721088951
 11
190.899651682711
 21
113.0721088951001
 72
     1
 10
190.899651682711
 20
113.0721088951001
 11
190.899651682711
 21
111.2427755617667
 97
        0
 75
     0
 76
     1
 98
        0
  0
HATCH
  5
4C
330
40
100
AcDbEntity
  8
DV1_Default
  6
Continuous
 62
     7
100
AcDbHatch
 10
0.0
 20
0.0
 30
0.0
210
0.0
220
0.0
230
1.0
  2
SOLID
 70
     1
 71
     0
 91
        1
 92
        1
 93
        9
 72
     1
 10
196.2809850160444
 20
108.3841088951
 11
196.2809850160444
 21
111.2427755617667
 72
     1
 10
196.2809850160444
 20
111.2427755617667
 11
198.4303183493777
 21
111.2427755617667
 72
     1
 10
198.4303183493777
 20
111.2427755617667
 11
198.4303183493777
 21
113.0721088951
 72
     1
 10
198.4303183493777
 20
113.0721088951
 11
196.2809850160444
 21
113.0721088951001
 72
     1
 10
196.2809850160444
 20
113.0721088951001
 11
196.2809850160444
 21
114.0854422284334
 72
     1
 10
196.2809850160444
 20
114.0854422284334
 11
198.5423183493777
 21
114.0854422284334
 72
     1
 10
198.5423183493777
 20
114.0854422284334
 11
198.5423183493777
 21
115.8934422284334
 72
     4
 94
        3
 73
     0
 74
     0
 95
       16
 96
       12
 40
0.0
 40
0.0
 40
0.0
 40
0.0
 40
0.3377541075019324
 40
0.3377541075019324
 40
0.3377541075019324
 40
0.3670896360688372
 40
0.3670896360688372
 40
0.3945916941003086
 40
0.3945916941003086
 40
0.3945916941003086
 40
1.0
 40
1.0
 40
1.0
 40
1.0
 10
198.5423183493777
 20
115.8934422284334
 10
197.2232072382666
 20
115.8934422284334
 10
195.9040961271554
 20
115.8934422284334
 10
194.5849850160444
 20
115.8934422284334
 10
194.4623183493777
 20
115.8934422284334
 10
194.3609850160443
 20
115.8507755617667
 10
194.195651682711
 20
115.6854422284334
 10
194.1529850160443
 20
115.5894422284334
 10
194.1529850160443
 20
115.4774422284334
 10
194.1529850160443
 20
113.1129977839889
 10
194.1529850160443
 20
110.7485533395445
 10
194.1529850160443
 20
108.3841088951
 72
     1
 10
194.1529850160443
 20
108.3841088951
 11
196.2809850160443
 21
108.3841088951
 97
        0
 75
     0
 76
     1
 98
        0
  0
HATCH
  5
4D
330
40
100
AcDbEntity
  8
DV1_Default
  6
Continuous
 62
     7
100
AcDbHatch
 10
0.0
 20
0.0
 30
0.0
210
0.0
220
0.0
230
1.0
  2
SOLID
 70
     1
 71
     0
 91
        1
 92
        1
 93
        4
 72
     1
 10
199.4223183493777
 20
115.4774422284334
 11
199.4223183493777
 21
108.3841088951001
 72
     1
 10
199.4223183493777
 20
108.3841088951001
 11
201.5289850160443
 21
108.3841088951
 72
     1
 10
201.5289850160443
 20
108.3841088951
 11
201.5289850160443
 21
115.8934422284334
 72
     4
 94
        3
 73
     0
 74
     0
 95
       14
 96
       10
 40
0.0
 40
0.0
 40
0.0
 40
0.0
 40
0.7174199141027519
 40
0.7174199141027519
 40
0.7174199141027519
 40
0.8625629241601658
 40
0.8625629241601658
 40
0.8625629241601658
 40
1.0
 40
1.0
 40
1.0
 40
1.0
 10
201.5289850160443
 20
115.8934422284334
 10
200.9689850160443
 20
115.8934422284334
 10
200.4089850160443
 20
115.8934422284334
 10
199.8489850160443
 20
115.8934422284334
 10
199.7263183493777
 20
115.8934422284334
 10
199.627651682711
 20
115.8481088951
 10
199.5449850160443
 20
115.7654422284334
 10
199.4649850160444
 20
115.6854422284334
 10
199.4223183493777
 20
115.5894422284334
 10
199.4223183493777
 20
115.4774422284334
 97
        0
 75
     0
 76
     1
 98
        0
  0
HATCH
  5
4E
330
40
100
AcDbEntity
  8
DV1_Default
  6
Continuous
 62
     7
100
AcDbHatch
 10
0.0
 20
0.0
 30
0.0
210
0.0
220
0.0
230
1.0
  2
SOLID
 70
     1
 71
     0
 91
        1
 92
        1
 93
       12
 72
     1
 10
202.4089850160443
 20
115.8934422284334
 11
204.739651682711
 21
112.3947755617667
 72
     1
 10
204.739651682711
 20
112.3947755617667
 11
201.8809850160443
 21
108.3841088951001
 72
     1
 10
201.8809850160443
 20
108.3841088951001
 11
204.3503183493777
 21
108.3841088951
 72
     1
 10
204.3503183493777
 20
108.3841088951
 11
205.9663183493777
 21
110.7574422284334
 72
     1
 10
205.9663183493777
 20
110.7574422284334
 11
207.107651682711
 21
108.9654422284334
 72
     1
 10
207.107651682711
 20
108.9654422284334
 11
208.371651682711
 21
110.6987755617667
 72
     1
 10
208.371651682711
 20
110.6987755617667
 11
207.1984270395716
 21
112.3922536665698
 72
     1
 10
207.1984270395716
 20
112.3922536665698
 11
209.5343183493777
 21
115.8934422284334
 72
     1
 10
209.5343183493777
 20
115.8934422284334
 11
207.011651682711
 21
115.8934422284334
 72
     1
 10
207.011651682711
 20
115.8934422284334
 11
205.971651682711
 21
114.0214422284334
 72
     1
 10
205.971651682711
 20
114.0214422284334
 11
204.9209850160443
 21
115.8934422284334
 72
     1
 10
204.9209850160443
 20
115.8934422284334
 11
202.4089850160443
 21
115.8934422284334
 97
        0
 75
     0
 76
     1
 98
        0
  0
HATCH
  5
4F
330
40
100
AcDbEntity
  8
DV1_Default
  6
Continuous
 62
     7
100
AcDbHatch
 10
0.0
 20
0.0
 30
0.0
210
0.0
220
0.0
230
1.0
  2
SOLID
 70
     1
 71
     0
 91
        1
 92
        1
 93
        3
 72
     4
 94
        3
 73
     0
 74
     0
 95
       16
 96
       12
 40
0.0
 40
0.0
 40
0.0
 40
0.0
 40
0.5119704925373838
 40
0.5119704925373838
 40
0.5119704925373838
 40
0.5493197825247168
 40
0.5493197825247168
 40
0.5637501900198224
 40
0.5637501900198224
 40
0.5637501900198224
 40
1.0
 40
1.0
 40
1.0
 40
1.0
 10
208.227651682711
 20
108.3841088951
 10
211.3992072382665
 20
108.3841088951
 10
214.5707627938221
 20
108.3841088951
 10
217.7423183493777
 20
108.3841088951
 10
218.035651682711
 20
108.3841088951
 10
218.1849850160443
 20
108.4961088951001
 10
218.1849850160443
 20
108.8214422284334
 10
218.1454224664737
 20
108.9212063226616
 10
218.0729850160443
 20
109.0241088951
 10
216.5174294604888
 20
111.2338866728778
 10
214.9618739049332
 20
113.4436644506556
 10
213.4063183493777
 20
115.6534422284334
 72
     4
 94
        3
 73
     0
 74
     0
 95
       13
 96
        9
 40
0.0
 40
0.0
 40
0.0
 40
0.0
 40
0.0542036213843933
 40
0.0542036213843933
 40
0.1138276049072212
 40
0.1138276049072212
 40
0.1138276049072212
 40
1.0
 40
1.0
 40
1.0
 40
1.0
 10
213.4063183493777
 20
115.6534422284334
 10
213.283651682711
 20
115.8134422284334
 10
213.1343183493777
 20
115.8934422284334
 10
212.7983183493777
 20
115.8934422284334
 10
212.6519781990116
 20
115.8006668378566
 10
212.5369850160444
 20
115.6374422284334
 10
210.9814294604888
 20
113.4294422284334
 10
209.4258739049332
 20
111.2214422284334
 10
207.8703183493777
 20
109.0134422284334
 72
     4
 94
        3
 73
     0
 74
     0
 95
       10
 96
        6
 40
0.0
 40
0.0
 40
0.0
 40
0.0
 40
0.224137931034484
 40
0.224137931034484
 40
1.0
 40
1.0
 40
1.0
 40
1.0
 10
207.8703183493777
 20
109.0134422284334
 10
207.8063183493777
 20
108.9014422284334
 10
207.7743183493777
 20
108.8107755617667
 10
207.7743183493777
 20
108.5014422284334
 10
207.923651682711
 20
108.3841088951
 10
208.227651682711
 20
108.3841088951
 97
        0
 75
     0
 76
     1
 98
        0
  0
LINE
  5
51
330
40
100
AcDbEntity
  8
0015021
  6
Continuous
 62
     7
100
AcDbLine
 10
226.184985016
 20
155.1014422284
 30
0.0
 11
76.184985016
 21
155.1014422284
 31
0.0
  0
LINE
  5
52
330
40
100
AcDbEntity
  8
0015021
  6
Continuous
 62
     7
100
AcDbLine
 10
226.184985016
 20
105.1014422284
 30
0.0
 11
226.184985016
 21
155.1014422284
 31
0.0
  0
LINE
  5
53
330
40
100
AcDbEntity
  8
0015021
  6
Continuous
 62
     7
100
AcDbLine
 10
76.184985016
 20
105.1014422284
 30
0.0
 11
226.184985016
 21
105.1014422284
 31
0.0
  0
LINE
  5
54
330
40
100
AcDbEntity
  8
0015021
  6
Continuous
 62
     7
100
AcDbLine
 10
76.184985016
 20
155.1014422284
 30
0.0
 11
76.184985016
 21
105.1014422284
 31
0.0
  0
CIRCLE
  5
55
330
40
100
AcDbEntity
  8
0015021
  6
Continuous
 62
     7
100
AcDbCircle
 10
91.184985016
 20
144.6014422284
 30
0.0
 40
5.5
  0
CIRCLE
  5
56
330
40
100
AcDbEntity
  8
0015021
  6
Continuous
 62
     7
100
AcDbCircle
 10
91.184985016
 20
144.6014422284
 30
0.0
 40
4.0
  0
CIRCLE
  5
57
330
40
100
AcDbEntity
  8
0015021
  6
Continuous
 62
     7
100
AcDbCircle
 10
91.184985016
 20
125.6014422284
 30
0.0
 40
5.5
  0
CIRCLE
  5
58
330
40
100
AcDbEntity
  8
0015021
  6
Continuous
 62
     7
100
AcDbCircle
 10
91.184985016
 20
125.6014422284
 30
0.0
 40
4.0
  0
CIRCLE
  5
59
330
40
100
AcDbEntity
  8
0015021
  6
Continuous
 62
     7
100
AcDbCircle
 10
111.184985016
 20
144.6014422284
 30
0.0
 40
5.5
  0
CIRCLE
  5
5A
330
40
100
AcDbEntity
  8
0015021
  6
Continuous
 62
     7
100
AcDbCircle
 10
111.184985016
 20
144.6014422284
 30
0.0
 40
4.0
  0
CIRCLE
  5
5B
330
40
100
AcDbEntity
  8
0015021
  6
Continuous
 62
     7
100
AcDbCircle
 10
111.184985016
 20
125.6014422284
 30
0.0
 40
5.5
  0
CIRCLE
  5
5C
330
40
100
AcDbEntity
  8
0015021
  6
Continuous
 62
     7
100
AcDbCircle
 10
111.184985016
 20
125.6014422284
 30
0.0
 40
4.0
  0
CIRCLE
  5
5D
330
40
100
AcDbEntity
  8
0015021
  6
Continuous
 62
     7
100
AcDbCircle
 10
131.184985016
 20
144.6014422284
 30
0.0
 40
5.5
  0
CIRCLE
  5
5E
330
40
100
AcDbEntity
  8
0015021
  6
Continuous
 62
     7
100
AcDbCircle
 10
131.184985016
 20
144.6014422284
 30
0.0
 40
4.0
  0
CIRCLE
  5
5F
330
40
100
AcDbEntity
  8
0015021
  6
Continuous
 62
     7
100
AcDbCircle
 10
131.184985016
 20
125.6014422284
 30
0.0
 40
5.5
  0
CIRCLE
  5
60
330
40
100
AcDbEntity
  8
0015021
  6
Continuous
 62
     7
100
AcDbCircle
 10
131.184985016
 20
125.6014422284
 30
0.0
 40
4.0
  0
CIRCLE
  5
61
330
40
100
AcDbEntity
  8
0015021
  6
Continuous
 62
     7
100
AcDbCircle
 10
151.184985016
 20
144.6014422284
 30
0.0
 40
5.5
  0
CIRCLE
  5
62
330
40
100
AcDbEntity
  8
0015021
  6
Continuous
 62
     7
100
AcDbCircle
 10
151.184985016
 20
144.6014422284
 30
0.0
 40
4.0
  0
CIRCLE
  5
63
330
40
100
AcDbEntity
  8
0015021
  6
Continuous
 62
     7
100
AcDbCircle
 10
151.184985016
 20
125.6014422284
 30
0.0
 40
5.5
  0
CIRCLE
  5
64
330
40
100
AcDbEntity
  8
0015021
  6
Continuous
 62
     7
100
AcDbCircle
 10
151.184985016
 20
125.6014422284
 30
0.0
 40
4.0
  0
CIRCLE
  5
65
330
40
100
AcDbEntity
  8
0015021
  6
Continuous
 62
     7
100
AcDbCircle
 10
171.184985016
 20
144.6014422284
 30
0.0
 40
5.5
  0
CIRCLE
  5
66
330
40
100
AcDbEntity
  8
0015021
  6
Continuous
 62
     7
100
AcDbCircle
 10
171.184985016
 20
144.6014422284
 30
0.0
 40
4.0
  0
CIRCLE
  5
67
330
40
100
AcDbEntity
  8
0015021
  6
Continuous
 62
     7
100
AcDbCircle
 10
171.184985016
 20
125.6014422284
 30
0.0
 40
5.5
  0
CIRCLE
  5
68
330
40
100
AcDbEntity
  8
0015021
  6
Continuous
 62
     7
100
AcDbCircle
 10
171.184985016
 20
125.6014422284
 30
0.0
 40
4.0
  0
CIRCLE
  5
69
330
40
100
AcDbEntity
  8
0015021
  6
Continuous
 62
     7
100
AcDbCircle
 10
191.184985016
 20
144.6014422284
 30
0.0
 40
5.5
  0
CIRCLE
  5
6A
330
40
100
AcDbEntity
  8
0015021
  6
Continuous
 62
     7
100
AcDbCircle
 10
191.184985016
 20
144.6014422284
 30
0.0
 40
4.0
  0
CIRCLE
  5
6B
330
40
100
AcDbEntity
  8
0015021
  6
Continuous
 62
     7
100
AcDbCircle
 10
191.184985016
 20
125.6014422284
 30
0.0
 40
5.5
  0
CIRCLE
  5
6C
330
40
100
AcDbEntity
  8
0015021
  6
Continuous
 62
     7
100
AcDbCircle
 10
191.184985016
 20
125.6014422284
 30
0.0
 40
4.0
  0
CIRCLE
  5
6D
330
40
100
AcDbEntity
  8
0015021
  6
Continuous
 62
     7
100
AcDbCircle
 10
211.184985016
 20
144.6014422284
 30
0.0
 40
5.5
  0
CIRCLE
  5
6E
330
40
100
AcDbEntity
  8
0015021
  6
Continuous
 62
     7
100
AcDbCircle
 10
211.184985016
 20
144.6014422284
 30
0.0
 40
4.0
  0
CIRCLE
  5
6F
330
40
100
AcDbEntity
  8
0015021
  6
Continuous
 62
     7
100
AcDbCircle
 10
211.184985016
 20
125.6014422284
 30
0.0
 40
5.5
  0
CIRCLE
  5
70
330
40
100
AcDbEntity
  8
0015021
  6
Continuous
 62
     7
100
AcDbCircle
 10
211.184985016
 20
125.6014422284
 30
0.0
 40
4.0
  0
LINE
  5
71
330
40
100
AcDbEntity
  8
0015021
  6
Continuous
 62
     7
100
AcDbLine
 10
207.0116516827
 20
115.8934422284
 30
0.0
 11
209.5343183494
 21
115.8934422284
 31
0.0
  0
LINE
  5
72
330
40
100
AcDbEntity
  8
0015021
  6
Continuous
 62
     7
100
AcDbLine
 10
209.5343183494
 20
115.8934422284
 30
0.0
 11
207.1984270396
 21
112.3922536666
 31
0.0
  0
LINE
  5
73
330
40
100
AcDbEntity
  8
0015021
  6
Continuous
 62
     7
100
AcDbLine
 10
207.1984270396
 20
112.3922536666
 30
0.0
 11
208.3716516827
 21
110.6987755618
 31
0.0
  0
LINE
  5
74
330
40
100
AcDbEntity
  8
0015021
  6
Continuous
 62
     7
100
AcDbLine
 10
208.3716516827
 20
110.6987755618
 30
0.0
 11
207.1076516827
 21
108.9654422284
 31
0.0
  0
LINE
  5
75
330
40
100
AcDbEntity
  8
0015021
  6
Continuous
 62
     7
100
AcDbLine
 10
207.1076516827
 20
108.9654422284
 30
0.0
 11
205.9663183494
 21
110.7574422284
 31
0.0
  0
LINE
  5
76
330
40
100
AcDbEntity
  8
0015021
  6
Continuous
 62
     7
100
AcDbLine
 10
205.9663183494
 20
110.7574422284
 30
0.0
 11
204.3503183494
 21
108.3841088951
 31
0.0
  0
LINE
  5
77
330
40
100
AcDbEntity
  8
0015021
  6
Continuous
 62
     7
100
AcDbLine
 10
204.3503183494
 20
108.3841088951
 30
0.0
 11
201.880985016
 21
108.3841088951
 31
0.0
  0
LINE
  5
78
330
40
100
AcDbEntity
  8
0015021
  6
Continuous
 62
     7
100
AcDbLine
 10
201.880985016
 20
108.3841088951
 30
0.0
 11
204.7396516827
 21
112.3947755618
 31
0.0
  0
LINE
  5
79
330
40
100
AcDbEntity
  8
0015021
  6
Continuous
 62
     7
100
AcDbLine
 10
204.7396516827
 20
112.3947755618
 30
0.0
 11
202.408985016
 21
115.8934422284
 31
0.0
  0
LINE
  5
7A
330
40
100
AcDbEntity
  8
0015021
  6
Continuous
 62
     7
100
AcDbLine
 10
202.408985016
 20
115.8934422284
 30
0.0
 11
204.920985016
 21
115.8934422284
 31
0.0
  0
LINE
  5
7B
330
40
100
AcDbEntity
  8
0015021
  6
Continuous
 62
     7
100
AcDbLine
 10
204.920985016
 20
115.8934422284
 30
0.0
 11
205.9716516827
 21
114.0214422284
 31
0.0
  0
LINE
  5
7C
330
40
100
AcDbEntity
  8
0015021
  6
Continuous
 62
     7
100
AcDbLine
 10
205.9716516827
 20
114.0214422284
 30
0.0
 11
207.0116516827
 21
115.8934422284
 31
0.0
  0
SPLINE
  5
7D
330
40
100
AcDbEntity
  8
0015021
  6
Continuous
 62
     7
100
AcDbSpline
210
0.0
220
0.0
230
1.0
 70
    11
 71
     3
 72
    69
 73
    65
 74
     0
 42
0.0000000007656141
 43
0.0000000001
 12
1.0
 22
0.0
 32
0.0
 13
1.0
 23
0.0
 33
0.0
 40
0.0
 40
0.0
 40
0.0
 40
0.0
 40
0.0411175729171011
 40
0.0411175729171011
 40
0.0822351458342043
 40
0.0822351458342043
 40
0.0822351458342043
 40
0.123546589439199
 40
0.123546589439199
 40
0.123546589439199
 40
0.1646146549158406
 40
0.1646146549158406
 40
0.2056827203924824
 40
0.2056827203924824
 40
0.246750785869124
 40
0.246750785869124
 40
0.2878188513457657
 40
0.2878188513457657
 40
0.2878188513457657
 40
0.3317775003425475
 40
0.3317775003425475
 40
0.3757361493393288
 40
0.3757361493393288
 40
0.3757361493393288
 40
0.4172982691054476
 40
0.4172982691054476
 40
0.4172982691054476
 40
0.4569474152028073
 40
0.4569474152028073
 40
0.4569474152028073
 40
0.4997129108121362
 40
0.4997129108121362
 40
0.543270360043862
 40
0.543270360043862
 40
0.543270360043862
 40
0.5827369075658215
 40
0.5827369075658215
 40
0.5827369075658215
 40
0.6241707086251834
 40
0.6241707086251834
 40
0.6241707086251834
 40
0.6683877404516279
 40
0.6683877404516279
 40
0.6683877404516279
 40
0.7121594317670784
 40
0.7121594317670784
 40
0.7121594317670784
 40
0.7522969374445871
 40
0.7522969374445871
 40
0.792434443122096
 40
0.792434443122096
 40
0.8325719487996049
 40
0.8325719487996049
 40
0.8325719487996049
 40
0.8764994055087719
 40
0.8764994055087719
 40
0.8764994055087719
 40
0.9176434081020474
 40
0.9176434081020474
 40
0.9176434081020474
 40
0.9566960550082444
 40
0.9566960550082444
 40
0.9566960550082444
 40
1.0
 40
1.0
 40
1.0
 40
1.0
 10
101.8042157852751
 20
108.5514422284333
 30
0.0
 10
102.0119080929674
 20
108.5514422284333
 30
0.0
 10
102.1926773237367
 20
108.593749920741
 30
0.0
 10
102.4926773237367
 20
108.7629806899718
 30
0.0
 10
102.6196004006598
 20
108.8783653053564
 30
0.0
 10
102.7234465545059
 20
109.0129806899718
 30
0.0
 10
102.827717871725
 20
109.1481472122929
 30
0.0
 10
102.9042157852751
 20
109.3091345361256
 30
0.0
 10
102.9657542468136
 20
109.4899037668949
 30
0.0
 10
103.0268932700622
 20
109.6694996476875
 30
0.0
 10
103.0696004006598
 20
109.8552883822795
 30
0.0
 10
103.1311388621982
 20
110.2322114592026
 30
0.0
 10
103.1542157852751
 20
110.416826843818
 30
0.0
 10
103.1772927083521
 20
110.7860576130487
 30
0.0
 10
103.1811388621982
 20
110.9514422284333
 30
0.0
 10
103.1811388621982
 20
111.2514422284333
 30
0.0
 10
103.1772927083521
 20
111.4206729976641
 30
0.0
 10
103.1657542468136
 20
111.6052883822795
 30
0.0
 10
103.1539763360085
 20
111.7937349551619
 30
0.0
 10
103.1311388621982
 20
111.9783653053564
 30
0.0
 10
103.0696004006598
 20
112.3629806899718
 30
0.0
 10
103.0234465545059
 20
112.5475960745872
 30
0.0
 10
102.9657542468136
 20
112.7283653053564
 30
0.0
 10
102.9077063990164
 20
112.9102485617877
 30
0.0
 10
102.8234465545059
 20
113.0706729976641
 30
0.0
 10
102.7234465545059
 20
113.2091345361256
 30
0.0
 10
102.6203025382787
 20
113.3519493278248
 30
0.0
 10
102.4926773237367
 20
113.4629806899718
 30
0.0
 10
102.3426773237367
 20
113.5514422284333
 30
0.0
 10
102.1943602505659
 20
113.6389112715853
 30
0.0
 10
102.0119080929674
 20
113.6783653053564
 30
0.0
 10
101.5926773237367
 20
113.6783653053564
 30
0.0
 10
101.4157542468136
 20
113.6360576130487
 30
0.0
 10
101.2619080929674
 20
113.5514422284333
 30
0.0
 10
101.1093907446728
 20
113.4675576868712
 30
0.0
 10
100.9888311698905
 20
113.3514422284333
 30
0.0
 10
100.8849850160444
 20
113.2091345361256
 30
0.0
 10
100.7843067143651
 20
113.0711679745652
 30
0.0
 10
100.7042157852752
 20
112.9091345361256
 30
0.0
 10
100.6465234775828
 20
112.7283653053564
 30
0.0
 10
100.5884756297856
 20
112.5464820489251
 30
0.0
 10
100.5388311698905
 20
112.3629806899718
 30
0.0
 10
100.5080619391213
 20
112.1706729976641
 30
0.0
 10
100.4771967045119
 20
111.9777652813555
 30
0.0
 10
100.4542157852752
 20
111.793749920741
 30
0.0
 10
100.4426773237367
 20
111.6052883822795
 30
0.0
 10
100.4313734616237
 20
111.420658634434
 30
0.0
 10
100.4272927083521
 20
111.2514422284333
 30
0.0
 10
100.4272927083521
 20
110.9514422284333
 30
0.0
 10
100.4311388621982
 20
110.7860576130487
 30
0.0
 10
100.4542157852752
 20
110.416826843818
 30
0.0
 10
100.4734465545059
 20
110.2322114592026
 30
0.0
 10
100.5080619391213
 20
110.043749920741
 30
0.0
 10
100.5425518046144
 20
109.8559717641675
 30
0.0
 10
100.5849850160444
 20
109.6706729976641
 30
0.0
 10
100.6465234775828
 20
109.4899037668949
 30
0.0
 10
100.7076625008314
 20
109.3103078861022
 30
0.0
 10
100.7849850160444
 20
109.1514422284333
 30
0.0
 10
100.8849850160444
 20
109.0129806899718
 30
0.0
 10
100.9844779166529
 20
108.8752212891292
 30
0.0
 10
101.1119080929675
 20
108.7629806899718
 30
0.0
 10
101.2619080929674
 20
108.6783653053564
 30
0.0
 10
101.4148257987031
 20
108.5921040354542
 30
0.0
 10
101.5926773237367
 20
108.5514422284333
 30
0.0
 10
101.8042157852751
 20
108.5514422284333
 30
0.0
  0
SPLINE
  5
7E
330
40
100
AcDbEntity
  8
0015021
  6
Continuous
 62
     7
100
AcDbSpline
210
0.0
220
0.0
230
1.0
 70
    11
 71
     3
 72
    47
 73
    43
 74
     0
 42
0.0000000006196075
 43
0.0000000001
 12
1.0
 22
0.0
 32
0.0
 13
1.0
 23
0.0
 33
0.0
 40
0.0
 40
0.0
 40
0.0
 40
0.0
 40
0.0654391646340332
 40
0.0654391646340332
 40
0.0654391646340332
 40
0.1239290081555409
 40
0.1239290081555409
 40
0.1239290081555409
 40
0.186566553467228
 40
0.186566553467228
 40
0.2492040987789149
 40
0.2492040987789149
 40
0.3125963133112243
 40
0.3125963133112243
 40
0.3125963133112243
 40
0.3756404642615872
 40
0.3756404642615872
 40
0.3756404642615872
 40
0.4378503137849792
 40
0.4378503137849792
 40
0.5000601633083701
 40
0.5000601633083701
 40
0.5000601633083701
 40
0.5622109742277086
 40
0.5622109742277086
 40
0.6243617851470473
 40
0.6243617851470473
 40
0.6243617851470473
 40
0.6874922453608237
 40
0.6874922453608237
 40
0.6874922453608237
 40
0.7509041056367517
 40
0.7509041056367517
 40
0.8135610628141566
 40
0.8135610628141566
 40
0.8762180199915618
 40
0.8762180199915618
 40
0.8762180199915618
 40
0.9345925024105675
 40
0.9345925024105675
 40
0.9345925024105675
 40
1.0
 40
1.0
 40
1.0
 40
1.0
 10
101.8042157852751
 20
108.1322114592026
 30
0.0
 10
101.3965234775828
 20
108.1322114592026
 30
0.0
 10
101.0657542468136
 20
108.2245191515103
 30
0.0
 10
100.8157542468136
 20
108.416826843818
 30
0.0
 10
100.5676129828731
 20
108.6077047391568
 30
0.0
 10
100.3734465545059
 20
108.8475960745872
 30
0.0
 10
100.2349850160444
 20
109.1399037668949
 30
0.0
 10
100.0994211455258
 20
109.426094160212
 30
0.0
 10
100.0119080929674
 20
109.7514422284333
 30
0.0
 10
99.91960040065975
 20
110.4514422284333
 30
0.0
 10
99.89652347758285
 20
110.7822114592026
 30
0.0
 10
99.89652347758285
 20
111.4245191515103
 30
0.0
 10
99.91960040065975
 20
111.7629806899718
 30
0.0
 10
99.96575424681362
 20
112.1129806899718
 30
0.0
 10
100.011409576647
 20
112.4592002745415
 30
0.0
 10
100.1042157852751
 20
112.7822114592026
 30
0.0
 10
100.2349850160444
 20
113.0822114592026
 30
0.0
 10
100.3655736263291
 20
113.3817970945617
 30
0.0
 10
100.5657542468136
 20
113.6206729976641
 30
0.0
 10
101.0657542468136
 20
114.0052883822795
 30
0.0
 10
101.3965234775828
 20
114.0975960745872
 30
0.0
 10
101.8042157852751
 20
114.1014422284333
 30
0.0
 10
102.211835530485
 20
114.1052876977278
 30
0.0
 10
102.5426773237367
 20
114.0052883822795
 30
0.0
 10
103.0426773237367
 20
113.6206729976641
 30
0.0
 10
103.2349850160444
 20
113.3783653053564
 30
0.0
 10
103.3696004006598
 20
113.0822114592026
 30
0.0
 10
103.5056646788473
 20
112.7828700471899
 30
0.0
 10
103.5965234775828
 20
112.4591345361256
 30
0.0
 10
103.6426773237367
 20
112.1129806899718
 30
0.0
 10
103.6893350328398
 20
111.7630478716984
 30
0.0
 10
103.7119080929675
 20
111.4245191515103
 30
0.0
 10
103.7119080929675
 20
110.7822114592026
 30
0.0
 10
103.6888311698905
 20
110.4514422284333
 30
0.0
 10
103.5965234775828
 20
109.7514422284333
 30
0.0
 10
103.5042157852752
 20
109.4283653053564
 30
0.0
 10
103.3696004006598
 20
109.1399037668949
 30
0.0
 10
103.233511124972
 20
108.848283890421
 30
0.0
 10
103.0426773237367
 20
108.6052883822795
 30
0.0
 10
102.7926773237367
 20
108.416826843818
 30
0.0
 10
102.5408285461937
 20
108.2269716115163
 30
0.0
 10
102.2119080929675
 20
108.1322114592026
 30
0.0
 10
101.8042157852751
 20
108.1322114592026
 30
0.0
  0
LINE
  5
7F
330
40
100
AcDbEntity
  8
0015021
  6
Continuous
 62
     7
100
AcDbLine
 10
96.1811388622
 20
112.7245191515
 30
0.0
 11
97.8426773237
 21
113.9783653054
 31
0.0
  0
LINE
  5
80
330
40
100
AcDbEntity
  8
0015021
  6
Continuous
 62
     7
100
AcDbLine
 10
97.8426773237
 20
113.9783653054
 30
0.0
 11
98.3657542468
 21
113.9783653054
 31
0.0
  0
LINE
  5
81
330
40
100
AcDbEntity
  8
0015021
  6
Continuous
 62
     7
100
AcDbLine
 10
98.3657542468
 20
113.9783653054
 30
0.0
 11
98.3657542468
 21
108.2245191515
 31
0.0
  0
LINE
  5
82
330
40
100
AcDbEntity
  8
0015021
  6
Continuous
 62
     7
100
AcDbLine
 10
98.3657542468
 20
108.2245191515
 30
0.0
 11
97.834985016
 21
108.2245191515
 31
0.0
  0
LINE
  5
83
330
40
100
AcDbEntity
  8
0015021
  6
Continuous
 62
     7
100
AcDbLine
 10
97.834985016
 20
108.2245191515
 30
0.0
 11
97.834985016
 21
113.36298069
 31
0.0
  0
LINE
  5
84
330
40
100
AcDbEntity
  8
0015021
  6
Continuous
 62
     7
100
AcDbLine
 10
97.834985016
 20
113.36298069
 30
0.0
 11
96.511908093
 21
112.3322114592
 31
0.0
  0
LINE
  5
85
330
40
100
AcDbEntity
  8
0015021
  6
Continuous
 62
     7
100
AcDbLine
 10
96.511908093
 20
112.3322114592
 30
0.0
 11
96.1811388622
 21
112.7245191515
 31
0.0
  0
SPLINE
  5
86
330
40
100
AcDbEntity
  8
0015021
  6
Continuous
 62
     7
100
AcDbSpline
210
0.0
220
0.0
230
1.0
 70
     8
 71
     3
 72
    50
 73
    46
 74
     0
 42
0.0000000007505791
 43
0.0000000001
 12
1.0
 22
0.0
 32
0.0
 13
1.0
 23
0.0
 33
0.0
 40
0.0
 40
0.0
 40
0.0
 40
0.0
 40
0.0318114685352491
 40
0.0318114685352491
 40
0.0318114685352491
 40
0.0663170141632775
 40
0.0663170141632775
 40
0.0663170141632775
 40
0.104937120450633
 40
0.104937120450633
 40
0.104937120450633
 40
0.1476132551081599
 40
0.1476132551081599
 40
0.2383970324705362
 40
0.2383970324705362
 40
0.2383970324705362
 40
0.314318323746588
 40
0.314318323746588
 40
0.314318323746588
 40
0.39137121611696
 40
0.39137121611696
 40
0.39137121611696
 40
0.4690204242010003
 40
0.4690204242010003
 40
0.5650382621543845
 40
0.5650382621543845
 40
0.5650382621543845
 40
0.6467046739969637
 40
0.6467046739969637
 40
0.6467046739969637
 40
0.7228109612984619
 40
0.7228109612984619
 40
0.7228109612984619
 40
0.8081420388711236
 40
0.8081420388711236
 40
0.8081420388711236
 40
0.854506648233311
 40
0.854506648233311
 40
0.854506648233311
 40
0.8987538171175217
 40
0.8987538171175217
 40
0.8987538171175217
 40
0.9493769085587611
 40
0.9493769085587611
 40
1.0
 40
1.0
 40
1.0
 40
1.0
 10
92.8157542468136
 20
108.6283653053564
 30
0.0
 10
92.69267732373667
 20
108.566826843818
 30
0.0
 10
92.56575424681361
 20
108.5052883822795
 30
0.0
 10
92.43498501604438
 20
108.4475960745872
 30
0.0
 10
92.30459455205508
 20
108.390070869886
 30
0.0
 10
92.16575424681362
 20
108.3283653053564
 30
0.0
 10
92.01190809296746
 20
108.2745191515103
 30
0.0
 10
91.8592611853094
 20
108.2210927338299
 30
0.0
 10
91.69267732373667
 20
108.1822114592026
 30
0.0
 10
91.5157542468136
 20
108.1514422284333
 30
0.0
 10
91.3350979306527
 20
108.1200237386662
 30
0.0
 10
91.14267732373668
 20
108.1014422284333
 30
0.0
 10
90.48113886219822
 20
108.1014422284333
 30
0.0
 10
90.10036963142899
 20
108.1899037668949
 30
0.0
 10
89.7926773237367
 20
108.3629806899718
 30
0.0
 10
89.48662847644155
 20
108.5351331665753
 30
0.0
 10
89.23883116989053
 20
108.7552883822795
 30
0.0
 10
89.05421578527515
 20
109.0322114592026
 30
0.0
 10
88.87137554858876
 20
109.3064718142322
 30
0.0
 10
88.73498501604438
 20
109.616826843818
 30
0.0
 10
88.65806193912131
 20
109.966826843818
 30
0.0
 10
88.58194522091266
 20
110.3131579116673
 30
0.0
 10
88.5426773237367
 20
110.6629806899718
 30
0.0
 10
88.5426773237367
 20
111.4629806899718
 30
0.0
 10
88.58883116989053
 20
111.8706729976641
 30
0.0
 10
88.68883116989055
 20
112.2475960745872
 30
0.0
 10
88.78857825160259
 20
112.6235658441173
 30
0.0
 10
88.93498501604438
 20
112.9514422284333
 30
0.0
 10
89.13883116989054
 20
113.2245191515103
 30
0.0
 10
89.34314474166908
 20
113.4982222382325
 30
0.0
 10
89.59652347758285
 20
113.7129806899718
 30
0.0
 10
89.90421578527514
 20
113.866826843818
 30
0.0
 10
90.21498501604438
 20
114.0222114592026
 30
0.0
 10
90.58113886219822
 20
114.0975960745872
 30
0.0
 10
91.000369631429
 20
114.1014422284333
 30
0.0
 10
91.21570083700175
 20
114.1034177440808
 30
0.0
 10
91.41960040065976
 20
114.0745191515103
 30
0.0
 10
91.6080619391213
 20
114.0245191515103
 30
0.0
 10
91.79916340574806
 20
113.9738187624052
 30
0.0
 10
91.97729270835205
 20
113.8975960745872
 30
0.0
 10
92.14267732373668
 20
113.7899037668949
 30
0.0
 10
92.30982068170799
 20
113.6810662314717
 30
0.0
 10
92.450369631429
 20
113.5322114592026
 30
0.0
 10
92.70421578527514
 20
113.1783653053564
 30
0.0
 10
92.81190809296746
 20
112.9629806899718
 30
0.0
 10
92.89652347758285
 20
112.7091345361256
 30
0.0
  0
LINE
  5
87
330
40
100
AcDbEntity
  8
0015021
  6
Continuous
 62
     7
100
AcDbLine
 10
92.8965234776
 20
112.7091345361
 30
0.0
 11
92.3888311699
 21
112.5975960746
 31
0.0
  0
SPLINE
  5
88
330
40
100
AcDbEntity
  8
0015021
  6
Continuous
 62
     7
100
AcDbSpline
210
0.0
220
0.0
230
1.0
 70
     8
 71
     3
 72
    43
 73
    39
 74
     0
 42
0.0000000009332033
 43
0.0000000001
 12
1.0
 22
0.0
 32
0.0
 13
1.0
 23
0.0
 33
0.0
 40
0.0
 40
0.0
 40
0.0
 40
0.0
 40
0.161532552587396
 40
0.161532552587396
 40
0.2300899731622791
 40
0.2300899731622791
 40
0.2986473937371626
 40
0.2986473937371626
 40
0.3672048143120457
 40
0.3672048143120457
 40
0.3672048143120457
 40
0.4220980646458316
 40
0.4220980646458316
 40
0.4769913149796176
 40
0.4769913149796176
 40
0.4769913149796176
 40
0.5162877036723459
 40
0.5162877036723459
 40
0.6139672984228414
 40
0.6139672984228414
 40
0.6139672984228414
 40
0.698532450907775
 40
0.698532450907775
 40
0.698532450907775
 40
0.7875889418236766
 40
0.7875889418236766
 40
0.876645432739577
 40
0.876645432739577
 40
0.9033623800143471
 40
0.9033623800143471
 40
0.9033623800143471
 40
0.932568290942513
 40
0.932568290942513
 40
0.932568290942513
 40
0.9640856721434184
 40
0.9640856721434184
 40
0.9640856721434184
 40
1.0
 40
1.0
 40
1.0
 40
1.0
 10
92.38883116989052
 20
112.5975960745872
 30
0.0
 10
92.13498501604438
 20
113.3168268438179
 30
0.0
 10
91.67729270835207
 20
113.6783653053564
 30
0.0
 10
90.73498501604438
 20
113.6783653053564
 30
0.0
 10
90.49267732373669
 20
113.6322114592026
 30
0.0
 10
90.07729270835208
 20
113.4552883822795
 30
0.0
 10
89.90421578527514
 20
113.3399037668949
 30
0.0
 10
89.61190809296745
 20
113.0552883822795
 30
0.0
 10
89.49652347758283
 20
112.8899037668949
 30
0.0
 10
89.40421578527514
 20
112.7052883822795
 30
0.0
 10
89.31113886219823
 20
112.5191345361256
 30
0.0
 10
89.250369631429
 20
112.3322114592026
 30
0.0
 10
89.150369631429
 20
111.9552883822795
 30
0.0
 10
89.11575424681362
 20
111.7706729976641
 30
0.0
 10
89.10036963142899
 20
111.593749920741
 30
0.0
 10
89.08495615185042
 20
111.4164949055873
 30
0.0
 10
89.06960040065975
 20
111.2591345361257
 30
0.0
 10
89.06960040065975
 20
110.7899037668949
 30
0.0
 10
89.10036963142899
 20
110.466826843818
 30
0.0
 10
89.1580619391213
 20
110.1552883822795
 30
0.0
 10
89.2158817718085
 20
109.8430612857686
 30
0.0
 10
89.32344655450592
 20
109.5668268438179
 30
0.0
 10
89.46960040065977
 20
109.3245191515103
 30
0.0
 10
89.617455279939
 20
109.0793913253368
 30
0.0
 10
89.81575424681361
 20
108.8860576130487
 30
0.0
 10
90.31575424681361
 20
108.593749920741
 30
0.0
 10
90.63113886219823
 20
108.5245191515103
 30
0.0
 10
91.13113886219823
 20
108.5245191515103
 30
0.0
 10
91.24267732373669
 20
108.5283653053564
 30
0.0
 10
91.34652347758285
 20
108.5399037668949
 30
0.0
 10
91.44614824306127
 20
108.5509731852814
 30
0.0
 10
91.55036963142898
 20
108.566826843818
 30
0.0
 10
91.650369631429
 20
108.5899037668949
 30
0.0
 10
91.75486401345145
 20
108.6140178550539
 30
0.0
 10
91.8580619391213
 20
108.6475960745872
 30
0.0
 10
91.9657542468136
 20
108.693749920741
 30
0.0
 10
92.07205398156162
 20
108.7393069499187
 30
0.0
 10
92.18883116989053
 20
108.7860576130487
 30
0.0
 10
92.31190809296746
 20
108.8475960745872
 30
0.0
  0
LINE
  5
89
330
40
100
AcDbEntity
  8
0015021
  6
Continuous
 62
     7
100
AcDbLine
 10
92.311908093
 20
108.8475960746
 30
0.0
 11
92.311908093
 21
110.8014422284
 31
0.0
  0
LINE
  5
8A
330
40
100
AcDbEntity
  8
0015021
  6
Continuous
 62
     7
100
AcDbLine
 10
92.311908093
 20
110.8014422284
 30
0.0
 11
91.0465234776
 21
110.8014422284
 31
0.0
  0
LINE
  5
8B
330
40
100
AcDbEntity
  8
0015021
  6
Continuous
 62
     7
100
AcDbLine
 10
91.0465234776
 20
110.8014422284
 30
0.0
 11
91.0465234776
 21
111.2245191515
 31
0.0
  0
LINE
  5
8C
330
40
100
AcDbEntity
  8
0015021
  6
Continuous
 62
     7
100
AcDbLine
 10
91.0465234776
 20
111.2245191515
 30
0.0
 11
92.8157542468
 21
111.2245191515
 31
0.0
  0
LINE
  5
8D
330
40
100
AcDbEntity
  8
0015021
  6
Continuous
 62
     7
100
AcDbLine
 10
92.8157542468
 20
111.2245191515
 30
0.0
 11
92.8157542468
 21
108.6283653054
 31
0.0
  0
LINE
  5
8E
330
40
100
AcDbEntity
  8
0015021
  6
Continuous
 62
     7
100
AcDbLine
 10
84.6888311699
 20
108.2245191515
 30
0.0
 11
84.184985016
 21
108.2245191515
 31
0.0
  0
LINE
  5
8F
330
40
100
AcDbEntity
  8
0015021
  6
Continuous
 62
     7
100
AcDbLine
 10
84.184985016
 20
108.2245191515
 30
0.0
 11
84.184985016
 21
113.9783653054
 31
0.0
  0
SPLINE
  5
90
330
40
100
AcDbEntity
  8
0015021
  6
Continuous
 62
     7
100
AcDbSpline
210
0.0
220
0.0
230
1.0
 70
     8
 71
     3
 72
    21
 73
    17
 74
     0
 42
0.0000000011323204
 43
0.0000000001
 12
1.0
 22
0.0
 32
0.0
 13
1.0
 23
0.0
 33
0.0
 40
0.0
 40
0.0
 40
0.0
 40
0.0
 40
0.2080968393708693
 40
0.2080968393708693
 40
0.2080968393708693
 40
0.3784185797009657
 40
0.3784185797009657
 40
0.3784185797009657
 40
0.5348983508508443
 40
0.5348983508508443
 40
0.6913781220007226
 40
0.6913781220007226
 40
0.8498900979707286
 40
0.8498900979707286
 40
0.8498900979707286
 40
1.0
 40
1.0
 40
1.0
 40
1.0
 10
84.18498501604438
 20
113.9783653053564
 30
0.0
 10
84.78754911860847
 20
113.9783653053564
 30
0.0
 10
85.39011322117258
 20
113.9783653053564
 30
0.0
 10
85.99267732373669
 20
113.9783653053564
 30
0.0
 10
86.6080619391213
 20
113.9783653053564
 30
0.0
 10
87.06190809296746
 20
113.8283653053564
 30
0.0
 10
87.36190809296745
 20
113.5283653053564
 30
0.0
 10
87.65998501604439
 20
113.2302883822795
 30
0.0
 10
87.8080619391213
 20
112.8322114592026
 30
0.0
 10
87.8080619391213
 20
111.8399037668949
 30
0.0
 10
87.65806193912131
 20
111.4399037668949
 30
0.0
 10
87.06190809296746
 20
110.843749920741
 30
0.0
 10
86.6080619391213
 20
110.693749920741
 30
0.0
 10
85.99267732373669
 20
110.693749920741
 30
0.0
 10
85.5580619391213
 20
110.693749920741
 30
0.0
 10
85.12344655450592
 20
110.693749920741
 30
0.0
 10
84.68883116989053
 20
110.693749920741
 30
0.0
  0
SPLINE
  5
91
330
40
100
AcDbEntity
  8
0015021
  6
Continuous
 62
     7
100
AcDbSpline
210
0.0
220
0.0
230
1.0
 70
     8
 71
     3
 72
    31
 73
    27
 74
     0
 42
0.0000000018456314
 43
0.0000000001
 12
1.0
 22
0.0
 32
0.0
 13
1.0
 23
0.0
 33
0.0
 40
0.0
 40
0.0
 40
0.0
 40
0.0
 40
0.1009288093765435
 40
0.1009288093765435
 40
0.1009288093765435
 40
0.1902996344612322
 40
0.1902996344612322
 40
0.1902996344612322
 40
0.2778951528860762
 40
0.2778951528860762
 40
0.2778951528860762
 40
0.3860831626481461
 40
0.3860831626481461
 40
0.4905405513839377
 40
0.4905405513839377
 40
0.4905405513839377
 40
0.5786664005983861
 40
0.5786664005983861
 40
0.5786664005983861
 40
0.6678164918377036
 40
0.6678164918377036
 40
0.6678164918377036
 40
0.7688315071295604
 40
0.7688315071295604
 40
0.7688315071295604
 40
1.0
 40
1.0
 40
1.0
 40
1.0
 10
85.93498501604438
 20
111.116826843818
 30
0.0
 10
86.12729270835206
 20
111.116826843818
 30
0.0
 10
86.3080619391213
 20
111.1360576130487
 30
0.0
 10
86.47344655450593
 20
111.1822114592026
 30
0.0
 10
86.64239942802477
 20
111.2293610983241
 30
0.0
 10
86.78498501604439
 20
111.3014422284333
 30
0.0
 10
86.900369631429
 20
111.3975960745872
 30
0.0
 10
87.01802410809987
 20
111.4956414718129
 30
0.0
 10
87.11190809296745
 20
111.6206729976641
 30
0.0
 10
87.17729270835207
 20
111.7745191515103
 30
0.0
 10
87.24326575066179
 20
111.9297498392979
 30
0.0
 10
87.28113886219822
 20
112.1129806899718
 30
0.0
 10
87.28113886219822
 20
112.5514422284333
 30
0.0
 10
87.24652347758284
 20
112.7360576130487
 30
0.0
 10
87.17729270835207
 20
112.893749920741
 30
0.0
 10
87.11009915377697
 20
113.0468019061621
 30
0.0
 10
87.01960040065975
 20
113.1745191515103
 30
0.0
 10
86.900369631429
 20
113.2745191515103
 30
0.0
 10
86.78529045281897
 20
113.37103717228
 30
0.0
 10
86.64267732373669
 20
113.443749920741
 30
0.0
 10
86.47344655450593
 20
113.4860576130487
 30
0.0
 10
86.30693071740185
 20
113.5276865723247
 30
0.0
 10
86.12729270835206
 20
113.5552883822795
 30
0.0
 10
85.93498501604438
 20
113.5591345361257
 30
0.0
 10
85.51976648807096
 20
113.5674389066851
 30
0.0
 10
85.10421578527514
 20
113.5591345361257
 30
0.0
 10
84.68883116989053
 20
113.5591345361257
 30
0.0
  0
LINE
  5
92
330
40
100
AcDbEntity
  8
0015021
  6
Continuous
 62
     7
100
AcDbLine
 10
84.6888311699
 20
113.5591345361
 30
0.0
 11
84.6888311699
 21
111.1168268438
 31
0.0
  0
LINE
  5
93
330
40
100
AcDbEntity
  8
0015021
  6
Continuous
 62
     7
100
AcDbLine
 10
84.6888311699
 20
111.1168268438
 30
0.0
 11
85.934985016
 21
111.1168268438
 31
0.0
  0
LINE
  5
94
330
40
100
AcDbEntity
  8
0015021
  6
Continuous
 62
     7
100
AcDbLine
 10
84.6888311699
 20
110.6937499207
 30
0.0
 11
84.6888311699
 21
108.2245191515
 31
0.0
  0
SPLINE
  5
95
330
40
100
AcDbEntity
  8
0015021
  6
Continuous
 62
     7
100
AcDbSpline
210
0.0
220
0.0
230
1.0
 70
     8
 71
     3
 72
    13
 73
     9
 74
     0
 42
0.000000001088999
 43
0.0000000001
 12
1.0
 22
0.0
 32
0.0
 13
1.0
 23
0.0
 33
0.0
 40
0.0
 40
0.0
 40
0.0
 40
0.0
 40
0.8861723950927788
 40
0.8861723950927788
 40
0.8861723950927788
 40
0.9457963786156067
 40
0.9457963786156067
 40
1.0
 40
1.0
 40
1.0
 40
1.0
 10
207.8703183493777
 20
109.0134422284334
 30
0.0
 10
209.4258739049332
 20
111.2214422284334
 30
0.0
 10
210.9814294604888
 20
113.4294422284334
 30
0.0
 10
212.5369850160444
 20
115.6374422284334
 30
0.0
 10
212.6519781990116
 20
115.8006668378566
 30
0.0
 10
212.7983183493777
 20
115.8934422284334
 30
0.0
 10
213.1343183493777
 20
115.8934422284334
 30
0.0
 10
213.283651682711
 20
115.8134422284334
 30
0.0
 10
213.4063183493777
 20
115.6534422284334
 30
0.0
  0
SPLINE
  5
96
330
40
100
AcDbEntity
  8
0015021
  6
Continuous
 62
     7
100
AcDbSpline
210
0.0
220
0.0
230
1.0
 70
     8
 71
     3
 72
    16
 73
    12
 74
     0
 42
0.0000000005358967
 43
0.0000000001
 12
1.0
 22
0.0
 32
0.0
 13
1.0
 23
0.0
 33
0.0
 40
0.0
 40
0.0
 40
0.0
 40
0.0
 40
0.4362498099801776
 40
0.4362498099801776
 40
0.4362498099801776
 40
0.4506802174752832
 40
0.4506802174752832
 40
0.4880295074626163
 40
0.4880295074626163
 40
0.4880295074626163
 40
1.0
 40
1.0
 40
1.0
 40
1.0
 10
213.4063183493777
 20
115.6534422284334
 30
0.0
 10
214.9618739049332
 20
113.4436644506556
 30
0.0
 10
216.5174294604888
 20
111.2338866728778
 30
0.0
 10
218.0729850160443
 20
109.0241088951
 30
0.0
 10
218.1454224664737
 20
108.9212063226616
 30
0.0
 10
218.1849850160443
 20
108.8214422284334
 30
0.0
 10
218.1849850160443
 20
108.4961088951001
 30
0.0
 10
218.035651682711
 20
108.3841088951
 30
0.0
 10
217.7423183493777
 20
108.3841088951
 30
0.0
 10
214.5707627938221
 20
108.3841088951
 30
0.0
 10
211.3992072382665
 20
108.3841088951
 30
0.0
 10
208.227651682711
 20
108.3841088951
 30
0.0
  0
SPLINE
  5
97
330
40
100
AcDbEntity
  8
0015021
  6
Continuous
 62
     7
100
AcDbSpline
210
0.0
220
0.0
230
1.0
 70
     8
 71
     3
 72
    10
 73
     6
 74
     0
 42
0.0000000097239176
 43
0.0000000001
 12
1.0
 22
0.0
 32
0.0
 13
1.0
 23
0.0
 33
0.0
 40
0.0
 40
0.0
 40
0.0
 40
0.0
 40
0.775862068965516
 40
0.775862068965516
 40
1.0
 40
1.0
 40
1.0
 40
1.0
 10
208.227651682711
 20
108.3841088951
 30
0.0
 10
207.923651682711
 20
108.3841088951
 30
0.0
 10
207.7743183493777
 20
108.5014422284334
 30
0.0
 10
207.7743183493777
 20
108.8107755617667
 30
0.0
 10
207.8063183493777
 20
108.9014422284334
 30
0.0
 10
207.8703183493777
 20
109.0134422284334
 30
0.0
  0
LINE
  5
98
330
40
100
AcDbEntity
  8
0015021
  6
Continuous
 62
     7
100
AcDbLine
 10
201.528985016
 20
108.3841088951
 30
0.0
 11
199.4223183494
 21
108.3841088951
 31
0.0
  0
LINE
  5
99
330
40
100
AcDbEntity
  8
0015021
  6
Continuous
 62
     7
100
AcDbLine
 10
199.4223183494
 20
108.3841088951
 30
0.0
 11
199.4223183494
 21
115.4774422284
 31
0.0
  0
SPLINE
  5
9A
330
40
100
AcDbEntity
  8
0015021
  6
Continuous
 62
     7
100
AcDbSpline
210
0.0
220
0.0
230
1.0
 70
     8
 71
     3
 72
    14
 73
    10
 74
     0
 42
0.0000000042402539
 43
0.0000000001
 12
1.0
 22
0.0
 32
0.0
 13
1.0
 23
0.0
 33
0.0
 40
0.0
 40
0.0
 40
0.0
 40
0.0
 40
0.1374370758398343
 40
0.1374370758398343
 40
0.1374370758398343
 40
0.2825800858972481
 40
0.2825800858972481
 40
0.2825800858972481
 40
1.0
 40
1.0
 40
1.0
 40
1.0
 10
199.4223183493777
 20
115.4774422284334
 30
0.0
 10
199.4223183493777
 20
115.5894422284334
 30
0.0
 10
199.4649850160444
 20
115.6854422284334
 30
0.0
 10
199.5449850160443
 20
115.7654422284334
 30
0.0
 10
199.627651682711
 20
115.8481088951
 30
0.0
 10
199.7263183493777
 20
115.8934422284334
 30
0.0
 10
199.8489850160443
 20
115.8934422284334
 30
0.0
 10
200.4089850160443
 20
115.8934422284334
 30
0.0
 10
200.9689850160443
 20
115.8934422284334
 30
0.0
 10
201.5289850160443
 20
115.8934422284334
 30
0.0
  0
LINE
  5
9B
330
40
100
AcDbEntity
  8
0015021
  6
Continuous
 62
     7
100
AcDbLine
 10
201.528985016
 20
115.8934422284
 30
0.0
 11
201.528985016
 21
108.3841088951
 31
0.0
  0
LINE
  5
9C
330
40
100
AcDbEntity
  8
0015021
  6
Continuous
 62
     7
100
AcDbLine
 10
198.5423183494
 20
115.8934422284
 30
0.0
 11
198.5423183494
 21
114.0854422284
 31
0.0
  0
LINE
  5
9D
330
40
100
AcDbEntity
  8
0015021
  6
Continuous
 62
     7
100
AcDbLine
 10
198.5423183494
 20
114.0854422284
 30
0.0
 11
196.280985016
 21
114.0854422284
 31
0.0
  0
LINE
  5
9E
330
40
100
AcDbEntity
  8
0015021
  6
Continuous
 62
     7
100
AcDbLine
 10
196.280985016
 20
114.0854422284
 30
0.0
 11
196.280985016
 21
113.0721088951
 31
0.0
  0
LINE
  5
9F
330
40
100
AcDbEntity
  8
0015021
  6
Continuous
 62
     7
100
AcDbLine
 10
196.280985016
 20
113.0721088951
 30
0.0
 11
198.4303183494
 21
113.0721088951
 31
0.0
  0
LINE
  5
A0
330
40
100
AcDbEntity
  8
0015021
  6
Continuous
 62
     7
100
AcDbLine
 10
198.4303183494
 20
113.0721088951
 30
0.0
 11
198.4303183494
 21
111.2427755618
 31
0.0
  0
LINE
  5
A1
330
40
100
AcDbEntity
  8
0015021
  6
Continuous
 62
     7
100
AcDbLine
 10
198.4303183494
 20
111.2427755618
 30
0.0
 11
196.280985016
 21
111.2427755618
 31
0.0
  0
LINE
  5
A2
330
40
100
AcDbEntity
  8
0015021
  6
Continuous
 62
     7
100
AcDbLine
 10
196.280985016
 20
111.2427755618
 30
0.0
 11
196.280985016
 21
108.3841088951
 31
0.0
  0
LINE
  5
A3
330
40
100
AcDbEntity
  8
0015021
  6
Continuous
 62
     7
100
AcDbLine
 10
196.280985016
 20
108.3841088951
 30
0.0
 11
194.152985016
 21
108.3841088951
 31
0.0
  0
SPLINE
  5
A4
330
40
100
AcDbEntity
  8
0015021
  6
Continuous
 62
     7
100
AcDbSpline
210
0.0
220
0.0
230
1.0
 70
     8
 71
     3
 72
    16
 73
    12
 74
     0
 42
0.0000000008522131
 43
0.0000000001
 12
1.0
 22
0.0
 32
0.0
 13
1.0
 23
0.0
 33
0.0
 40
0.0
 40
0.0
 40
0.0
 40
0.0
 40
0.6054083058996914
 40
0.6054083058996914
 40
0.6054083058996914
 40
0.6329103639311628
 40
0.6329103639311628
 40
0.6622458924980676
 40
0.6622458924980676
 40
0.6622458924980676
 40
1.0
 40
1.0
 40
1.0
 40
1.0
 10
194.1529850160443
 20
108.3841088951
 30
0.0
 10
194.1529850160443
 20
110.7485533395445
 30
0.0
 10
194.1529850160443
 20
113.1129977839889
 30
0.0
 10
194.1529850160443
 20
115.4774422284334
 30
0.0
 10
194.1529850160443
 20
115.5894422284334
 30
0.0
 10
194.195651682711
 20
115.6854422284334
 30
0.0
 10
194.3609850160443
 20
115.8507755617667
 30
0.0
 10
194.4623183493777
 20
115.8934422284334
 30
0.0
 10
194.5849850160444
 20
115.8934422284334
 30
0.0
 10
195.9040961271554
 20
115.8934422284334
 30
0.0
 10
197.2232072382666
 20
115.8934422284334
 30
0.0
 10
198.5423183493777
 20
115.8934422284334
 30
0.0
  0
LINE
  5
A5
330
40
100
AcDbEntity
  8
0015021
  6
Continuous
 62
     7
100
AcDbLine
 10
193.496985016
 20
111.2427755618
 30
0.0
 11
190.8996516827
 21
111.2427755618
 31
0.0
  0
LINE
  5
A6
330
40
100
AcDbEntity
  8
0015021
  6
Continuous
 62
     7
100
AcDbLine
 10
190.8996516827
 20
111.2427755618
 30
0.0
 11
190.8996516827
 21
113.0721088951
 31
0.0
  0
LINE
  5
A7
330
40
100
AcDbEntity
  8
0015021
  6
Continuous
 62
     7
100
AcDbLine
 10
190.8996516827
 20
113.0721088951
 30
0.0
 11
193.496985016
 21
113.0721088951
 31
0.0
  0
LINE
  5
A8
330
40
100
AcDbEntity
  8
0015021
  6
Continuous
 62
     7
100
AcDbLine
 10
193.496985016
 20
113.0721088951
 30
0.0
 11
193.496985016
 21
111.2427755618
 31
0.0
  0
LINE
  5
A9
330
40
100
AcDbEntity
  8
0015021
  6
Continuous
 62
     7
100
AcDbLine
 10
177.1663183494
 20
110.9441088951
 30
0.0
 11
177.1663183494
 21
112.6347755618
 31
0.0
  0
LINE
  5
AA
330
40
100
AcDbEntity
  8
0015021
  6
Continuous
 62
     7
100
AcDbLine
 10
177.1663183494
 20
112.6347755618
 30
0.0
 11
181.048985016
 21
112.6347755618
 31
0.0
  0
SPLINE
  5
AB
330
40
100
AcDbEntity
  8
0015021
  6
Continuous
 62
     7
100
AcDbSpline
210
0.0
220
0.0
230
1.0
 70
     8
 71
     3
 72
    51
 73
    47
 74
     0
 42
0.0000000004159093
 43
0.0000000001
 12
1.0
 22
0.0
 32
0.0
 13
1.0
 23
0.0
 33
0.0
 40
0.0
 40
0.0
 40
0.0
 40
0.0
 40
0.0107290007186243
 40
0.0107290007186243
 40
0.0107290007186243
 40
0.0413610090152915
 40
0.0413610090152915
 40
0.0719930173119589
 40
0.0719930173119589
 40
0.0719930173119589
 40
0.1012528093223965
 40
0.1012528093223965
 40
0.1012528093223965
 40
0.130977904969232
 40
0.130977904969232
 40
0.130977904969232
 40
0.2079391941313246
 40
0.2079391941313246
 40
0.2079391941313246
 40
0.2827342651719228
 40
0.2827342651719228
 40
0.3524584839385829
 40
0.3524584839385829
 40
0.3524584839385829
 40
0.4158509696523796
 40
0.4158509696523796
 40
0.4158509696523796
 40
0.4829327459730264
 40
0.4829327459730264
 40
0.5500145222936742
 40
0.5500145222936742
 40
0.6189258016048845
 40
0.6189258016048845
 40
0.6189258016048845
 40
0.6831832164295405
 40
0.6831832164295405
 40
0.7474406312541964
 40
0.7474406312541964
 40
0.7474406312541964
 40
0.818201894187372
 40
0.818201894187372
 40
0.818201894187372
 40
0.9077483563435556
 40
0.9077483563435556
 40
0.9077483563435556
 40
1.0
 40
1.0
 40
1.0
 40
1.0
 10
181.0489850160443
 20
112.6347755617667
 30
0.0
 10
181.0489850160443
 20
112.5494422284334
 30
0.0
 10
181.0489850160443
 20
112.4641088951
 30
0.0
 10
181.0489850160443
 20
112.3787755617667
 30
0.0
 10
181.0489850160443
 20
112.0907755617667
 30
0.0
 10
181.0329850160443
 20
111.8347755617667
 30
0.0
 10
181.011651682711
 20
111.3761088951
 30
0.0
 10
180.9849850160443
 20
111.1467755617667
 30
0.0
 10
180.9423183493777
 20
110.9227755617667
 30
0.0
 10
180.8986713763653
 20
110.6936289534516
 30
0.0
 10
180.835651682711
 20
110.4747755617667
 30
0.0
 10
180.755651682711
 20
110.2507755617667
 30
0.0
 10
180.6767376555617
 20
110.0298162857486
 30
0.0
 10
180.5583183493777
 20
109.8241088951001
 30
0.0
 10
180.4143183493777
 20
109.6321088951
 30
0.0
 10
180.0104783493777
 20
109.0936555617667
 30
0.0
 10
179.5663183493777
 20
108.6881088951
 30
0.0
 10
179.0329850160443
 20
108.4534422284334
 30
0.0
 10
178.5041199579568
 20
108.2207416028748
 30
0.0
 10
177.9183183493777
 20
108.1014422284334
 30
0.0
 10
176.7023183493777
 20
108.1014422284334
 30
0.0
 10
176.163651682711
 20
108.1974422284334
 30
0.0
 10
175.667651682711
 20
108.3894422284334
 30
0.0
 10
175.1762899934199
 20
108.5796467533203
 30
0.0
 10
174.7503183493777
 20
108.8534422284334
 30
0.0
 10
174.403651682711
 20
109.2001088951
 30
0.0
 10
174.0543183493777
 20
109.5494422284334
 30
0.0
 10
173.779651682711
 20
109.9627755617667
 30
0.0
 10
173.3849850160443
 20
110.9441088951
 30
0.0
 10
173.2889850160443
 20
111.4827755617667
 30
0.0
 10
173.2889850160443
 20
112.6721088951
 30
0.0
 10
173.3849850160443
 20
113.2214422284334
 30
0.0
 10
173.5823183493777
 20
113.7174422284334
 30
0.0
 10
173.7770909586809
 20
114.2070058139794
 30
0.0
 10
174.051651682711
 20
114.6347755617667
 30
0.0
 10
174.7663183493777
 20
115.3387755617667
 30
0.0
 10
175.1929850160443
 20
115.6107755617667
 30
0.0
 10
175.699651682711
 20
115.8081088951
 30
0.0
 10
176.1998838679461
 20
116.0029361672442
 30
0.0
 10
176.755651682711
 20
116.0961088951001
 30
0.0
 10
177.3529850160444
 20
116.1014422284334
 30
0.0
 10
178.1315419975775
 20
116.1083936300542
 30
0.0
 10
178.8089850160443
 20
115.9201088951
 30
0.0
 10
179.395651682711
 20
115.5734422284334
 30
0.0
 10
179.9807011977697
 20
115.2277311513532
 30
0.0
 10
180.435651682711
 20
114.6667755617667
 30
0.0
 10
180.7663183493777
 20
113.8987755617667
 30
0.0
  0
LINE
  5
AC
330
40
100
AcDbEntity
  8
0015021
  6
Continuous
 62
     7
100
AcDbLine
 10
180.7663183494
 20
113.8987755618
 30
0.0
 11
178.7823183494
 21
113.0881088951
 31
0.0
  0
SPLINE
  5
AD
330
40
100
AcDbEntity
  8
0015021
  6
Continuous
 62
     7
100
AcDbSpline
210
0.0
220
0.0
230
1.0
 70
     8
 71
     3
 72
    39
 73
    35
 74
     0
 42
0.0000000009543585
 43
0.0000000001
 12
1.0
 22
0.0
 32
0.0
 13
1.0
 23
0.0
 33
0.0
 40
0.0
 40
0.0
 40
0.0
 40
0.0
 40
0.1025737827615676
 40
0.1025737827615676
 40
0.1025737827615676
 40
0.1980711168589109
 40
0.1980711168589109
 40
0.2739072351126853
 40
0.2739072351126853
 40
0.2739072351126853
 40
0.3483728938041905
 40
0.3483728938041905
 40
0.4228385524956949
 40
0.4228385524956949
 40
0.4228385524956949
 40
0.4996585425559548
 40
0.4996585425559548
 40
0.5795513322186246
 40
0.5795513322186246
 40
0.5795513322186246
 40
0.6560454085937688
 40
0.6560454085937688
 40
0.7325394849689134
 40
0.7325394849689134
 40
0.8090335613440577
 40
0.8090335613440577
 40
0.8591024113350628
 40
0.8591024113350628
 40
0.8591024113350628
 40
0.9060682742233753
 40
0.9060682742233753
 40
0.9530341371116875
 40
0.9530341371116875
 40
1.0
 40
1.0
 40
1.0
 40
1.0
 10
178.7823183493777
 20
113.0881088951
 30
0.0
 10
178.6329850160443
 20
113.4667755617667
 30
0.0
 10
178.4303183493777
 20
113.7547755617667
 30
0.0
 10
178.1849850160444
 20
113.9574422284334
 30
0.0
 10
177.9391003718496
 20
114.1605643258117
 30
0.0
 10
177.6303183493777
 20
114.2561088951
 30
0.0
 10
176.979651682711
 20
114.2561088951
 30
0.0
 10
176.723651682711
 20
114.1921088951
 30
0.0
 10
176.5049850160443
 20
114.0641088951
 30
0.0
 10
176.2823461148481
 20
113.9337836846437
 30
0.0
 10
176.0943183493777
 20
113.7707755617667
 30
0.0
 10
175.795651682711
 20
113.3547755617667
 30
0.0
 10
175.683651682711
 20
113.1147755617667
 30
0.0
 10
175.603651682711
 20
112.8534422284334
 30
0.0
 10
175.5241086514848
 20
112.5936016597611
 30
0.0
 10
175.491651682711
 20
112.3254422284334
 30
0.0
 10
175.491651682711
 20
111.7814422284334
 30
0.0
 10
175.5289850160443
 20
111.5094422284334
 30
0.0
 10
175.6143183493777
 20
111.2481088951
 30
0.0
 10
175.6991378199585
 20
110.9883492664462
 30
0.0
 10
175.811651682711
 20
110.7521088951
 30
0.0
 10
176.1209850160443
 20
110.3361088951
 30
0.0
 10
176.307651682711
 20
110.1761088951
 30
0.0
 10
176.7449850160443
 20
109.9307755617667
 30
0.0
 10
177.0063183493777
 20
109.8721088951
 30
0.0
 10
177.491651682711
 20
109.8721088951
 30
0.0
 10
177.6783183493777
 20
109.8934422284334
 30
0.0
 10
177.8543183493777
 20
109.9467755617667
 30
0.0
 10
178.0352031265013
 20
110.0015891305921
 30
0.0
 10
178.1903183493777
 20
110.0747755617667
 30
0.0
 10
178.4569850160443
 20
110.2667755617667
 30
0.0
 10
178.5689850160443
 20
110.3894422284334
 30
0.0
 10
178.7503183493777
 20
110.6881088951
 30
0.0
 10
178.803651682711
 20
110.8214422284334
 30
0.0
 10
178.8249850160443
 20
110.9441088951
 30
0.0
  0
LINE
  5
AE
330
40
100
AcDbEntity
  8
0015021
  6
Continuous
 62
     7
100
AcDbLine
 10
178.824985016
 20
110.9441088951
 30
0.0
 11
177.1663183494
 21
110.9441088951
 31
0.0
  0
LINE
  5
AF
330
40
100
AcDbEntity
  8
0015021
  6
Continuous
 62
     7
100
AcDbLine
 10
172.7876516827
 20
115.8934422284
 30
0.0
 11
172.7876516827
 21
114.0854422284
 31
0.0
  0
LINE
  5
B0
330
40
100
AcDbEntity
  8
0015021
  6
Continuous
 62
     7
100
AcDbLine
 10
172.7876516827
 20
114.0854422284
 30
0.0
 11
170.520985016
 21
114.0854422284
 31
0.0
  0
LINE
  5
B1
330
40
100
AcDbEntity
  8
0015021
  6
Continuous
 62
     7
100
AcDbLine
 10
170.520985016
 20
114.0854422284
 30
0.0
 11
170.520985016
 21
113.0721088951
 31
0.0
  0
LINE
  5
B2
330
40
100
AcDbEntity
  8
0015021
  6
Continuous
 62
     7
100
AcDbLine
 10
170.520985016
 20
113.0721088951
 30
0.0
 11
172.6756516827
 21
113.0721088951
 31
0.0
  0
LINE
  5
B3
330
40
100
AcDbEntity
  8
0015021
  6
Continuous
 62
     7
100
AcDbLine
 10
172.6756516827
 20
113.0721088951
 30
0.0
 11
172.6756516827
 21
111.2427755618
 31
0.0
  0
LINE
  5
B4
330
40
100
AcDbEntity
  8
0015021
  6
Continuous
 62
     7
100
AcDbLine
 10
172.6756516827
 20
111.2427755618
 30
0.0
 11
170.520985016
 21
111.2427755618
 31
0.0
  0
LINE
  5
B5
330
40
100
AcDbEntity
  8
0015021
  6
Continuous
 62
     7
100
AcDbLine
 10
170.520985016
 20
111.2427755618
 30
0.0
 11
170.520985016
 21
110.1921088951
 31
0.0
  0
LINE
  5
B6
330
40
100
AcDbEntity
  8
0015021
  6
Continuous
 62
     7
100
AcDbLine
 10
170.520985016
 20
110.1921088951
 30
0.0
 11
172.7876516827
 21
110.1921088951
 31
0.0
  0
LINE
  5
B7
330
40
100
AcDbEntity
  8
0015021
  6
Continuous
 62
     7
100
AcDbLine
 10
172.7876516827
 20
110.1921088951
 30
0.0
 11
172.7876516827
 21
108.3841088951
 31
0.0
  0
LINE
  5
B8
330
40
100
AcDbEntity
  8
0015021
  6
Continuous
 62
     7
100
AcDbLine
 10
172.7876516827
 20
108.3841088951
 30
0.0
 11
168.4143183494
 21
108.3841088951
 31
0.0
  0
SPLINE
  5
B9
330
40
100
AcDbEntity
  8
0015021
  6
Continuous
 62
     7
100
AcDbSpline
210
0.0
220
0.0
230
1.0
 70
     8
 71
     3
 72
    16
 73
    12
 74
     0
 42
0.0000000008533767
 43
0.0000000001
 12
1.0
 22
0.0
 32
0.0
 13
1.0
 23
0.0
 33
0.0
 40
0.0
 40
0.0
 40
0.0
 40
0.0
 40
0.6062361714941855
 40
0.6062361714941855
 40
0.6062361714941855
 40
0.6337758372152125
 40
0.6337758372152125
 40
0.6631514806509748
 40
0.6631514806509748
 40
0.6631514806509748
 40
1.0
 40
1.0
 40
1.0
 40
1.0
 10
168.4143183493777
 20
108.3841088951
 30
0.0
 10
168.4143183493777
 20
110.7485533395445
 30
0.0
 10
168.4143183493777
 20
113.1129977839889
 30
0.0
 10
168.4143183493777
 20
115.4774422284334
 30
0.0
 10
168.4143183493777
 20
115.5894422284334
 30
0.0
 10
168.4569850160443
 20
115.6854422284334
 30
0.0
 10
168.6223183493777
 20
115.8507755617667
 30
0.0
 10
168.723651682711
 20
115.8934422284334
 30
0.0
 10
168.8463183493777
 20
115.8934422284334
 30
0.0
 10
170.1600961271554
 20
115.8934422284334
 30
0.0
 10
171.4738739049332
 20
115.8934422284334
 30
0.0
 10
172.787651682711
 20
115.8934422284334
 30
0.0
  0
SPLINE
  5
BA
330
40
100
AcDbEntity
  8
0015021
  6
Continuous
 62
     7
100
AcDbSpline
210
0.0
220
0.0
230
1.0
 70
     8
 71
     3
 72
    34
 73
    30
 74
     0
 42
0.0000000005795691
 43
0.0000000001
 12
1.0
 22
0.0
 32
0.0
 13
1.0
 23
0.0
 33
0.0
 40
0.0
 40
0.0
 40
0.0
 40
0.0
 40
0.4127165462323928
 40
0.4127165462323928
 40
0.4127165462323928
 40
0.4311740897399158
 40
0.4311740897399158
 40
0.4508621361479394
 40
0.4508621361479394
 40
0.4508621361479394
 40
0.5976402762741961
 40
0.5976402762741961
 40
0.5976402762741961
 40
0.6588761857643864
 40
0.6588761857643864
 40
0.6588761857643864
 40
0.7178883097730867
 40
0.7178883097730867
 40
0.7769004337817882
 40
0.7769004337817882
 40
0.8359125577904897
 40
0.8359125577904897
 40
0.8752539737962901
 40
0.8752539737962901
 40
0.8752539737962901
 40
0.9168359825308603
 40
0.9584179912654306
 40
0.9584179912654306
 40
1.0
 40
1.0
 40
1.0
 40
1.0
 10
161.603651682711
 20
108.3841088951
 30
0.0
 10
161.603651682711
 20
110.7485533395445
 30
0.0
 10
161.603651682711
 20
113.1129977839889
 30
0.0
 10
161.603651682711
 20
115.4774422284334
 30
0.0
 10
161.603651682711
 20
115.5894422284334
 30
0.0
 10
161.6463183493777
 20
115.6854422284334
 30
0.0
 10
161.811651682711
 20
115.8507755617667
 30
0.0
 10
161.9129850160443
 20
115.8934422284334
 30
0.0
 10
162.0249850160444
 20
115.8934422284334
 30
0.0
 10
162.8658739049332
 20
115.8934422284334
 30
0.0
 10
163.7067627938221
 20
115.8934422284334
 30
0.0
 10
164.547651682711
 20
115.8934422284334
 30
0.0
 10
164.915651682711
 20
115.8934422284334
 30
0.0
 10
165.2623183493777
 20
115.8454422284334
 30
0.0
 10
165.587651682711
 20
115.7547755617667
 30
0.0
 10
165.9094152737335
 20
115.6651037413178
 30
0.0
 10
166.1903183493777
 20
115.5147755617667
 30
0.0
 10
166.6703183493777
 20
115.1307755617667
 30
0.0
 10
166.8569850160443
 20
114.8854422284334
 30
0.0
 10
167.123651682711
 20
114.2987755617667
 30
0.0
 10
167.1929850160444
 20
113.9521088951
 30
0.0
 10
167.1929850160444
 20
113.2854422284334
 30
0.0
 10
167.155651682711
 20
113.0347755617667
 30
0.0
 10
167.0809850160443
 20
112.7947755617667
 30
0.0
 10
167.00678900824
 20
112.5562883938243
 30
0.0
 10
166.787651682711
 20
112.1174422284334
 30
0.0
 10
166.435651682711
 20
111.7867755617667
 30
0.0
 10
166.0089850160443
 20
111.5094422284334
 30
0.0
 10
165.8009850160443
 20
111.4294422284334
 30
0.0
 10
165.5929850160443
 20
111.4027755617667
 30
0.0
  0
LINE
  5
BB
330
40
100
AcDbEntity
  8
0015021
  6
Continuous
 62
     7
100
AcDbLine
 10
165.592985016
 20
111.4027755618
 30
0.0
 11
167.8916516827
 21
108.3841088951
 31
0.0
  0
LINE
  5
BC
330
40
100
AcDbEntity
  8
0015021
  6
Continuous
 62
     7
100
AcDbLine
 10
167.8916516827
 20
108.3841088951
 30
0.0
 11
165.352985016
 21
108.3841088951
 31
0.0
  0
LINE
  5
BD
330
40
100
AcDbEntity
  8
0015021
  6
Continuous
 62
     7
100
AcDbLine
 10
165.352985016
 20
108.3841088951
 30
0.0
 11
163.7103183494
 21
111.1841088951
 31
0.0
  0
LINE
  5
BE
330
40
100
AcDbEntity
  8
0015021
  6
Continuous
 62
     7
100
AcDbLine
 10
163.7103183494
 20
111.1841088951
 30
0.0
 11
163.7103183494
 21
108.3841088951
 31
0.0
  0
SPLINE
  5
BF
330
40
100
AcDbEntity
  8
0015021
  6
Continuous
 62
     7
100
AcDbSpline
210
0.0
220
0.0
230
1.0
 70
     8
 71
     3
 72
    29
 73
    25
 74
     0
 42
0.0000000029248714
 43
0.0000000001
 12
1.0
 22
0.0
 32
0.0
 13
1.0
 23
0.0
 33
0.0
 40
0.0
 40
0.0
 40
0.0
 40
0.0
 40
0.1308964236226227
 40
0.1308964236226227
 40
0.1308964236226227
 40
0.2493217166254654
 40
0.2493217166254654
 40
0.2493217166254654
 40
0.3732390540949203
 40
0.3732390540949203
 40
0.4971563915643744
 40
0.4971563915643744
 40
0.6174291014611967
 40
0.6174291014611967
 40
0.6174291014611967
 40
0.7257090160055032
 40
0.7257090160055032
 40
0.7257090160055032
 40
0.8510653940362908
 40
0.8510653940362908
 40
0.976421772067078
 40
0.976421772067078
 40
0.976421772067078
 40
1.0
 40
1.0
 40
1.0
 40
1.0
 10
163.7903183493777
 20
112.6187755617667
 30
0.0
 10
163.939651682711
 20
112.6187755617667
 30
0.0
 10
164.0889850160443
 20
112.6294422284334
 30
0.0
 10
164.2329850160443
 20
112.6507755617667
 30
0.0
 10
164.3762118616819
 20
112.671994353713
 30
0.0
 10
164.5049850160443
 20
112.7041088951
 30
0.0
 10
164.6169850160443
 20
112.7627755617667
 30
0.0
 10
164.7267928452258
 20
112.8202939484808
 30
0.0
 10
164.819651682711
 20
112.8961088951
 30
0.0
 10
164.9583183493777
 20
113.1094422284334
 30
0.0
 10
164.9903183493777
 20
113.2534422284334
 30
0.0
 10
164.9903183493777
 20
113.6107755617667
 30
0.0
 10
164.9583183493777
 20
113.7494422284334
 30
0.0
 10
164.8943183493777
 20
113.8507755617667
 30
0.0
 10
164.8287975572985
 20
113.9545168158921
 30
0.0
 10
164.739651682711
 20
114.0321088951
 30
0.0
 10
164.6223183493777
 20
114.0907755617667
 30
0.0
 10
164.5113850160443
 20
114.1462422284334
 30
0.0
 10
164.3769850160443
 20
114.1814422284334
 30
0.0
 10
164.0783183493777
 20
114.2241088951
 30
0.0
 10
163.9289850160443
 20
114.2347755617667
 30
0.0
 10
163.7903183493777
 20
114.2347755617667
 30
0.0
 10
163.763651682711
 20
114.2347755617667
 30
0.0
 10
163.7369850160443
 20
114.2347755617667
 30
0.0
 10
163.7103183493777
 20
114.2347755617667
 30
0.0
  0
LINE
  5
C0
330
40
100
AcDbEntity
  8
0015021
  6
Continuous
 62
     7
100
AcDbLine
 10
163.7103183494
 20
114.2347755618
 30
0.0
 11
163.7103183494
 21
112.6187755618
 31
0.0
  0
LINE
  5
C1
330
40
100
AcDbEntity
  8
0015021
  6
Continuous
 62
     7
100
AcDbLine
 10
163.7103183494
 20
112.6187755618
 30
0.0
 11
163.7903183494
 21
112.6187755618
 31
0.0
  0
LINE
  5
C2
330
40
100
AcDbEntity
  8
0015021
  6
Continuous
 62
     7
100
AcDbLine
 10
163.7103183494
 20
108.3841088951
 30
0.0
 11
161.6036516827
 21
108.3841088951
 31
0.0
  0
SPLINE
  5
C3
330
40
100
AcDbEntity
  8
0015021
  6
Continuous
 62
     7
100
AcDbSpline
210
0.0
220
0.0
230
1.0
 70
    11
 71
     3
 72
    48
 73
    44
 74
     0
 42
0.0000000008122955
 43
0.0000000001
 12
1.0
 22
0.0
 32
0.0
 13
1.0
 23
0.0
 33
0.0
 40
0.0
 40
0.0
 40
0.0
 40
0.0
 40
0.0632788595816797
 40
0.0632788595816797
 40
0.0632788595816797
 40
0.1250789860121007
 40
0.1250789860121007
 40
0.1250789860121007
 40
0.1891908261276199
 40
0.1891908261276199
 40
0.1891908261276199
 40
0.2616760554832847
 40
0.2616760554832847
 40
0.3163578951726458
 40
0.3163578951726458
 40
0.3163578951726458
 40
0.3755097855289364
 40
0.3755097855289364
 40
0.3755097855289364
 40
0.4363134546957769
 40
0.4363134546957769
 40
0.4363134546957769
 40
0.5004773328136454
 40
0.5004773328136454
 40
0.5633830956742987
 40
0.5633830956742987
 40
0.5633830956742987
 40
0.6244677781113531
 40
0.6244677781113531
 40
0.6244677781113531
 40
0.6791034896171407
 40
0.6791034896171407
 40
0.7337392011229283
 40
0.7337392011229283
 40
0.8045172819372445
 40
0.8045172819372445
 40
0.8752953627515608
 40
0.8752953627515608
 40
0.8752953627515608
 40
0.9367643121370143
 40
0.9367643121370143
 40
0.9367643121370143
 40
1.0
 40
1.0
 40
1.0
 40
1.0
 10
185.8703183493777
 20
110.1921088951
 30
0.0
 10
186.1423183493777
 20
110.1921088951
 30
0.0
 10
186.3929850160443
 20
110.2401088951001
 30
0.0
 10
186.6223183493777
 20
110.3467755617667
 30
0.0
 10
186.8539970213801
 20
110.4545330836283
 30
0.0
 10
187.059651682711
 20
110.5867755617667
 30
0.0
 10
187.2409850160444
 20
110.7734422284334
 30
0.0
 10
187.4197289611654
 20
110.957443348411
 30
0.0
 10
187.555651682711
 20
111.1787755617667
 30
0.0
 10
187.6623183493777
 20
111.4294422284334
 30
0.0
 10
187.7700888872594
 20
111.6827029924554
 30
0.0
 10
187.811651682711
 20
111.9627755617667
 30
0.0
 10
187.811651682711
 20
112.4961088951001
 30
0.0
 10
187.763651682711
 20
112.7201088951001
 30
0.0
 10
187.6623183493777
 20
112.9441088951
 30
0.0
 10
187.5629878395738
 20
113.1636816009824
 30
0.0
 10
187.4223183493777
 20
113.3601088951
 30
0.0
 10
187.2463183493777
 20
113.5307755617667
 30
0.0
 10
187.0729837540156
 20
113.6988575936329
 30
0.0
 10
186.8623183493777
 20
113.8347755617667
 30
0.0
 10
186.627651682711
 20
113.9361088951
 30
0.0
 10
186.3949260986158
 20
114.0366040336866
 30
0.0
 10
186.1423183493777
 20
114.0854422284334
 30
0.0
 10
185.603651682711
 20
114.0854422284334
 30
0.0
 10
185.347651682711
 20
114.0321088951
 30
0.0
 10
185.1129850160443
 20
113.9361088951
 30
0.0
 10
184.876449322829
 20
113.8393442933301
 30
0.0
 10
184.6703183493777
 20
113.6961088951
 30
0.0
 10
184.4943183493777
 20
113.5254422284334
 30
0.0
 10
184.3155696508448
 20
113.3521101571288
 30
0.0
 10
184.1743183493777
 20
113.1627755617667
 30
0.0
 10
183.971651682711
 20
112.7254422284334
 30
0.0
 10
183.9183183493777
 20
112.5014422284334
 30
0.0
 10
183.9183183493777
 20
111.9627755617667
 30
0.0
 10
183.971651682711
 20
111.6801088951
 30
0.0
 10
184.1849850160444
 20
111.1787755617667
 30
0.0
 10
184.323651682711
 20
110.9601088951
 30
0.0
 10
184.5049850160443
 20
110.7734422284334
 30
0.0
 10
184.6837289611654
 20
110.5894411084558
 30
0.0
 10
184.8889850160443
 20
110.4481088951
 30
0.0
 10
185.1183183493777
 20
110.3467755617667
 30
0.0
 10
185.354085468533
 20
110.2425993928376
 30
0.0
 10
185.603651682711
 20
110.1921088951
 30
0.0
 10
185.8703183493777
 20
110.1921088951
 30
0.0
  0
SPLINE
  5
C4
330
40
100
AcDbEntity
  8
0015021
  6
Continuous
 62
     7
100
AcDbSpline
210
0.0
220
0.0
230
1.0
 70
     8
 71
     3
 72
    26
 73
    22
 74
     0
 42
0.0000000007719862
 43
0.0000000001
 12
1.0
 22
0.0
 32
0.0
 13
1.0
 23
0.0
 33
0.0
 40
0.0
 40
0.0
 40
0.0
 40
0.0
 40
0.1241042764671998
 40
0.1241042764671998
 40
0.1241042764671998
 40
0.2444649733050971
 40
0.2444649733050971
 40
0.3648256701429933
 40
0.3648256701429933
 40
0.3648256701429933
 40
0.4876410301322777
 40
0.4876410301322777
 40
0.6221530910729228
 40
0.6221530910729228
 40
0.6221530910729228
 40
0.7448779302950169
 40
0.7448779302950169
 40
0.7448779302950169
 40
0.8724389651475078
 40
0.8724389651475078
 40
1.0
 40
1.0
 40
1.0
 40
1.0
 10
185.8703183493777
 20
116.1387755617667
 30
0.0
 10
185.331651682711
 20
116.1334422284334
 30
0.0
 10
184.8107290441396
 20
116.0380916005965
 30
0.0
 10
184.307651682711
 20
115.8507755617667
 30
0.0
 10
183.8063183493776
 20
115.6641088951
 30
0.0
 10
183.363651682711
 20
115.3974422284334
 30
0.0
 10
182.595651682711
 20
114.7147755617667
 30
0.0
 10
182.2798979742271
 20
114.3071387350587
 30
0.0
 10
182.0569850160443
 20
113.8347755617667
 30
0.0
 10
181.8329850160443
 20
113.3601088951
 30
0.0
 10
181.715651682711
 20
112.8427755617667
 30
0.0
 10
181.715651682711
 20
111.6694422284334
 30
0.0
 10
181.8287551309869
 20
111.1173502744104
 30
0.0
 10
182.0303183493777
 20
110.6134422284334
 30
0.0
 10
182.2329850160444
 20
110.1067755617667
 30
0.0
 10
182.5183567166964
 20
109.6667758377906
 30
0.0
 10
182.8889850160443
 20
109.3014422284334
 30
0.0
 10
183.2623183493777
 20
108.9334422284334
 30
0.0
 10
183.699651682711
 20
108.6454422284334
 30
0.0
 10
184.7129850160443
 20
108.2401088951001
 30
0.0
 10
185.267651682711
 20
108.1387755617667
 30
0.0
 10
185.8703183493777
 20
108.1387755617667
 30
0.0
  0
SPLINE
  5
C5
330
40
100
AcDbEntity
  8
0015021
  6
Continuous
 62
     7
100
AcDbSpline
210
0.0
220
0.0
230
1.0
 70
     8
 71
     3
 72
    25
 73
    21
 74
     0
 42
0.0000000007729578
 43
0.0000000001
 12
1.0
 22
0.0
 32
0.0
 13
1.0
 23
0.0
 33
0.0
 40
0.0
 40
0.0
 40
0.0
 40
0.0
 40
0.127685019915057
 40
0.127685019915057
 40
0.2553700398301132
 40
0.2553700398301132
 40
0.2553700398301132
 40
0.3854318872146879
 40
0.3854318872146879
 40
0.515493734599263
 40
0.515493734599263
 40
0.6352875414008451
 40
0.6352875414008451
 40
0.6352875414008451
 40
0.7557134277178664
 40
0.7557134277178664
 40
0.8761393140348891
 40
0.8761393140348891
 40
0.8761393140348891
 40
1.0
 40
1.0
 40
1.0
 40
1.0
 10
185.8703183493777
 20
108.1387755617667
 30
0.0
 10
186.4729850160443
 20
108.1387755617667
 30
0.0
 10
187.027651682711
 20
108.2401088951001
 30
0.0
 10
188.0409850160443
 20
108.6454422284334
 30
0.0
 10
188.4810239434107
 20
108.9307758459081
 30
0.0
 10
188.8463183493777
 20
109.3014422284334
 30
0.0
 10
189.2089850160443
 20
109.6694422284334
 30
0.0
 10
189.4969850160443
 20
110.1067755617667
 30
0.0
 10
189.9129850160443
 20
111.1201088951
 30
0.0
 10
190.0143183493777
 20
111.6747755617667
 30
0.0
 10
190.0143183493777
 20
112.8427755617667
 30
0.0
 10
189.9002292330351
 20
113.3590995467548
 30
0.0
 10
189.6729850160444
 20
113.8294422284334
 30
0.0
 10
189.443651682711
 20
114.3041088951
 30
0.0
 10
189.1343183493777
 20
114.7147755617667
 30
0.0
 10
188.3663183493777
 20
115.3974422284334
 30
0.0
 10
187.9264945183068
 20
115.657675109278
 30
0.0
 10
187.427651682711
 20
115.8507755617667
 30
0.0
 10
186.931651682711
 20
116.0427755617667
 30
0.0
 10
186.4089850160444
 20
116.1334422284334
 30
0.0
 10
185.8703183493777
 20
116.1387755617667
 30
0.0
  0
ENDBLK
  5
C7
330
40
100
AcDbEntity
  8
0
100
AcDbBlockEnd
  0
BLOCK
  5
D5
330
C8
100
AcDbEntity
  8
0
100
AcDbBlockBegin
  2
SE1
 70
     0
 10
0.0
 20
0.0
 30
0.0
  3
SE1
  1

  0
LINE
  5
CA
330
C8
100
AcDbEntity
  8
0015021
  6
Continuous
 62
     7
100
AcDbLine
 10
226.184985016
 20
90.4834814567
 30
0.0
 11
76.184985016
 21
90.4834814567
 31
0.0
  0
LINE
  5
CB
330
C8
100
AcDbEntity
  8
0015021
  6
Continuous
 62
     7
100
AcDbLine
 10
226.184985016
 20
50.4834814567
 30
0.0
 11
76.184985016
 21
50.4834814567
 31
0.0
  0
LINE
  5
CC
330
C8
100
AcDbEntity
  8
0015021
  6
Continuous
 62
     7
100
AcDbLine
 10
76.184985016
 20
90.4834814567
 30
0.0
 11
76.184985016
 21
50.4834814567
 31
0.0
  0
LINE
  5
CD
330
C8
100
AcDbEntity
  8
0015021
  6
Continuous
 62
     7
100
AcDbLine
 10
226.184985016
 20
90.4834814567
 30
0.0
 11
226.184985016
 21
50.4834814567
 31
0.0
  0
LINE
  5
CE
330
C8
100
AcDbEntity
  8
0015021
  6
Continuous
 62
     7
100
AcDbLine
 10
100.4272927084
 20
50.4834814567
 30
0.0
 11
100.4272927084
 21
50.4709814567
 31
0.0
  0
LINE
  5
CF
330
C8
100
AcDbEntity
  8
0015021
  6
Continuous
 62
     7
100
AcDbLine
 10
103.1811388622
 20
50.4709814567
 30
0.0
 11
103.1811388622
 21
50.4834814567
 31
0.0
  0
LINE
  5
D0
330
C8
100
AcDbEntity
  8
0015021
  6
Continuous
 62
     7
100
AcDbLine
 10
89.0696004007
 20
50.4834814567
 30
0.0
 11
89.0696004007
 21
50.4709814567
 31
0.0
  0
LINE
  5
D1
330
C8
100
AcDbEntity
  8
0015021
  6
Continuous
 62
     7
100
AcDbLine
 10
87.2811388622
 20
50.4709814567
 30
0.0
 11
87.2811388622
 21
50.4834814567
 31
0.0
  0
LINE
  5
D2
330
C8
100
AcDbEntity
  8
0015021
  6
Continuous
 62
     7
100
AcDbLine
 10
175.4916516827
 20
50.4834814567
 30
0.0
 11
175.4916516827
 21
50.4709814567
 31
0.0
  0
LINE
  5
D3
330
C8
100
AcDbEntity
  8
0015021
  6
Continuous
 62
     7
100
AcDbLine
 10
164.9903183494
 20
50.4709814567
 30
0.0
 11
164.9903183494
 21
50.4834814567
 31
0.0
  0
LINE
  5
D4
330
C8
100
AcDbEntity
  8
0015021
  6
Continuous
 62
     7
100
AcDbLine
 10
187.8116516827
 20
50.4709814567
 30
0.0
 11
187.8116516827
 21
50.4834814567
 31
0.0
  0
ENDBLK
  5
D6
330
C8
100
AcDbEntity
  8
0
100
AcDbBlockEnd
  0
BLOCK
  5
D9
330
D8
100
AcDbEntity
  8
0
100
AcDbBlockBegin
  2
_OBLIQUE
 70
     0
 10
0.0
 20
0.0
 30
0.0
  3
_OBLIQUE
  1

  0
LINE
  5
DB
330
D8
100
AcDbEntity
  8
0
  6
ByBlock
 62
     0
370
    -2
100
AcDbLine
 10
-0.5
 20
-0.5
 30
0.0
 11
0.5
 21
0.5
 31
0.0
  0
ENDBLK
  5
DA
330
D8
100
AcDbEntity
  8
0
100
AcDbBlockEnd
  0
BLOCK
  5
DD
330
DC
100
AcDbEntity
  8
0
100
AcDbBlockBegin
  2
_DOT
 70
     0
 10
0.0
 20
0.0
 30
0.0
  3
_DOT
  1

  0
POLYLINE
  5
DF
330
DC
100
AcDbEntity
  8
0
  6
ByBlock
 62
     0
100
AcDb2dPolyline
 66
     1
 10
0.0
 20
0.0
 30
0.0
 70
     1
 40
0.5
 41
0.5
  0
VERTEX
  5
E1
330
DF
100
AcDbEntity
  8
0
  6
ByBlock
 62
     0
100
AcDbVertex
100
AcDb2dVertex
 10
-0.25
 20
0.0
 30
0.0
 42
1.0
  0
VERTEX
  5
E2
330
DF
100
AcDbEntity
  8
0
  6
ByBlock
 62
     0
100
AcDbVertex
100
AcDb2dVertex
 10
0.25
 20
0.0
 30
0.0
 42
1.0
  0
SEQEND
  5
E3
330
DF
100
AcDbEntity
  8
0
  6
ByBlock
 62
     0
  0
LINE
  5
E0
330
DC
100
AcDbEntity
  8
0
  6
ByBlock
 62
     0
370
    -2
100
AcDbLine
 10
-0.5
 20
0.0
 30
0.0
 11
-1.0
 21
0.0
 31
0.0
  0
ENDBLK
  5
DE
330
DC
100
AcDbEntity
  8
0
100
AcDbBlockEnd
  0
BLOCK
  5
E7
330
E4
100
AcDbEntity
  8
0
100
AcDbBlockBegin
  2
_SE_FILLED
 70
     0
 10
0.0
 20
0.0
 30
0.0
  3
_SE_FILLED
  1

  0
SOLID
  5
E5
330
E4
100
AcDbEntity
  8
0
 62
     0
100
AcDbTrace
 10
0.0
 20
0.0
 30
0.0
 11
-1.0
 21
-0.1665
 31
0.0
 12
-1.0
 22
0.1665
 32
0.0
 13
0.0
 23
0.0
 33
0.0
  0
LINE
  5
E6
330
E4
100
AcDbEntity
  8
0
 62
     0
100
AcDbLine
 10
0.0
 20
0.0
 30
0.0
 11
-1.0
 21
0.0
 31
0.0
  0
ENDBLK
  5
E8
330
E4
100
AcDbEntity
  8
0
100
AcDbBlockEnd
  0
BLOCK
  5
F3
330
EC
100
AcDbEntity
  8
0
100
AcDbBlockBegin
  2
DMBLK81
 70
     0
 10
0.0
 20
0.0
 30
0.0
  3
DMBLK81
  1

  0
HATCH
  5
ED
330
EC
100
AcDbEntity
  8
Default
  6
Continuous
 62
     7
100
AcDbHatch
 10
0.0
 20
0.0
 30
0.0
210
0.0
220
0.0
230
1.0
  2
SOLID
 70
     1
 71
     0
 91
        1
 92
        1
 93
        3
 72
     1
 10
222.6849849080109
 20
164.8353719153025
 11
222.6849849080109
 21
163.6687052126247
 72
     1
 10
222.6849849080109
 20
163.6687052126247
 11
226.1849850160444
 21
164.2520385639636
 72
     1
 10
226.1849850160444
 20
164.2520385639636
 11
222.6849849080109
 21
164.8353719153025
 97
        0
 75
     0
 76
     1
 98
        0
  0
HATCH
  5
EE
330
EC
100
AcDbEntity
  8
Default
  6
Continuous
 62
     7
100
AcDbHatch
 10
0.0
 20
0.0
 30
0.0
210
0.0
220
0.0
230
1.0
  2
SOLID
 70
     1
 71
     0
 91
        1
 92
        1
 93
        3
 72
     1
 10
79.68497916361328
 20
164.8353719153025
 11
76.18497905557986
 21
164.2520385639636
 72
     1
 10
76.18497905557986
 20
164.2520385639636
 11
79.68497916361328
 21
163.6687052126247
 72
     1
 10
79.68497916361328
 20
163.6687052126247
 11
79.68497916361328
 21
164.8353719153025
 97
        0
 75
     0
 76
     1
 98
        0
  0
LINE
  5
EF
330
EC
100
AcDbEntity
  8
Default
  6
Continuous
 62
     7
100
AcDbLine
 10
226.184985016
 20
155.1014422284
 30
0.0
 11
226.184985016
 21
166.002038618
 31
0.0
  0
LINE
  5
F0
330
EC
100
AcDbEntity
  8
Default
  6
Continuous
 62
     7
100
AcDbLine
 10
76.184985016
 20
155.1014422284
 30
0.0
 11
76.184985016
 21
166.002038618
 31
0.0
  0
LINE
  5
F1
330
EC
100
AcDbEntity
  8
Default
  6
Continuous
 62
     7
100
AcDbLine
 10
226.184985016
 20
164.252038564
 30
0.0
 11
76.1849790556
 21
164.252038564
 31
0.0
  0
TEXT
  5
F2
330
EC
100
AcDbEntity
  8
Default
  6
Continuous
 62
     7
100
AcDbText
 10
148.440663854
 20
165.127038564
 30
0.0
 40
3.5
  1
150
  7
SEACAD_Solid_Edge_ISO
 11
148.440663854
 21
168.627038564
 31
0.0
100
AcDbText
 73
     3
  0
ENDBLK
  5
F4
330
EC
100
AcDbEntity
  8
0
100
AcDbBlockEnd
  0
BLOCK
  5
FD
330
F6
100
AcDbEntity
  8
0
100
AcDbBlockBegin
  2
DMBLK82
 70
     0
 10
0.0
 20
0.0
 30
0.0
  3
DMBLK82
  1

  0
HATCH
  5
F7
330
F6
100
AcDbEntity
  8
Default
  6
Continuous
 62
     7
100
AcDbHatch
 10
0.0
 20
0.0
 30
0.0
210
0.0
220
0.0
230
1.0
  2
SOLID
 70
     1
 71
     0
 91
        1
 92
        1
 93
        3
 72
     1
 10
66.29899549845
 20
151.6014421203999
 11
67.46566220112781
 21
151.6014421203999
 72
     1
 10
67.46566220112781
 20
151.6014421203999
 11
66.8823288497889
 21
155.1014422284333
 72
     1
 10
66.8823288497889
 20
155.1014422284333
 11
66.29899549845
 21
151.6014421203999
 97
        0
 75
     0
 76
     1
 98
        0
  0
HATCH
  5
F8
330
F6
100
AcDbEntity
  8
Default
  6
Continuous
 62
     7
100
AcDbHatch
 10
0.0
 20
0.0
 30
0.0
210
0.0
220
0.0
230
1.0
  2
SOLID
 70
     1
 71
     0
 91
        1
 92
        1
 93
        3
 72
     1
 10
66.29899549845
 20
108.6014415914087
 11
66.8823288497889
 21
105.1014414833753
 72
     1
 10
66.8823288497889
 20
105.1014414833753
 11
67.46566220112781
 21
108.6014415914087
 72
     1
 10
67.46566220112781
 20
108.6014415914087
 11
66.29899549845
 21
108.6014415914087
 97
        0
 75
     0
 76
     1
 98
        0
  0
LINE
  5
F9
330
F6
100
AcDbEntity
  8
Default
  6
Continuous
 62
     7
100
AcDbLine
 10
76.184985016
 20
155.1014422284
 30
0.0
 11
65.1323287958
 21
155.1014422284
 31
0.0
  0
LINE
  5
FA
330
F6
100
AcDbEntity
  8
Default
  6
Continuous
 62
     7
100
AcDbLine
 10
76.184985016
 20
105.1014422284
 30
0.0
 11
65.1323287958
 21
105.1014422284
 31
0.0
  0
LINE
  5
FB
330
F6
100
AcDbEntity
  8
Default
  6
Continuous
 62
     7
100
AcDbLine
 10
66.8823288498
 20
155.1014422284
 30
0.0
 11
66.8823288498
 21
105.1014414834
 31
0.0
  0
TEXT
  5
FC
330
F6
100
AcDbEntity
  8
Default
  6
Continuous
 62
     7
100
AcDbText
 10
66.0073288498
 20
128.073032765
 30
0.0
 40
3.5
  1
50
 50
90.0
  7
SEACAD_Solid_Edge_ISO
 11
62.5073288498
 21
128.073032765
 31
0.0
100
AcDbText
 73
     3
  0
ENDBLK
  5
FE
330
F6
100
AcDbEntity
  8
0
100
AcDbBlockEnd
  0
BLOCK
  5
107
330
100
100
AcDbEntity
  8
0
100
AcDbBlockBegin
  2
DMBLK83
 70
     0
 10
0.0
 20
0.0
 30
0.0
  3
DMBLK83
  1

  0
HATCH
  5
101
330
100
100
AcDbEntity
  8
Default
  6
Continuous
 62
     7
100
AcDbHatch
 10
0.0
 20
0.0
 30
0.0
210
0.0
220
0.0
230
1.0
  2
SOLID
 70
     1
 71
     0
 91
        1
 92
        1
 93
        3
 72
     1
 10
66.29899549845
 20
86.98348134862856
 11
67.46566220112781
 21
86.98348134862856
 72
     1
 10
67.46566220112781
 20
86.98348134862856
 11
66.8823288497889
 21
90.48348145666198
 72
     1
 10
66.8823288497889
 20
90.48348145666198
 11
66.29899549845
 21
86.98348134862856
 97
        0
 75
     0
 76
     1
 98
        0
  0
HATCH
  5
102
330
100
100
AcDbEntity
  8
Default
  6
Continuous
 62
     7
100
AcDbHatch
 10
0.0
 20
0.0
 30
0.0
210
0.0
220
0.0
230
1.0
  2
SOLID
 70
     1
 71
     0
 91
        1
 92
        1
 93
        3
 72
     1
 10
66.29899549845
 20
53.98348245876507
 11
66.8823288497889
 21
50.48348235073165
 72
     1
 10
66.8823288497889
 20
50.48348235073165
 11
67.46566220112781
 21
53.98348245876507
 72
     1
 10
67.46566220112781
 20
53.98348245876507
 11
66.29899549845
 21
53.98348245876507
 97
        0
 75
     0
 76
     1
 98
        0
  0
LINE
  5
103
330
100
100
AcDbEntity
  8
Default
  6
Continuous
 62
     7
100
AcDbLine
 10
76.184985016
 20
90.4834814567
 30
0.0
 11
65.1323287958
 21
90.4834814567
 31
0.0
  0
LINE
  5
104
330
100
100
AcDbEntity
  8
Default
  6
Continuous
 62
     7
100
AcDbLine
 10
76.184985016
 20
50.4834814567
 30
0.0
 11
65.1323287958
 21
50.4834814567
 31
0.0
  0
LINE
  5
105
330
100
100
AcDbEntity
  8
Default
  6
Continuous
 62
     7
100
AcDbLine
 10
66.8823288498
 20
90.4834814567
 30
0.0
 11
66.8823288498
 21
50.4834823507
 31
0.0
  0
TEXT
  5
106
330
100
100
AcDbEntity
  8
Default
  6
Continuous
 62
     7
100
AcDbText
 10
66.0073288498
 20
68.4153000855
 30
0.0
 40
3.5
  1
40
 50
90.0
  7
SEACAD_Solid_Edge_ISO
 11
62.5073288498
 21
68.4153000855
 31
0.0
100
AcDbText
 73
     3
  0
ENDBLK
  5
108
330
100
100
AcDbEntity
  8
0
100
AcDbBlockEnd
  0
BLOCK
  5
10C
330
109
100
AcDbEntity
  8
0
100
AcDbBlockBegin
  2
SEANNOT_GROUP
 70
     0
 10
0.0
 20
0.0
 30
0.0
  3
SEANNOT_GROUP
  1

  0
TEXT
  5
10B
330
109
100
AcDbEntity
  8
Default
  6
Continuous
 62
     7
100
AcDbText
 10
243.1483969886
 20
25.7525109624
 30
0.0
 40
3.5
  1
769810000
  7
SEACAD_Solid_Edge_ANSIB
 11
243.1483969886
 21
29.2525109624
 31
0.0
100
AcDbText
 73
     3
  0
ENDBLK
  5
10D
330
109
100
AcDbEntity
  8
0
100
AcDbBlockEnd
  0
BLOCK
  5
111
330
10E
100
AcDbEntity
  8
0
100
AcDbBlockBegin
  2
SEANNOT_GROUP1
 70
     0
 10
0.0
 20
0.0
 30
0.0
  3
SEANNOT_GROUP1
  1

  0
TEXT
  5
110
330
10E
100
AcDbEntity
  8
Default
  6
Continuous
 62
     7
100
AcDbText
 10
243.1477357349
 20
20.0537100543
 30
0.0
 40
3.5
  1
03.05.2016
  7
SEACAD_Solid_Edge_ANSI
 11
243.1477357349
 21
23.5537100543
 31
0.0
100
AcDbText
 73
     3
  0
ENDBLK
  5
112
330
10E
100
AcDbEntity
  8
0
100
AcDbBlockEnd
  0
BLOCK
  5
115
330
113
100
AcDbEntity
  8
0
100
AcDbBlockBegin
  2
SEANNOT_GROUP2
 70
     0
 10
0.0
 20
0.0
 30
0.0
  3
SEANNOT_GROUP2
  1

  0
TEXT
  5
114
330
113
100
AcDbEntity
  8
Default
  6
Continuous
 62
     7
100
AcDbText
 10
243.1795282745
 20
31.5598894014
 30
0.0
 40
3.5
  1
CTPG 10
  7
SEACAD_Solid_Edge_ANSIB
 11
243.1795282745
 21
35.0598894014
 31
0.0
100
AcDbText
 73
     3
  0
ENDBLK
  5
116
330
113
100
AcDbEntity
  8
0
100
AcDbBlockEnd
  0
BLOCK
  5
119
330
117
100
AcDbEntity
  8
0
100
AcDbBlockBegin
  2
SEANNOT_GROUP3
 70
     0
 10
0.0
 20
0.0
 30
0.0
  3
SEANNOT_GROUP3
  1

  0
TEXT
  5
118
330
117
100
AcDbEntity
  8
Default
  6
Continuous
 62
     7
100
AcDbText
 10
243.2357917511
 20
14.1955389783
 30
0.0
 40
3.5
  1
1:1
  7
SEACAD_Solid_Edge_ANSI
 11
243.2357917511
 21
17.6955389783
 31
0.0
100
AcDbText
 73
     3
  0
ENDBLK
  5
11A
330
117
100
AcDbEntity
  8
0
100
AcDbBlockEnd
  0
BLOCK
  5
168
330
11B
100
AcDbEntity
  8
0
100
AcDbBlockBegin
  2
RF-Massblatt_2016
 70
     0
 10
0.0
 20
0.0
 30
0.0
  3
RF-Massblatt_2016
  1

  0
MTEXT
  5
11C
102
{ACAD_XDICTIONARY
360
172
102
}
330
11B
100
AcDbEntity
  8
Default
100
AcDbMText
 10
15.2206856049
 20
34.8070876502
 30
0.0
 40
2.5
 41
48.9706096033
 71
     1
 72
     1
  3
{\fVectora Com 45 Light|b1||i0||c0|p34;\C7;\H2.5;\W1.;REGO-FIX AG\P}{\fVectora Com 45 Light|b0||i0||c0|p34;\C7;\H2.5;\W1.;Obermattweg 60\P}{\fVectora Com 45 Light|b0||i0||c0|p34;\C7;\H2.5;\W1.;4456 Tenniken / Switzerland\P}{\fVectora Com 45 Light|b0
  3
||i0||c0|p34;\C7;\H2.5;\W1.;\P}{\fVectora Com 45 Light|b0||i0||c0|p34;\C7;\H2.5;\W1.;P +41 61 976 14 66\P}{\fVectora Com 45 Light|b0||i0||c0|p34;\C7;\H2.5;\W1.;F +41 61 976 14 14\P}{\fVectora Com 45 Light|b1||i0||c0|p34;\C7;\H2.5;\W1.;www.rego-fix.c
  1
om}
 73
     1
 44
1.0
1001
ACAD
1000
ACAD_MTEXT_DEFINED_HEIGHT_BEGIN
1070
    46
1040
31.3191355437
1000
ACAD_MTEXT_DEFINED_HEIGHT_END
  0
MTEXT
  5
11D
102
{ACAD_XDICTIONARY
360
174
102
}
330
11B
100
AcDbEntity
  8
Default
100
AcDbMText
 10
90.3836341545
 20
34.4892285804
 30
0.0
 40
2.5
 41
104.0282149141
 71
     1
 72
     1
  3
{\fSolid Edge ISO|b0||i0||c0|p34;\C7;\H2.;\W1.;This is a non-controlled copy. All information given herein is subject to change without notice\P}{\fSolid Edge ISO|b0||i0||c0|p34;\C7;\H2.;\W1.;\P}{\fSolid Edge ISO|b0||i0||c0|p34;\C7;\H2.;\W1.;The inf
  3
ormation given herein has been carefully checked and is believed to be correct. REGO-FIX,\P}{\fSolid Edge ISO|b0||i0||c0|p34;\C7;\H2.;\W1.;however, assumes no responsibility or liability for any errors, inaccuracies or omissions that may appear\P}{\
  3
fSolid Edge ISO|b0||i0||c0|p34;\C7;\H2.;\W1.;in this drawing\P}{\fSolid Edge ISO|b0||i0||c0|p34;\C7;\H2.;\W1.;\P}{\fSolid Edge ISO|b0||i0||c0|p34;\C7;\H2.;\W1.;This document is subject to copyright laws. No part of this document may be reproduced or
  3
 transmitted\P}{\fSolid Edge ISO|b0||i0||c0|p34;\C7;\H2.;\W1.;in any form or any means, electronic or mechanic, for any purpose, without the express written permission\P}{\fSolid Edge ISO|b0||i0||c0|p34;\C7;\H2.;\W1.;of REGO-FIX\P}{\fSolid Edge ISO|
  1
b0||i0||c0|p34;\C7;\H1.5;\W1.;\P}
 73
     1
 44
1.0
1001
ACAD
1000
ACAD_MTEXT_DEFINED_HEIGHT_BEGIN
1070
    46
1040
38.4545554545
1000
ACAD_MTEXT_DEFINED_HEIGHT_END
  0
INSERT
  5
11E
330
11B
100
AcDbEntity
  8
Default
100
AcDbBlockReference
  2
SEANNOT_GROUP
 10
0.0
 20
0.0
 30
0.0
  0
INSERT
  5
11F
330
11B
100
AcDbEntity
  8
Default
100
AcDbBlockReference
  2
SEANNOT_GROUP1
 10
0.0
 20
0.0
 30
0.0
  0
MTEXT
  5
120
102
{ACAD_XDICTIONARY
360
176
102
}
330
11B
100
AcDbEntity
  8
Default
100
AcDbMText
 10
219.0323311835
 20
34.8066733186
 30
0.0
 40
2.5
 41
20.1335141444
 71
     1
 72
     1
  3
{\fVectora Com 45 Light|b0||i0||c0|p34;\C7;\H3.5;\W1.;Type :\P}{\fVectora Com 45 Light|b0||i0||c0|p34;\C7;\H3.5;\W1.;Part No. :\P}{\fVectora Com 45 Light|b0||i0||c0|p34;\C7;\H3.5;\W1.;Date : \P}{\fVectora Com 45 Light|b0||i0||c0|p34;\C7;\H3.5;\W1.;S
  1
cale :}
 73
     1
 44
1.0
1001
ACAD
1000
ACAD_MTEXT_DEFINED_HEIGHT_BEGIN
1070
    46
1040
23.6666666667
1000
ACAD_MTEXT_DEFINED_HEIGHT_END
  0
INSERT
  5
121
330
11B
100
AcDbEntity
  8
Default
100
AcDbBlockReference
  2
SEANNOT_GROUP2
 10
0.0
 20
0.0
 30
0.0
  0
INSERT
  5
122
330
11B
100
AcDbEntity
  8
Default
100
AcDbBlockReference
  2
SEANNOT_GROUP3
 10
0.0
 20
0.0
 30
0.0
  0
LINE
  5
123
330
11B
100
AcDbEntity
  8
Default
  6
Continuous
 62
     7
100
AcDbLine
 10
269.3420202893
 20
189.711288453
 30
0.0
 11
267.226096305
 21
186.6436606679
 31
0.0
  0
LINE
  5
124
330
11B
100
AcDbEntity
  8
Default
  6
Continuous
 62
     7
100
AcDbLine
 10
267.226096305
 20
186.6436606679
 30
0.0
 11
268.2886782185
 21
185.1144666968
 31
0.0
  0
LINE
  5
125
330
11B
100
AcDbEntity
  8
Default
  6
Continuous
 62
     7
100
AcDbLine
 10
268.2886782185
 20
185.1144666968
 30
0.0
 11
267.2561257939
 21
183.6453317033
 31
0.0
  0
LINE
  5
126
330
11B
100
AcDbEntity
  8
Default
  6
Continuous
 62
     7
100
AcDbLine
 10
267.2561257939
 20
183.6453317033
 30
0.0
 11
266.2235733692
 21
185.2646141411
 31
0.0
  0
LINE
  5
127
330
11B
100
AcDbEntity
  8
Default
  6
Continuous
 62
     7
100
AcDbLine
 10
266.2235733692
 20
185.2646141411
 30
0.0
 11
264.7036192408
 21
183.1186606679
 31
0.0
  0
LINE
  5
128
330
11B
100
AcDbEntity
  8
Default
  6
Continuous
 62
     7
100
AcDbLine
 10
264.7036192408
 20
183.1186606679
 30
0.0
 11
262.6269645881
 21
183.1186606679
 31
0.0
  0
LINE
  5
129
330
11B
100
AcDbEntity
  8
Default
  6
Continuous
 62
     7
100
AcDbLine
 10
262.6269645881
 20
183.1186606679
 30
0.0
 11
265.20950063
 21
186.6436606679
 31
0.0
  0
LINE
  5
12A
330
11B
100
AcDbEntity
  8
Default
  6
Continuous
 62
     7
100
AcDbLine
 10
265.20950063
 20
186.6436606679
 30
0.0
 11
263.1051264492
 21
189.711288453
 31
0.0
  0
LINE
  5
12B
330
11B
100
AcDbEntity
  8
Default
  6
Continuous
 62
     7
100
AcDbLine
 10
263.1051264492
 20
189.711288453
 30
0.0
 11
265.20950063
 21
189.711288453
 31
0.0
  0
LINE
  5
12C
330
11B
100
AcDbEntity
  8
Default
  6
Continuous
 62
     7
100
AcDbLine
 10
265.20950063
 20
189.711288453
 30
0.0
 11
266.2235733692
 21
188.0042275094
 31
0.0
  0
LINE
  5
12D
330
11B
100
AcDbEntity
  8
Default
  6
Continuous
 62
     7
100
AcDbLine
 10
266.2235733692
 20
188.0042275094
 30
0.0
 11
267.226096305
 21
189.711288453
 31
0.0
  0
LINE
  5
12E
330
11B
100
AcDbEntity
  8
Default
  6
Continuous
 62
     7
100
AcDbLine
 10
267.226096305
 20
189.711288453
 30
0.0
 11
269.3420202893
 21
189.711288453
 31
0.0
  0
SPLINE
  5
12F
330
11B
100
AcDbEntity
  8
Default
  6
Continuous
 62
     7
100
AcDbSpline
210
0.0
220
0.0
230
1.0
 70
     8
 71
     3
 72
    13
 73
     9
 74
     0
 42
0.0000000012369638
 43
0.0000000001
 12
1.0
 22
0.0
 32
0.0
 13
1.0
 23
0.0
 33
0.0
 40
0.0
 40
0.0
 40
0.0
 40
0.0
 40
0.9091644120227717
 40
0.9091644120227717
 40
0.9091644120227717
 40
0.9554905618911577
 40
0.9554905618911577
 40
1.0
 40
1.0
 40
1.0
 40
1.0
 10
267.8844350992403
 20
183.5460033940301
 30
0.0
 10
269.2912011542862
 20
185.5418094228636
 30
0.0
 10
270.697967209332
 20
187.5376154516972
 30
0.0
 10
272.1047332643779
 20
189.5334214805307
 30
0.0
 10
272.1870447473536
 20
189.6501983627819
 30
0.0
 10
272.2849101975365
 20
189.7112884530078
 30
0.0
 10
272.5159062656886
 20
189.7112884530078
 30
0.0
 10
272.6198544963569
 20
189.6512294752883
 30
0.0
 10
272.7122529236178
 20
189.5334214805307
 30
0.0
  0
SPLINE
  5
130
330
11B
100
AcDbEntity
  8
Default
  6
Continuous
 62
     7
100
AcDbSpline
210
0.0
220
0.0
230
1.0
 70
     8
 71
     3
 72
    16
 73
    12
 74
     0
 42
0.0000000006014133
 43
0.0000000001
 12
1.0
 22
0.0
 32
0.0
 13
1.0
 23
0.0
 33
0.0
 40
0.0
 40
0.0
 40
0.0
 40
0.0
 40
0.4418652593848311
 40
0.4418652593848311
 40
0.4418652593848311
 40
0.455090010411123
 40
0.455090010411123
 40
0.4811129075918901
 40
0.4811129075918901
 40
0.4811129075918901
 40
1.0
 40
1.0
 40
1.0
 40
1.0
 10
272.7122529236178
 20
189.5334214805307
 30
0.0
 10
274.1190189786636
 20
187.5376154516972
 30
0.0
 10
275.5257850337095
 20
185.5418094228636
 30
0.0
 10
276.9325510887554
 20
183.5460033940301
 30
0.0
 10
276.9849943017649
 20
183.4716012002038
 30
0.0
 10
277.0133997126086
 20
183.4004758710943
 30
0.0
 10
277.0133997126086
 20
183.1879594883945
 30
0.0
 10
276.9140714033032
 20
183.1186606679488
 30
0.0
 10
276.7154147846925
 20
183.1186606679488
 30
0.0
 10
273.8479835920319
 20
183.1186606679488
 30
0.0
 10
270.9805523993713
 20
183.1186606679488
 30
0.0
 10
268.1131212067108
 20
183.1186606679488
 30
0.0
  0
SPLINE
  5
131
330
11B
100
AcDbEntity
  8
Default
  6
Continuous
 62
     7
100
AcDbSpline
210
0.0
220
0.0
230
1.0
 70
     8
 71
     3
 72
    11
 73
     7
 74
     0
 42
0.0000000141737466
 43
0.0000000001
 12
1.0
 22
0.0
 32
0.0
 13
1.0
 23
0.0
 33
0.0
 40
0.0
 40
0.0
 40
0.0
 40
0.0
 40
0.6560933575639865
 40
0.6560933575639865
 40
0.6560933575639865
 40
1.0
 40
1.0
 40
1.0
 40
1.0
 10
268.1131212067108
 20
183.1186606679488
 30
0.0
 10
267.9075347060556
 20
183.1186606679488
 30
0.0
 10
267.8058964360686
 20
183.1925794097575
 30
0.0
 10
267.8035864753871
 20
183.3381069326933
 30
0.0
 10
267.8027439506852
 20
183.3911859889177
 30
0.0
 10
267.8313060035653
 20
183.4605348488138
 30
0.0
 10
267.8844350992403
 20
183.5460033940301
 30
0.0
  0
LINE
  5
132
330
11B
100
AcDbEntity
  8
Default
  6
Continuous
 62
     7
100
AcDbLine
 10
262.1857620979
 20
189.7274581778
 30
0.0
 11
262.1857620979
 21
183.1186606679
 31
0.0
  0
SPLINE
  5
133
330
11B
100
AcDbEntity
  8
Default
  6
Continuous
 62
     7
100
AcDbSpline
210
0.0
220
0.0
230
1.0
 70
     8
 71
     3
 72
    14
 73
    10
 74
     0
 42
0.0000000052950889
 43
0.0000000001
 12
1.0
 22
0.0
 32
0.0
 13
1.0
 23
0.0
 33
0.0
 40
0.0
 40
0.0
 40
0.0
 40
0.0
 40
0.1210177131110554
 40
0.1210177131110554
 40
0.1210177131110554
 40
0.2419901306838391
 40
0.2419901306838391
 40
0.2419901306838391
 40
1.0
 40
1.0
 40
1.0
 40
1.0
 10
260.4740812329231
 20
189.4387130925884
 30
0.0
 10
260.4740812329231
 20
189.5195617164416
 30
0.0
 10
260.5018007611014
 20
189.5865505762057
 30
0.0
 10
260.5595497781394
 20
189.6419896325622
 30
0.0
 10
260.6172507110666
 20
189.6973825281723
 30
0.0
 10
260.68197769426
 20
189.7274581777785
 30
0.0
 10
260.7628263181132
 20
189.7274581777785
 30
0.0
 10
261.2371382447187
 20
189.7274581777785
 30
0.0
 10
261.7114501713242
 20
189.7274581777785
 30
0.0
 10
262.1857620979297
 20
189.7274581777785
 30
0.0
  0
LINE
  5
134
330
11B
100
AcDbEntity
  8
Default
  6
Continuous
 62
     7
100
AcDbLine
 10
260.4740812329
 20
183.1186606679
 30
0.0
 11
260.4740812329
 21
189.4387130926
 31
0.0
  0
LINE
  5
135
330
11B
100
AcDbEntity
  8
Default
  6
Continuous
 62
     7
100
AcDbLine
 10
262.1857620979
 20
183.1186606679
 30
0.0
 11
260.4740812329
 21
183.1186606679
 31
0.0
  0
SPLINE
  5
136
330
11B
100
AcDbEntity
  8
Default
  6
Continuous
 62
     7
100
AcDbSpline
210
0.0
220
0.0
230
1.0
 70
     8
 71
     3
 72
    16
 73
    12
 74
     0
 42
0.0000000009758823
 43
0.0000000001
 12
1.0
 22
0.0
 32
0.0
 13
1.0
 23
0.0
 33
0.0
 40
0.0
 40
0.0
 40
0.0
 40
0.0
 40
0.6159054655977501
 40
0.6159054655977501
 40
0.6159054655977501
 40
0.6376683166669079
 40
0.6376683166669079
 40
0.6603379531972834
 40
0.6603379531972834
 40
0.6603379531972834
 40
1.0
 40
1.0
 40
1.0
 40
1.0
 10
255.8218204203412
 20
183.1186606679488
 30
0.0
 10
255.8218204203412
 20
185.2199549012385
 30
0.0
 10
255.8218204203412
 20
187.3212491345281
 30
0.0
 10
255.8218204203412
 20
189.4225433678178
 30
0.0
 10
255.8218204203412
 20
189.503391991671
 30
0.0
 10
255.8495399485194
 20
189.5703808514351
 30
0.0
 10
255.962728021914
 20
189.6835689248296
 30
0.0
 10
256.0297168816781
 20
189.7112884530078
 30
0.0
 10
256.1105655055312
 20
189.7112884530078
 30
0.0
 10
257.2693957807606
 20
189.7112884530078
 30
0.0
 10
258.42822605599
 20
189.7112884530078
 30
0.0
 10
259.5870563312193
 20
189.7112884530078
 30
0.0
  0
LINE
  5
137
330
11B
100
AcDbEntity
  8
Default
  6
Continuous
 62
     7
100
AcDbLine
 10
257.5404311674
 20
183.1186606679
 30
0.0
 11
255.8218204203
 21
183.1186606679
 31
0.0
  0
LINE
  5
138
330
11B
100
AcDbEntity
  8
Default
  6
Continuous
 62
     7
100
AcDbLine
 10
257.5404311674
 20
185.7035066706
 30
0.0
 11
257.5404311674
 21
183.1186606679
 31
0.0
  0
LINE
  5
139
330
11B
100
AcDbEntity
  8
Default
  6
Continuous
 62
     7
100
AcDbLine
 10
259.4877280219
 20
185.7035066706
 30
0.0
 11
257.5404311674
 21
185.7035066706
 31
0.0
  0
LINE
  5
13A
330
11B
100
AcDbEntity
  8
Default
  6
Continuous
 62
     7
100
AcDbLine
 10
259.4877280219
 20
187.1610918606
 30
0.0
 11
259.4877280219
 21
185.7035066706
 31
0.0
  0
LINE
  5
13B
330
11B
100
AcDbEntity
  8
Default
  6
Continuous
 62
     7
100
AcDbLine
 10
257.5404311674
 20
187.1610918606
 30
0.0
 11
259.4877280219
 21
187.1610918606
 31
0.0
  0
LINE
  5
13C
330
11B
100
AcDbEntity
  8
Default
  6
Continuous
 62
     7
100
AcDbLine
 10
257.5404311674
 20
188.260633145
 30
0.0
 11
257.5404311674
 21
187.1610918606
 31
0.0
  0
LINE
  5
13D
330
11B
100
AcDbEntity
  8
Default
  6
Continuous
 62
     7
100
AcDbLine
 10
259.5870563312
 20
188.260633145
 30
0.0
 11
257.5404311674
 21
188.260633145
 31
0.0
  0
LINE
  5
13E
330
11B
100
AcDbEntity
  8
Default
  6
Continuous
 62
     7
100
AcDbLine
 10
259.5870563312
 20
189.711288453
 30
0.0
 11
259.5870563312
 21
188.260633145
 31
0.0
  0
LINE
  5
13F
330
11B
100
AcDbEntity
  8
Default
  6
Continuous
 62
     7
100
AcDbLine
 10
255.0710831988
 20
187.1610918606
 30
0.0
 11
255.0710831988
 21
185.7035066706
 31
0.0
  0
LINE
  5
140
330
11B
100
AcDbEntity
  8
Default
  6
Continuous
 62
     7
100
AcDbLine
 10
252.9366795291
 20
187.1610918606
 30
0.0
 11
255.0710831988
 21
187.1610918606
 31
0.0
  0
LINE
  5
141
330
11B
100
AcDbEntity
  8
Default
  6
Continuous
 62
     7
100
AcDbLine
 10
252.9366795291
 20
185.7035066706
 30
0.0
 11
252.9366795291
 21
187.1610918606
 31
0.0
  0
LINE
  5
142
330
11B
100
AcDbEntity
  8
Default
  6
Continuous
 62
     7
100
AcDbLine
 10
255.0710831988
 20
185.7035066706
 30
0.0
 11
252.9366795291
 21
185.7035066706
 31
0.0
  0
SPLINE
  5
143
330
11B
100
AcDbEntity
  8
Default
  6
Continuous
 62
     7
100
AcDbSpline
210
0.0
220
0.0
230
1.0
 70
    11
 71
     3
 72
    47
 73
    43
 74
     0
 42
0.0000000008494054
 43
0.0000000001
 12
1.0
 22
0.0
 32
0.0
 13
1.0
 23
0.0
 33
0.0
 40
0.0
 40
0.0
 40
0.0
 40
0.0
 40
0.0637917384076936
 40
0.0637917384076936
 40
0.0637917384076936
 40
0.1265834997779105
 40
0.1265834997779105
 40
0.1893752611481286
 40
0.1893752611481286
 40
0.1893752611481286
 40
0.2604081010642026
 40
0.2604081010642026
 40
0.3159741129340349
 40
0.3159741129340349
 40
0.3159741129340349
 40
0.3751091105868484
 40
0.3751091105868484
 40
0.3751091105868484
 40
0.435995169879425
 40
0.435995169879425
 40
0.435995169879425
 40
0.4997689343159713
 40
0.4997689343159713
 40
0.5635426987525196
 40
0.5635426987525196
 40
0.5635426987525196
 40
0.624232315369434
 40
0.624232315369434
 40
0.624232315369434
 40
0.6835869381889372
 40
0.6835869381889372
 40
0.6835869381889372
 40
0.7357943705008892
 40
0.7357943705008892
 40
0.8025337685079206
 40
0.8025337685079206
 40
0.8692731665149518
 40
0.8692731665149518
 40
0.9360125645219831
 40
0.9360125645219831
 40
0.9360125645219831
 40
1.0
 40
1.0
 40
1.0
 40
1.0
 10
248.4438060035654
 20
184.5693159759436
 30
0.0
 10
248.7025215998956
 20
184.5693159759436
 30
0.0
 10
248.9450674714552
 20
184.620135110937
 30
0.0
 10
249.1691336575627
 20
184.7194634202424
 30
0.0
 10
249.3951304192655
 20
184.8196475517189
 30
0.0
 10
249.5941664229625
 20
184.9550794097575
 30
0.0
 10
249.9314206824644
 20
185.3061934333486
 30
0.0
 10
250.0653984019926
 20
185.5140898946854
 30
0.0
 10
250.160106789935
 20
185.752015844882
 30
0.0
 10
250.2551311293749
 20
185.9907355268896
 30
0.0
 10
250.3056343128707
 20
186.2509673520904
 30
0.0
 10
250.3056343128707
 20
186.7614686627064
 30
0.0
 10
250.2571251385588
 20
186.9809149274508
 30
0.0
 10
250.160106789935
 20
187.1934313101507
 30
0.0
 10
250.0643595068875
 20
187.4031634539689
 30
0.0
 10
249.9314206824644
 20
187.5907445473721
 30
0.0
 10
249.7627935527134
 20
187.7547517557601
 30
0.0
 10
249.5953209577949
 20
187.9176360604069
 30
0.0
 10
249.3955098043517
 20
188.0458068016317
 30
0.0
 10
249.1691336575627
 20
188.140515189574
 30
0.0
 10
248.9439009259591
 20
188.2347452099388
 30
0.0
 10
248.7025215998956
 20
188.2860427125098
 30
0.0
 10
248.1850904072351
 20
188.2860427125098
 30
0.0
 10
247.9425445356754
 20
188.2375335381978
 30
0.0
 10
247.7161683888864
 20
188.140515189574
 30
0.0
 10
247.4925801256786
 20
188.0446916481992
 30
0.0
 10
247.2934455841682
 20
187.9164490034665
 30
0.0
 10
247.1248184544172
 20
187.7547517557601
 30
0.0
 10
246.9550373605366
 20
187.5919479671074
 30
0.0
 10
246.8222136051381
 20
187.403637732169
 30
0.0
 10
246.7228852958327
 20
187.1934313101507
 30
0.0
 10
246.622664698655
 20
186.9813365579839
 30
0.0
 10
246.5727378515339
 20
186.7614686627064
 30
0.0
 10
246.5727378515339
 20
186.2509673520904
 30
0.0
 10
246.6235569865273
 20
185.9899417950786
 30
0.0
 10
246.8222136051381
 20
185.5140898946854
 30
0.0
 10
246.9561913246663
 20
185.3061934333486
 30
0.0
 10
247.2934455841682
 20
184.9550794097575
 30
0.0
 10
247.492102202779
 20
184.8187917295478
 30
0.0
 10
247.7161683888864
 20
184.7194634202424
 30
0.0
 10
247.9421651505893
 20
184.6192792887659
 30
0.0
 10
248.1850904072351
 20
184.5693159759436
 30
0.0
 10
248.4438060035654
 20
184.5693159759436
 30
0.0
  0
SPLINE
  5
144
330
11B
100
AcDbEntity
  8
Default
  6
Continuous
 62
     7
100
AcDbSpline
210
0.0
220
0.0
230
1.0
 70
    11
 71
     3
 72
    49
 73
    45
 74
     0
 42
0.0000000004385322
 43
0.0000000001
 12
1.0
 22
0.0
 32
0.0
 13
1.0
 23
0.0
 33
0.0
 40
0.0
 40
0.0
 40
0.0
 40
0.0
 40
0.0617996483207596
 40
0.0617996483207596
 40
0.0617996483207596
 40
0.1220737652654132
 40
0.1220737652654132
 40
0.1220737652654132
 40
0.1820249318660078
 40
0.1820249318660078
 40
0.1820249318660078
 40
0.2438982680995642
 40
0.2438982680995642
 40
0.3109516975991858
 40
0.3109516975991858
 40
0.3109516975991858
 40
0.3722543214771952
 40
0.3722543214771952
 40
0.3722543214771952
 40
0.4335172266527087
 40
0.4335172266527087
 40
0.4335172266527087
 40
0.4994898970728853
 40
0.4994898970728853
 40
0.5657506577569065
 40
0.5657506577569065
 40
0.5657506577569065
 40
0.626961718898901
 40
0.626961718898901
 40
0.6886100019061948
 40
0.6886100019061948
 40
0.6886100019061948
 40
0.7556907268882871
 40
0.7556907268882871
 40
0.8175892499404324
 40
0.8175892499404324
 40
0.8175892499404324
 40
0.8774725210786118
 40
0.8774725210786118
 40
0.8774725210786118
 40
0.9379094648157675
 40
0.9379094648157675
 40
0.9379094648157675
 40
1.0
 40
1.0
 40
1.0
 40
1.0
 10
248.4438060035654
 20
189.9492144032044
 30
0.0
 10
248.9196356399268
 20
189.9515130970999
 30
0.0
 10
249.3770301188996
 20
189.8637458579882
 30
0.0
 10
249.8136126877069
 20
189.6997386496002
 30
0.0
 10
250.2509557040483
 20
189.5354457704455
 30
0.0
 10
250.6382686510096
 20
189.3001154516972
 30
0.0
 10
250.9755229105116
 20
188.997510602418
 30
0.0
 10
251.3129086463213
 20
188.694787784671
 30
0.0
 10
251.585352530433
 20
188.3368618475032
 30
0.0
 10
251.7863191097253
 20
187.918758964148
 30
0.0
 10
251.9868172819147
 20
187.5016305829262
 30
0.0
 10
252.0889239590044
 20
187.0455938265333
 30
0.0
 10
252.0889239590044
 20
186.0107314412123
 30
0.0
 10
251.9988354924251
 20
185.52101977673
 30
0.0
 10
251.816348598585
 20
185.0775073258781
 30
0.0
 10
251.6330488643873
 20
184.6320193642835
 30
0.0
 10
251.3820759904592
 20
184.2482314412123
 30
0.0
 10
251.0609914557278
 20
183.9225269851179
 30
0.0
 10
250.7410617834882
 20
183.5979940082417
 30
0.0
 10
250.3564534478642
 20
183.3473467754193
 30
0.0
 10
249.9083210756492
 20
183.1671698422608
 30
0.0
 10
249.4629767181928
 20
182.9881138634896
 30
0.0
 10
248.9727869996335
 20
182.8992144032044
 30
0.0
 10
247.9125150468157
 20
182.8992144032044
 30
0.0
 10
247.4251133430149
 20
182.9893028697837
 30
0.0
 10
246.9792909314815
 20
183.1671698422608
 30
0.0
 10
246.530680710158
 20
183.3461490497318
 30
0.0
 10
246.1453951254526
 20
183.5991324897051
 30
0.0
 10
245.4962961739454
 20
184.2482314412123
 30
0.0
 10
245.2445104596597
 20
184.6316849143446
 30
0.0
 10
245.0620235658196
 20
185.0775073258781
 30
0.0
 10
244.8803465126443
 20
185.521351265914
 30
0.0
 10
244.7871382447187
 20
186.0107314412123
 30
0.0
 10
244.7871382447187
 20
187.0455938265333
 30
0.0
 10
244.8887765147056
 20
187.5029660414744
 30
0.0
 10
245.0920530546794
 20
187.918758964148
 30
0.0
 10
245.2957954536029
 20
188.335504780128
 30
0.0
 10
245.5632850337095
 20
188.6972157138204
 30
0.0
 10
245.9005392932115
 20
188.997510602418
 30
0.0
 10
246.2389407961124
 20
189.2988270091107
 30
0.0
 10
246.6281769078904
 20
189.5334214805307
 30
0.0
 10
247.0670694373792
 20
189.6997386496002
 30
0.0
 10
247.5072164315149
 20
189.8665311947464
 30
0.0
 10
247.9656441424906
 20
189.9469044425229
 30
0.0
 10
248.4438060035654
 20
189.9492144032044
 30
0.0
  0
LINE
  5
145
330
11B
100
AcDbEntity
  8
Default
  6
Continuous
 62
     7
100
AcDbLine
 10
242.3339600009
 20
185.4332412708
 30
0.0
 11
240.8347955186
 21
185.4332412708
 31
0.0
  0
SPLINE
  5
146
330
11B
100
AcDbEntity
  8
Default
  6
Continuous
 62
     7
100
AcDbSpline
210
0.0
220
0.0
230
1.0
 70
     8
 71
     3
 72
    43
 73
    39
 74
     0
 42
0.0000000009932047
 43
0.0000000001
 12
1.0
 22
0.0
 32
0.0
 13
1.0
 23
0.0
 33
0.0
 40
0.0
 40
0.0
 40
0.0
 40
0.0
 40
0.0949373847537602
 40
0.0949373847537602
 40
0.0949373847537602
 40
0.1911787086491429
 40
0.1911787086491429
 40
0.2677918678027036
 40
0.2677918678027036
 40
0.2677918678027036
 40
0.3406026976746725
 40
0.3406026976746725
 40
0.3406026976746725
 40
0.4151543081273698
 40
0.4151543081273698
 40
0.4151543081273698
 40
0.4895478942304584
 40
0.4895478942304584
 40
0.5659890102262922
 40
0.5659890102262922
 40
0.6424301262221261
 40
0.6424301262221261
 40
0.6424301262221261
 40
0.714798401889747
 40
0.714798401889747
 40
0.714798401889747
 40
0.7953127750919691
 40
0.7953127750919691
 40
0.8472575319966263
 40
0.8472575319966263
 40
0.8472575319966263
 40
0.898191982468852
 40
0.898191982468852
 40
0.898191982468852
 40
0.9471592991231073
 40
0.9471592991231073
 40
0.9471592991231073
 40
1.0
 40
1.0
 40
1.0
 40
1.0
 10
242.2554213377724
 20
187.3782281646723
 30
0.0
 10
242.1353033823333
 20
187.6970027387221
 30
0.0
 10
241.9551264491748
 20
187.9510984136893
 30
0.0
 10
241.7148905382967
 20
188.1428251502555
 30
0.0
 10
241.4721172585773
 20
188.3365769023392
 30
0.0
 10
241.1766696995024
 20
188.4315702354455
 30
0.0
 10
240.5460504334474
 20
188.4315702354455
 30
0.0
 10
240.3011946012062
 20
188.371511257726
 30
0.0
 10
240.0840582971433
 20
188.2490833416055
 30
0.0
 10
239.8686747464151
 20
188.1276436800246
 30
0.0
 10
239.6913649812849
 20
187.9649581777784
 30
0.0
 10
239.5481474190306
 20
187.7663015591677
 30
0.0
 10
239.4057198468884
 20
187.5687407332931
 30
0.0
 10
239.2986716654264
 20
187.345888715131
 30
0.0
 10
239.2270628842993
 20
187.0987229222083
 30
0.0
 10
239.1546578089098
 20
186.848808629735
 30
0.0
 10
239.1161847715863
 20
186.5997714149999
 30
0.0
 10
239.1161847715863
 20
186.089270104384
 30
0.0
 10
239.1554541031722
 20
185.8397943507798
 30
0.0
 10
239.3079115081525
 20
185.3500826862975
 30
0.0
 10
239.4187896208655
 20
185.1283264608715
 30
0.0
 10
239.5643171438012
 20
184.9342897636238
 30
0.0
 10
239.7109534478642
 20
184.7387746915399
 30
0.0
 10
239.8900215998956
 20
184.5808657793512
 30
0.0
 10
240.104847943277
 20
184.4630577845936
 30
0.0
 10
240.3206481660817
 20
184.3447157269266
 30
0.0
 10
240.5691500402626
 20
184.2851908121166
 30
0.0
 10
241.0403820192927
 20
184.2851908121166
 30
0.0
 10
241.2182489917698
 20
184.3082904189318
 30
0.0
 10
241.3914960428838
 20
184.3591095539252
 30
0.0
 10
241.5619922405099
 20
184.4091217718955
 30
0.0
 10
241.7148905382967
 20
184.4815374700458
 30
0.0
 10
241.8488682578248
 20
184.5762458579881
 30
0.0
 10
241.9813056983178
 20
184.6698654279918
 30
0.0
 10
242.089104168703
 20
184.7910722013695
 30
0.0
 10
242.1768826746007
 20
184.9342897636238
 30
0.0
 10
242.2630012238817
 20
185.0747989756085
 30
0.0
 10
242.315480315492
 20
185.241514534266
 30
0.0
 10
242.3339600009441
 20
185.4332412708322
 30
0.0
  0
LINE
  5
147
330
11B
100
AcDbEntity
  8
Default
  6
Continuous
 62
     7
100
AcDbLine
 10
243.8839436182
 20
188.0642864871
 30
0.0
 11
242.2554213378
 21
187.3782281647
 31
0.0
  0
SPLINE
  5
148
330
11B
100
AcDbEntity
  8
Default
  6
Continuous
 62
     7
100
AcDbSpline
210
0.0
220
0.0
230
1.0
 70
     8
 71
     3
 72
    51
 73
    47
 74
     0
 42
0.0000000004766382
 43
0.0000000001
 12
1.0
 22
0.0
 32
0.0
 13
1.0
 23
0.0
 33
0.0
 40
0.0
 40
0.0
 40
0.0
 40
0.0
 40
0.0095402040290222
 40
0.0095402040290222
 40
0.0095402040290222
 40
0.0400756007423482
 40
0.0400756007423482
 40
0.0400756007423482
 40
0.0693620114069116
 40
0.0693620114069116
 40
0.0986484220714753
 40
0.0986484220714753
 40
0.0986484220714753
 40
0.1302632519246672
 40
0.1302632519246672
 40
0.1302632519246672
 40
0.2055179711079718
 40
0.2055179711079718
 40
0.2055179711079718
 40
0.281182745691462
 40
0.281182745691462
 40
0.3511962093102096
 40
0.3511962093102096
 40
0.3511962093102096
 40
0.4149417185613706
 40
0.4149417185613706
 40
0.4149417185613706
 40
0.4786592191897758
 40
0.4786592191897758
 40
0.4786592191897758
 40
0.5478830793697405
 40
0.5478830793697405
 40
0.6199007276287178
 40
0.6199007276287178
 40
0.6199007276287178
 40
0.6846819262147057
 40
0.6846819262147057
 40
0.6846819262147057
 40
0.7494892886116509
 40
0.7494892886116509
 40
0.7494892886116509
 40
0.8193637744922013
 40
0.8193637744922013
 40
0.9096818872461009
 40
0.9096818872461009
 40
1.0
 40
1.0
 40
1.0
 40
1.0
 10
244.1426592145745
 20
186.777638387477
 30
0.0
 10
244.1426592145745
 20
186.7114195146068
 30
0.0
 10
244.1426592145745
 20
186.6452006417365
 30
0.0
 10
244.1426592145745
 20
186.5789817688662
 30
0.0
 10
244.1426592145745
 20
186.3618454648034
 30
0.0
 10
244.1287994504854
 20
186.1493290821035
 30
0.0
 10
244.1172496470778
 20
185.9437425814482
 30
0.0
 10
244.1057071113542
 20
185.738285445568
 30
0.0
 10
244.0849101975365
 20
185.5371895015006
 30
0.0
 10
244.0109914557279
 20
185.1398762642791
 30
0.0
 10
243.9578623600529
 20
184.9435296063499
 30
0.0
 10
243.8839436182442
 20
184.7518028697837
 30
0.0
 10
243.8103238022207
 20
184.5608514719727
 30
0.0
 10
243.7060766457672
 20
184.3683493966513
 30
0.0
 10
243.567479004876
 20
184.1766226600851
 30
0.0
 10
243.2385391943749
 20
183.7215892555586
 30
0.0
 10
242.8467712722416
 20
183.3866161070052
 30
0.0
 10
242.3801592145745
 20
183.1833395670314
 30
0.0
 10
241.9127013576763
 20
182.9796945600658
 30
0.0
 10
241.4007358856099
 20
182.8761147963892
 30
0.0
 10
240.3289141293845
 20
182.8761147963892
 30
0.0
 10
239.8530622289913
 20
182.9592733809239
 30
0.0
 10
239.4187896208655
 20
183.1279005106749
 30
0.0
 10
238.9865243210358
 20
183.2957482068854
 30
0.0
 10
238.6149233036964
 20
183.5344535906225
 30
0.0
 10
238.3076985330542
 20
183.8370584399017
 30
0.0
 10
237.9993189146371
 20
184.1408007708237
 30
0.0
 10
237.7625478122154
 20
184.5092569982241
 30
0.0
 10
237.5893007611014
 20
184.9412196456684
 30
0.0
 10
237.4171718734448
 20
185.3703943388921
 30
0.0
 10
237.3328951254526
 20
185.8444142721428
 30
0.0
 10
237.3328951254526
 20
186.8954463822346
 30
0.0
 10
237.4183636706689
 20
187.3828480860353
 30
0.0
 10
237.5893007611014
 20
187.8194306548426
 30
0.0
 10
237.760544896821
 20
188.2567974339103
 30
0.0
 10
238.005093683775
 20
188.6302268540563
 30
0.0
 10
238.3192483364618
 20
188.9420715460616
 30
0.0
 10
238.6322480402607
 20
189.2527697814501
 30
0.0
 10
239.0099265802364
 20
189.4918421882634
 30
0.0
 10
239.4488191097252
 20
189.6627792786959
 30
0.0
 10
239.8889361806183
 20
189.8341932957806
 30
0.0
 10
240.3751133430149
 20
189.9145649929816
 30
0.0
 10
241.587842700813
 20
189.9145649929816
 30
0.0
 10
242.1815025959638
 20
189.7621075880012
 30
0.0
 10
243.2025052171957
 20
189.1522779680799
 30
0.0
 10
243.5998184544173
 20
188.6879758710943
 30
0.0
 10
243.8839436182442
 20
188.0642864870838
 30
0.0
  0
LINE
  5
149
330
11B
100
AcDbEntity
  8
Default
  6
Continuous
 62
     7
100
AcDbLine
 10
240.8347955186
 20
186.7776383875
 30
0.0
 11
244.1426592146
 21
186.7776383875
 31
0.0
  0
LINE
  5
14A
330
11B
100
AcDbEntity
  8
Default
  6
Continuous
 62
     7
100
AcDbLine
 10
240.8347955186
 20
185.4332412708
 30
0.0
 11
240.8347955186
 21
186.7776383875
 31
0.0
  0
SPLINE
  5
14B
330
11B
100
AcDbEntity
  8
Default
  6
Continuous
 62
     7
100
AcDbSpline
210
0.0
220
0.0
230
1.0
 70
     8
 71
     3
 72
    16
 73
    12
 74
     0
 42
0.000000000976763
 43
0.0000000001
 12
1.0
 22
0.0
 32
0.0
 13
1.0
 23
0.0
 33
0.0
 40
0.0
 40
0.0
 40
0.0
 40
0.0
 40
0.6164577788718584
 40
0.6164577788718584
 40
0.6164577788718584
 40
0.6381328433885463
 40
0.6381328433885463
 40
0.6607110355934293
 40
0.6607110355934293
 40
0.6607110355934293
 40
1.0
 40
1.0
 40
1.0
 40
1.0
 10
233.0225084937357
 20
183.1186606679488
 30
0.0
 10
233.0225084937357
 20
185.2199549012385
 30
0.0
 10
233.0225084937357
 20
187.3212491345281
 30
0.0
 10
233.0225084937357
 20
189.4225433678178
 30
0.0
 10
233.0225084937357
 20
189.503391991671
 30
0.0
 10
233.050228021914
 20
189.5703808514351
 30
0.0
 10
233.1634160953085
 20
189.6835689248296
 30
0.0
 10
233.2304049550725
 20
189.7112884530078
 30
0.0
 10
233.3089436182443
 20
189.7112884530078
 30
0.0
 10
234.4654639327921
 20
189.7112884530078
 30
0.0
 10
235.6219842473399
 20
189.7112884530078
 30
0.0
 10
236.7785045618878
 20
189.7112884530078
 30
0.0
  0
LINE
  5
14C
330
11B
100
AcDbEntity
  8
Default
  6
Continuous
 62
     7
100
AcDbLine
 10
236.7785045619
 20
183.1186606679
 30
0.0
 11
233.0225084937
 21
183.1186606679
 31
0.0
  0
LINE
  5
14D
330
11B
100
AcDbEntity
  8
Default
  6
Continuous
 62
     7
100
AcDbLine
 10
236.7785045619
 20
184.5693159759
 30
0.0
 11
236.7785045619
 21
183.1186606679
 31
0.0
  0
LINE
  5
14E
330
11B
100
AcDbEntity
  8
Default
  6
Continuous
 62
     7
100
AcDbLine
 10
234.7318793981
 20
184.5693159759
 30
0.0
 11
236.7785045619
 21
184.5693159759
 31
0.0
  0
LINE
  5
14F
330
11B
100
AcDbEntity
  8
Default
  6
Continuous
 62
     7
100
AcDbLine
 10
234.7318793981
 20
185.7035066706
 30
0.0
 11
234.7318793981
 21
184.5693159759
 31
0.0
  0
LINE
  5
150
330
11B
100
AcDbEntity
  8
Default
  6
Continuous
 62
     7
100
AcDbLine
 10
236.6791762526
 20
185.7035066706
 30
0.0
 11
234.7318793981
 21
185.7035066706
 31
0.0
  0
LINE
  5
151
330
11B
100
AcDbEntity
  8
Default
  6
Continuous
 62
     7
100
AcDbLine
 10
236.6791762526
 20
187.1610918606
 30
0.0
 11
236.6791762526
 21
185.7035066706
 31
0.0
  0
LINE
  5
152
330
11B
100
AcDbEntity
  8
Default
  6
Continuous
 62
     7
100
AcDbLine
 10
234.7318793981
 20
187.1610918606
 30
0.0
 11
236.6791762526
 21
187.1610918606
 31
0.0
  0
LINE
  5
153
330
11B
100
AcDbEntity
  8
Default
  6
Continuous
 62
     7
100
AcDbLine
 10
234.7318793981
 20
188.260633145
 30
0.0
 11
234.7318793981
 21
187.1610918606
 31
0.0
  0
LINE
  5
154
330
11B
100
AcDbEntity
  8
Default
  6
Continuous
 62
     7
100
AcDbLine
 10
236.7785045619
 20
188.260633145
 30
0.0
 11
234.7318793981
 21
188.260633145
 31
0.0
  0
LINE
  5
155
330
11B
100
AcDbEntity
  8
Default
  6
Continuous
 62
     7
100
AcDbLine
 10
236.7785045619
 20
189.711288453
 30
0.0
 11
236.7785045619
 21
188.260633145
 31
0.0
  0
LINE
  5
156
330
11B
100
AcDbEntity
  8
Default
  6
Continuous
 62
     7
100
AcDbLine
 10
228.7098119013
 20
188.3992307859
 30
0.0
 11
228.7098119013
 21
186.7499188593
 31
0.0
  0
LINE
  5
157
330
11B
100
AcDbEntity
  8
Default
  6
Continuous
 62
     7
100
AcDbLine
 10
228.7098119013
 20
186.7499188593
 30
0.0
 11
228.8807489918
 21
186.7499188593
 31
0.0
  0
SPLINE
  5
158
330
11B
100
AcDbEntity
  8
Default
  6
Continuous
 62
     7
100
AcDbSpline
210
0.0
220
0.0
230
1.0
 70
     8
 71
     3
 72
    29
 73
    25
 74
     0
 42
0.0000000028633018
 43
0.0000000001
 12
1.0
 22
0.0
 32
0.0
 13
1.0
 23
0.0
 33
0.0
 40
0.0
 40
0.0
 40
0.0
 40
0.0
 40
0.1203556671631279
 40
0.1203556671631279
 40
0.1203556671631279
 40
0.2363519504887718
 40
0.2363519504887718
 40
0.2363519504887718
 40
0.3551316836966588
 40
0.3551316836966588
 40
0.4739114169045465
 40
0.4739114169045465
 40
0.5942337440501996
 40
0.5942337440501996
 40
0.7145560711958533
 40
0.7145560711958533
 40
0.7145560711958533
 40
0.8303426976884648
 40
0.8303426976884648
 40
0.8303426976884648
 40
0.9506957818555967
 40
0.9506957818555967
 40
0.9506957818555967
 40
1.0
 40
1.0
 40
1.0
 40
1.0
 10
228.8807489917698
 20
186.7499188592988
 30
0.0
 10
229.019346632661
 20
186.7499188592988
 30
0.0
 10
229.1579442735522
 20
186.7591587020248
 30
0.0
 10
229.2965419144435
 20
186.7799483481585
 30
0.0
 10
229.4373986855855
 20
186.8010768638298
 30
0.0
 10
229.5644973534998
 20
186.8376973651965
 30
0.0
 10
229.6799953875758
 20
186.8954463822346
 30
0.0
 10
229.7964174059245
 20
186.9536573914089
 30
0.0
 10
229.8902018095942
 20
187.0340440231258
 30
0.0
 10
230.0287994504854
 20
187.2511803271887
 30
0.0
 10
230.0634488607082
 20
187.3967078501244
 30
0.0
 10
230.0634488607082
 20
187.7547517557601
 30
0.0
 10
230.0287994504854
 20
187.8979693180144
 30
0.0
 10
229.8902018095942
 20
188.1151056220773
 30
0.0
 10
229.7978033823333
 20
188.198264206612
 30
0.0
 10
229.6799953875758
 20
188.25601322365
 30
0.0
 10
229.5649627826514
 20
188.3124017554757
 30
0.0
 10
229.4374495160162
 20
188.3484116509108
 30
0.0
 10
229.2965419144435
 20
188.3692012970445
 30
0.0
 10
229.1578950608181
 20
188.3896573902023
 30
0.0
 10
229.019346632661
 20
188.3992307859043
 30
0.0
 10
228.8807489917698
 20
188.3992307859043
 30
0.0
 10
228.8237699616256
 20
188.3992307859043
 30
0.0
 10
228.7667909314815
 20
188.3992307859043
 30
0.0
 10
228.7098119013373
 20
188.3992307859043
 30
0.0
  0
LINE
  5
159
330
11B
100
AcDbEntity
  8
Default
  6
Continuous
 62
     7
100
AcDbLine
 10
228.7098119013
 20
183.1186606679
 30
0.0
 11
227.000440997
 21
183.1186606679
 31
0.0
  0
LINE
  5
15A
330
11B
100
AcDbEntity
  8
Default
  6
Continuous
 62
     7
100
AcDbLine
 10
228.7098119013
 20
185.6526875356
 30
0.0
 11
228.7098119013
 21
183.1186606679
 31
0.0
  0
LINE
  5
15B
330
11B
100
AcDbEntity
  8
Default
  6
Continuous
 62
     7
100
AcDbLine
 10
230.3406441425
 20
183.1186606679
 30
0.0
 11
228.7098119013
 21
185.6526875356
 31
0.0
  0
LINE
  5
15C
330
11B
100
AcDbEntity
  8
Default
  6
Continuous
 62
     7
100
AcDbLine
 10
232.4773577729
 20
183.1186606679
 30
0.0
 11
230.3406441425
 21
183.1186606679
 31
0.0
  0
LINE
  5
15D
330
11B
100
AcDbEntity
  8
Default
  6
Continuous
 62
     7
100
AcDbLine
 10
230.4007031202
 20
185.8190047046
 30
0.0
 11
232.4773577729
 21
183.1186606679
 31
0.0
  0
SPLINE
  5
15E
330
11B
100
AcDbEntity
  8
Default
  6
Continuous
 62
     7
100
AcDbSpline
210
0.0
220
0.0
230
1.0
 70
     8
 71
     3
 72
    39
 73
    35
 74
     0
 42
0.0000000006617465
 43
0.0000000001
 12
1.0
 22
0.0
 32
0.0
 13
1.0
 23
0.0
 33
0.0
 40
0.0
 40
0.0
 40
0.0
 40
0.0
 40
0.4184837171182216
 40
0.4184837171182216
 40
0.4184837171182216
 40
0.4329116956232541
 40
0.4329116956232541
 40
0.447940839899329
 40
0.447940839899329
 40
0.447940839899329
 40
0.5989875461512338
 40
0.5989875461512338
 40
0.5989875461512338
 40
0.65983019696195
 40
0.65983019696195
 40
0.65983019696195
 40
0.7141636694202442
 40
0.7141636694202442
 40
0.7141636694202442
 40
0.7672492360561214
 40
0.7672492360561214
 40
0.7672492360561214
 40
0.8311842098663922
 40
0.8311842098663922
 40
0.8732466926363075
 40
0.8732466926363075
 40
0.8732466926363075
 40
0.9147241024096695
 40
0.9147241024096695
 40
0.9147241024096695
 40
0.9560702513872078
 40
0.9560702513872078
 40
0.9560702513872078
 40
1.0
 40
1.0
 40
1.0
 40
1.0
 10
227.0004409970123
 20
183.1186606679488
 30
0.0
 10
227.0004409970123
 20
185.2199549012385
 30
0.0
 10
227.0004409970123
 20
187.3212491345281
 30
0.0
 10
227.0004409970123
 20
189.4225433678178
 30
0.0
 10
227.0004409970123
 20
189.503391991671
 30
0.0
 10
227.0281605251905
 20
189.5703808514351
 30
0.0
 10
227.141348598585
 20
189.6835689248296
 30
0.0
 10
227.2060274976676
 20
189.7112884530078
 30
0.0
 10
227.2776362787947
 20
189.7112884530078
 30
0.0
 10
228.0360733692272
 20
189.7112884530078
 30
0.0
 10
228.7945104596597
 20
189.7112884530078
 30
0.0
 10
229.5529475500922
 20
189.7112884530078
 30
0.0
 10
229.8786520061866
 20
189.7112884530078
 30
0.0
 10
230.1812568554658
 20
189.672019121422
 30
0.0
 10
230.4584521372482
 20
189.5911704975687
 30
0.0
 10
230.7371553613635
 20
189.5098820572018
 30
0.0
 10
230.9781932905902
 20
189.3902039182765
 30
0.0
 10
231.1837797912455
 20
189.223886749207
 30
0.0
 10
231.3882367819392
 20
189.0584833410054
 30
0.0
 10
231.5510635396073
 20
188.8496731188007
 30
0.0
 10
231.6665615736833
 20
188.5955774438335
 30
0.0
 10
231.782929798427
 20
188.3395673493973
 30
0.0
 10
231.8398086247973
 20
188.0365669589056
 30
0.0
 10
231.8398086247973
 20
187.4544568671624
 30
0.0
 10
231.8097791359376
 20
187.235010602418
 30
0.0
 10
231.745100236855
 20
187.0317340624443
 30
0.0
 10
231.679966279852
 20
186.827027340435
 30
0.0
 10
231.5903328711931
 20
186.6390407465858
 30
0.0
 10
231.4679049550726
 20
186.4750335381978
 30
0.0
 10
231.3443697291374
 20
186.3095429525111
 30
0.0
 10
231.1953295946532
 20
186.1678087675556
 30
0.0
 10
231.0151526614946
 20
186.0523107334796
 30
0.0
 10
230.8366129371881
 20
185.9378621922575
 30
0.0
 10
230.6316991883622
 20
185.8582740362319
 30
0.0
 10
230.4007031202102
 20
185.8190047046461
 30
0.0
  0
HATCH
  5
15F
330
11B
100
AcDbEntity
  8
Default
  6
Continuous
 62
     7
100
AcDbHatch
 10
0.0
 20
0.0
 30
0.0
210
0.0
220
0.0
230
1.0
  2
SOLID
 70
     1
 71
     0
 91
        2
 92
        1
 93
        6
 72
     4
 94
        3
 73
     0
 74
     0
 95
       39
 96
       35
 40
0.0
 40
0.0
 40
0.0
 40
0.0
 40
0.0439297486127922
 40
0.0439297486127922
 40
0.0439297486127922
 40
0.0852758975903305
 40
0.0852758975903305
 40
0.0852758975903305
 40
0.1267533073636925
 40
0.1267533073636925
 40
0.1267533073636925
 40
0.1688157901336078
 40
0.1688157901336078
 40
0.2327507639438786
 40
0.2327507639438786
 40
0.2327507639438786
 40
0.2858363305797558
 40
0.2858363305797558
 40
0.2858363305797558
 40
0.34016980303805
 40
0.34016980303805
 40
0.34016980303805
 40
0.4010124538487662
 40
0.4010124538487662
 40
0.4010124538487662
 40
0.552059160100671
 40
0.552059160100671
 40
0.552059160100671
 40
0.5670883043767458
 40
0.5670883043767458
 40
0.5815162828817784
 40
0.5815162828817784
 40
0.5815162828817784
 40
1.0
 40
1.0
 40
1.0
 40
1.0
 10
230.4007031202102
 20
185.8190047046461
 10
230.6316991883622
 20
185.8582740362319
 10
230.8366129371881
 20
185.9378621922575
 10
231.0151526614946
 20
186.0523107334796
 10
231.1953295946532
 20
186.1678087675556
 10
231.3443697291374
 20
186.3095429525111
 10
231.4679049550726
 20
186.4750335381978
 10
231.5903328711931
 20
186.6390407465858
 10
231.679966279852
 20
186.827027340435
 10
231.745100236855
 20
187.0317340624443
 10
231.8097791359376
 20
187.235010602418
 10
231.8398086247973
 20
187.4544568671624
 10
231.8398086247973
 20
188.0365669589056
 10
231.782929798427
 20
188.3395673493973
 10
231.6665615736833
 20
188.5955774438335
 10
231.5510635396073
 20
188.8496731188007
 10
231.3882367819392
 20
189.0584833410054
 10
231.1837797912455
 20
189.223886749207
 10
230.9781932905902
 20
189.3902039182765
 10
230.7371553613635
 20
189.5098820572018
 10
230.4584521372482
 20
189.5911704975687
 10
230.1812568554658
 20
189.672019121422
 10
229.8786520061866
 20
189.7112884530078
 10
229.5529475500922
 20
189.7112884530078
 10
228.7945104596597
 20
189.7112884530078
 10
228.0360733692272
 20
189.7112884530078
 10
227.2776362787947
 20
189.7112884530078
 10
227.2060274976676
 20
189.7112884530078
 10
227.141348598585
 20
189.6835689248296
 10
227.0281605251905
 20
189.5703808514351
 10
227.0004409970123
 20
189.503391991671
 10
227.0004409970123
 20
189.4225433678178
 10
227.0004409970123
 20
187.3212491345281
 10
227.0004409970123
 20
185.2199549012385
 10
227.0004409970123
 20
183.1186606679488
 72
     1
 10
227.0004409970123
 20
183.1186606679488
 11
228.7098119013373
 21
183.1186606679488
 72
     1
 10
228.7098119013373
 20
183.1186606679488
 11
228.7098119013373
 21
185.6526875355766
 72
     1
 10
228.7098119013373
 20
185.6526875355766
 11
230.3406441424906
 21
183.1186606679488
 72
     1
 10
230.3406441424906
 20
183.1186606679488
 11
232.4773577728969
 21
183.1186606679488
 72
     1
 10
232.4773577728969
 20
183.1186606679488
 11
230.4007031202102
 21
185.8190047046461
 97
        0
 92
        1
 93
        3
 72
     1
 10
228.7098119013373
 20
188.3992307859043
 11
228.7098119013373
 21
186.7499188592988
 72
     1
 10
228.7098119013373
 20
186.7499188592988
 11
228.8807489917698
 21
186.7499188592988
 72
     4
 94
        3
 73
     0
 74
     0
 95
       29
 96
       25
 40
0.0
 40
0.0
 40
0.0
 40
0.0
 40
0.120355667163128
 40
0.120355667163128
 40
0.120355667163128
 40
0.2363519504887718
 40
0.2363519504887718
 40
0.2363519504887718
 40
0.3551316836966587
 40
0.3551316836966587
 40
0.4739114169045465
 40
0.4739114169045465
 40
0.5942337440501996
 40
0.5942337440501996
 40
0.7145560711958533
 40
0.7145560711958533
 40
0.7145560711958533
 40
0.8303426976884648
 40
0.8303426976884648
 40
0.8303426976884648
 40
0.9506957818555967
 40
0.9506957818555967
 40
0.9506957818555967
 40
1.0
 40
1.0
 40
1.0
 40
1.0
 10
228.8807489917698
 20
186.7499188592988
 10
229.019346632661
 20
186.7499188592988
 10
229.1579442735522
 20
186.7591587020248
 10
229.2965419144435
 20
186.7799483481585
 10
229.4373986855855
 20
186.8010768638298
 10
229.5644973534998
 20
186.8376973651965
 10
229.6799953875758
 20
186.8954463822346
 10
229.7964174059245
 20
186.9536573914089
 10
229.8902018095942
 20
187.0340440231258
 10
230.0287994504854
 20
187.2511803271887
 10
230.0634488607082
 20
187.3967078501244
 10
230.0634488607082
 20
187.7547517557601
 10
230.0287994504854
 20
187.8979693180144
 10
229.8902018095942
 20
188.1151056220773
 10
229.7978033823333
 20
188.198264206612
 10
229.6799953875758
 20
188.25601322365
 10
229.5649627826514
 20
188.3124017554757
 10
229.4374495160162
 20
188.3484116509108
 10
229.2965419144435
 20
188.3692012970445
 10
229.1578950608181
 20
188.3896573902023
 10
229.019346632661
 20
188.3992307859043
 10
228.8807489917698
 20
188.3992307859043
 10
228.8237699616256
 20
188.3992307859043
 10
228.7667909314815
 20
188.3992307859043
 10
228.7098119013373
 20
188.3992307859043
 97
        0
 75
     0
 76
     1
 98
        0
  0
HATCH
  5
160
330
11B
100
AcDbEntity
  8
Default
  6
Continuous
 62
     7
100
AcDbHatch
 10
0.0
 20
0.0
 30
0.0
210
0.0
220
0.0
230
1.0
  2
SOLID
 70
     1
 71
     0
 91
        1
 92
        1
 93
       11
 72
     4
 94
        3
 73
     0
 74
     0
 95
       16
 96
       12
 40
0.0
 40
0.0
 40
0.0
 40
0.0
 40
0.3392889644065707
 40
0.3392889644065707
 40
0.3392889644065707
 40
0.3618671566114537
 40
0.3618671566114537
 40
0.3835422211281416
 40
0.3835422211281416
 40
0.3835422211281416
 40
1.0
 40
1.0
 40
1.0
 40
1.0
 10
236.7785045618878
 20
189.7112884530078
 10
235.6219842473399
 20
189.7112884530078
 10
234.4654639327921
 20
189.7112884530078
 10
233.3089436182443
 20
189.7112884530078
 10
233.2304049550725
 20
189.7112884530078
 10
233.1634160953085
 20
189.6835689248296
 10
233.050228021914
 20
189.5703808514351
 10
233.0225084937357
 20
189.503391991671
 10
233.0225084937357
 20
189.4225433678178
 10
233.0225084937357
 20
187.3212491345281
 10
233.0225084937357
 20
185.2199549012385
 10
233.0225084937357
 20
183.1186606679488
 72
     1
 10
233.0225084937357
 20
183.1186606679488
 11
236.7785045618878
 21
183.1186606679488
 72
     1
 10
236.7785045618878
 20
183.1186606679488
 11
236.7785045618878
 21
184.5693159759436
 72
     1
 10
236.7785045618878
 20
184.5693159759436
 11
234.7318793980608
 21
184.5693159759436
 72
     1
 10
234.7318793980608
 20
184.5693159759436
 11
234.7318793980608
 21
185.7035066705701
 72
     1
 10
234.7318793980608
 20
185.7035066705701
 11
236.6791762525824
 21
185.7035066705701
 72
     1
 10
236.6791762525824
 20
185.7035066705701
 11
236.6791762525824
 21
187.1610918606094
 72
     1
 10
236.6791762525824
 20
187.1610918606094
 11
234.7318793980608
 21
187.1610918606094
 72
     1
 10
234.7318793980608
 20
187.1610918606094
 11
234.7318793980608
 21
188.260633145013
 72
     1
 10
234.7318793980608
 20
188.260633145013
 11
236.7785045618878
 21
188.260633145013
 72
     1
 10
236.7785045618878
 20
188.260633145013
 11
236.7785045618878
 21
189.7112884530078
 97
        0
 75
     0
 76
     1
 98
        0
  0
HATCH
  5
161
330
11B
100
AcDbEntity
  8
Default
  6
Continuous
 62
     7
100
AcDbHatch
 10
0.0
 20
0.0
 30
0.0
210
0.0
220
0.0
230
1.0
  2
SOLID
 70
     1
 71
     0
 91
        1
 92
        1
 93
        6
 72
     4
 94
        3
 73
     0
 74
     0
 95
       51
 96
       47
 40
0.0
 40
0.0
 40
0.0
 40
0.0
 40
0.0903181127538991
 40
0.0903181127538991
 40
0.1806362255077987
 40
0.1806362255077987
 40
0.2505107113883491
 40
0.2505107113883491
 40
0.2505107113883491
 40
0.3153180737852943
 40
0.3153180737852943
 40
0.3153180737852943
 40
0.3800992723712822
 40
0.3800992723712822
 40
0.3800992723712822
 40
0.4521169206302595
 40
0.4521169206302595
 40
0.5213407808102242
 40
0.5213407808102242
 40
0.5213407808102242
 40
0.5850582814386294
 40
0.5850582814386294
 40
0.5850582814386294
 40
0.6488037906897904
 40
0.6488037906897904
 40
0.6488037906897904
 40
0.718817254308538
 40
0.718817254308538
 40
0.7944820288920282
 40
0.7944820288920282
 40
0.7944820288920282
 40
0.8697367480753329
 40
0.8697367480753329
 40
0.8697367480753329
 40
0.9013515779285247
 40
0.9013515779285247
 40
0.9013515779285247
 40
0.9306379885930884
 40
0.9306379885930884
 40
0.9599243992576518
 40
0.9599243992576518
 40
0.9599243992576518
 40
0.9904597959709778
 40
0.9904597959709778
 40
0.9904597959709778
 40
1.0
 40
1.0
 40
1.0
 40
1.0
 10
243.8839436182442
 20
188.0642864870838
 10
243.5998184544173
 20
188.6879758710943
 10
243.2025052171957
 20
189.1522779680799
 10
242.1815025959638
 20
189.7621075880012
 10
241.587842700813
 20
189.9145649929816
 10
240.3751133430149
 20
189.9145649929816
 10
239.8889361806183
 20
189.8341932957806
 10
239.4488191097252
 20
189.6627792786959
 10
239.0099265802364
 20
189.4918421882634
 10
238.6322480402607
 20
189.2527697814501
 10
238.3192483364618
 20
188.9420715460616
 10
238.005093683775
 20
188.6302268540563
 10
237.760544896821
 20
188.2567974339103
 10
237.5893007611014
 20
187.8194306548426
 10
237.4183636706689
 20
187.3828480860353
 10
237.3328951254526
 20
186.8954463822346
 10
237.3328951254526
 20
185.8444142721428
 10
237.4171718734448
 20
185.3703943388921
 10
237.5893007611014
 20
184.9412196456684
 10
237.7625478122154
 20
184.5092569982241
 10
237.9993189146371
 20
184.1408007708237
 10
238.3076985330542
 20
183.8370584399017
 10
238.6149233036964
 20
183.5344535906225
 10
238.9865243210358
 20
183.2957482068854
 10
239.4187896208655
 20
183.1279005106749
 10
239.8530622289913
 20
182.9592733809239
 10
240.3289141293845
 20
182.8761147963892
 10
241.4007358856099
 20
182.8761147963892
 10
241.9127013576763
 20
182.9796945600658
 10
242.3801592145745
 20
183.1833395670314
 10
242.8467712722416
 20
183.3866161070052
 10
243.2385391943749
 20
183.7215892555586
 10
243.567479004876
 20
184.1766226600851
 10
243.7060766457672
 20
184.3683493966513
 10
243.8103238022207
 20
184.5608514719727
 10
243.8839436182442
 20
184.7518028697837
 10
243.9578623600529
 20
184.9435296063499
 10
244.0109914557279
 20
185.1398762642791
 10
244.0849101975365
 20
185.5371895015006
 10
244.1057071113542
 20
185.738285445568
 10
244.1172496470778
 20
185.9437425814482
 10
244.1287994504854
 20
186.1493290821035
 10
244.1426592145745
 20
186.3618454648034
 10
244.1426592145745
 20
186.5789817688662
 10
244.1426592145745
 20
186.6452006417365
 10
244.1426592145745
 20
186.7114195146068
 10
244.1426592145745
 20
186.777638387477
 72
     1
 10
244.1426592145745
 20
186.777638387477
 11
240.8347955186374
 21
186.777638387477
 72
     1
 10
240.8347955186374
 20
186.777638387477
 11
240.8347955186374
 21
185.4332412708322
 72
     1
 10
240.8347955186374
 20
185.4332412708322
 11
242.3339600009441
 21
185.4332412708322
 72
     4
 94
        3
 73
     0
 74
     0
 95
       43
 96
       39
 40
0.0
 40
0.0
 40
0.0
 40
0.0
 40
0.0528407008768927
 40
0.0528407008768927
 40
0.0528407008768927
 40
0.101808017531148
 40
0.101808017531148
 40
0.101808017531148
 40
0.1527424680033737
 40
0.1527424680033737
 40
0.1527424680033737
 40
0.2046872249080309
 40
0.2046872249080309
 40
0.285201598110253
 40
0.285201598110253
 40
0.285201598110253
 40
0.3575698737778739
 40
0.3575698737778739
 40
0.3575698737778739
 40
0.4340109897737078
 40
0.4340109897737078
 40
0.5104521057695417
 40
0.5104521057695417
 40
0.5848456918726302
 40
0.5848456918726302
 40
0.5848456918726302
 40
0.6593973023253275
 40
0.6593973023253275
 40
0.6593973023253275
 40
0.7322081321972964
 40
0.7322081321972964
 40
0.7322081321972964
 40
0.808821291350857
 40
0.808821291350857
 40
0.9050626152462398
 40
0.9050626152462398
 40
0.9050626152462398
 40
1.0
 40
1.0
 40
1.0
 40
1.0
 10
242.3339600009441
 20
185.4332412708322
 10
242.315480315492
 20
185.241514534266
 10
242.2630012238817
 20
185.0747989756085
 10
242.1768826746007
 20
184.9342897636238
 10
242.089104168703
 20
184.7910722013695
 10
241.9813056983178
 20
184.6698654279918
 10
241.8488682578248
 20
184.5762458579881
 10
241.7148905382967
 20
184.4815374700458
 10
241.5619922405099
 20
184.4091217718955
 10
241.3914960428838
 20
184.3591095539252
 10
241.2182489917698
 20
184.3082904189318
 10
241.0403820192927
 20
184.2851908121166
 10
240.5691500402626
 20
184.2851908121166
 10
240.3206481660817
 20
184.3447157269266
 10
240.104847943277
 20
184.4630577845936
 10
239.8900215998956
 20
184.5808657793512
 10
239.7109534478642
 20
184.7387746915399
 10
239.5643171438012
 20
184.9342897636238
 10
239.4187896208655
 20
185.1283264608715
 10
239.3079115081525
 20
185.3500826862975
 10
239.1554541031722
 20
185.8397943507798
 10
239.1161847715863
 20
186.089270104384
 10
239.1161847715863
 20
186.5997714149999
 10
239.1546578089098
 20
186.848808629735
 10
239.2270628842993
 20
187.0987229222083
 10
239.2986716654264
 20
187.345888715131
 10
239.4057198468884
 20
187.5687407332931
 10
239.5481474190306
 20
187.7663015591677
 10
239.6913649812849
 20
187.9649581777784
 10
239.8686747464151
 20
188.1276436800246
 10
240.0840582971433
 20
188.2490833416055
 10
240.3011946012062
 20
188.371511257726
 10
240.5460504334474
 20
188.4315702354455
 10
241.1766696995024
 20
188.4315702354455
 10
241.4721172585773
 20
188.3365769023392
 10
241.7148905382967
 20
188.1428251502555
 10
241.9551264491748
 20
187.9510984136893
 10
242.1353033823333
 20
187.6970027387221
 10
242.2554213377724
 20
187.3782281646723
 72
     1
 10
242.2554213377724
 20
187.3782281646723
 11
243.8839436182442
 21
188.0642864870838
 97
        0
 75
     0
 76
     1
 98
        0
  0
HATCH
  5
162
330
11B
100
AcDbEntity
  8
Default
  6
Continuous
 62
     7
100
AcDbHatch
 10
0.0
 20
0.0
 30
0.0
210
0.0
220
0.0
230
1.0
  2
SOLID
 70
     1
 71
     0
 91
        2
 92
        1
 93
        1
 72
     4
 94
        3
 73
     0
 74
     0
 95
       49
 96
       45
 40
0.0
 40
0.0
 40
0.0
 40
0.0
 40
0.0620905351842325
 40
0.0620905351842325
 40
0.0620905351842325
 40
0.1225274789213882
 40
0.1225274789213882
 40
0.1225274789213882
 40
0.1824107500595676
 40
0.1824107500595676
 40
0.1824107500595676
 40
0.2443092731117129
 40
0.2443092731117129
 40
0.3113899980938052
 40
0.3113899980938052
 40
0.3113899980938052
 40
0.373038281101099
 40
0.373038281101099
 40
0.4342493422430935
 40
0.4342493422430935
 40
0.4342493422430935
 40
0.5005101029271146
 40
0.5005101029271146
 40
0.5664827733472912
 40
0.5664827733472912
 40
0.5664827733472912
 40
0.6277456785228048
 40
0.6277456785228048
 40
0.6277456785228048
 40
0.6890483024008142
 40
0.6890483024008142
 40
0.6890483024008142
 40
0.7561017319004357
 40
0.7561017319004357
 40
0.8179750681339922
 40
0.8179750681339922
 40
0.8179750681339922
 40
0.8779262347345869
 40
0.8779262347345869
 40
0.8779262347345869
 40
0.9382003516792404
 40
0.9382003516792404
 40
0.9382003516792404
 40
1.0
 40
1.0
 40
1.0
 40
1.0
 10
248.4438060035654
 20
189.9492144032044
 10
247.9656441424906
 20
189.9469044425229
 10
247.5072164315149
 20
189.8665311947464
 10
247.0670694373792
 20
189.6997386496002
 10
246.6281769078904
 20
189.5334214805307
 10
246.2389407961124
 20
189.2988270091107
 10
245.9005392932115
 20
188.997510602418
 10
245.5632850337095
 20
188.6972157138204
 10
245.2957954536029
 20
188.335504780128
 10
245.0920530546794
 20
187.918758964148
 10
244.8887765147056
 20
187.5029660414744
 10
244.7871382447187
 20
187.0455938265333
 10
244.7871382447187
 20
186.0107314412123
 10
244.8803465126443
 20
185.521351265914
 10
245.0620235658196
 20
185.0775073258781
 10
245.2445104596597
 20
184.6316849143446
 10
245.4962961739454
 20
184.2482314412123
 10
246.1453951254526
 20
183.5991324897051
 10
246.530680710158
 20
183.3461490497318
 10
246.9792909314815
 20
183.1671698422608
 10
247.4251133430149
 20
182.9893028697837
 10
247.9125150468157
 20
182.8992144032044
 10
248.9727869996335
 20
182.8992144032044
 10
249.4629767181928
 20
182.9881138634896
 10
249.9083210756492
 20
183.1671698422608
 10
250.3564534478642
 20
183.3473467754193
 10
250.7410617834882
 20
183.5979940082417
 10
251.0609914557278
 20
183.9225269851179
 10
251.3820759904592
 20
184.2482314412123
 10
251.6330488643873
 20
184.6320193642835
 10
251.816348598585
 20
185.0775073258781
 10
251.9988354924251
 20
185.52101977673
 10
252.0889239590044
 20
186.0107314412123
 10
252.0889239590044
 20
187.0455938265333
 10
251.9868172819147
 20
187.5016305829262
 10
251.7863191097253
 20
187.918758964148
 10
251.585352530433
 20
188.3368618475032
 10
251.3129086463213
 20
188.694787784671
 10
250.9755229105116
 20
188.997510602418
 10
250.6382686510096
 20
189.3001154516972
 10
250.2509557040483
 20
189.5354457704455
 10
249.8136126877069
 20
189.6997386496002
 10
249.3770301188996
 20
189.8637458579882
 10
248.9196356399268
 20
189.9515130970999
 10
248.4438060035654
 20
189.9492144032044
 97
        0
 92
        1
 93
        1
 72
     4
 94
        3
 73
     0
 74
     0
 95
       47
 96
       43
 40
0.0
 40
0.0
 40
0.0
 40
0.0
 40
0.0637917384076936
 40
0.0637917384076936
 40
0.0637917384076936
 40
0.1265834997779105
 40
0.1265834997779105
 40
0.1893752611481285
 40
0.1893752611481285
 40
0.1893752611481285
 40
0.2604081010642026
 40
0.2604081010642026
 40
0.3159741129340349
 40
0.3159741129340349
 40
0.3159741129340349
 40
0.3751091105868485
 40
0.3751091105868485
 40
0.3751091105868485
 40
0.435995169879425
 40
0.435995169879425
 40
0.435995169879425
 40
0.4997689343159712
 40
0.4997689343159712
 40
0.5635426987525196
 40
0.5635426987525196
 40
0.5635426987525196
 40
0.624232315369434
 40
0.624232315369434
 40
0.624232315369434
 40
0.6835869381889372
 40
0.6835869381889372
 40
0.6835869381889372
 40
0.7357943705008892
 40
0.7357943705008892
 40
0.8025337685079206
 40
0.8025337685079206
 40
0.8692731665149518
 40
0.8692731665149518
 40
0.9360125645219831
 40
0.9360125645219831
 40
0.9360125645219831
 40
1.0
 40
1.0
 40
1.0
 40
1.0
 10
248.4438060035654
 20
184.5693159759436
 10
248.7025215998956
 20
184.5693159759436
 10
248.9450674714552
 20
184.620135110937
 10
249.1691336575627
 20
184.7194634202424
 10
249.3951304192655
 20
184.8196475517189
 10
249.5941664229625
 20
184.9550794097575
 10
249.9314206824644
 20
185.3061934333486
 10
250.0653984019926
 20
185.5140898946854
 10
250.160106789935
 20
185.752015844882
 10
250.2551311293749
 20
185.9907355268896
 10
250.3056343128707
 20
186.2509673520904
 10
250.3056343128707
 20
186.7614686627064
 10
250.2571251385588
 20
186.9809149274508
 10
250.160106789935
 20
187.1934313101507
 10
250.0643595068875
 20
187.4031634539689
 10
249.9314206824644
 20
187.5907445473721
 10
249.7627935527134
 20
187.7547517557601
 10
249.5953209577949
 20
187.9176360604069
 10
249.3955098043517
 20
188.0458068016317
 10
249.1691336575627
 20
188.140515189574
 10
248.9439009259591
 20
188.2347452099388
 10
248.7025215998956
 20
188.2860427125098
 10
248.1850904072351
 20
188.2860427125098
 10
247.9425445356754
 20
188.2375335381978
 10
247.7161683888864
 20
188.140515189574
 10
247.4925801256786
 20
188.0446916481992
 10
247.2934455841682
 20
187.9164490034665
 10
247.1248184544172
 20
187.7547517557601
 10
246.9550373605366
 20
187.5919479671074
 10
246.8222136051381
 20
187.403637732169
 10
246.7228852958327
 20
187.1934313101507
 10
246.622664698655
 20
186.9813365579839
 10
246.5727378515339
 20
186.7614686627064
 10
246.5727378515339
 20
186.2509673520904
 10
246.6235569865273
 20
185.9899417950786
 10
246.8222136051381
 20
185.5140898946854
 10
246.9561913246663
 20
185.3061934333486
 10
247.2934455841682
 20
184.9550794097575
 10
247.492102202779
 20
184.8187917295478
 10
247.7161683888864
 20
184.7194634202424
 10
247.9421651505893
 20
184.6192792887659
 10
248.1850904072351
 20
184.5693159759436
 10
248.4438060035654
 20
184.5693159759436
 97
        0
 75
     0
 76
     1
 98
        0
  0
HATCH
  5
163
330
11B
100
AcDbEntity
  8
Default
  6
Continuous
 62
     7
100
AcDbHatch
 10
0.0
 20
0.0
 30
0.0
210
0.0
220
0.0
230
1.0
  2
SOLID
 70
     1
 71
     0
 91
        1
 92
        1
 93
        4
 72
     1
 10
255.0710831988471
 20
185.7035066705701
 11
255.0710831988471
 21
187.1610918606094
 72
     1
 10
255.0710831988471
 20
187.1610918606094
 11
252.9366795291224
 21
187.1610918606094
 72
     1
 10
252.9366795291224
 20
187.1610918606094
 11
252.9366795291224
 21
185.70350667057
 72
     1
 10
252.9366795291224
 20
185.70350667057
 11
255.0710831988471
 21
185.7035066705701
 97
        0
 75
     0
 76
     1
 98
        0
  0
HATCH
  5
164
330
11B
100
AcDbEntity
  8
Default
  6
Continuous
 62
     7
100
AcDbHatch
 10
0.0
 20
0.0
 30
0.0
210
0.0
220
0.0
230
1.0
  2
SOLID
 70
     1
 71
     0
 91
        1
 92
        1
 93
        9
 72
     4
 94
        3
 73
     0
 74
     0
 95
       16
 96
       12
 40
0.0
 40
0.0
 40
0.0
 40
0.0
 40
0.3396620468027166
 40
0.3396620468027166
 40
0.3396620468027166
 40
0.3623316833330921
 40
0.3623316833330921
 40
0.3840945344022499
 40
0.3840945344022499
 40
0.3840945344022499
 40
1.0
 40
1.0
 40
1.0
 40
1.0
 10
259.5870563312193
 20
189.7112884530078
 10
258.42822605599
 20
189.7112884530078
 10
257.2693957807606
 20
189.7112884530078
 10
256.1105655055312
 20
189.7112884530078
 10
256.0297168816781
 20
189.7112884530078
 10
255.962728021914
 20
189.6835689248296
 10
255.8495399485194
 20
189.5703808514351
 10
255.8218204203412
 20
189.503391991671
 10
255.8218204203412
 20
189.4225433678178
 10
255.8218204203412
 20
187.3212491345281
 10
255.8218204203412
 20
185.2199549012385
 10
255.8218204203412
 20
183.1186606679488
 72
     1
 10
255.8218204203412
 20
183.1186606679488
 11
257.5404311673923
 21
183.1186606679488
 72
     1
 10
257.5404311673923
 20
183.1186606679488
 11
257.5404311673923
 21
185.7035066705701
 72
     1
 10
257.5404311673923
 20
185.7035066705701
 11
259.4877280219139
 21
185.7035066705701
 72
     1
 10
259.4877280219139
 20
185.7035066705701
 11
259.4877280219139
 21
187.1610918606094
 72
     1
 10
259.4877280219139
 20
187.1610918606094
 11
257.5404311673923
 21
187.1610918606094
 72
     1
 10
257.5404311673923
 20
187.1610918606094
 11
257.5404311673923
 21
188.260633145013
 72
     1
 10
257.5404311673923
 20
188.260633145013
 11
259.5870563312194
 21
188.260633145013
 72
     1
 10
259.5870563312193
 20
188.260633145013
 11
259.5870563312193
 21
189.7112884530078
 97
        0
 75
     0
 76
     1
 98
        0
  0
HATCH
  5
165
330
11B
100
AcDbEntity
  8
Default
  6
Continuous
 62
     7
100
AcDbHatch
 10
0.0
 20
0.0
 30
0.0
210
0.0
220
0.0
230
1.0
  2
SOLID
 70
     1
 71
     0
 91
        1
 92
        1
 93
        4
 72
     4
 94
        3
 73
     0
 74
     0
 95
       14
 96
       10
 40
0.0
 40
0.0
 40
0.0
 40
0.0
 40
0.7580098693161609
 40
0.7580098693161609
 40
0.7580098693161609
 40
0.8789822868889446
 40
0.8789822868889446
 40
0.8789822868889446
 40
1.0
 40
1.0
 40
1.0
 40
1.0
 10
262.1857620979297
 20
189.7274581777785
 10
261.7114501713242
 20
189.7274581777785
 10
261.2371382447187
 20
189.7274581777785
 10
260.7628263181132
 20
189.7274581777785
 10
260.68197769426
 20
189.7274581777785
 10
260.6172507110666
 20
189.6973825281723
 10
260.5595497781394
 20
189.6419896325622
 10
260.5018007611014
 20
189.5865505762057
 10
260.4740812329231
 20
189.5195617164416
 10
260.4740812329231
 20
189.4387130925884
 72
     1
 10
260.4740812329231
 20
189.4387130925884
 11
260.4740812329231
 21
183.1186606679488
 72
     1
 10
260.4740812329231
 20
183.1186606679488
 11
262.1857620979297
 21
183.1186606679488
 72
     1
 10
262.1857620979297
 20
183.1186606679488
 11
262.1857620979297
 21
189.7274581777785
 97
        0
 75
     0
 76
     1
 98
        0
  0
HATCH
  5
166
330
11B
100
AcDbEntity
  8
Default
  6
Continuous
 62
     7
100
AcDbHatch
 10
0.0
 20
0.0
 30
0.0
210
0.0
220
0.0
230
1.0
  2
SOLID
 70
     1
 71
     0
 91
        1
 92
        1
 93
       12
 72
     1
 10
266.2235733692272
 20
188.0042275093643
 11
265.2095006300398
 21
189.7112884530078
 72
     1
 10
265.2095006300398
 20
189.7112884530078
 11
263.1051264491747
 21
189.7112884530078
 72
     1
 10
263.1051264491747
 20
189.7112884530078
 11
265.2095006300398
 21
186.6436606679488
 72
     1
 10
265.2095006300398
 20
186.6436606679488
 11
262.6269645881001
 21
183.1186606679488
 72
     1
 10
262.6269645881001
 20
183.1186606679488
 11
264.7036192407868
 21
183.1186606679488
 72
     1
 10
264.7036192407868
 20
183.1186606679488
 11
266.2235733692272
 21
185.2646141410812
 72
     1
 10
266.2235733692272
 20
185.2646141410812
 11
267.2561257938668
 21
183.6453317033355
 72
     1
 10
267.2561257938668
 20
183.6453317033355
 11
268.2886782185064
 21
185.1144666967824
 72
     1
 10
268.2886782185064
 20
185.1144666967824
 11
267.226096305007
 21
186.6436606679488
 72
     1
 10
267.226096305007
 20
186.6436606679488
 11
269.3420202892797
 21
189.7112884530078
 72
     1
 10
269.3420202892797
 20
189.7112884530078
 11
267.226096305007
 21
189.7112884530078
 72
     1
 10
267.226096305007
 20
189.7112884530078
 11
266.2235733692272
 21
188.0042275093643
 97
        0
 75
     0
 76
     1
 98
        0
  0
HATCH
  5
167
330
11B
100
AcDbEntity
  8
Default
  6
Continuous
 62
     7
100
AcDbHatch
 10
0.0
 20
0.0
 30
0.0
210
0.0
220
0.0
230
1.0
  2
SOLID
 70
     1
 71
     0
 91
        1
 92
        1
 93
        3
 72
     4
 94
        3
 73
     0
 74
     0
 95
       13
 96
        9
 40
0.0
 40
0.0
 40
0.0
 40
0.0
 40
0.0445094381088423
 40
0.0445094381088423
 40
0.0908355879772283
 40
0.0908355879772283
 40
0.0908355879772283
 40
1.0
 40
1.0
 40
1.0
 40
1.0
 10
272.7122529236178
 20
189.5334214805307
 10
272.6198544963569
 20
189.6512294752883
 10
272.5159062656886
 20
189.7112884530078
 10
272.2849101975365
 20
189.7112884530078
 10
272.1870447473536
 20
189.6501983627819
 10
272.1047332643779
 20
189.5334214805307
 10
270.697967209332
 20
187.5376154516972
 10
269.2912011542862
 20
185.5418094228636
 10
267.8844350992403
 20
183.5460033940301
 72
     4
 94
        3
 73
     0
 74
     0
 95
       11
 96
        7
 40
0.0
 40
0.0
 40
0.0
 40
0.0
 40
0.3439066424360135
 40
0.3439066424360135
 40
0.3439066424360135
 40
1.0
 40
1.0
 40
1.0
 40
1.0
 10
267.8844350992403
 20
183.5460033940301
 10
267.8313060035653
 20
183.4605348488138
 10
267.8027439506852
 20
183.3911859889177
 10
267.8035864753871
 20
183.3381069326933
 10
267.8058964360686
 20
183.1925794097575
 10
267.9075347060556
 20
183.1186606679488
 10
268.1131212067108
 20
183.1186606679488
 72
     4
 94
        3
 73
     0
 74
     0
 95
       16
 96
       12
 40
0.0
 40
0.0
 40
0.0
 40
0.0
 40
0.5188870924081099
 40
0.5188870924081099
 40
0.5188870924081099
 40
0.544909989588877
 40
0.544909989588877
 40
0.5581347406151689
 40
0.5581347406151689
 40
0.5581347406151689
 40
1.0
 40
1.0
 40
1.0
 40
1.0
 10
268.1131212067108
 20
183.1186606679488
 10
270.9805523993713
 20
183.1186606679488
 10
273.8479835920319
 20
183.1186606679488
 10
276.7154147846925
 20
183.1186606679488
 10
276.9140714033032
 20
183.1186606679488
 10
277.0133997126086
 20
183.1879594883945
 10
277.0133997126086
 20
183.4004758710943
 10
276.9849943017649
 20
183.4716012002038
 10
276.9325510887554
 20
183.5460033940301
 10
275.5257850337095
 20
185.5418094228636
 10
274.1190189786636
 20
187.5376154516972
 10
272.7122529236178
 20
189.5334214805307
 97
        0
 75
     0
 76
     1
 98
        0
  0
ENDBLK
  5
169
330
11B
100
AcDbEntity
  8
0
100
AcDbBlockEnd
  0
ENDSEC
  0
SECTION
  2
ENTITIES
  0
INSERT
  5
41
330
1F
100
AcDbEntity
  8
Default
100
AcDbBlockReference
  2
SE
 10
0.0
 20
0.0
 30
0.0
  0
INSERT
  5
C9
330
1F
100
AcDbEntity
  8
Default
100
AcDbBlockReference
  2
SE1
 10
0.0
 20
0.0
 30
0.0
  0
DIMENSION
  5
EB
330
1F
100
AcDbEntity
  8
Default
  6
Continuous
 62
     7
100
AcDbDimension
  2
DMBLK81
 10
76.184985016
 20
164.252038564
 30
0.0
 11
151.1849820358
 21
164.252038564
 31
0.0
 70
   160
  1
\A1;<>
 71
     5
 42
-1.0
  3
DIN
100
AcDbAlignedDimension
 13
226.184985016
 23
155.1014422284
 33
0.0
 14
76.184985016
 24
155.1014422284
 34
0.0
100
AcDbRotatedDimension
  0
DIMENSION
  5
F5
330
1F
100
AcDbEntity
  8
Default
  6
Continuous
 62
     7
100
AcDbDimension
  2
DMBLK82
 10
66.8823288498
 20
155.1014422284
 30
0.0
 11
66.8823288498
 21
130.1014418559
 31
0.0
 70
   161
  1
\A1;<>
 71
     5
 42
-1.0
  3
DIN
100
AcDbAlignedDimension
 13
76.184985016
 23
155.1014422284
 33
0.0
 14
76.184985016
 24
105.1014422284
 34
0.0
  0
DIMENSION
  5
FF
330
1F
100
AcDbEntity
  8
Default
  6
Continuous
 62
     7
100
AcDbDimension
  2
DMBLK83
 10
66.8823288498
 20
90.4834814567
 30
0.0
 11
66.8823288498
 21
70.4834819037
 31
0.0
 70
   161
  1
\A1;<>
 71
     5
 42
-1.0
  3
DIN
100
AcDbAlignedDimension
 13
76.184985016
 23
90.4834814567
 33
0.0
 14
76.184985016
 24
50.4834814567
 34
0.0
  0
INSERT
  5
16A
330
1F
100
AcDbEntity
  8
Default
 62
     7
100
AcDbBlockReference
  2
RF-Massblatt_2016
 10
0.0
 20
0.0
 30
0.0
  0
ENDSEC
  0
SECTION
  2
OBJECTS
  0
DICTIONARY
  5
C
330
0
100
AcDbDictionary
281
     1
  3
ACAD_GROUP
350
D
  3
ACAD_LAYOUT
350
1A
  3
ACAD_MATERIAL
350
3B
  3
ACAD_MLEADERSTYLE
350
16D
  3
ACAD_MLINESTYLE
350
17
  3
ACAD_PLOTSETTINGS
350
19
  3
ACAD_PLOTSTYLENAME
350
E
  3
ACAD_VISUALSTYLE
350
2A
  3
AcDbVariableDictionary
350
16B
  0
DICTIONARY
  5
172
330
11C
100
AcDbDictionary
280
     1
281
     1
  3
ACAD_MTEXT_RT
360
173
  0
DICTIONARY
  5
174
330
11D
100
AcDbDictionary
280
     1
281
     1
  3
ACAD_MTEXT_RT
360
175
  0
DICTIONARY
  5
176
330
120
100
AcDbDictionary
280
     1
281
     1
  3
ACAD_MTEXT_RT
360
177
  0
DICTIONARY
  5
D
102
{ACAD_REACTORS
330
C
102
}
330
C
100
AcDbDictionary
281
     1
  0
DICTIONARY
  5
1A
102
{ACAD_REACTORS
330
C
102
}
330
C
100
AcDbDictionary
281
     1
  3
Layout1
350
1E
  3
Model
350
22
  0
DICTIONARY
  5
3B
102
{ACAD_REACTORS
330
C
102
}
330
C
100
AcDbDictionary
281
     1
  3
ByBlock
350
3D
  3
ByLayer
350
3C
  3
Global
350
3E
  0
DICTIONARY
  5
16D
102
{ACAD_REACTORS
330
C
102
}
330
C
100
AcDbDictionary
281
     1
  0
DICTIONARY
  5
17
102
{ACAD_REACTORS
330
C
102
}
330
C
100
AcDbDictionary
281
     1
  3
Standard
350
18
  0
DICTIONARY
  5
19
102
{ACAD_REACTORS
330
C
102
}
330
C
100
AcDbDictionary
281
     1
  0
ACDBDICTIONARYWDFLT
  5
E
102
{ACAD_REACTORS
330
C
102
}
330
C
100
AcDbDictionary
281
     1
  3
Normal
350
F
100
AcDbDictionaryWithDefault
340
F
  0
DICTIONARY
  5
2A
102
{ACAD_REACTORS
330
C
102
}
330
C
100
AcDbDictionary
281
     1
  3
2dWireframe
350
2F
  3
3D Hidden
350
31
  3
3dWireframe
350
30
  3
Basic
350
32
  3
Brighten
350
36
  3
ColorChange
350
3A
  3
Conceptual
350
34
  3
Dim
350
35
  3
Facepattern
350
39
  3
Flat
350
2B
  3
FlatWithEdges
350
2C
  3
Gouraud
350
2D
  3
GouraudWithEdges
350
2E
  3
Linepattern
350
38
  3
Realistic
350
33
  3
Thicken
350
37
  0
DICTIONARY
  5
16B
102
{ACAD_REACTORS
330
C
102
}
330
C
100
AcDbDictionary
281
     1
  3
DIMASSOC
350
170
  3
HIDETEXT
350
171
  3
PSOLHEIGHT
350
16F
  3
PSOLWIDTH
350
16E
  0
XRECORD
  5
173
102
{ACAD_REACTORS
330
172
102
}
330
172
100
AcDbXrecord
280
     1
 40
10118767.0
  1
\pxsm1.;{\fVectora Com 45 Light|b1||i0||c0|p34;\C7;\H2.5;\W1.;REGO-FIX AG\P}{\fVectora Com 45 Light|b0||i0||c0|p34;\C7;\H2.5;\W1.;Obermattweg 60\P}{\fVectora Com 45 Light|b0||i0||c0|p34;\C7;\H2.5;\W1.;4456 Tenniken / Switzerland\P}{\fVectora Com 45 L
  1
ight|b0||i0||c0|p34;\C7;\H2.5;\W1.;\P}{\fVectora Com 45 Light|b0||i0||c0|p34;\C7;\H2.5;\W1.;P +41 61 976 14 66\P}{\fVectora Com 45 Light|b0||i0||c0|p34;\C7;\H2.5;\W1.;F +41 61 976 14 14\P}{\fVectora Com 45 Light|b1||i0||c0|p34;\C7;\H2.5;\W1.;www.rego
  1
-fix.com}
  0
XRECORD
  5
175
102
{ACAD_REACTORS
330
174
102
}
330
174
100
AcDbXrecord
280
     1
 40
47111022.0
  1
\pxsm1.;{\fSolid Edge ISO|b0||i0||c0|p34;\C7;\H2.;\W1.;This is a non-controlled copy. All information given herein is subject to change without notice\P}{\fSolid Edge ISO|b0||i0||c0|p34;\C7;\H2.;\W1.;\P}{\fSolid Edge ISO|b0||i0||c0|p34;\C7;\H2.;\W1.;
  1
The information given herein has been carefully checked and is believed to be correct. REGO-FIX,\P}{\fSolid Edge ISO|b0||i0||c0|p34;\C7;\H2.;\W1.;however, assumes no responsibility or liability for any errors, inaccuracies or omissions that may appea
  1
r\P}{\fSolid Edge ISO|b0||i0||c0|p34;\C7;\H2.;\W1.;in this drawing\P}{\fSolid Edge ISO|b0||i0||c0|p34;\C7;\H2.;\W1.;\P}{\fSolid Edge ISO|b0||i0||c0|p34;\C7;\H2.;\W1.;This document is subject to copyright laws. No part of this document may be reproduc
  1
ed or transmitted\P}{\fSolid Edge ISO|b0||i0||c0|p34;\C7;\H2.;\W1.;in any form or any means, electronic or mechanic, for any purpose, without the express written permission\P}{\fSolid Edge ISO|b0||i0||c0|p34;\C7;\H2.;\W1.;of REGO-FIX\P}{\fSolid Edge 
  1
ISO|b0||i0||c0|p34;\C7;\H1.5;\W1.;\P}
  0
XRECORD
  5
177
102
{ACAD_REACTORS
330
176
102
}
330
176
100
AcDbXrecord
280
     1
 40
2697483.0
  1
\pxsm1.;{\fVectora Com 45 Light|b0||i0||c0|p34;\C7;\H3.5;\W1.;Type :\P}{\fVectora Com 45 Light|b0||i0||c0|p34;\C7;\H3.5;\W1.;Part No. :\P}{\fVectora Com 45 Light|b0||i0||c0|p34;\C7;\H3.5;\W1.;Date : \P}{\fVectora Com 45 Light|b0||i0||c0|p34;\C7;\H3.5
  1
;\W1.;Scale :}
  0
LAYOUT
  5
1E
102
{ACAD_REACTORS
330
1A
102
}
330
1A
100
AcDbPlotSettings
  1

  2
none_device
  4

  6

 40
0.0
 41
0.0
 42
0.0
 43
0.0
 44
0.0
 45
0.0
 46
0.0
 47
0.0
 48
0.0
 49
0.0
140
0.0
141
0.0
142
1.0
143
1.0
 70
   688
 72
     0
 73
     0
 74
     5
  7

 75
    16
147
1.0
148
0.0
149
0.0
100
AcDbLayout
  1
Layout1
 70
     1
 71
     1
 10
0.0
 20
0.0
 11
297.0
 21
210.0
 12
0.0
 22
0.0
 32
0.0
 14
0.0
 24
0.0
 34
0.0
 15
297.0
 25
210.0
 35
0.0
146
0.0
 13
0.0
 23
0.0
 33
0.0
 16
1.0
 26
0.0
 36
0.0
 17
0.0
 27
1.0
 37
0.0
 76
     0
330
1B
  0
LAYOUT
  5
22
102
{ACAD_REACTORS
330
1A
102
}
330
1A
100
AcDbPlotSettings
  1

  2
none_device
  4

  6

 40
0.0
 41
0.0
 42
0.0
 43
0.0
 44
0.0
 45
0.0
 46
0.0
 47
0.0
 48
0.0
 49
0.0
140
0.0
141
0.0
142
1.0
143
1.0
 70
  1712
 72
     0
 73
     0
 74
     0
  7

 75
     0
147
1.0
148
0.0
149
0.0
100
AcDbLayout
  1
Model
 70
     1
 71
     0
 10
0.0
 20
0.0
 11
297.0
 21
210.0
 12
0.0
 22
0.0
 32
0.0
 14
0.0
 24
0.0
 34
0.0
 15
297.0
 25
210.0
 35
0.0
146
0.0
 13
0.0
 23
0.0
 33
0.0
 16
1.0
 26
0.0
 36
0.0
 17
0.0
 27
1.0
 37
0.0
 76
     0
330
1F
331
29
  0
MATERIAL
  5
3D
102
{ACAD_REACTORS
330
3B
102
}
102
{ACAD_XDICTIONARY
360
19A
102
}
330
3B
100
AcDbMaterial
  1
ByBlock
  0
MATERIAL
  5
3C
102
{ACAD_REACTORS
330
3B
102
}
102
{ACAD_XDICTIONARY
360
198
102
}
330
3B
100
AcDbMaterial
  1
ByLayer
  0
MATERIAL
  5
3E
102
{ACAD_REACTORS
330
3B
102
}
102
{ACAD_XDICTIONARY
360
19C
102
}
330
3B
100
AcDbMaterial
  1
Global
  0
MLINESTYLE
  5
18
102
{ACAD_REACTORS
330
17
102
}
330
17
100
AcDbMlineStyle
  2
Standard
 70
     0
  3

 62
   256
 51
90.0
 52
90.0
 71
     2
 49
0.5
 62
   256
  6
BYLAYER
 49
-0.5
 62
   256
  6
BYLAYER
  0
ACDBPLACEHOLDER
  5
F
102
{ACAD_REACTORS
330
E
102
}
330
E
  0
VISUALSTYLE
  5
2F
102
{ACAD_REACTORS
330
2A
102
}
102
{ACAD_XDICTIONARY
360
180
102
}
330
2A
100
AcDbVisualStyle
  2
2dWireframe
 70
     4
 71
     0
 72
     2
 73
     0
 90
        0
 40
-0.6
 41
-30.0
 62
     5
 63
     7
 74
     1
 91
        4
 64
     7
 65
   257
 75
     1
175
     1
 42
1.0
 92
        0
 66
   257
 43
1.0
 76
     1
 77
     6
 78
     2
 67
     7
 79
     5
170
     0
171
     0
290
     0
174
     0
 93
        1
 44
0.0
173
     0
291
     0
 45
0.0
1001
ACAD
1000
AcDbSavedByObjectVersion
1070
     0
  0
VISUALSTYLE
  5
31
102
{ACAD_REACTORS
330
2A
102
}
102
{ACAD_XDICTIONARY
360
184
102
}
330
2A
100
AcDbVisualStyle
  2
3D Hidden
 70
     6
 71
     1
 72
     2
 73
     2
 90
        0
 40
-0.6
 41
-30.0
 62
     5
 63
     7
 74
     2
 91
        2
 64
     7
 65
   257
 75
     2
175
     1
 42
40.0
 92
        0
 66
   257
 43
1.0
 76
     1
 77
     6
 78
     2
 67
     7
 79
     3
170
     0
171
     0
290
     0
174
     0
 93
        1
 44
0.0
173
     0
291
     0
 45
0.0
1001
ACAD
1000
AcDbSavedByObjectVersion
1070
     0
  0
VISUALSTYLE
  5
30
102
{ACAD_REACTORS
330
2A
102
}
102
{ACAD_XDICTIONARY
360
182
102
}
330
2A
100
AcDbVisualStyle
  2
3dWireframe
 70
     5
 71
     0
 72
     2
 73
     0
 90
        0
 40
-0.6
 41
-30.0
 62
     5
 63
     7
 74
     1
 91
        4
 64
     7
 65
   257
 75
     1
175
     1
 42
1.0
 92
        0
 66
   257
 43
1.0
 76
     1
 77
     6
 78
     2
 67
     7
 79
     5
170
     0
171
     0
290
     0
174
     0
 93
        1
 44
0.0
173
     0
291
     0
 45
0.0
1001
ACAD
1000
AcDbSavedByObjectVersion
1070
     0
  0
VISUALSTYLE
  5
32
102
{ACAD_REACTORS
330
2A
102
}
102
{ACAD_XDICTIONARY
360
186
102
}
330
2A
100
AcDbVisualStyle
  2
Basic
 70
     7
 71
     1
 72
     0
 73
     1
 90
        0
 40
-0.6
 41
-30.0
 62
     5
 63
     7
 74
     0
 91
        4
 64
     7
 65
   257
 75
     1
175
     1
 42
1.0
 92
        8
 66
     7
 43
1.0
 76
     1
 77
     6
 78
     2
 67
     7
 79
     5
170
     0
171
     0
290
     0
174
     0
 93
        1
 44
0.0
173
     0
291
     1
 45
0.0
1001
ACAD
1000
AcDbSavedByObjectVersion
1070
     0
  0
VISUALSTYLE
  5
36
102
{ACAD_REACTORS
330
2A
102
}
102
{ACAD_XDICTIONARY
360
18E
102
}
330
2A
100
AcDbVisualStyle
  2
Brighten
 70
    12
 71
     2
 72
     2
 73
     0
 90
        0
 40
-0.6
 41
-30.0
 62
     5
 63
     7
 74
     1
 91
        4
 64
     7
 65
   257
 75
     1
175
     1
 42
1.0
 92
        8
 66
     7
 43
1.0
 76
     1
 77
     6
 78
     2
 67
     7
 79
     5
170
     0
171
     0
290
     0
174
     0
 93
        1
 44
50.0
173
     0
291
     1
 45
0.0
1001
ACAD
1000
AcDbSavedByObjectVersion
1070
     0
  0
VISUALSTYLE
  5
3A
102
{ACAD_REACTORS
330
2A
102
}
102
{ACAD_XDICTIONARY
360
196
102
}
330
2A
100
AcDbVisualStyle
  2
ColorChange
 70
    16
 71
     2
 72
     2
 73
     3
 90
        0
 40
-0.6
 41
-30.0
 62
     5
 63
     8
 74
     1
 91
        4
 64
     7
 65
   257
 75
     1
175
     1
 42
1.0
 92
        8
 66
     8
 43
1.0
 76
     1
 77
     6
 78
     2
 67
     7
 79
     5
170
     0
171
     0
290
     0
174
     0
 93
        1
 44
0.0
173
     0
291
     1
 45
0.0
1001
ACAD
1000
AcDbSavedByObjectVersion
1070
     0
  0
VISUALSTYLE
  5
34
102
{ACAD_REACTORS
330
2A
102
}
102
{ACAD_XDICTIONARY
360
18A
102
}
330
2A
100
AcDbVisualStyle
  2
Conceptual
 70
     9
 71
     3
 72
     2
 73
     0
 90
        0
 40
-0.6
 41
-30.0
 62
     5
 63
     7
 74
     2
 91
        2
 64
     7
 65
   257
 75
     1
175
     1
 42
40.0
 92
        8
 66
     7
 43
1.0
 76
     1
 77
     6
 78
     2
 67
     7
 79
     3
170
     0
171
     0
290
     0
174
     0
 93
        1
 44
0.0
173
     0
291
     0
 45
0.0
1001
ACAD
1000
AcDbSavedByObjectVersion
1070
     0
  0
VISUALSTYLE
  5
35
102
{ACAD_REACTORS
330
2A
102
}
102
{ACAD_XDICTIONARY
360
18C
102
}
330
2A
100
AcDbVisualStyle
  2
Dim
 70
    11
 71
     2
 72
     2
 73
     0
 90
        0
 40
-0.6
 41
-30.0
 62
     5
 63
     7
 74
     1
 91
        4
 64
     7
 65
   257
 75
     1
175
     1
 42
1.0
 92
        8
 66
     7
 43
1.0
 76
     1
 77
     6
 78
     2
 67
     7
 79
     5
170
     0
171
     0
290
     0
174
     0
 93
        1
 44
-50.0
173
     0
291
     1
 45
0.0
1001
ACAD
1000
AcDbSavedByObjectVersion
1070
     0
  0
VISUALSTYLE
  5
39
102
{ACAD_REACTORS
330
2A
102
}
102
{ACAD_XDICTIONARY
360
194
102
}
330
2A
100
AcDbVisualStyle
  2
Facepattern
 70
    15
 71
     2
 72
     2
 73
     0
 90
        0
 40
-0.6
 41
-30.0
 62
     5
 63
     7
 74
     1
 91
        4
 64
     7
 65
   257
 75
     1
175
     1
 42
1.0
 92
        8
 66
     7
 43
1.0
 76
     1
 77
     6
 78
     2
 67
     7
 79
     5
170
     0
171
     0
290
     0
174
     0
 93
        1
 44
0.0
173
     0
291
     1
 45
0.0
1001
ACAD
1000
AcDbSavedByObjectVersion
1070
     0
  0
VISUALSTYLE
  5
2B
102
{ACAD_REACTORS
330
2A
102
}
102
{ACAD_XDICTIONARY
360
178
102
}
330
2A
100
AcDbVisualStyle
  2
Flat
 70
     0
 71
     2
 72
     1
 73
     1
 90
        2
 40
-0.6
 41
30.0
 62
     5
 63
     7
 74
     0
 91
        4
 64
     7
 65
   257
 75
     1
175
     1
 42
1.0
 92
        8
 66
     7
 43
1.0
 76
     1
 77
     6
 78
     2
 67
     7
 79
     5
170
     0
171
     0
290
     0
174
     0
 93
       13
 44
0.0
173
     0
291
     1
 45
0.0
1001
ACAD
1000
AcDbSavedByObjectVersion
1070
     0
  0
VISUALSTYLE
  5
2C
102
{ACAD_REACTORS
330
2A
102
}
102
{ACAD_XDICTIONARY
360
17A
102
}
330
2A
100
AcDbVisualStyle
  2
FlatWithEdges
 70
     1
 71
     2
 72
     1
 73
     1
 90
        2
 40
-0.6
 41
30.0
 62
     5
 63
     7
 74
     1
 91
        4
 64
     7
 65
   257
 75
     1
175
     1
 42
1.0
 92
        0
 66
   257
 43
1.0
 76
     1
 77
     6
 78
     2
 67
     7
 79
     5
170
     0
171
     0
290
     0
174
     0
 93
       13
 44
0.0
173
     0
291
     1
 45
0.0
1001
ACAD
1000
AcDbSavedByObjectVersion
1070
     0
  0
VISUALSTYLE
  5
2D
102
{ACAD_REACTORS
330
2A
102
}
102
{ACAD_XDICTIONARY
360
17C
102
}
330
2A
100
AcDbVisualStyle
  2
Gouraud
 70
     2
 71
     2
 72
     2
 73
     1
 90
        2
 40
-0.6
 41
30.0
 62
     5
 63
     7
 74
     0
 91
        4
 64
     7
 65
   257
 75
     1
175
     1
 42
1.0
 92
        0
 66
     7
 43
1.0
 76
     1
 77
     6
 78
     2
 67
     7
 79
     5
170
     0
171
     0
290
     0
174
     0
 93
       13
 44
0.0
173
     0
291
     1
 45
0.0
1001
ACAD
1000
AcDbSavedByObjectVersion
1070
     0
  0
VISUALSTYLE
  5
2E
102
{ACAD_REACTORS
330
2A
102
}
102
{ACAD_XDICTIONARY
360
17E
102
}
330
2A
100
AcDbVisualStyle
  2
GouraudWithEdges
 70
     3
 71
     2
 72
     2
 73
     1
 90
        2
 40
-0.6
 41
30.0
 62
     5
 63
     7
 74
     1
 91
        4
 64
     7
 65
   257
 75
     1
175
     1
 42
1.0
 92
        0
 66
   257
 43
1.0
 76
     1
 77
     6
 78
     2
 67
     7
 79
     5
170
     0
171
     0
290
     0
174
     0
 93
       13
 44
0.0
173
     0
291
     1
 45
0.0
1001
ACAD
1000
AcDbSavedByObjectVersion
1070
     0
  0
VISUALSTYLE
  5
38
102
{ACAD_REACTORS
330
2A
102
}
102
{ACAD_XDICTIONARY
360
192
102
}
330
2A
100
AcDbVisualStyle
  2
Linepattern
 70
    14
 71
     2
 72
     2
 73
     0
 90
        0
 40
-0.6
 41
-30.0
 62
     5
 63
     7
 74
     1
 91
        4
 64
     7
 65
   257
 75
     7
175
     7
 42
1.0
 92
        8
 66
     7
 43
1.0
 76
     1
 77
     6
 78
     2
 67
     7
 79
     5
170
     0
171
     0
290
     0
174
     0
 93
        1
 44
0.0
173
     0
291
     1
 45
0.0
1001
ACAD
1000
AcDbSavedByObjectVersion
1070
     0
  0
VISUALSTYLE
  5
33
102
{ACAD_REACTORS
330
2A
102
}
102
{ACAD_XDICTIONARY
360
188
102
}
330
2A
100
AcDbVisualStyle
  2
Realistic
 70
     8
 71
     2
 72
     2
 73
     0
 90
        0
 40
-0.6
 41
-30.0
 62
     5
 63
     7
 74
     1
 91
        0
 64
     7
 65
   257
 75
     1
175
     1
 42
1.0
 92
        8
 66
     8
 43
1.0
 76
     1
 77
     6
 78
     2
 67
     7
 79
     5
170
     0
171
     0
290
     0
174
     0
 93
       13
 44
0.0
173
     0
291
     0
 45
0.0
1001
ACAD
1000
AcDbSavedByObjectVersion
1070
     0
  0
VISUALSTYLE
  5
37
102
{ACAD_REACTORS
330
2A
102
}
102
{ACAD_XDICTIONARY
360
190
102
}
330
2A
100
AcDbVisualStyle
  2
Thicken
 70
    13
 71
     2
 72
     2
 73
     0
 90
        0
 40
-0.6
 41
-30.0
 62
     5
 63
     7
 74
     1
 91
        4
 64
     7
 65
   257
 75
     1
175
     1
 42
1.0
 92
       12
 66
     7
 43
1.0
 76
     1
 77
     6
 78
     2
 67
     7
 79
     5
170
     0
171
     0
290
     0
174
     0
 93
        1
 44
0.0
173
     0
291
     1
 45
0.0
1001
ACAD
1000
AcDbSavedByObjectVersion
1070
     0
  0
DICTIONARYVAR
  5
170
102
{ACAD_REACTORS
330
16B
102
}
330
16B
100
DictionaryVariables
280
     0
  1
2
  0
DICTIONARYVAR
  5
171
102
{ACAD_REACTORS
330
16B
102
}
330
16B
100
DictionaryVariables
280
     0
  1
1
  0
DICTIONARYVAR
  5
16F
102
{ACAD_REACTORS
330
16B
102
}
330
16B
100
DictionaryVariables
280
     0
  1
80.000000
  0
DICTIONARYVAR
  5
16E
102
{ACAD_REACTORS
330
16B
102
}
330
16B
100
DictionaryVariables
280
     0
  1
5.000000
  0
DICTIONARY
  5
19A
330
3D
100
AcDbDictionary
280
     1
281
     1
  3
ACAD_XREC_ROUNDTRIP
360
19B
  0
DICTIONARY
  5
198
330
3C
100
AcDbDictionary
280
     1
281
     1
  3
ACAD_XREC_ROUNDTRIP
360
199
  0
DICTIONARY
  5
19C
330
3E
100
AcDbDictionary
280
     1
281
     1
  3
ACAD_XREC_ROUNDTRIP
360
19D
  0
DICTIONARY
  5
180
330
2F
100
AcDbDictionary
280
     1
281
     1
  3
ACAD_XREC_ROUNDTRIP
360
181
  0
DICTIONARY
  5
184
330
31
100
AcDbDictionary
280
     1
281
     1
  3
ACAD_XREC_ROUNDTRIP
360
185
  0
DICTIONARY
  5
182
330
30
100
AcDbDictionary
280
     1
281
     1
  3
ACAD_XREC_ROUNDTRIP
360
183
  0
DICTIONARY
  5
186
330
32
100
AcDbDictionary
280
     1
281
     1
  3
ACAD_XREC_ROUNDTRIP
360
187
  0
DICTIONARY
  5
18E
330
36
100
AcDbDictionary
280
     1
281
     1
  3
ACAD_XREC_ROUNDTRIP
360
18F
  0
DICTIONARY
  5
196
330
3A
100
AcDbDictionary
280
     1
281
     1
  3
ACAD_XREC_ROUNDTRIP
360
197
  0
DICTIONARY
  5
18A
330
34
100
AcDbDictionary
280
     1
281
     1
  3
ACAD_XREC_ROUNDTRIP
360
18B
  0
DICTIONARY
  5
18C
330
35
100
AcDbDictionary
280
     1
281
     1
  3
ACAD_XREC_ROUNDTRIP
360
18D
  0
DICTIONARY
  5
194
330
39
100
AcDbDictionary
280
     1
281
     1
  3
ACAD_XREC_ROUNDTRIP
360
195
  0
DICTIONARY
  5
178
330
2B
100
AcDbDictionary
280
     1
281
     1
  3
ACAD_XREC_ROUNDTRIP
360
179
  0
DICTIONARY
  5
17A
330
2C
100
AcDbDictionary
280
     1
281
     1
  3
ACAD_XREC_ROUNDTRIP
360
17B
  0
DICTIONARY
  5
17C
330
2D
100
AcDbDictionary
280
     1
281
     1
  3
ACAD_XREC_ROUNDTRIP
360
17D
  0
DICTIONARY
  5
17E
330
2E
100
AcDbDictionary
280
     1
281
     1
  3
ACAD_XREC_ROUNDTRIP
360
17F
  0
DICTIONARY
  5
192
330
38
100
AcDbDictionary
280
     1
281
     1
  3
ACAD_XREC_ROUNDTRIP
360
193
  0
DICTIONARY
  5
188
330
33
100
AcDbDictionary
280
     1
281
     1
  3
ACAD_XREC_ROUNDTRIP
360
189
  0
DICTIONARY
  5
190
330
37
100
AcDbDictionary
280
     1
281
     1
  3
ACAD_XREC_ROUNDTRIP
360
191
  0
XRECORD
  5
19B
102
{ACAD_REACTORS
330
19A
102
}
330
19A
100
AcDbXrecord
280
     1
102
MATERIAL
148
0.0
149
0.0
149
0.0
 93
        0
 94
      127
282
     0
 72
     1
 77
     1
171
     1
175
     1
179
     1
273
     0
  0
XRECORD
  5
199
102
{ACAD_REACTORS
330
198
102
}
330
198
100
AcDbXrecord
280
     1
102
MATERIAL
148
0.0
149
0.0
149
0.0
 93
        0
 94
      127
282
     0
 72
     1
 77
     1
171
     1
175
     1
179
     1
273
     0
  0
XRECORD
  5
19D
102
{ACAD_REACTORS
330
19C
102
}
330
19C
100
AcDbXrecord
280
     1
102
MATERIAL
148
0.0
149
0.0
149
0.0
 93
        0
 94
      127
282
     0
 72
     1
 77
     1
171
     1
175
     1
179
     1
273
     0
  0
XRECORD
  5
181
102
{ACAD_REACTORS
330
180
102
}
330
180
100
AcDbXrecord
280
     1
102
RTVSPropertyOp0
 70
     1
102
RTVSPropertyOp1
 70
     1
102
RTVSPropertyOp2
 70
     1
102
RTVSPropertyOp3
 70
     1
102
RTVSPropertyOp4
 70
     1
102
RTVSPropertyOp5
 70
     1
102
RTVSPropertyOp6
 70
     1
102
RTVSPropertyOp7
 70
     1
102
RTVSPropertyOp8
 70
     1
102
RTVSPropertyOp9
 70
     1
102
RTVSPropertyOp10
 70
     1
102
RTVSPropertyOp11
 70
     1
102
RTVSPropertyOp12
 70
     1
102
RTVSPropertyOp13
 70
     1
102
RTVSPropertyOp14
 70
     1
102
RTVSPropertyOp15
 70
     1
102
RTVSPropertyOp16
 70
     1
102
RTVSPropertyOp17
 70
     1
102
RTVSPropertyOp18
 70
     1
102
RTVSPropertyOp19
 70
     1
102
RTVSPropertyOp20
 70
     1
102
RTVSPropertyOp21
 70
     1
102
RTVSPropertyOp22
 70
     1
102
RTVSPropertyOp23
 70
     1
102
RTVSPropertyOp24
 70
     1
102
RTVSPropertyOp25
 70
     1
102
RTVSPropertyOp26
 70
     1
102
RTVSPropertyOp27
 70
     1
102
RTVSPropertyOp28
 70
     1
102
RTVSPropertyOp29
 70
     1
102
RTVSPropertyOp30
 70
     1
102
RTVSPropertyOp31
 70
     1
102
RTVSPropertyOp32
 70
     1
  0
XRECORD
  5
185
102
{ACAD_REACTORS
330
184
102
}
330
184
100
AcDbXrecord
280
     1
102
RTVSPropertyOp0
 70
     1
102
RTVSPropertyOp1
 70
     1
102
RTVSPropertyOp2
 70
     1
102
RTVSPropertyOp3
 70
     1
102
RTVSPropertyOp4
 70
     1
102
RTVSPropertyOp5
 70
     1
102
RTVSPropertyOp6
 70
     1
102
RTVSPropertyOp7
 70
     1
102
RTVSPropertyOp8
 70
     1
102
RTVSPropertyOp9
 70
     1
102
RTVSPropertyOp10
 70
     1
102
RTVSPropertyOp11
 70
     1
102
RTVSPropertyOp12
 70
     1
102
RTVSPropertyOp13
 70
     1
102
RTVSPropertyOp14
 70
     1
102
RTVSPropertyOp15
 70
     1
102
RTVSPropertyOp16
 70
     1
102
RTVSPropertyOp17
 70
     1
102
RTVSPropertyOp18
 70
     1
102
RTVSPropertyOp19
 70
     1
102
RTVSPropertyOp20
 70
     1
102
RTVSPropertyOp21
 70
     1
102
RTVSPropertyOp22
 70
     1
102
RTVSPropertyOp23
 70
     1
102
RTVSPropertyOp24
 70
     1
102
RTVSPropertyOp25
 70
     1
102
RTVSPropertyOp26
 70
     1
102
RTVSPropertyOp27
 70
     1
102
RTVSPropertyOp28
 70
     1
102
RTVSPropertyOp29
 70
     1
102
RTVSPropertyOp30
 70
     1
102
RTVSPropertyOp31
 70
     1
102
RTVSPropertyOp32
 70
     1
  0
XRECORD
  5
183
102
{ACAD_REACTORS
330
182
102
}
330
182
100
AcDbXrecord
280
     1
102
RTVSPropertyOp0
 70
     1
102
RTVSPropertyOp1
 70
     1
102
RTVSPropertyOp2
 70
     1
102
RTVSPropertyOp3
 70
     1
102
RTVSPropertyOp4
 70
     1
102
RTVSPropertyOp5
 70
     1
102
RTVSPropertyOp6
 70
     1
102
RTVSPropertyOp7
 70
     1
102
RTVSPropertyOp8
 70
     1
102
RTVSPropertyOp9
 70
     1
102
RTVSPropertyOp10
 70
     1
102
RTVSPropertyOp11
 70
     1
102
RTVSPropertyOp12
 70
     1
102
RTVSPropertyOp13
 70
     1
102
RTVSPropertyOp14
 70
     1
102
RTVSPropertyOp15
 70
     1
102
RTVSPropertyOp16
 70
     1
102
RTVSPropertyOp17
 70
     1
102
RTVSPropertyOp18
 70
     1
102
RTVSPropertyOp19
 70
     1
102
RTVSPropertyOp20
 70
     1
102
RTVSPropertyOp21
 70
     1
102
RTVSPropertyOp22
 70
     1
102
RTVSPropertyOp23
 70
     1
102
RTVSPropertyOp24
 70
     1
102
RTVSPropertyOp25
 70
     1
102
RTVSPropertyOp26
 70
     1
102
RTVSPropertyOp27
 70
     1
102
RTVSPropertyOp28
 70
     1
102
RTVSPropertyOp29
 70
     1
102
RTVSPropertyOp30
 70
     1
102
RTVSPropertyOp31
 70
     1
102
RTVSPropertyOp32
 70
     1
  0
XRECORD
  5
187
102
{ACAD_REACTORS
330
186
102
}
330
186
100
AcDbXrecord
280
     1
102
RTVSPropertyOp0
 70
     1
102
RTVSPropertyOp1
 70
     1
102
RTVSPropertyOp2
 70
     1
102
RTVSPropertyOp3
 70
     1
102
RTVSPropertyOp4
 70
     1
102
RTVSPropertyOp5
 70
     1
102
RTVSPropertyOp6
 70
     1
102
RTVSPropertyOp7
 70
     1
102
RTVSPropertyOp8
 70
     1
102
RTVSPropertyOp9
 70
     1
102
RTVSPropertyOp10
 70
     1
102
RTVSPropertyOp11
 70
     1
102
RTVSPropertyOp12
 70
     1
102
RTVSPropertyOp13
 70
     1
102
RTVSPropertyOp14
 70
     1
102
RTVSPropertyOp15
 70
     1
102
RTVSPropertyOp16
 70
     1
102
RTVSPropertyOp17
 70
     1
102
RTVSPropertyOp18
 70
     1
102
RTVSPropertyOp19
 70
     1
102
RTVSPropertyOp20
 70
     1
102
RTVSPropertyOp21
 70
     1
102
RTVSPropertyOp22
 70
     1
102
RTVSPropertyOp23
 70
     1
102
RTVSPropertyOp24
 70
     1
102
RTVSPropertyOp25
 70
     1
102
RTVSPropertyOp26
 70
     1
102
RTVSPropertyOp27
 70
     1
102
RTVSPropertyOp28
 70
     1
102
RTVSPropertyOp29
 70
     1
102
RTVSPropertyOp30
 70
     1
102
RTVSPropertyOp31
 70
     1
102
RTVSPropertyOp32
 70
     1
  0
XRECORD
  5
18F
102
{ACAD_REACTORS
330
18E
102
}
330
18E
100
AcDbXrecord
280
     1
102
RTVSPropertyOp0
 70
     1
102
RTVSPropertyOp1
 70
     1
102
RTVSPropertyOp2
 70
     1
102
RTVSPropertyOp3
 70
     1
102
RTVSPropertyOp4
 70
     1
102
RTVSPropertyOp5
 70
     1
102
RTVSPropertyOp6
 70
     1
102
RTVSPropertyOp7
 70
     1
102
RTVSPropertyOp8
 70
     1
102
RTVSPropertyOp9
 70
     1
102
RTVSPropertyOp10
 70
     1
102
RTVSPropertyOp11
 70
     1
102
RTVSPropertyOp12
 70
     1
102
RTVSPropertyOp13
 70
     1
102
RTVSPropertyOp14
 70
     1
102
RTVSPropertyOp15
 70
     1
102
RTVSPropertyOp16
 70
     1
102
RTVSPropertyOp17
 70
     1
102
RTVSPropertyOp18
 70
     1
102
RTVSPropertyOp19
 70
     1
102
RTVSPropertyOp20
 70
     1
102
RTVSPropertyOp21
 70
     1
102
RTVSPropertyOp22
 70
     1
102
RTVSPropertyOp23
 70
     1
102
RTVSPropertyOp24
 70
     1
102
RTVSPropertyOp25
 70
     1
102
RTVSPropertyOp26
 70
     1
102
RTVSPropertyOp27
 70
     1
102
RTVSPropertyOp28
 70
     1
102
RTVSPropertyOp29
 70
     1
102
RTVSPropertyOp30
 70
     1
102
RTVSPropertyOp31
 70
     1
102
RTVSPropertyOp32
 70
     1
  0
XRECORD
  5
197
102
{ACAD_REACTORS
330
196
102
}
330
196
100
AcDbXrecord
280
     1
102
RTVSPropertyOp0
 70
     1
102
RTVSPropertyOp1
 70
     1
102
RTVSPropertyOp2
 70
     1
102
RTVSPropertyOp3
 70
     1
102
RTVSPropertyOp4
 70
     1
102
RTVSPropertyOp5
 70
     1
102
RTVSPropertyOp6
 70
     1
102
RTVSPropertyOp7
 70
     1
102
RTVSPropertyOp8
 70
     1
102
RTVSPropertyOp9
 70
     1
102
RTVSPropertyOp10
 70
     1
102
RTVSPropertyOp11
 70
     1
102
RTVSPropertyOp12
 70
     1
102
RTVSPropertyOp13
 70
     1
102
RTVSPropertyOp14
 70
     1
102
RTVSPropertyOp15
 70
     1
102
RTVSPropertyOp16
 70
     1
102
RTVSPropertyOp17
 70
     1
102
RTVSPropertyOp18
 70
     1
102
RTVSPropertyOp19
 70
     1
102
RTVSPropertyOp20
 70
     1
102
RTVSPropertyOp21
 70
     1
102
RTVSPropertyOp22
 70
     1
102
RTVSPropertyOp23
 70
     1
102
RTVSPropertyOp24
 70
     1
102
RTVSPropertyOp25
 70
     1
102
RTVSPropertyOp26
 70
     1
102
RTVSPropertyOp27
 70
     1
102
RTVSPropertyOp28
 70
     1
102
RTVSPropertyOp29
 70
     1
102
RTVSPropertyOp30
 70
     1
102
RTVSPropertyOp31
 70
     1
102
RTVSPropertyOp32
 70
     1
  0
XRECORD
  5
18B
102
{ACAD_REACTORS
330
18A
102
}
330
18A
100
AcDbXrecord
280
     1
102
RTVSPropertyOp0
 70
     1
102
RTVSPropertyOp1
 70
     1
102
RTVSPropertyOp2
 70
     1
102
RTVSPropertyOp3
 70
     1
102
RTVSPropertyOp4
 70
     1
102
RTVSPropertyOp5
 70
     1
102
RTVSPropertyOp6
 70
     1
102
RTVSPropertyOp7
 70
     1
102
RTVSPropertyOp8
 70
     1
102
RTVSPropertyOp9
 70
     1
102
RTVSPropertyOp10
 70
     1
102
RTVSPropertyOp11
 70
     1
102
RTVSPropertyOp12
 70
     1
102
RTVSPropertyOp13
 70
     1
102
RTVSPropertyOp14
 70
     1
102
RTVSPropertyOp15
 70
     1
102
RTVSPropertyOp16
 70
     1
102
RTVSPropertyOp17
 70
     1
102
RTVSPropertyOp18
 70
     1
102
RTVSPropertyOp19
 70
     1
102
RTVSPropertyOp20
 70
     1
102
RTVSPropertyOp21
 70
     1
102
RTVSPropertyOp22
 70
     1
102
RTVSPropertyOp23
 70
     1
102
RTVSPropertyOp24
 70
     1
102
RTVSPropertyOp25
 70
     1
102
RTVSPropertyOp26
 70
     1
102
RTVSPropertyOp27
 70
     1
102
RTVSPropertyOp28
 70
     1
102
RTVSPropertyOp29
 70
     1
102
RTVSPropertyOp30
 70
     1
102
RTVSPropertyOp31
 70
     1
102
RTVSPropertyOp32
 70
     1
  0
XRECORD
  5
18D
102
{ACAD_REACTORS
330
18C
102
}
330
18C
100
AcDbXrecord
280
     1
102
RTVSPropertyOp0
 70
     1
102
RTVSPropertyOp1
 70
     1
102
RTVSPropertyOp2
 70
     1
102
RTVSPropertyOp3
 70
     1
102
RTVSPropertyOp4
 70
     1
102
RTVSPropertyOp5
 70
     1
102
RTVSPropertyOp6
 70
     1
102
RTVSPropertyOp7
 70
     1
102
RTVSPropertyOp8
 70
     1
102
RTVSPropertyOp9
 70
     1
102
RTVSPropertyOp10
 70
     1
102
RTVSPropertyOp11
 70
     1
102
RTVSPropertyOp12
 70
     1
102
RTVSPropertyOp13
 70
     1
102
RTVSPropertyOp14
 70
     1
102
RTVSPropertyOp15
 70
     1
102
RTVSPropertyOp16
 70
     1
102
RTVSPropertyOp17
 70
     1
102
RTVSPropertyOp18
 70
     1
102
RTVSPropertyOp19
 70
     1
102
RTVSPropertyOp20
 70
     1
102
RTVSPropertyOp21
 70
     1
102
RTVSPropertyOp22
 70
     1
102
RTVSPropertyOp23
 70
     1
102
RTVSPropertyOp24
 70
     1
102
RTVSPropertyOp25
 70
     1
102
RTVSPropertyOp26
 70
     1
102
RTVSPropertyOp27
 70
     1
102
RTVSPropertyOp28
 70
     1
102
RTVSPropertyOp29
 70
     1
102
RTVSPropertyOp30
 70
     1
102
RTVSPropertyOp31
 70
     1
102
RTVSPropertyOp32
 70
     1
  0
XRECORD
  5
195
102
{ACAD_REACTORS
330
194
102
}
330
194
100
AcDbXrecord
280
     1
102
RTVSPropertyOp0
 70
     1
102
RTVSPropertyOp1
 70
     1
102
RTVSPropertyOp2
 70
     1
102
RTVSPropertyOp3
 70
     1
102
RTVSPropertyOp4
 70
     1
102
RTVSPropertyOp5
 70
     1
102
RTVSPropertyOp6
 70
     1
102
RTVSPropertyOp7
 70
     1
102
RTVSPropertyOp8
 70
     1
102
RTVSPropertyOp9
 70
     1
102
RTVSPropertyOp10
 70
     1
102
RTVSPropertyOp11
 70
     1
102
RTVSPropertyOp12
 70
     1
102
RTVSPropertyOp13
 70
     1
102
RTVSPropertyOp14
 70
     1
102
RTVSPropertyOp15
 70
     1
102
RTVSPropertyOp16
 70
     1
102
RTVSPropertyOp17
 70
     1
102
RTVSPropertyOp18
 70
     1
102
RTVSPropertyOp19
 70
     1
102
RTVSPropertyOp20
 70
     1
102
RTVSPropertyOp21
 70
     1
102
RTVSPropertyOp22
 70
     1
102
RTVSPropertyOp23
 70
     1
102
RTVSPropertyOp24
 70
     1
102
RTVSPropertyOp25
 70
     1
102
RTVSPropertyOp26
 70
     1
102
RTVSPropertyOp27
 70
     1
102
RTVSPropertyOp28
 70
     1
102
RTVSPropertyOp29
 70
     1
102
RTVSPropertyOp30
 70
     1
102
RTVSPropertyOp31
 70
     1
102
RTVSPropertyOp32
 70
     1
  0
XRECORD
  5
179
102
{ACAD_REACTORS
330
178
102
}
330
178
100
AcDbXrecord
280
     1
102
RTVSPropertyOp0
 70
     1
102
RTVSPropertyOp1
 70
     1
102
RTVSPropertyOp2
 70
     1
102
RTVSPropertyOp3
 70
     1
102
RTVSPropertyOp4
 70
     1
102
RTVSPropertyOp5
 70
     1
102
RTVSPropertyOp6
 70
     1
102
RTVSPropertyOp7
 70
     1
102
RTVSPropertyOp8
 70
     1
102
RTVSPropertyOp9
 70
     1
102
RTVSPropertyOp10
 70
     1
102
RTVSPropertyOp11
 70
     1
102
RTVSPropertyOp12
 70
     1
102
RTVSPropertyOp13
 70
     1
102
RTVSPropertyOp14
 70
     1
102
RTVSPropertyOp15
 70
     1
102
RTVSPropertyOp16
 70
     1
102
RTVSPropertyOp17
 70
     1
102
RTVSPropertyOp18
 70
     1
102
RTVSPropertyOp19
 70
     1
102
RTVSPropertyOp20
 70
     1
102
RTVSPropertyOp21
 70
     1
102
RTVSPropertyOp22
 70
     1
102
RTVSPropertyOp23
 70
     1
102
RTVSPropertyOp24
 70
     1
102
RTVSPropertyOp25
 70
     1
102
RTVSPropertyOp26
 70
     1
102
RTVSPropertyOp27
 70
     1
102
RTVSPropertyOp28
 70
     1
102
RTVSPropertyOp29
 70
     1
102
RTVSPropertyOp30
 70
     1
102
RTVSPropertyOp31
 70
     1
102
RTVSPropertyOp32
 70
     1
  0
XRECORD
  5
17B
102
{ACAD_REACTORS
330
17A
102
}
330
17A
100
AcDbXrecord
280
     1
102
RTVSPropertyOp0
 70
     1
102
RTVSPropertyOp1
 70
     1
102
RTVSPropertyOp2
 70
     1
102
RTVSPropertyOp3
 70
     1
102
RTVSPropertyOp4
 70
     1
102
RTVSPropertyOp5
 70
     1
102
RTVSPropertyOp6
 70
     1
102
RTVSPropertyOp7
 70
     1
102
RTVSPropertyOp8
 70
     1
102
RTVSPropertyOp9
 70
     1
102
RTVSPropertyOp10
 70
     1
102
RTVSPropertyOp11
 70
     1
102
RTVSPropertyOp12
 70
     1
102
RTVSPropertyOp13
 70
     1
102
RTVSPropertyOp14
 70
     1
102
RTVSPropertyOp15
 70
     1
102
RTVSPropertyOp16
 70
     1
102
RTVSPropertyOp17
 70
     1
102
RTVSPropertyOp18
 70
     1
102
RTVSPropertyOp19
 70
     1
102
RTVSPropertyOp20
 70
     1
102
RTVSPropertyOp21
 70
     1
102
RTVSPropertyOp22
 70
     1
102
RTVSPropertyOp23
 70
     1
102
RTVSPropertyOp24
 70
     1
102
RTVSPropertyOp25
 70
     1
102
RTVSPropertyOp26
 70
     1
102
RTVSPropertyOp27
 70
     1
102
RTVSPropertyOp28
 70
     1
102
RTVSPropertyOp29
 70
     1
102
RTVSPropertyOp30
 70
     1
102
RTVSPropertyOp31
 70
     1
102
RTVSPropertyOp32
 70
     1
  0
XRECORD
  5
17D
102
{ACAD_REACTORS
330
17C
102
}
330
17C
100
AcDbXrecord
280
     1
102
RTVSPropertyOp0
 70
     1
102
RTVSPropertyOp1
 70
     1
102
RTVSPropertyOp2
 70
     1
102
RTVSPropertyOp3
 70
     1
102
RTVSPropertyOp4
 70
     1
102
RTVSPropertyOp5
 70
     1
102
RTVSPropertyOp6
 70
     1
102
RTVSPropertyOp7
 70
     1
102
RTVSPropertyOp8
 70
     1
102
RTVSPropertyOp9
 70
     1
102
RTVSPropertyOp10
 70
     1
102
RTVSPropertyOp11
 70
     1
102
RTVSPropertyOp12
 70
     1
102
RTVSPropertyOp13
 70
     1
102
RTVSPropertyOp14
 70
     1
102
RTVSPropertyOp15
 70
     1
102
RTVSPropertyOp16
 70
     1
102
RTVSPropertyOp17
 70
     1
102
RTVSPropertyOp18
 70
     1
102
RTVSPropertyOp19
 70
     1
102
RTVSPropertyOp20
 70
     1
102
RTVSPropertyOp21
 70
     1
102
RTVSPropertyOp22
 70
     1
102
RTVSPropertyOp23
 70
     1
102
RTVSPropertyOp24
 70
     1
102
RTVSPropertyOp25
 70
     1
102
RTVSPropertyOp26
 70
     1
102
RTVSPropertyOp27
 70
     1
102
RTVSPropertyOp28
 70
     1
102
RTVSPropertyOp29
 70
     1
102
RTVSPropertyOp30
 70
     1
102
RTVSPropertyOp31
 70
     1
102
RTVSPropertyOp32
 70
     1
  0
XRECORD
  5
17F
102
{ACAD_REACTORS
330
17E
102
}
330
17E
100
AcDbXrecord
280
     1
102
RTVSPropertyOp0
 70
     1
102
RTVSPropertyOp1
 70
     1
102
RTVSPropertyOp2
 70
     1
102
RTVSPropertyOp3
 70
     1
102
RTVSPropertyOp4
 70
     1
102
RTVSPropertyOp5
 70
     1
102
RTVSPropertyOp6
 70
     1
102
RTVSPropertyOp7
 70
     1
102
RTVSPropertyOp8
 70
     1
102
RTVSPropertyOp9
 70
     1
102
RTVSPropertyOp10
 70
     1
102
RTVSPropertyOp11
 70
     1
102
RTVSPropertyOp12
 70
     1
102
RTVSPropertyOp13
 70
     1
102
RTVSPropertyOp14
 70
     1
102
RTVSPropertyOp15
 70
     1
102
RTVSPropertyOp16
 70
     1
102
RTVSPropertyOp17
 70
     1
102
RTVSPropertyOp18
 70
     1
102
RTVSPropertyOp19
 70
     1
102
RTVSPropertyOp20
 70
     1
102
RTVSPropertyOp21
 70
     1
102
RTVSPropertyOp22
 70
     1
102
RTVSPropertyOp23
 70
     1
102
RTVSPropertyOp24
 70
     1
102
RTVSPropertyOp25
 70
     1
102
RTVSPropertyOp26
 70
     1
102
RTVSPropertyOp27
 70
     1
102
RTVSPropertyOp28
 70
     1
102
RTVSPropertyOp29
 70
     1
102
RTVSPropertyOp30
 70
     1
102
RTVSPropertyOp31
 70
     1
102
RTVSPropertyOp32
 70
     1
  0
XRECORD
  5
193
102
{ACAD_REACTORS
330
192
102
}
330
192
100
AcDbXrecord
280
     1
102
RTVSPropertyOp0
 70
     1
102
RTVSPropertyOp1
 70
     1
102
RTVSPropertyOp2
 70
     1
102
RTVSPropertyOp3
 70
     1
102
RTVSPropertyOp4
 70
     1
102
RTVSPropertyOp5
 70
     1
102
RTVSPropertyOp6
 70
     1
102
RTVSPropertyOp7
 70
     1
102
RTVSPropertyOp8
 70
     1
102
RTVSPropertyOp9
 70
     1
102
RTVSPropertyOp10
 70
     1
102
RTVSPropertyOp11
 70
     1
102
RTVSPropertyOp12
 70
     1
102
RTVSPropertyOp13
 70
     1
102
RTVSPropertyOp14
 70
     1
102
RTVSPropertyOp15
 70
     1
102
RTVSPropertyOp16
 70
     1
102
RTVSPropertyOp17
 70
     1
102
RTVSPropertyOp18
 70
     1
102
RTVSPropertyOp19
 70
     1
102
RTVSPropertyOp20
 70
     1
102
RTVSPropertyOp21
 70
     1
102
RTVSPropertyOp22
 70
     1
102
RTVSPropertyOp23
 70
     1
102
RTVSPropertyOp24
 70
     1
102
RTVSPropertyOp25
 70
     1
102
RTVSPropertyOp26
 70
     1
102
RTVSPropertyOp27
 70
     1
102
RTVSPropertyOp28
 70
     1
102
RTVSPropertyOp29
 70
     1
102
RTVSPropertyOp30
 70
     1
102
RTVSPropertyOp31
 70
     1
102
RTVSPropertyOp32
 70
     1
  0
XRECORD
  5
189
102
{ACAD_REACTORS
330
188
102
}
330
188
100
AcDbXrecord
280
     1
102
RTVSPropertyOp0
 70
     1
102
RTVSPropertyOp1
 70
     1
102
RTVSPropertyOp2
 70
     1
102
RTVSPropertyOp3
 70
     1
102
RTVSPropertyOp4
 70
     1
102
RTVSPropertyOp5
 70
     1
102
RTVSPropertyOp6
 70
     1
102
RTVSPropertyOp7
 70
     1
102
RTVSPropertyOp8
 70
     1
102
RTVSPropertyOp9
 70
     1
102
RTVSPropertyOp10
 70
     1
102
RTVSPropertyOp11
 70
     1
102
RTVSPropertyOp12
 70
     1
102
RTVSPropertyOp13
 70
     1
102
RTVSPropertyOp14
 70
     1
102
RTVSPropertyOp15
 70
     1
102
RTVSPropertyOp16
 70
     1
102
RTVSPropertyOp17
 70
     1
102
RTVSPropertyOp18
 70
     1
102
RTVSPropertyOp19
 70
     1
102
RTVSPropertyOp20
 70
     1
102
RTVSPropertyOp21
 70
     1
102
RTVSPropertyOp22
 70
     1
102
RTVSPropertyOp23
 70
     1
102
RTVSPropertyOp24
 70
     1
102
RTVSPropertyOp25
 70
     1
102
RTVSPropertyOp26
 70
     1
102
RTVSPropertyOp27
 70
     1
102
RTVSPropertyOp28
 70
     1
102
RTVSPropertyOp29
 70
     1
102
RTVSPropertyOp30
 70
     1
102
RTVSPropertyOp31
 70
     1
102
RTVSPropertyOp32
 70
     1
  0
XRECORD
  5
191
102
{ACAD_REACTORS
330
190
102
}
330
190
100
AcDbXrecord
280
     1
102
RTVSPropertyOp0
 70
     1
102
RTVSPropertyOp1
 70
     1
102
RTVSPropertyOp2
 70
     1
102
RTVSPropertyOp3
 70
     1
102
RTVSPropertyOp4
 70
     1
102
RTVSPropertyOp5
 70
     1
102
RTVSPropertyOp6
 70
     1
102
RTVSPropertyOp7
 70
     1
102
RTVSPropertyOp8
 70
     1
102
RTVSPropertyOp9
 70
     1
102
RTVSPropertyOp10
 70
     1
102
RTVSPropertyOp11
 70
     1
102
RTVSPropertyOp12
 70
     1
102
RTVSPropertyOp13
 70
     1
102
RTVSPropertyOp14
 70
     1
102
RTVSPropertyOp15
 70
     1
102
RTVSPropertyOp16
 70
     1
102
RTVSPropertyOp17
 70
     1
102
RTVSPropertyOp18
 70
     1
102
RTVSPropertyOp19
 70
     1
102
RTVSPropertyOp20
 70
     1
102
RTVSPropertyOp21
 70
     1
102
RTVSPropertyOp22
 70
     1
102
RTVSPropertyOp23
 70
     1
102
RTVSPropertyOp24
 70
     1
102
RTVSPropertyOp25
 70
     1
102
RTVSPropertyOp26
 70
     1
102
RTVSPropertyOp27
 70
     1
102
RTVSPropertyOp28
 70
     1
102
RTVSPropertyOp29
 70
     1
102
RTVSPropertyOp30
 70
     1
102
RTVSPropertyOp31
 70
     1
102
RTVSPropertyOp32
 70
     1
  0
ENDSEC
  0
EOF
