  0
SECTION
  2
HEADER
  9
$ACADVER
  1
AC1015
  9
$ACADMAINTVER
 70
     6
  9
$DWGCODEPAGE
  3
ANSI_1252
  9
$INSBASE
 10
0.0
 20
0.0
 30
0.0
  9
$EXTMIN
 10
0.0
 20
0.0
 30
0.0
  9
$EXTMAX
 10
297.0
 20
210.0
 30
0.0
  9
$LIMMIN
 10
0.0
 20
0.0
  9
$LIMMAX
 10
297.0
 20
210.0
  9
$ORTHOMODE
 70
     0
  9
$REGENMODE
 70
     1
  9
$FILLMODE
 70
     1
  9
$QTEXTMODE
 70
     0
  9
$MIRRTEXT
 70
     1
  9
$LTSCALE
 40
1.0
  9
$ATTMODE
 70
     1
  9
$TEXTSIZE
 40
2.5
  9
$TRACEWID
 40
1.0
  9
$TEXTSTYLE
  7
Standard
  9
$CLAYER
  8
0
  9
$CELTYPE
  6
ByLayer
  9
$CECOLOR
 62
   256
  9
$CELTSCALE
 40
1.0
  9
$DISPSILH
 70
     0
  9
$DIMSCALE
 40
1.0
  9
$DIMASZ
 40
2.5
  9
$DIMEXO
 40
0.625
  9
$DIMDLI
 40
3.75
  9
$DIMRND
 40
0.0
  9
$DIMDLE
 40
0.0
  9
$DIMEXE
 40
1.25
  9
$DIMTP
 40
0.0
  9
$DIMTM
 40
0.0
  9
$DIMTXT
 40
2.5
  9
$DIMCEN
 40
2.5
  9
$DIMTSZ
 40
0.0
  9
$DIMTOL
 70
     0
  9
$DIMLIM
 70
     0
  9
$DIMTIH
 70
     0
  9
$DIMTOH
 70
     0
  9
$DIMSE1
 70
     0
  9
$DIMSE2
 70
     0
  9
$DIMTAD
 70
     1
  9
$DIMZIN
 70
     8
  9
$DIMBLK
  1

  9
$DIMASO
 70
     1
  9
$DIMSHO
 70
     1
  9
$DIMPOST
  1

  9
$DIMAPOST
  1

  9
$DIMALT
 70
     0
  9
$DIMALTD
 70
     3
  9
$DIMALTF
 40
0.0393700787
  9
$DIMLFAC
 40
1.0
  9
$DIMTOFL
 70
     1
  9
$DIMTVP
 40
0.0
  9
$DIMTIX
 70
     0
  9
$DIMSOXD
 70
     0
  9
$DIMSAH
 70
     0
  9
$DIMBLK1
  1

  9
$DIMBLK2
  1

  9
$DIMSTYLE
  2
ISO-25
  9
$DIMCLRD
 70
     0
  9
$DIMCLRE
 70
     0
  9
$DIMCLRT
 70
     0
  9
$DIMTFAC
 40
1.0
  9
$DIMGAP
 40
0.625
  9
$DIMJUST
 70
     0
  9
$DIMSD1
 70
     0
  9
$DIMSD2
 70
     0
  9
$DIMTOLJ
 70
     0
  9
$DIMTZIN
 70
     8
  9
$DIMALTZ
 70
     0
  9
$DIMALTTZ
 70
     0
  9
$DIMUPT
 70
     0
  9
$DIMDEC
 70
     2
  9
$DIMTDEC
 70
     2
  9
$DIMALTU
 70
     2
  9
$DIMALTTD
 70
     3
  9
$DIMTXSTY
  7
Standard
  9
$DIMAUNIT
 70
     0
  9
$DIMADEC
 70
     0
  9
$DIMALTRND
 40
0.0
  9
$DIMAZIN
 70
     0
  9
$DIMDSEP
 70
    44
  9
$DIMATFIT
 70
     3
  9
$DIMFRAC
 70
     0
  9
$DIMLDRBLK
  1

  9
$DIMLUNIT
 70
     2
  9
$DIMLWD
 70
    -2
  9
$DIMLWE
 70
    -2
  9
$DIMTMOVE
 70
     0
  9
$LUNITS
 70
     2
  9
$LUPREC
 70
     4
  9
$SKETCHINC
 40
1.0
  9
$FILLETRAD
 40
10.0
  9
$AUNITS
 70
     0
  9
$AUPREC
 70
     0
  9
$MENU
  1
.
  9
$ELEVATION
 40
0.0
  9
$PELEVATION
 40
0.0
  9
$THICKNESS
 40
0.0
  9
$LIMCHECK
 70
     0
  9
$CHAMFERA
 40
10.0
  9
$CHAMFERB
 40
10.0
  9
$CHAMFERC
 40
20.0
  9
$CHAMFERD
 40
0.0
  9
$SKPOLY
 70
     0
  9
$TDCREATE
 40
2457512.359454143
  9
$TDUCREATE
 40
2457512.27612081
  9
$TDUPDATE
 40
2457512.359455232
  9
$TDUUPDATE
 40
2457512.276121898
  9
$TDINDWG
 40
0.0000000116
  9
$TDUSRTIMER
 40
0.0000000116
  9
$USRTIMER
 70
     1
  9
$ANGBASE
 50
0.0
  9
$ANGDIR
 70
     0
  9
$PDMODE
 70
     0
  9
$PDSIZE
 40
0.0
  9
$PLINEWID
 40
0.0
  9
$SPLFRAME
 70
     0
  9
$SPLINETYPE
 70
     6
  9
$SPLINESEGS
 70
     8
  9
$HANDSEED
  5
1A7
  9
$SURFTAB1
 70
     6
  9
$SURFTAB2
 70
     6
  9
$SURFTYPE
 70
     6
  9
$SURFU
 70
     6
  9
$SURFV
 70
     6
  9
$UCSBASE
  2

  9
$UCSNAME
  2

  9
$UCSORG
 10
0.0
 20
0.0
 30
0.0
  9
$UCSXDIR
 10
1.0
 20
0.0
 30
0.0
  9
$UCSYDIR
 10
0.0
 20
1.0
 30
0.0
  9
$UCSORTHOREF
  2

  9
$UCSORTHOVIEW
 70
     0
  9
$UCSORGTOP
 10
0.0
 20
0.0
 30
0.0
  9
$UCSORGBOTTOM
 10
0.0
 20
0.0
 30
0.0
  9
$UCSORGLEFT
 10
0.0
 20
0.0
 30
0.0
  9
$UCSORGRIGHT
 10
0.0
 20
0.0
 30
0.0
  9
$UCSORGFRONT
 10
0.0
 20
0.0
 30
0.0
  9
$UCSORGBACK
 10
0.0
 20
0.0
 30
0.0
  9
$PUCSBASE
  2

  9
$PUCSNAME
  2

  9
$PUCSORG
 10
0.0
 20
0.0
 30
0.0
  9
$PUCSXDIR
 10
1.0
 20
0.0
 30
0.0
  9
$PUCSYDIR
 10
0.0
 20
1.0
 30
0.0
  9
$PUCSORTHOREF
  2

  9
$PUCSORTHOVIEW
 70
     0
  9
$PUCSORGTOP
 10
0.0
 20
0.0
 30
0.0
  9
$PUCSORGBOTTOM
 10
0.0
 20
0.0
 30
0.0
  9
$PUCSORGLEFT
 10
0.0
 20
0.0
 30
0.0
  9
$PUCSORGRIGHT
 10
0.0
 20
0.0
 30
0.0
  9
$PUCSORGFRONT
 10
0.0
 20
0.0
 30
0.0
  9
$PUCSORGBACK
 10
0.0
 20
0.0
 30
0.0
  9
$USERI1
 70
     0
  9
$USERI2
 70
     0
  9
$USERI3
 70
     0
  9
$USERI4
 70
     0
  9
$USERI5
 70
     0
  9
$USERR1
 40
0.0
  9
$USERR2
 40
0.0
  9
$USERR3
 40
0.0
  9
$USERR4
 40
0.0
  9
$USERR5
 40
0.0
  9
$WORLDVIEW
 70
     1
  9
$SHADEDGE
 70
     3
  9
$SHADEDIF
 70
    70
  9
$TILEMODE
 70
     1
  9
$MAXACTVP
 70
    64
  9
$PINSBASE
 10
0.0
 20
0.0
 30
0.0
  9
$PLIMCHECK
 70
     0
  9
$PEXTMIN
 10
0.0
 20
0.0
 30
0.0
  9
$PEXTMAX
 10
297.0
 20
210.0
 30
0.0
  9
$PLIMMIN
 10
0.0
 20
0.0
  9
$PLIMMAX
 10
297.0
 20
210.0
  9
$UNITMODE
 70
     0
  9
$VISRETAIN
 70
     1
  9
$PLINEGEN
 70
     0
  9
$PSLTSCALE
 70
     1
  9
$TREEDEPTH
 70
  3020
  9
$CMLSTYLE
  2
Standard
  9
$CMLJUST
 70
     0
  9
$CMLSCALE
 40
20.0
  9
$PROXYGRAPHICS
 70
     1
  9
$MEASUREMENT
 70
     1
  9
$CELWEIGHT
370
    -1
  9
$ENDCAPS
280
     0
  9
$JOINSTYLE
280
     0
  9
$LWDISPLAY
290
     0
  9
$INSUNITS
 70
     4
  9
$HYPERLINKBASE
  1

  9
$STYLESHEET
  1

  9
$XEDIT
290
     1
  9
$CEPSNTYPE
380
     0
  9
$PSTYLEMODE
290
     1
  9
$FINGERPRINTGUID
  2
{4548394A-BFFF-4FE4-87CB-CFE7143EC352}
  9
$VERSIONGUID
  2
{FAEB1C32-E019-11D5-929B-00C0DF256EC4}
  9
$EXTNAMES
290
     1
  9
$PSVPSCALE
 40
0.0
  9
$OLESTARTUP
290
     0
  0
ENDSEC
  0
SECTION
  2
CLASSES
  0
CLASS
  1
ACDBDICTIONARYWDFLT
  2
AcDbDictionaryWithDefault
  3
ObjectDBX Classes
 90
        0
280
     0
281
     0
  0
CLASS
  1
VISUALSTYLE
  2
AcDbVisualStyle
  3
ObjectDBX Classes
 90
     4095
280
     0
281
     0
  0
CLASS
  1
MATERIAL
  2
AcDbMaterial
  3
ObjectDBX Classes
 90
     1153
280
     0
281
     0
  0
CLASS
  1
DICTIONARYVAR
  2
AcDbDictionaryVar
  3
ObjectDBX Classes
 90
        0
280
     0
281
     0
  0
CLASS
  1
ACDBPLACEHOLDER
  2
AcDbPlaceHolder
  3
ObjectDBX Classes
 90
        0
280
     0
281
     0
  0
CLASS
  1
LAYOUT
  2
AcDbLayout
  3
ObjectDBX Classes
 90
        0
280
     0
281
     0
  0
ENDSEC
  0
SECTION
  2
TABLES
  0
TABLE
  2
VPORT
  5
8
330
0
100
AcDbSymbolTable
 70
     1
  0
VPORT
  5
29
330
8
100
AcDbSymbolTableRecord
100
AcDbViewportTableRecord
  2
*Active
 70
     0
 10
0.0
 20
0.0
 11
1.0
 21
1.0
 12
344.1869158879
 22
148.5
 13
0.0
 23
0.0
 14
10.0
 24
10.0
 15
10.0
 25
10.0
 16
0.0
 26
0.0
 36
1.0
 17
0.0
 27
0.0
 37
0.0
 40
297.0
 41
1.9729729729
 42
50.0
 43
0.0
 44
0.0
 50
0.0
 51
0.0
 71
     0
 72
   100
 73
     1
 74
     3
 75
     0
 76
     0
 77
     0
 78
     0
281
     0
 65
     1
110
0.0
120
0.0
130
0.0
111
1.0
121
0.0
131
0.0
112
0.0
122
1.0
132
0.0
 79
     0
146
0.0
  0
ENDTAB
  0
TABLE
  2
LTYPE
  5
5
330
0
100
AcDbSymbolTable
 70
     1
  0
LTYPE
  5
14
330
5
100
AcDbSymbolTableRecord
100
AcDbLinetypeTableRecord
  2
ByBlock
 70
     0
  3

 72
    65
 73
     0
 40
0.0
  0
LTYPE
  5
15
330
5
100
AcDbSymbolTableRecord
100
AcDbLinetypeTableRecord
  2
ByLayer
 70
     0
  3

 72
    65
 73
     0
 40
0.0
  0
LTYPE
  5
16
330
5
100
AcDbSymbolTableRecord
100
AcDbLinetypeTableRecord
  2
Continuous
 70
     0
  3
Solid line
 72
    65
 73
     0
 40
0.0
  0
ENDTAB
  0
TABLE
  2
LAYER
  5
2
330
0
100
AcDbSymbolTable
 70
     4
  0
LAYER
  5
10
330
2
100
AcDbSymbolTableRecord
100
AcDbLayerTableRecord
  2
0
 70
     0
 62
     7
  6
Continuous
370
    -3
390
F
  0
LAYER
  5
3F
330
2
100
AcDbSymbolTableRecord
100
AcDbLayerTableRecord
  2
Default
 70
     0
 62
     7
  6
Continuous
370
    -3
390
F
  0
LAYER
  5
42
330
2
100
AcDbSymbolTableRecord
100
AcDbLayerTableRecord
  2
DV1_Default
 70
     0
 62
     7
  6
Continuous
370
    -3
390
F
  0
LAYER
  5
50
330
2
100
AcDbSymbolTableRecord
100
AcDbLayerTableRecord
  2
0015022
 70
     0
 62
     7
  6
Continuous
370
    -3
390
F
  0
ENDTAB
  0
TABLE
  2
STYLE
  5
3
330
0
100
AcDbSymbolTable
 70
     4
  0
STYLE
  5
11
330
3
100
AcDbSymbolTableRecord
100
AcDbTextStyleTableRecord
  2
Standard
 70
     0
 40
0.0
 41
1.0
 50
0.0
 71
     0
 42
2.5
  3
txt
  4

  0
STYLE
  5
F2
330
3
100
AcDbSymbolTableRecord
100
AcDbTextStyleTableRecord
  2
SEACAD_Solid_Edge_ISO
 70
     0
 40
0.0
 41
1.0
 50
0.0
 71
     0
 42
0.2
  3
seiso.ttf
  4

1001
ACAD
1000
Solid Edge ISO
1071
        0
  0
STYLE
  5
113
330
3
100
AcDbSymbolTableRecord
100
AcDbTextStyleTableRecord
  2
SEACAD_Solid_Edge_ANSIB
 70
     0
 40
0.0
 41
1.0
 50
0.0
 71
     0
 42
0.2
  3
seansbd.ttf
  4

1001
ACAD
1000
Solid Edge ANSI
1071
 33554432
  0
STYLE
  5
118
330
3
100
AcDbSymbolTableRecord
100
AcDbTextStyleTableRecord
  2
SEACAD_Solid_Edge_ANSI
 70
     0
 40
0.0
 41
1.0
 50
0.0
 71
     0
 42
0.2
  3
seans.ttf
  4

1001
ACAD
1000
Solid Edge ANSI
1071
        0
  0
ENDTAB
  0
TABLE
  2
VIEW
  5
6
330
0
100
AcDbSymbolTable
 70
     0
  0
ENDTAB
  0
TABLE
  2
UCS
  5
7
330
0
100
AcDbSymbolTable
 70
     0
  0
ENDTAB
  0
TABLE
  2
APPID
  5
9
330
0
100
AcDbSymbolTable
 70
     1
  0
APPID
  5
12
330
9
100
AcDbSymbolTableRecord
100
AcDbRegAppTableRecord
  2
ACAD
 70
     0
  0
ENDTAB
  0
TABLE
  2
DIMSTYLE
  5
A
330
0
100
AcDbSymbolTable
 70
     3
100
AcDbDimStyleTable
  0
DIMSTYLE
105
27
330
A
100
AcDbSymbolTableRecord
100
AcDbDimStyleTableRecord
  2
ISO-25
 70
     0
 41
2.5
 42
0.625
 43
3.75
 44
1.25
 73
     0
 74
     0
 77
     1
 78
     8
140
2.5
141
2.5
143
0.0393700787
147
0.625
171
     3
172
     1
178
     0
271
     2
272
     2
274
     3
278
    44
283
     0
284
     8
340
11
  0
DIMSTYLE
105
E0
330
A
100
AcDbSymbolTableRecord
100
AcDbDimStyleTableRecord
  2
Standard
 70
     0
178
     0
340
11
  0
DIMSTYLE
105
F3
102
{ACAD_REACTORS
330
F4
330
FE
330
108
102
}
330
A
100
AcDbSymbolTableRecord
100
AcDbDimStyleTableRecord
  2
DIN
 70
     0
 41
3.5
 42
0.0
 44
1.75
 73
     0
 74
     0
 77
     1
 78
     8
140
3.5
141
1.75
147
1.75
172
     1
173
     1
178
     0
179
     3
271
     3
272
     3
278
    44
284
     8
340
F2
343
ED
344
ED
  0
ENDTAB
  0
TABLE
  2
BLOCK_RECORD
  5
1
330
0
100
AcDbSymbolTable
 70
    14
  0
BLOCK_RECORD
  5
1F
330
1
100
AcDbSymbolTableRecord
100
AcDbBlockTableRecord
  2
*Model_Space
340
22
  0
BLOCK_RECORD
  5
1B
330
1
100
AcDbSymbolTableRecord
100
AcDbBlockTableRecord
  2
*Paper_Space
340
1E
  0
BLOCK_RECORD
  5
40
330
1
100
AcDbSymbolTableRecord
100
AcDbBlockTableRecord
  2
SE
340
0
102
{BLKREFS
331
41
102
}
  0
BLOCK_RECORD
  5
D0
330
1
100
AcDbSymbolTableRecord
100
AcDbBlockTableRecord
  2
SE1
340
0
102
{BLKREFS
331
D1
102
}
  0
BLOCK_RECORD
  5
E1
330
1
100
AcDbSymbolTableRecord
100
AcDbBlockTableRecord
  2
_OBLIQUE
340
0
  0
BLOCK_RECORD
  5
E5
330
1
100
AcDbSymbolTableRecord
100
AcDbBlockTableRecord
  2
_DOT
340
0
  0
BLOCK_RECORD
  5
ED
330
1
100
AcDbSymbolTableRecord
100
AcDbBlockTableRecord
  2
_SE_FILLED
340
0
  0
BLOCK_RECORD
  5
F5
330
1
100
AcDbSymbolTableRecord
100
AcDbBlockTableRecord
  2
DMBLK84
340
0
  0
BLOCK_RECORD
  5
FF
330
1
100
AcDbSymbolTableRecord
100
AcDbBlockTableRecord
  2
DMBLK85
340
0
  0
BLOCK_RECORD
  5
109
330
1
100
AcDbSymbolTableRecord
100
AcDbBlockTableRecord
  2
DMBLK86
340
0
  0
BLOCK_RECORD
  5
112
330
1
100
AcDbSymbolTableRecord
100
AcDbBlockTableRecord
  2
SEANNOT_GROUP
340
0
102
{BLKREFS
331
127
102
}
  0
BLOCK_RECORD
  5
117
330
1
100
AcDbSymbolTableRecord
100
AcDbBlockTableRecord
  2
SEANNOT_GROUP1
340
0
102
{BLKREFS
331
128
102
}
  0
BLOCK_RECORD
  5
11C
330
1
100
AcDbSymbolTableRecord
100
AcDbBlockTableRecord
  2
SEANNOT_GROUP2
340
0
102
{BLKREFS
331
12A
102
}
  0
BLOCK_RECORD
  5
120
330
1
100
AcDbSymbolTableRecord
100
AcDbBlockTableRecord
  2
SEANNOT_GROUP3
340
0
102
{BLKREFS
331
12B
102
}
  0
BLOCK_RECORD
  5
124
330
1
100
AcDbSymbolTableRecord
100
AcDbBlockTableRecord
  2
RF-Massblatt_2016
340
0
102
{BLKREFS
331
173
102
}
  0
ENDTAB
  0
ENDSEC
  0
SECTION
  2
BLOCKS
  0
BLOCK
  5
20
330
1F
100
AcDbEntity
  8
0
100
AcDbBlockBegin
  2
*Model_Space
 70
     0
 10
0.0
 20
0.0
 30
0.0
  3
*Model_Space
  1

  0
ENDBLK
  5
21
330
1F
100
AcDbEntity
  8
0
100
AcDbBlockEnd
  0
BLOCK
  5
1C
330
1B
100
AcDbEntity
 67
     1
  8
0
100
AcDbBlockBegin
  2
*Paper_Space
 70
     0
 10
0.0
 20
0.0
 30
0.0
  3
*Paper_Space
  1

  0
ENDBLK
  5
1D
330
1B
100
AcDbEntity
 67
     1
  8
0
100
AcDbBlockEnd
  0
BLOCK
  5
CE
330
40
100
AcDbEntity
  8
0
100
AcDbBlockBegin
  2
SE
 70
     0
 10
0.0
 20
0.0
 30
0.0
  3
SE
  1

  0
HATCH
  5
43
330
40
100
AcDbEntity
  8
DV1_Default
  6
Continuous
 62
     7
100
AcDbHatch
 10
0.0
 20
0.0
 30
0.0
210
0.0
220
0.0
230
1.0
  2
SOLID
 70
     1
 71
     0
 91
        2
 92
        1
 93
        4
 72
     1
 10
46.16866527692558
 20
64.48025773103113
 11
46.16866527692558
 21
66.94948850026191
 72
     4
 94
        3
 73
     0
 74
     0
 95
       21
 96
       17
 40
0.0
 40
0.0
 40
0.0
 40
0.0
 40
0.1501099020292714
 40
0.1501099020292714
 40
0.1501099020292714
 40
0.3086218779992774
 40
0.3086218779992774
 40
0.4651016491491557
 40
0.4651016491491557
 40
0.6215814202990343
 40
0.6215814202990343
 40
0.6215814202990343
 40
0.7919031606291307
 40
0.7919031606291307
 40
0.7919031606291307
 40
1.0
 40
1.0
 40
1.0
 40
1.0
 10
46.16866527692558
 20
66.94948850026192
 10
46.60328066154096
 20
66.94948850026192
 10
47.03789604615634
 20
66.94948850026192
 10
47.47251143077172
 20
66.94948850026192
 10
48.08789604615633
 20
66.94948850026192
 10
48.5417422000025
 20
67.09948850026191
 10
49.13789604615634
 20
67.69564234641575
 10
49.28789604615634
 20
68.09564234641577
 10
49.28789604615634
 20
69.08795003872345
 10
49.13981912307942
 20
69.48602696180036
 10
48.84174220000249
 20
69.7841038848773
 10
48.5417422000025
 20
70.0841038848773
 10
48.08789604615633
 20
70.2341038848773
 10
47.47251143077172
 20
70.2341038848773
 10
46.86994732820762
 20
70.2341038848773
 10
46.26738322564351
 20
70.2341038848773
 10
45.66481912307942
 20
70.2341038848773
 72
     1
 10
45.66481912307942
 20
70.2341038848773
 11
45.66481912307942
 21
64.48025773103113
 72
     1
 10
45.66481912307942
 20
64.48025773103113
 11
46.16866527692558
 21
64.48025773103113
 97
        0
 92
        1
 93
        3
 72
     1
 10
46.16866527692558
 20
67.37256542333883
 11
47.41481912307942
 21
67.37256542333883
 72
     4
 94
        3
 73
     0
 74
     0
 95
       31
 96
       27
 40
0.0
 40
0.0
 40
0.0
 40
0.0
 40
0.1009288093765436
 40
0.1009288093765436
 40
0.1009288093765436
 40
0.1902996344612322
 40
0.1902996344612322
 40
0.1902996344612322
 40
0.2778951528860762
 40
0.2778951528860762
 40
0.2778951528860762
 40
0.386083162648146
 40
0.386083162648146
 40
0.4905405513839376
 40
0.4905405513839376
 40
0.4905405513839376
 40
0.5786664005983861
 40
0.5786664005983861
 40
0.5786664005983861
 40
0.6678164918377038
 40
0.6678164918377038
 40
0.6678164918377038
 40
0.7688315071295604
 40
0.7688315071295604
 40
0.7688315071295604
 40
1.0
 40
1.0
 40
1.0
 40
1.0
 10
47.41481912307942
 20
67.37256542333883
 10
47.6071268153871
 20
67.37256542333883
 10
47.78789604615634
 20
67.3917961925696
 10
47.95328066154096
 20
67.43795003872346
 10
48.12223353505981
 20
67.485099677845
 10
48.26481912307942
 20
67.55718080795423
 10
48.38020373846404
 20
67.65333465410806
 10
48.4978582151349
 20
67.7513800513338
 10
48.59174220000249
 20
67.876411577185
 10
48.65712681538712
 20
68.03025773103114
 10
48.72309985769684
 20
68.18548841881875
 10
48.76097296923326
 20
68.36871926949269
 10
48.76097296923326
 20
68.80718080795423
 10
48.72635758461788
 20
68.99179619256961
 10
48.65712681538712
 20
69.14948850026192
 10
48.58993326081201
 20
69.30254048568298
 10
48.49943450769479
 20
69.43025773103115
 10
48.38020373846404
 20
69.53025773103116
 10
48.265124559854
 20
69.62677575180085
 10
48.12251143077173
 20
69.69948850026192
 10
47.95328066154096
 20
69.74179619256961
 10
47.78676482443689
 20
69.78342515184563
 10
47.6071268153871
 20
69.8110269618004
 10
47.41481912307942
 20
69.81487311564653
 10
46.999600595106
 20
69.823177486206
 10
46.58404989231018
 20
69.81487311564653
 10
46.16866527692558
 20
69.81487311564653
 72
     1
 10
46.16866527692558
 20
69.81487311564653
 11
46.16866527692558
 21
67.37256542333883
 97
        0
 75
     0
 76
     1
 98
        0
  0
HATCH
  5
44
330
40
100
AcDbEntity
  8
DV1_Default
  6
Continuous
 62
     7
100
AcDbHatch
 10
0.0
 20
0.0
 30
0.0
210
0.0
220
0.0
230
1.0
  2
SOLID
 70
     1
 71
     0
 91
        1
 92
        1
 93
        8
 72
     4
 94
        3
 73
     0
 74
     0
 95
       50
 96
       46
 40
0.0
 40
0.0
 40
0.0
 40
0.0
 40
0.0506230914412402
 40
0.0506230914412402
 40
0.1012461828824786
 40
0.1012461828824786
 40
0.1012461828824786
 40
0.1454933517666894
 40
0.1454933517666894
 40
0.1454933517666894
 40
0.1918579611288765
 40
0.1918579611288765
 40
0.1918579611288765
 40
0.2771890387015382
 40
0.2771890387015382
 40
0.2771890387015382
 40
0.3532953260030363
 40
0.3532953260030363
 40
0.3532953260030363
 40
0.4349617378456158
 40
0.4349617378456158
 40
0.4349617378456158
 40
0.5309795757989995
 40
0.5309795757989995
 40
0.6086287838830393
 40
0.6086287838830393
 40
0.6086287838830393
 40
0.6856816762534119
 40
0.6856816762534119
 40
0.6856816762534119
 40
0.7616029675294638
 40
0.7616029675294638
 40
0.7616029675294638
 40
0.85238674489184
 40
0.85238674489184
 40
0.8950628795493671
 40
0.8950628795493671
 40
0.8950628795493671
 40
0.9336829858367226
 40
0.9336829858367226
 40
0.9336829858367226
 40
0.9681885314647509
 40
0.9681885314647509
 40
0.9681885314647509
 40
1.0
 40
1.0
 40
1.0
 40
1.0
 10
54.37635758461788
 20
68.96487311564653
 10
54.29174220000249
 20
69.2187192694927
 10
54.18404989231018
 20
69.4341038848773
 10
53.93020373846403
 20
69.78795003872345
 10
53.78965478874303
 20
69.93680481099258
 10
53.62251143077172
 20
70.04564234641576
 10
53.45712681538711
 20
70.15333465410806
 10
53.27899751278309
 20
70.2295573419261
 10
53.08789604615633
 20
70.28025773103116
 10
52.8994345076948
 20
70.33025773103114
 10
52.69553494403677
 20
70.35915632360168
 10
52.48020373846403
 20
70.35718080795422
 10
52.06097296923326
 20
70.35333465410807
 10
51.69481912307941
 20
70.27795003872345
 10
51.38404989231018
 20
70.12256542333884
 10
51.07635758461787
 20
69.9687192694927
 10
50.8229788487041
 20
69.75396081775334
 10
50.61866527692557
 20
69.48025773103114
 10
50.4148191230794
 20
69.20718080795423
 10
50.26841235863763
 20
68.87930442363816
 10
50.16866527692557
 20
68.50333465410807
 10
50.06866527692556
 20
68.126411577185
 10
50.02251143077173
 20
67.7187192694927
 10
50.02251143077173
 20
66.9187192694927
 10
50.0617793279477
 20
66.56889649118816
 10
50.13789604615634
 20
66.22256542333885
 10
50.21481912307941
 20
65.87256542333883
 10
50.35120965562379
 20
65.56221039375303
 10
50.53404989231018
 20
65.28795003872345
 10
50.71866527692556
 20
65.01102696180037
 10
50.96646258347658
 20
64.7908717460962
 10
51.27251143077171
 20
64.61871926949269
 10
51.58020373846402
 20
64.44564234641575
 10
51.96097296923326
 20
64.35718080795422
 10
52.62251143077172
 20
64.35718080795422
 10
52.81493203768774
 20
64.37576231818711
 10
52.99558835384864
 20
64.40718080795422
 10
53.17251143077171
 20
64.43795003872346
 10
53.33909529234445
 20
64.47683131335083
 10
53.49174220000249
 20
64.53025773103114
 10
53.64558835384864
 20
64.5841038848773
 10
53.7844286590901
 20
64.6458094494069
 10
53.91481912307941
 20
64.70333465410808
 10
54.04558835384864
 20
64.76102696180037
 10
54.17251143077171
 20
64.82256542333883
 10
54.29558835384864
 20
64.8841038848773
 72
     1
 10
54.29558835384864
 20
64.8841038848773
 11
54.29558835384864
 21
67.48025773103114
 72
     1
 10
54.29558835384864
 20
67.48025773103116
 11
52.52635758461787
 21
67.48025773103114
 72
     1
 10
52.52635758461787
 20
67.48025773103114
 11
52.52635758461787
 21
67.05718080795423
 72
     1
 10
52.52635758461787
 20
67.05718080795423
 11
53.79174220000249
 21
67.05718080795423
 72
     1
 10
53.79174220000249
 20
67.05718080795423
 11
53.79174220000249
 21
65.10333465410807
 72
     4
 94
        3
 73
     0
 74
     0
 95
       43
 96
       39
 40
0.0
 40
0.0
 40
0.0
 40
0.0
 40
0.0359143278565826
 40
0.0359143278565826
 40
0.0359143278565826
 40
0.0674317090574879
 40
0.0674317090574879
 40
0.0674317090574879
 40
0.0966376199856535
 40
0.0966376199856535
 40
0.0966376199856535
 40
0.1233545672604245
 40
0.1233545672604245
 40
0.2124110581763247
 40
0.2124110581763247
 40
0.3014675490922251
 40
0.3014675490922251
 40
0.3014675490922251
 40
0.3860327015771589
 40
0.3860327015771589
 40
0.3860327015771589
 40
0.483712296327654
 40
0.483712296327654
 40
0.5230086850203826
 40
0.5230086850203826
 40
0.5230086850203826
 40
0.5779019353541683
 40
0.5779019353541683
 40
0.6327951856879543
 40
0.6327951856879543
 40
0.6327951856879543
 40
0.7013526062628369
 40
0.7013526062628369
 40
0.7699100268377205
 40
0.7699100268377205
 40
0.8384674474126036
 40
0.8384674474126036
 40
1.0
 40
1.0
 40
1.0
 40
1.0
 10
53.79174220000249
 20
65.10333465410807
 10
53.66866527692557
 20
65.0417961925696
 10
53.55188808859665
 20
64.99504552943964
 10
53.44558835384864
 20
64.94948850026192
 10
53.33789604615633
 20
64.90333465410808
 10
53.2346981204865
 20
64.8697564345748
 10
53.13020373846403
 20
64.84564234641577
 10
53.03020373846402
 20
64.82256542333883
 10
52.9259823500963
 20
64.80671176480226
 10
52.82635758461787
 20
64.79564234641578
 10
52.72251143077172
 20
64.7841038848773
 10
52.61097296923325
 20
64.78025773103114
 10
52.11097296923325
 20
64.78025773103114
 10
51.79558835384864
 20
64.84948850026193
 10
51.29558835384864
 20
65.1417961925696
 10
51.09728938697403
 20
65.3351299048577
 10
50.9494345076948
 20
65.58025773103115
 10
50.80328066154095
 20
65.82256542333883
 10
50.69571587884354
 20
66.09879986528946
 10
50.63789604615633
 20
66.41102696180037
 10
50.58020373846402
 20
66.72256542333885
 10
50.54943450769479
 20
67.04564234641576
 10
50.54943450769479
 20
67.51487311564652
 10
50.56479025888544
 20
67.67223348510822
 10
50.58020373846402
 20
67.84948850026191
 10
50.59558835384864
 20
68.026411577185
 10
50.63020373846403
 20
68.21102696180037
 10
50.73020373846403
 20
68.58795003872345
 10
50.79097296923325
 20
68.77487311564653
 10
50.88404989231018
 20
68.96102696180037
 10
50.97635758461787
 20
69.14564234641577
 10
51.09174220000249
 20
69.3110269618004
 10
51.38404989231018
 20
69.59564234641577
 10
51.5571268153871
 20
69.71102696180037
 10
51.97251143077172
 20
69.88795003872345
 10
52.21481912307941
 20
69.9341038848773
 10
53.1571268153871
 20
69.9341038848773
 10
53.61481912307941
 20
69.57256542333884
 10
53.86866527692556
 20
68.85333465410807
 72
     1
 10
53.86866527692556
 20
68.85333465410807
 11
54.37635758461788
 21
68.96487311564654
 97
        0
 75
     0
 76
     1
 98
        0
  0
HATCH
  5
45
330
40
100
AcDbEntity
  8
DV1_Default
  6
Continuous
 62
     7
100
AcDbHatch
 10
0.0
 20
0.0
 30
0.0
210
0.0
220
0.0
230
1.0
  2
SOLID
 70
     1
 71
     0
 91
        1
 92
        1
 93
        7
 72
     1
 10
59.84558835384864
 20
64.48025773103113
 11
59.84558835384864
 21
70.23410388487729
 72
     1
 10
59.84558835384864
 20
70.2341038848773
 11
59.32251143077171
 21
70.2341038848773
 72
     1
 10
59.32251143077172
 20
70.2341038848773
 11
57.66097296923326
 21
68.98025773103114
 72
     1
 10
57.66097296923326
 20
68.98025773103114
 11
57.99174220000249
 21
68.58795003872345
 72
     1
 10
57.99174220000248
 20
68.58795003872345
 11
59.31481912307941
 21
69.61871926949267
 72
     1
 10
59.31481912307941
 20
69.61871926949267
 11
59.31481912307941
 21
64.48025773103113
 72
     1
 10
59.31481912307941
 20
64.48025773103113
 11
59.84558835384864
 21
64.48025773103113
 97
        0
 75
     0
 76
     1
 98
        0
  0
HATCH
  5
46
330
40
100
AcDbEntity
  8
DV1_Default
  6
Continuous
 62
     7
100
AcDbHatch
 10
0.0
 20
0.0
 30
0.0
210
0.0
220
0.0
230
1.0
  2
SOLID
 70
     1
 71
     0
 91
        1
 92
        1
 93
        8
 72
     1
 10
61.95328066154094
 20
70.2341038848773
 11
61.87251143077171
 21
67.25333465410806
 72
     4
 94
        3
 73
     0
 74
     0
 95
       41
 96
       37
 40
0.0
 40
0.0
 40
0.0
 40
0.0
 40
0.1012368060185208
 40
0.1012368060185208
 40
0.1012368060185208
 40
0.1780132139146922
 40
0.1780132139146922
 40
0.244552767424704
 40
0.244552767424704
 40
0.244552767424704
 40
0.3154931304378465
 40
0.3154931304378465
 40
0.3864334934509895
 40
0.3864334934509895
 40
0.3864334934509895
 40
0.4698746973368223
 40
0.4698746973368223
 40
0.5581530724624129
 40
0.5581530724624129
 40
0.6464314475880035
 40
0.6464314475880035
 40
0.6464314475880035
 40
0.7097051105583145
 40
0.7097051105583145
 40
0.7097051105583145
 40
0.7557543693346104
 40
0.7557543693346104
 40
0.8288914273910817
 40
0.8288914273910817
 40
0.9020284854475531
 40
0.9020284854475531
 40
0.9020284854475531
 40
0.9576389935864467
 40
0.9576389935864467
 40
0.9576389935864467
 40
1.0
 40
1.0
 40
1.0
 40
1.0
 10
61.87251143077172
 20
67.25333465410807
 10
62.08789604615633
 20
67.43025773103115
 10
62.30965487088598
 20
67.55790923072507
 10
62.53404989231018
 20
67.62256542333883
 10
62.76097296923325
 20
67.68795003872346
 10
62.96097296923325
 20
67.72256542333885
 10
63.28404989231018
 20
67.72256542333885
 10
63.43755978128307
 20
67.69455595220985
 10
63.59558835384864
 20
67.64564234641577
 10
63.7571268153871
 20
67.59564234641577
 10
63.90328066154094
 20
67.51102696180038
 10
64.1725114307717
 20
67.28795003872345
 10
64.2794283268778
 20
67.13568842159698
 10
64.36866527692555
 20
66.95333465410808
 10
64.4571268153871
 20
66.77256542333885
 10
64.4994345076948
 20
66.54948850026192
 10
64.4994345076948
 20
66.00333465410807
 10
64.4571268153871
 20
65.76871926949268
 10
64.29558835384863
 20
65.3917961925696
 10
64.1898200918839
 20
65.2437803041759
 10
64.06866527692556
 20
65.126411577185
 10
63.94558835384864
 20
65.00718080795423
 10
63.80934748158695
 20
64.93103796510137
 10
63.66481912307942
 20
64.88025773103115
 10
63.52251143077173
 20
64.83025773103115
 10
63.38404989231018
 20
64.80718080795423
 10
63.04558835384863
 20
64.80718080795423
 10
62.86866527692555
 20
64.84564234641577
 10
62.57635758461788
 20
65.01487311564654
 10
62.45479632746393
 20
65.11299368990203
 10
62.3571268153871
 20
65.2341038848773
 10
62.26097296923325
 20
65.35333465410807
 10
62.18985619832605
 20
65.47336173515778
 10
62.14174220000249
 20
65.5917961925696
 10
62.09174220000249
 20
65.71487311564653
 10
62.06097296923326
 20
65.81487311564653
 10
62.04558835384864
 20
65.89564234641576
 72
     1
 10
62.04558835384864
 20
65.89564234641576
 11
61.53404989231018
 21
65.73410388487729
 72
     4
 94
        3
 73
     0
 74
     0
 95
       36
 96
       32
 40
0.0
 40
0.0
 40
0.0
 40
0.0
 40
0.1330686403638491
 40
0.1330686403638491
 40
0.1330686403638491
 40
0.255653062051408
 40
0.255653062051408
 40
0.3358044146932715
 40
0.3358044146932715
 40
0.3358044146932715
 40
0.4196288918775097
 40
0.4196288918775097
 40
0.5034533690617475
 40
0.5034533690617475
 40
0.5872778462459871
 40
0.5872778462459871
 40
0.6655875551944207
 40
0.6655875551944207
 40
0.6655875551944207
 40
0.7439865656263851
 40
0.7439865656263851
 40
0.7439865656263851
 40
0.8205376933364825
 40
0.8205376933364825
 40
0.8970888210465823
 40
0.8970888210465823
 40
0.8970888210465823
 40
0.935056878443439
 40
0.935056878443439
 40
0.935056878443439
 40
1.0
 40
1.0
 40
1.0
 40
1.0
 10
61.53404989231018
 20
65.7341038848773
 10
61.66481912307941
 20
65.28025773103114
 10
61.87438619996814
 20
64.94799375184857
 10
62.1571268153871
 20
64.72256542333885
 10
62.44174220000249
 20
64.49564234641576
 10
62.78789604615634
 20
64.38795003872346
 10
63.4494345076948
 20
64.38795003872346
 10
63.68741227836486
 20
64.431533118845
 10
63.9071268153871
 20
64.51487311564654
 10
64.13020373846402
 20
64.59948850026193
 10
64.32251143077173
 20
64.72641157718499
 10
64.66097296923326
 20
65.04948850026192
 10
64.78789604615633
 20
65.24564234641576
 10
64.98020373846403
 20
65.71487311564653
 10
65.02635758461786
 20
65.97641157718499
 10
65.02635758461786
 20
66.54179619256962
 10
64.9788382400571
 20
66.79507338874622
 10
64.88404989231017
 20
67.02256542333885
 10
64.78789604615633
 20
67.25333465410807
 10
64.66289386703234
 20
67.45132005397733
 10
64.50328066154096
 20
67.61871926949269
 10
64.34558835384864
 20
67.7841038848773
 10
64.1571268153871
 20
67.91487311564653
 10
63.73404989231018
 20
68.09948850026191
 10
63.50209838078668
 20
68.16071268463786
 10
63.26097296923325
 20
68.14564234641577
 10
63.1994345076948
 20
68.1417961925696
 10
63.08397296923327
 20
68.1307961925696
 10
62.91866527692557
 20
68.10718080795422
 10
62.7571268153871
 20
68.08410388487731
 10
62.56866527692556
 20
68.026411577185
 10
62.3571268153871
 20
67.9341038848773
 72
     1
 10
62.3571268153871
 20
67.9341038848773
 11
62.40712681538711
 21
69.81487311564655
 72
     1
 10
62.40712681538711
 20
69.81487311564655
 11
64.86481912307941
 21
69.81487311564653
 72
     1
 10
64.86481912307941
 20
69.81487311564653
 11
64.86481912307941
 21
70.2341038848773
 72
     1
 10
64.86481912307941
 20
70.2341038848773
 11
61.95328066154094
 21
70.2341038848773
 97
        0
 75
     0
 76
     1
 98
        0
  0
HATCH
  5
47
330
40
100
AcDbEntity
  8
DV1_Default
  6
Continuous
 62
     7
100
AcDbHatch
 10
0.0
 20
0.0
 30
0.0
210
0.0
220
0.0
230
1.0
  2
SOLID
 70
     1
 71
     0
 91
        2
 92
        1
 93
        6
 72
     1
 10
129.371485789746
 20
64.63984747462091
 11
127.0728191230793
 21
67.65851414128758
 72
     4
 94
        3
 73
     0
 74
     0
 95
       34
 96
       30
 40
0.0
 40
0.0
 40
0.0
 40
0.0
 40
0.0415820087345694
 40
0.0415820087345694
 40
0.0831640174691397
 40
0.1247460262037099
 40
0.1247460262037099
 40
0.1247460262037099
 40
0.1640874422095103
 40
0.1640874422095103
 40
0.2230995662182118
 40
0.2230995662182118
 40
0.2821116902269133
 40
0.2821116902269133
 40
0.3411238142356136
 40
0.3411238142356136
 40
0.3411238142356136
 40
0.4023597237258039
 40
0.4023597237258039
 40
0.4023597237258039
 40
0.5491378638520606
 40
0.5491378638520606
 40
0.5491378638520606
 40
0.5688259102600842
 40
0.5688259102600842
 40
0.5872834537676072
 40
0.5872834537676072
 40
0.5872834537676072
 40
1.0
 40
1.0
 40
1.0
 40
1.0
 10
127.0728191230794
 20
67.65851414128758
 10
127.2808191230793
 20
67.68518080795424
 10
127.4888191230794
 20
67.76518080795424
 10
127.915485789746
 20
68.04251414128758
 10
128.267485789746
 20
68.37318080795424
 10
128.4866231152751
 20
68.81202697334521
 10
128.5608191230793
 20
69.05051414128758
 10
128.635485789746
 20
69.29051414128757
 10
128.6728191230793
 20
69.54118080795423
 10
128.6728191230793
 20
70.20784747462092
 10
128.603485789746
 20
70.55451414128758
 10
128.3368191230794
 20
71.14118080795424
 10
128.1501524564127
 20
71.38651414128758
 10
127.6701524564127
 20
71.77051414128758
 10
127.3892493807685
 20
71.9208423208387
 10
127.067485789746
 20
72.01051414128757
 10
126.7421524564127
 20
72.10118080795425
 10
126.395485789746
 20
72.14918080795424
 10
126.027485789746
 20
72.14918080795424
 10
125.1865969008571
 20
72.14918080795424
 10
124.3457080119682
 20
72.14918080795424
 10
123.5048191230794
 20
72.14918080795424
 10
123.3928191230793
 20
72.14918080795424
 10
123.291485789746
 20
72.10651414128758
 10
123.1261524564127
 20
71.94118080795425
 10
123.083485789746
 20
71.84518080795424
 10
123.083485789746
 20
71.73318080795424
 10
123.083485789746
 20
69.3687363635098
 10
123.083485789746
 20
67.00429191906535
 10
123.083485789746
 20
64.63984747462091
 72
     1
 10
123.083485789746
 20
64.63984747462091
 11
125.1901524564127
 21
64.63984747462091
 72
     1
 10
125.1901524564127
 20
64.63984747462091
 11
125.1901524564127
 21
67.4398474746209
 72
     1
 10
125.1901524564127
 20
67.4398474746209
 11
126.8328191230793
 21
64.63984747462091
 72
     1
 10
126.8328191230793
 20
64.63984747462091
 11
129.371485789746
 21
64.63984747462091
 97
        0
 92
        1
 93
        3
 72
     1
 10
125.1901524564127
 20
70.49051414128756
 11
125.1901524564127
 21
68.87451414128756
 72
     1
 10
125.1901524564127
 20
68.87451414128758
 11
125.2701524564127
 21
68.87451414128758
 72
     4
 94
        3
 73
     0
 74
     0
 95
       29
 96
       25
 40
0.0
 40
0.0
 40
0.0
 40
0.0
 40
0.1308964236226227
 40
0.1308964236226227
 40
0.1308964236226227
 40
0.2493217166254654
 40
0.2493217166254654
 40
0.2493217166254654
 40
0.3732390540949203
 40
0.3732390540949203
 40
0.4971563915643744
 40
0.4971563915643744
 40
0.6174291014611967
 40
0.6174291014611967
 40
0.6174291014611967
 40
0.7257090160055032
 40
0.7257090160055032
 40
0.7257090160055032
 40
0.8510653940362908
 40
0.8510653940362908
 40
0.976421772067078
 40
0.976421772067078
 40
0.976421772067078
 40
1.0
 40
1.0
 40
1.0
 40
1.0
 10
125.2701524564127
 20
68.87451414128758
 10
125.419485789746
 20
68.87451414128758
 10
125.5688191230794
 20
68.88518080795424
 10
125.7128191230794
 20
68.90651414128759
 10
125.8560459687169
 20
68.92773293323388
 10
125.9848191230793
 20
68.95984747462091
 10
126.0968191230794
 20
69.01851414128758
 10
126.2066269522608
 20
69.07603252800169
 10
126.299485789746
 20
69.15184747462091
 10
126.4381524564127
 20
69.36518080795425
 10
126.4701524564127
 20
69.50918080795425
 10
126.4701524564127
 20
69.86651414128758
 10
126.4381524564127
 20
70.00518080795425
 10
126.3741524564127
 20
70.10651414128758
 10
126.3086316643335
 20
70.210255395413
 10
126.219485789746
 20
70.28784747462092
 10
126.1021524564127
 20
70.34651414128757
 10
125.9912191230793
 20
70.40198080795425
 10
125.8568191230794
 20
70.43718080795425
 10
125.5581524564127
 20
70.47984747462091
 10
125.4088191230794
 20
70.49051414128756
 10
125.2701524564127
 20
70.49051414128756
 10
125.243485789746
 20
70.49051414128756
 10
125.2168191230794
 20
70.49051414128756
 10
125.1901524564127
 20
70.49051414128756
 97
        0
 75
     0
 76
     1
 98
        0
  0
HATCH
  5
48
330
40
100
AcDbEntity
  8
DV1_Default
  6
Continuous
 62
     7
100
AcDbHatch
 10
0.0
 20
0.0
 30
0.0
210
0.0
220
0.0
230
1.0
  2
SOLID
 70
     1
 71
     0
 91
        1
 92
        1
 93
       11
 72
     1
 10
132.0008191230793
 20
69.32784747462091
 11
132.0008191230793
 21
70.34118080795425
 72
     1
 10
132.0008191230793
 20
70.34118080795425
 11
134.267485789746
 21
70.34118080795425
 72
     1
 10
134.267485789746
 20
70.34118080795425
 11
134.267485789746
 21
72.14918080795424
 72
     4
 94
        3
 73
     0
 74
     0
 95
       16
 96
       12
 40
0.0
 40
0.0
 40
0.0
 40
0.0
 40
0.3368485193490252
 40
0.3368485193490252
 40
0.3368485193490252
 40
0.3662241627847875
 40
0.3662241627847875
 40
0.3937638285058145
 40
0.3937638285058145
 40
0.3937638285058145
 40
1.0
 40
1.0
 40
1.0
 40
1.0
 10
134.267485789746
 20
72.14918080795424
 10
132.9537080119682
 20
72.14918080795424
 10
131.6399302341905
 20
72.14918080795424
 10
130.3261524564127
 20
72.14918080795424
 10
130.203485789746
 20
72.14918080795424
 10
130.1021524564127
 20
72.10651414128758
 10
129.9368191230794
 20
71.94118080795425
 10
129.8941524564127
 20
71.84518080795424
 10
129.8941524564127
 20
71.73318080795424
 10
129.8941524564127
 20
69.3687363635098
 10
129.8941524564127
 20
67.00429191906535
 10
129.8941524564127
 20
64.63984747462091
 72
     1
 10
129.8941524564127
 20
64.63984747462091
 11
134.267485789746
 21
64.63984747462091
 72
     1
 10
134.267485789746
 20
64.63984747462091
 11
134.267485789746
 21
66.4478474746209
 72
     1
 10
134.267485789746
 20
66.4478474746209
 11
132.0008191230793
 21
66.4478474746209
 72
     1
 10
132.0008191230793
 20
66.4478474746209
 11
132.0008191230793
 21
67.49851414128757
 72
     1
 10
132.0008191230793
 20
67.49851414128757
 11
134.155485789746
 21
67.49851414128757
 72
     1
 10
134.155485789746
 20
67.49851414128757
 11
134.155485789746
 21
69.3278474746209
 72
     1
 10
134.155485789746
 20
69.3278474746209
 11
132.0008191230794
 21
69.32784747462091
 97
        0
 75
     0
 76
     1
 98
        0
  0
HATCH
  5
49
330
40
100
AcDbEntity
  8
DV1_Default
  6
Continuous
 62
     7
100
AcDbHatch
 10
0.0
 20
0.0
 30
0.0
210
0.0
220
0.0
230
1.0
  2
SOLID
 70
     1
 71
     0
 91
        1
 92
        1
 93
        6
 72
     4
 94
        3
 73
     0
 74
     0
 95
       39
 96
       35
 40
0.0
 40
0.0
 40
0.0
 40
0.0
 40
0.0469658628883125
 40
0.0469658628883125
 40
0.0939317257766247
 40
0.0939317257766247
 40
0.1408975886649372
 40
0.1408975886649372
 40
0.1408975886649372
 40
0.1909664386559423
 40
0.1909664386559423
 40
0.2674605150310866
 40
0.2674605150310866
 40
0.3439545914062312
 40
0.3439545914062312
 40
0.4204486677813754
 40
0.4204486677813754
 40
0.4204486677813754
 40
0.5003414574440452
 40
0.5003414574440452
 40
0.5771614475043052
 40
0.5771614475043052
 40
0.5771614475043052
 40
0.6516271061958094
 40
0.6516271061958094
 40
0.7260927648873148
 40
0.7260927648873148
 40
0.7260927648873148
 40
0.8019288831410891
 40
0.8019288831410891
 40
0.8974262172384324
 40
0.8974262172384324
 40
0.8974262172384324
 40
1.0
 40
1.0
 40
1.0
 40
1.0
 10
140.3048191230793
 20
67.19984747462091
 10
140.283485789746
 20
67.07718080795425
 10
140.2301524564127
 20
66.94384747462091
 10
140.0488191230793
 20
66.64518080795425
 10
139.9368191230793
 20
66.52251414128757
 10
139.6701524564127
 20
66.33051414128757
 10
139.5150372335363
 20
66.25732771011292
 10
139.3341524564127
 20
66.20251414128758
 10
139.1581524564127
 20
66.14918080795425
 10
138.971485789746
 20
66.12784747462092
 10
138.4861524564127
 20
66.12784747462092
 10
138.2248191230794
 20
66.18651414128757
 10
137.787485789746
 20
66.43184747462091
 10
137.6008191230793
 20
66.5918474746209
 10
137.291485789746
 20
67.0078474746209
 10
137.1789719269935
 20
67.24408784596704
 10
137.0941524564127
 20
67.5038474746209
 10
137.0088191230793
 20
67.76518080795424
 10
136.971485789746
 20
68.03718080795424
 10
136.971485789746
 20
68.58118080795425
 10
137.0039427585198
 20
68.84934023928199
 10
137.083485789746
 20
69.10918080795425
 10
137.163485789746
 20
69.37051414128759
 10
137.275485789746
 20
69.61051414128758
 10
137.5741524564127
 20
70.02651414128758
 10
137.7621802218831
 20
70.18952226416455
 10
137.9848191230793
 20
70.31984747462091
 10
138.203485789746
 20
70.4478474746209
 10
138.459485789746
 20
70.51184747462091
 10
139.1101524564127
 20
70.51184747462091
 10
139.4189344788846
 20
70.41630290533251
 10
139.6648191230794
 20
70.21318080795425
 10
139.9101524564127
 20
70.01051414128757
 10
140.1128191230794
 20
69.72251414128758
 10
140.2621524564127
 20
69.34384747462092
 72
     1
 10
140.2621524564127
 20
69.34384747462092
 11
142.2461524564127
 21
70.15451414128758
 72
     4
 94
        3
 73
     0
 74
     0
 95
       51
 96
       47
 40
0.0
 40
0.0
 40
0.0
 40
0.0
 40
0.0922516436564444
 40
0.0922516436564444
 40
0.0922516436564444
 40
0.181798105812628
 40
0.181798105812628
 40
0.181798105812628
 40
0.2525593687458036
 40
0.2525593687458036
 40
0.2525593687458036
 40
0.3168167835704595
 40
0.3168167835704595
 40
0.3810741983951155
 40
0.3810741983951155
 40
0.3810741983951155
 40
0.4499854777063258
 40
0.4499854777063258
 40
0.5170672540269736
 40
0.5170672540269736
 40
0.5841490303476204
 40
0.5841490303476204
 40
0.5841490303476204
 40
0.6475415160614171
 40
0.6475415160614171
 40
0.6475415160614171
 40
0.7172657348280771
 40
0.7172657348280771
 40
0.7920608058686753
 40
0.7920608058686753
 40
0.7920608058686753
 40
0.869022095030768
 40
0.869022095030768
 40
0.869022095030768
 40
0.8987471906776034
 40
0.8987471906776034
 40
0.8987471906776034
 40
0.9280069826880412
 40
0.9280069826880412
 40
0.9280069826880412
 40
0.9586389909847085
 40
0.9586389909847085
 40
0.9892709992813757
 40
0.9892709992813757
 40
0.9892709992813757
 40
1.0
 40
1.0
 40
1.0
 40
1.0
 10
142.2461524564127
 20
70.15451414128758
 10
141.915485789746
 20
70.92251414128758
 10
141.4605353048047
 20
71.4834697308741
 10
140.875485789746
 20
71.82918080795424
 10
140.2888191230793
 20
72.17584747462091
 10
139.6113761046125
 20
72.36413220957508
 10
138.8328191230794
 20
72.35718080795425
 10
138.235485789746
 20
72.35184747462091
 10
137.6797179749811
 20
72.2586747467651
 10
137.179485789746
 20
72.06384747462091
 10
136.6728191230794
 20
71.86651414128758
 10
136.2461524564127
 20
71.59451414128758
 10
135.531485789746
 20
70.89051414128758
 10
135.2569250657159
 20
70.46274439350026
 10
135.0621524564127
 20
69.97318080795424
 10
134.8648191230793
 20
69.47718080795424
 10
134.7688191230793
 20
68.92784747462092
 10
134.7688191230793
 20
67.73851414128758
 10
134.8648191230793
 20
67.19984747462091
 10
135.259485789746
 20
66.21851414128757
 10
135.5341524564127
 20
65.80518080795424
 10
135.883485789746
 20
65.45584747462091
 10
136.2301524564127
 20
65.10918080795425
 10
136.6561241004549
 20
64.83538533284111
 10
137.147485789746
 20
64.64518080795425
 10
137.643485789746
 20
64.45318080795424
 10
138.1821524564127
 20
64.35718080795425
 10
139.3981524564127
 20
64.35718080795425
 10
139.9839540649918
 20
64.47648018239572
 10
140.5128191230793
 20
64.70918080795424
 10
141.0461524564127
 20
64.94384747462091
 10
141.4903124564127
 20
65.34939414128758
 10
141.8941524564127
 20
65.88784747462091
 10
142.0381524564127
 20
66.0798474746209
 10
142.1565717625967
 20
66.28555486526948
 10
142.235485789746
 20
66.50651414128758
 10
142.315485789746
 20
66.73051414128759
 10
142.3785054834003
 20
66.94936753297249
 10
142.4221524564127
 20
67.1785141412876
 10
142.4648191230793
 20
67.40251414128758
 10
142.491485789746
 20
67.63184747462093
 10
142.5128191230793
 20
68.09051414128758
 10
142.5288191230794
 20
68.34651414128757
 10
142.5288191230794
 20
68.63451414128757
 10
142.5288191230794
 20
68.7198474746209
 10
142.5288191230794
 20
68.80518080795426
 10
142.5288191230794
 20
68.89051414128758
 72
     1
 10
142.5288191230794
 20
68.89051414128758
 11
138.6461524564127
 21
68.89051414128758
 72
     1
 10
138.6461524564127
 20
68.89051414128758
 11
138.6461524564127
 21
67.19984747462091
 72
     1
 10
138.6461524564127
 20
67.19984747462091
 11
140.3048191230794
 21
67.19984747462091
 97
        0
 75
     0
 76
     1
 98
        0
  0
HATCH
  5
4A
330
40
100
AcDbEntity
  8
DV1_Default
  6
Continuous
 62
     7
100
AcDbHatch
 10
0.0
 20
0.0
 30
0.0
210
0.0
220
0.0
230
1.0
  2
SOLID
 70
     1
 71
     0
 91
        2
 92
        1
 93
        2
 72
     4
 94
        3
 73
     0
 74
     0
 95
       26
 96
       22
 40
0.0
 40
0.0
 40
0.0
 40
0.0
 40
0.1241042764671998
 40
0.1241042764671998
 40
0.1241042764671998
 40
0.2444649733050971
 40
0.2444649733050971
 40
0.3648256701429933
 40
0.3648256701429933
 40
0.3648256701429933
 40
0.4876410301322777
 40
0.4876410301322777
 40
0.6221530910729228
 40
0.6221530910729228
 40
0.6221530910729228
 40
0.7448779302950169
 40
0.7448779302950169
 40
0.7448779302950169
 40
0.8724389651475078
 40
0.8724389651475078
 40
1.0
 40
1.0
 40
1.0
 40
1.0
 10
147.3501524564127
 20
72.39451414128759
 10
146.811485789746
 20
72.38918080795425
 10
146.2905631511746
 20
72.29383018011738
 10
145.787485789746
 20
72.10651414128758
 10
145.2861524564127
 20
71.91984747462091
 10
144.843485789746
 20
71.65318080795424
 10
144.075485789746
 20
70.97051414128758
 10
143.7597320812621
 20
70.56287731457961
 10
143.5368191230793
 20
70.09051414128758
 10
143.3128191230793
 20
69.6158474746209
 10
143.195485789746
 20
69.09851414128758
 10
143.195485789746
 20
67.92518080795425
 10
143.3085892380219
 20
67.37308885393125
 10
143.5101524564127
 20
66.86918080795425
 10
143.7128191230794
 20
66.36251414128758
 10
143.9981908237314
 20
65.92251441731145
 10
144.3688191230793
 20
65.55718080795425
 10
144.7421524564127
 20
65.18918080795424
 10
145.179485789746
 20
64.90118080795425
 10
146.1928191230793
 20
64.49584747462092
 10
146.747485789746
 20
64.39451414128757
 10
147.3501524564127
 20
64.39451414128757
 72
     4
 94
        3
 73
     0
 74
     0
 95
       25
 96
       21
 40
0.0
 40
0.0
 40
0.0
 40
0.0
 40
0.127685019915057
 40
0.127685019915057
 40
0.2553700398301132
 40
0.2553700398301132
 40
0.2553700398301132
 40
0.3854318872146879
 40
0.3854318872146879
 40
0.515493734599263
 40
0.515493734599263
 40
0.6352875414008451
 40
0.6352875414008451
 40
0.6352875414008451
 40
0.7557134277178664
 40
0.7557134277178664
 40
0.8761393140348891
 40
0.8761393140348891
 40
0.8761393140348891
 40
1.0
 40
1.0
 40
1.0
 40
1.0
 10
147.3501524564127
 20
64.39451414128757
 10
147.9528191230793
 20
64.39451414128757
 10
148.507485789746
 20
64.49584747462092
 10
149.5208191230793
 20
64.90118080795425
 10
149.9608580504457
 20
65.18651442542894
 10
150.3261524564127
 20
65.55718080795425
 10
150.6888191230794
 20
65.92518080795425
 10
150.9768191230793
 20
66.36251414128758
 10
151.3928191230793
 20
67.37584747462091
 10
151.4941524564127
 20
67.93051414128757
 10
151.4941524564127
 20
69.09851414128758
 10
151.3800633400701
 20
69.61483812627564
 10
151.1528191230794
 20
70.08518080795425
 10
150.923485789746
 20
70.55984747462091
 10
150.6141524564127
 20
70.97051414128758
 10
149.8461524564127
 20
71.65318080795424
 10
149.4063286253418
 20
71.91341368879888
 10
148.907485789746
 20
72.10651414128758
 10
148.411485789746
 20
72.29851414128757
 10
147.8888191230793
 20
72.38918080795425
 10
147.3501524564127
 20
72.39451414128759
 97
        0
 92
        1
 93
        1
 72
     4
 94
        3
 73
     0
 74
     0
 95
       48
 96
       44
 40
0.0
 40
0.0
 40
0.0
 40
0.0
 40
0.0632788595816798
 40
0.0632788595816798
 40
0.0632788595816798
 40
0.1250789860121007
 40
0.1250789860121007
 40
0.1250789860121007
 40
0.1891908261276199
 40
0.1891908261276199
 40
0.1891908261276199
 40
0.2616760554832847
 40
0.2616760554832847
 40
0.3163578951726458
 40
0.3163578951726458
 40
0.3163578951726458
 40
0.3755097855289364
 40
0.3755097855289364
 40
0.3755097855289364
 40
0.4363134546957769
 40
0.4363134546957769
 40
0.4363134546957769
 40
0.5004773328136454
 40
0.5004773328136454
 40
0.5633830956742987
 40
0.5633830956742987
 40
0.5633830956742987
 40
0.6244677781113531
 40
0.6244677781113531
 40
0.6244677781113531
 40
0.6791034896171407
 40
0.6791034896171407
 40
0.7337392011229283
 40
0.7337392011229283
 40
0.8045172819372445
 40
0.8045172819372445
 40
0.8752953627515608
 40
0.8752953627515608
 40
0.8752953627515608
 40
0.9367643121370143
 40
0.9367643121370143
 40
0.9367643121370143
 40
1.0
 40
1.0
 40
1.0
 40
1.0
 10
147.3501524564127
 20
66.4478474746209
 10
147.6221524564127
 20
66.4478474746209
 10
147.8728191230794
 20
66.4958474746209
 10
148.1021524564127
 20
66.60251414128759
 10
148.3338311284151
 20
66.71027166314914
 10
148.539485789746
 20
66.84251414128758
 10
148.7208191230794
 20
67.02918080795425
 10
148.8995630682005
 20
67.21318192793184
 10
149.035485789746
 20
67.43451414128758
 10
149.1421524564127
 20
67.68518080795424
 10
149.2499229942944
 20
67.93844157197621
 10
149.291485789746
 20
68.21851414128757
 10
149.291485789746
 20
68.7518474746209
 10
149.243485789746
 20
68.9758474746209
 10
149.1421524564127
 20
69.19984747462091
 10
149.0428219466088
 20
69.41942018050327
 10
148.9021524564127
 20
69.6158474746209
 10
148.7261524564127
 20
69.78651414128758
 10
148.5528178610506
 20
69.9545961731538
 10
148.3421524564127
 20
70.09051414128758
 10
148.107485789746
 20
70.19184747462091
 10
147.8747602056508
 20
70.29234261320747
 10
147.6221524564127
 20
70.34118080795425
 10
147.083485789746
 20
70.34118080795425
 10
146.827485789746
 20
70.28784747462092
 10
146.5928191230794
 20
70.19184747462091
 10
146.356283429864
 20
70.09508287285101
 10
146.1501524564127
 20
69.9518474746209
 10
145.9741524564127
 20
69.78118080795424
 10
145.7954037578798
 20
69.60784873664963
 10
145.6541524564127
 20
69.41851414128757
 10
145.451485789746
 20
68.98118080795425
 10
145.3981524564127
 20
68.75718080795424
 10
145.3981524564127
 20
68.21851414128757
 10
145.451485789746
 20
67.93584747462091
 10
145.6648191230794
 20
67.43451414128758
 10
145.803485789746
 20
67.21584747462092
 10
145.9848191230793
 20
67.02918080795425
 10
146.1635630682004
 20
66.84517968797665
 10
146.3688191230793
 20
66.70384747462091
 10
146.5981524564127
 20
66.60251414128759
 10
146.833919575568
 20
66.49833797235846
 10
147.083485789746
 20
66.4478474746209
 10
147.3501524564127
 20
66.4478474746209
 97
        0
 75
     0
 76
     1
 98
        0
  0
HATCH
  5
4B
330
40
100
AcDbEntity
  8
DV1_Default
  6
Continuous
 62
     7
100
AcDbHatch
 10
0.0
 20
0.0
 30
0.0
210
0.0
220
0.0
230
1.0
  2
SOLID
 70
     1
 71
     0
 91
        1
 92
        1
 93
        4
 72
     1
 10
152.379485789746
 20
67.49851414128757
 11
154.9768191230794
 21
67.49851414128757
 72
     1
 10
154.9768191230793
 20
67.49851414128757
 11
154.9768191230793
 21
69.3278474746209
 72
     1
 10
154.9768191230793
 20
69.3278474746209
 11
152.379485789746
 21
69.32784747462091
 72
     1
 10
152.379485789746
 20
69.32784747462091
 11
152.379485789746
 21
67.49851414128757
 97
        0
 75
     0
 76
     1
 98
        0
  0
HATCH
  5
4C
330
40
100
AcDbEntity
  8
DV1_Default
  6
Continuous
 62
     7
100
AcDbHatch
 10
0.0
 20
0.0
 30
0.0
210
0.0
220
0.0
230
1.0
  2
SOLID
 70
     1
 71
     0
 91
        1
 92
        1
 93
        9
 72
     1
 10
157.7608191230794
 20
64.63984747462091
 11
157.7608191230794
 21
67.49851414128757
 72
     1
 10
157.7608191230794
 20
67.49851414128757
 11
159.9101524564127
 21
67.49851414128757
 72
     1
 10
159.9101524564127
 20
67.49851414128757
 11
159.9101524564127
 21
69.3278474746209
 72
     1
 10
159.9101524564127
 20
69.3278474746209
 11
157.7608191230793
 21
69.32784747462091
 72
     1
 10
157.7608191230794
 20
69.32784747462091
 11
157.7608191230794
 21
70.34118080795425
 72
     1
 10
157.7608191230794
 20
70.34118080795425
 11
160.0221524564127
 21
70.34118080795425
 72
     1
 10
160.0221524564127
 20
70.34118080795425
 11
160.0221524564127
 21
72.14918080795424
 72
     4
 94
        3
 73
     0
 74
     0
 95
       16
 96
       12
 40
0.0
 40
0.0
 40
0.0
 40
0.0
 40
0.3377541075019324
 40
0.3377541075019324
 40
0.3377541075019324
 40
0.3670896360688372
 40
0.3670896360688372
 40
0.3945916941003086
 40
0.3945916941003086
 40
0.3945916941003086
 40
1.0
 40
1.0
 40
1.0
 40
1.0
 10
160.0221524564127
 20
72.14918080795424
 10
158.7030413453016
 20
72.14918080795424
 10
157.3839302341904
 20
72.14918080795424
 10
156.0648191230794
 20
72.14918080795424
 10
155.9421524564127
 20
72.14918080795424
 10
155.8408191230793
 20
72.10651414128758
 10
155.675485789746
 20
71.94118080795425
 10
155.6328191230793
 20
71.84518080795424
 10
155.6328191230793
 20
71.73318080795424
 10
155.6328191230793
 20
69.3687363635098
 10
155.6328191230793
 20
67.00429191906535
 10
155.6328191230793
 20
64.63984747462091
 72
     1
 10
155.6328191230793
 20
64.63984747462091
 11
157.7608191230793
 21
64.63984747462091
 97
        0
 75
     0
 76
     1
 98
        0
  0
HATCH
  5
4D
330
40
100
AcDbEntity
  8
DV1_Default
  6
Continuous
 62
     7
100
AcDbHatch
 10
0.0
 20
0.0
 30
0.0
210
0.0
220
0.0
230
1.0
  2
SOLID
 70
     1
 71
     0
 91
        1
 92
        1
 93
        4
 72
     1
 10
163.0088191230793
 20
64.63984747462091
 11
163.0088191230793
 21
72.14918080795424
 72
     4
 94
        3
 73
     0
 74
     0
 95
       14
 96
       10
 40
0.0
 40
0.0
 40
0.0
 40
0.0
 40
0.7174199141027519
 40
0.7174199141027519
 40
0.7174199141027519
 40
0.8625629241601658
 40
0.8625629241601658
 40
0.8625629241601658
 40
1.0
 40
1.0
 40
1.0
 40
1.0
 10
163.0088191230793
 20
72.14918080795424
 10
162.4488191230793
 20
72.14918080795424
 10
161.8888191230793
 20
72.14918080795424
 10
161.3288191230793
 20
72.14918080795424
 10
161.2061524564127
 20
72.14918080795424
 10
161.107485789746
 20
72.1038474746209
 10
161.0248191230793
 20
72.02118080795425
 10
160.9448191230794
 20
71.94118080795425
 10
160.9021524564127
 20
71.84518080795424
 10
160.9021524564127
 20
71.73318080795424
 72
     1
 10
160.9021524564127
 20
71.73318080795424
 11
160.9021524564127
 21
64.6398474746209
 72
     1
 10
160.9021524564127
 20
64.6398474746209
 11
163.0088191230793
 21
64.63984747462091
 97
        0
 75
     0
 76
     1
 98
        0
  0
HATCH
  5
4E
330
40
100
AcDbEntity
  8
DV1_Default
  6
Continuous
 62
     7
100
AcDbHatch
 10
0.0
 20
0.0
 30
0.0
210
0.0
220
0.0
230
1.0
  2
SOLID
 70
     1
 71
     0
 91
        1
 92
        1
 93
       12
 72
     1
 10
163.8888191230793
 20
72.14918080795424
 11
166.219485789746
 21
68.65051414128757
 72
     1
 10
166.219485789746
 20
68.65051414128756
 11
163.3608191230794
 21
64.63984747462091
 72
     1
 10
163.3608191230794
 20
64.63984747462091
 11
165.8301524564127
 21
64.63984747462091
 72
     1
 10
165.8301524564127
 20
64.63984747462091
 11
167.4461524564127
 21
67.01318080795423
 72
     1
 10
167.4461524564127
 20
67.01318080795424
 11
168.587485789746
 21
65.22118080795425
 72
     1
 10
168.587485789746
 20
65.22118080795425
 11
169.851485789746
 21
66.95451414128759
 72
     1
 10
169.851485789746
 20
66.95451414128759
 11
168.6782611466066
 21
68.64799224609067
 72
     1
 10
168.6782611466066
 20
68.64799224609067
 11
171.0141524564127
 21
72.14918080795425
 72
     1
 10
171.0141524564127
 20
72.14918080795425
 11
168.491485789746
 21
72.14918080795424
 72
     1
 10
168.491485789746
 20
72.14918080795424
 11
167.451485789746
 21
70.27718080795424
 72
     1
 10
167.451485789746
 20
70.27718080795424
 11
166.4008191230794
 21
72.14918080795425
 72
     1
 10
166.4008191230793
 20
72.14918080795425
 11
163.8888191230793
 21
72.14918080795424
 97
        0
 75
     0
 76
     1
 98
        0
  0
HATCH
  5
4F
330
40
100
AcDbEntity
  8
DV1_Default
  6
Continuous
 62
     7
100
AcDbHatch
 10
0.0
 20
0.0
 30
0.0
210
0.0
220
0.0
230
1.0
  2
SOLID
 70
     1
 71
     0
 91
        1
 92
        1
 93
        3
 72
     4
 94
        3
 73
     0
 74
     0
 95
       16
 96
       12
 40
0.0
 40
0.0
 40
0.0
 40
0.0
 40
0.5119704925373838
 40
0.5119704925373838
 40
0.5119704925373838
 40
0.5493197825247168
 40
0.5493197825247168
 40
0.5637501900198224
 40
0.5637501900198224
 40
0.5637501900198224
 40
1.0
 40
1.0
 40
1.0
 40
1.0
 10
169.707485789746
 20
64.63984747462091
 10
172.8790413453016
 20
64.63984747462091
 10
176.0505969008571
 20
64.63984747462091
 10
179.2221524564127
 20
64.63984747462091
 10
179.515485789746
 20
64.63984747462091
 10
179.6648191230794
 20
64.75184747462092
 10
179.6648191230794
 20
65.07718080795425
 10
179.6252565735087
 20
65.17694490218246
 10
179.5528191230794
 20
65.27984747462091
 10
177.9972635675238
 20
67.48962525239868
 10
176.4417080119682
 20
69.69940303017647
 10
174.8861524564127
 20
71.90918080795424
 72
     4
 94
        3
 73
     0
 74
     0
 95
       13
 96
        9
 40
0.0
 40
0.0
 40
0.0
 40
0.0
 40
0.0542036213843933
 40
0.0542036213843933
 40
0.1138276049072212
 40
0.1138276049072212
 40
0.1138276049072212
 40
1.0
 40
1.0
 40
1.0
 40
1.0
 10
174.8861524564127
 20
71.90918080795424
 10
174.763485789746
 20
72.06918080795424
 10
174.6141524564127
 20
72.14918080795424
 10
174.2781524564127
 20
72.14918080795424
 10
174.1318123060466
 20
72.05640541737749
 10
174.0168191230793
 20
71.89318080795425
 10
172.4612635675238
 20
69.68518080795424
 10
170.9057080119682
 20
67.47718080795424
 10
169.3501524564127
 20
65.26918080795424
 72
     4
 94
        3
 73
     0
 74
     0
 95
       10
 96
        6
 40
0.0
 40
0.0
 40
0.0
 40
0.0
 40
0.224137931034484
 40
0.224137931034484
 40
1.0
 40
1.0
 40
1.0
 40
1.0
 10
169.3501524564127
 20
65.26918080795424
 10
169.2861524564127
 20
65.15718080795423
 10
169.2541524564127
 20
65.06651414128758
 10
169.2541524564127
 20
64.75718080795424
 10
169.403485789746
 20
64.63984747462091
 10
169.707485789746
 20
64.63984747462091
 97
        0
 75
     0
 76
     1
 98
        0
  0
LINE
  5
51
330
40
100
AcDbEntity
  8
0015022
  6
Continuous
 62
     7
100
AcDbLine
 10
187.6648191231
 20
159.357180808
 30
0.0
 11
37.6648191231
 21
159.357180808
 31
0.0
  0
LINE
  5
52
330
40
100
AcDbEntity
  8
0015022
  6
Continuous
 62
     7
100
AcDbLine
 10
187.6648191231
 20
59.357180808
 30
0.0
 11
187.6648191231
 21
159.357180808
 31
0.0
  0
LINE
  5
53
330
40
100
AcDbEntity
  8
0015022
  6
Continuous
 62
     7
100
AcDbLine
 10
37.6648191231
 20
59.357180808
 30
0.0
 11
187.6648191231
 21
59.357180808
 31
0.0
  0
LINE
  5
54
330
40
100
AcDbEntity
  8
0015022
  6
Continuous
 62
     7
100
AcDbLine
 10
37.6648191231
 20
159.357180808
 30
0.0
 11
37.6648191231
 21
59.357180808
 31
0.0
  0
CIRCLE
  5
55
330
40
100
AcDbEntity
  8
0015022
  6
Continuous
 62
     7
100
AcDbCircle
 10
57.6648191231
 20
141.357180808
 30
0.0
 40
8.0
  0
CIRCLE
  5
56
330
40
100
AcDbEntity
  8
0015022
  6
Continuous
 62
     7
100
AcDbCircle
 10
57.6648191231
 20
141.357180808
 30
0.0
 40
4.500000000000001
  0
CIRCLE
  5
57
330
40
100
AcDbEntity
  8
0015022
  6
Continuous
 62
     7
100
AcDbCircle
 10
57.6648191231
 20
114.857180808
 30
0.0
 40
8.0
  0
CIRCLE
  5
58
330
40
100
AcDbEntity
  8
0015022
  6
Continuous
 62
     7
100
AcDbCircle
 10
57.6648191231
 20
114.857180808
 30
0.0
 40
4.500000000000001
  0
CIRCLE
  5
59
330
40
100
AcDbEntity
  8
0015022
  6
Continuous
 62
     7
100
AcDbCircle
 10
57.6648191231
 20
88.357180808
 30
0.0
 40
8.0
  0
CIRCLE
  5
5A
330
40
100
AcDbEntity
  8
0015022
  6
Continuous
 62
     7
100
AcDbCircle
 10
57.6648191231
 20
88.357180808
 30
0.0
 40
4.500000000000001
  0
CIRCLE
  5
5B
330
40
100
AcDbEntity
  8
0015022
  6
Continuous
 62
     7
100
AcDbCircle
 10
85.1648191231
 20
141.357180808
 30
0.0
 40
8.0
  0
CIRCLE
  5
5C
330
40
100
AcDbEntity
  8
0015022
  6
Continuous
 62
     7
100
AcDbCircle
 10
85.1648191231
 20
141.357180808
 30
0.0
 40
4.500000000000001
  0
CIRCLE
  5
5D
330
40
100
AcDbEntity
  8
0015022
  6
Continuous
 62
     7
100
AcDbCircle
 10
85.1648191231
 20
114.857180808
 30
0.0
 40
8.0
  0
CIRCLE
  5
5E
330
40
100
AcDbEntity
  8
0015022
  6
Continuous
 62
     7
100
AcDbCircle
 10
85.1648191231
 20
114.857180808
 30
0.0
 40
4.500000000000001
  0
CIRCLE
  5
5F
330
40
100
AcDbEntity
  8
0015022
  6
Continuous
 62
     7
100
AcDbCircle
 10
85.1648191231
 20
88.357180808
 30
0.0
 40
8.0
  0
CIRCLE
  5
60
330
40
100
AcDbEntity
  8
0015022
  6
Continuous
 62
     7
100
AcDbCircle
 10
85.1648191231
 20
88.357180808
 30
0.0
 40
4.500000000000001
  0
CIRCLE
  5
61
330
40
100
AcDbEntity
  8
0015022
  6
Continuous
 62
     7
100
AcDbCircle
 10
112.6648191231
 20
141.357180808
 30
0.0
 40
8.0
  0
CIRCLE
  5
62
330
40
100
AcDbEntity
  8
0015022
  6
Continuous
 62
     7
100
AcDbCircle
 10
112.6648191231
 20
141.357180808
 30
0.0
 40
4.500000000000001
  0
CIRCLE
  5
63
330
40
100
AcDbEntity
  8
0015022
  6
Continuous
 62
     7
100
AcDbCircle
 10
112.6648191231
 20
114.857180808
 30
0.0
 40
8.0
  0
CIRCLE
  5
64
330
40
100
AcDbEntity
  8
0015022
  6
Continuous
 62
     7
100
AcDbCircle
 10
112.6648191231
 20
114.857180808
 30
0.0
 40
4.500000000000001
  0
CIRCLE
  5
65
330
40
100
AcDbEntity
  8
0015022
  6
Continuous
 62
     7
100
AcDbCircle
 10
112.6648191231
 20
88.357180808
 30
0.0
 40
8.0
  0
CIRCLE
  5
66
330
40
100
AcDbEntity
  8
0015022
  6
Continuous
 62
     7
100
AcDbCircle
 10
112.6648191231
 20
88.357180808
 30
0.0
 40
4.500000000000001
  0
CIRCLE
  5
67
330
40
100
AcDbEntity
  8
0015022
  6
Continuous
 62
     7
100
AcDbCircle
 10
140.1648191231
 20
141.357180808
 30
0.0
 40
8.0
  0
CIRCLE
  5
68
330
40
100
AcDbEntity
  8
0015022
  6
Continuous
 62
     7
100
AcDbCircle
 10
140.1648191231
 20
141.357180808
 30
0.0
 40
4.500000000000001
  0
CIRCLE
  5
69
330
40
100
AcDbEntity
  8
0015022
  6
Continuous
 62
     7
100
AcDbCircle
 10
140.1648191231
 20
114.857180808
 30
0.0
 40
8.0
  0
CIRCLE
  5
6A
330
40
100
AcDbEntity
  8
0015022
  6
Continuous
 62
     7
100
AcDbCircle
 10
140.1648191231
 20
114.857180808
 30
0.0
 40
4.500000000000001
  0
CIRCLE
  5
6B
330
40
100
AcDbEntity
  8
0015022
  6
Continuous
 62
     7
100
AcDbCircle
 10
140.1648191231
 20
88.357180808
 30
0.0
 40
8.0
  0
CIRCLE
  5
6C
330
40
100
AcDbEntity
  8
0015022
  6
Continuous
 62
     7
100
AcDbCircle
 10
140.1648191231
 20
88.357180808
 30
0.0
 40
4.500000000000001
  0
CIRCLE
  5
6D
330
40
100
AcDbEntity
  8
0015022
  6
Continuous
 62
     7
100
AcDbCircle
 10
167.6648191231
 20
141.357180808
 30
0.0
 40
8.0
  0
CIRCLE
  5
6E
330
40
100
AcDbEntity
  8
0015022
  6
Continuous
 62
     7
100
AcDbCircle
 10
167.6648191231
 20
141.357180808
 30
0.0
 40
4.500000000000001
  0
CIRCLE
  5
6F
330
40
100
AcDbEntity
  8
0015022
  6
Continuous
 62
     7
100
AcDbCircle
 10
167.6648191231
 20
114.857180808
 30
0.0
 40
8.0
  0
CIRCLE
  5
70
330
40
100
AcDbEntity
  8
0015022
  6
Continuous
 62
     7
100
AcDbCircle
 10
167.6648191231
 20
114.857180808
 30
0.0
 40
4.500000000000001
  0
CIRCLE
  5
71
330
40
100
AcDbEntity
  8
0015022
  6
Continuous
 62
     7
100
AcDbCircle
 10
167.6648191231
 20
88.357180808
 30
0.0
 40
8.0
  0
CIRCLE
  5
72
330
40
100
AcDbEntity
  8
0015022
  6
Continuous
 62
     7
100
AcDbCircle
 10
167.6648191231
 20
88.357180808
 30
0.0
 40
4.500000000000001
  0
LINE
  5
73
330
40
100
AcDbEntity
  8
0015022
  6
Continuous
 62
     7
100
AcDbLine
 10
168.6782611466
 20
68.6479922461
 30
0.0
 11
171.0141524564
 21
72.149180808
 31
0.0
  0
LINE
  5
74
330
40
100
AcDbEntity
  8
0015022
  6
Continuous
 62
     7
100
AcDbLine
 10
171.0141524564
 20
72.149180808
 30
0.0
 11
168.4914857897
 21
72.149180808
 31
0.0
  0
LINE
  5
75
330
40
100
AcDbEntity
  8
0015022
  6
Continuous
 62
     7
100
AcDbLine
 10
168.4914857897
 20
72.149180808
 30
0.0
 11
167.4514857897
 21
70.277180808
 31
0.0
  0
LINE
  5
76
330
40
100
AcDbEntity
  8
0015022
  6
Continuous
 62
     7
100
AcDbLine
 10
167.4514857897
 20
70.277180808
 30
0.0
 11
166.4008191231
 21
72.149180808
 31
0.0
  0
LINE
  5
77
330
40
100
AcDbEntity
  8
0015022
  6
Continuous
 62
     7
100
AcDbLine
 10
166.4008191231
 20
72.149180808
 30
0.0
 11
163.8888191231
 21
72.149180808
 31
0.0
  0
LINE
  5
78
330
40
100
AcDbEntity
  8
0015022
  6
Continuous
 62
     7
100
AcDbLine
 10
163.8888191231
 20
72.149180808
 30
0.0
 11
166.2194857897
 21
68.6505141413
 31
0.0
  0
LINE
  5
79
330
40
100
AcDbEntity
  8
0015022
  6
Continuous
 62
     7
100
AcDbLine
 10
166.2194857897
 20
68.6505141413
 30
0.0
 11
163.3608191231
 21
64.6398474746
 31
0.0
  0
LINE
  5
7A
330
40
100
AcDbEntity
  8
0015022
  6
Continuous
 62
     7
100
AcDbLine
 10
163.3608191231
 20
64.6398474746
 30
0.0
 11
165.8301524564
 21
64.6398474746
 31
0.0
  0
LINE
  5
7B
330
40
100
AcDbEntity
  8
0015022
  6
Continuous
 62
     7
100
AcDbLine
 10
165.8301524564
 20
64.6398474746
 30
0.0
 11
167.4461524564
 21
67.013180808
 31
0.0
  0
LINE
  5
7C
330
40
100
AcDbEntity
  8
0015022
  6
Continuous
 62
     7
100
AcDbLine
 10
167.4461524564
 20
67.013180808
 30
0.0
 11
168.5874857897
 21
65.221180808
 31
0.0
  0
LINE
  5
7D
330
40
100
AcDbEntity
  8
0015022
  6
Continuous
 62
     7
100
AcDbLine
 10
168.5874857897
 20
65.221180808
 30
0.0
 11
169.8514857897
 21
66.9545141413
 31
0.0
  0
LINE
  5
7E
330
40
100
AcDbEntity
  8
0015022
  6
Continuous
 62
     7
100
AcDbLine
 10
169.8514857897
 20
66.9545141413
 30
0.0
 11
168.6782611466
 21
68.6479922461
 31
0.0
  0
LINE
  5
7F
330
40
100
AcDbEntity
  8
0015022
  6
Continuous
 62
     7
100
AcDbLine
 10
61.9532806615
 20
70.2341038849
 30
0.0
 11
64.8648191231
 21
70.2341038849
 31
0.0
  0
LINE
  5
80
330
40
100
AcDbEntity
  8
0015022
  6
Continuous
 62
     7
100
AcDbLine
 10
64.8648191231
 20
70.2341038849
 30
0.0
 11
64.8648191231
 21
69.8148731156
 31
0.0
  0
LINE
  5
81
330
40
100
AcDbEntity
  8
0015022
  6
Continuous
 62
     7
100
AcDbLine
 10
64.8648191231
 20
69.8148731156
 30
0.0
 11
62.4071268154
 21
69.8148731156
 31
0.0
  0
LINE
  5
82
330
40
100
AcDbEntity
  8
0015022
  6
Continuous
 62
     7
100
AcDbLine
 10
62.4071268154
 20
69.8148731156
 30
0.0
 11
62.3571268154
 21
67.9341038849
 31
0.0
  0
SPLINE
  5
83
330
40
100
AcDbEntity
  8
0015022
  6
Continuous
 62
     7
100
AcDbSpline
210
0.0
220
0.0
230
1.0
 70
     8
 71
     3
 72
    36
 73
    32
 74
     0
 42
0.0000000010921033
 43
0.0000000001
 12
1.0
 22
0.0
 32
0.0
 13
1.0
 23
0.0
 33
0.0
 40
0.0
 40
0.0
 40
0.0
 40
0.0
 40
0.0649431215565611
 40
0.0649431215565611
 40
0.0649431215565611
 40
0.1029111789534178
 40
0.1029111789534178
 40
0.1029111789534178
 40
0.1794623066635175
 40
0.1794623066635175
 40
0.2560134343736148
 40
0.2560134343736148
 40
0.2560134343736148
 40
0.3344124448055793
 40
0.3344124448055793
 40
0.3344124448055793
 40
0.4127221537540129
 40
0.4127221537540129
 40
0.4965466309382525
 40
0.4965466309382525
 40
0.5803711081224903
 40
0.5803711081224903
 40
0.6641955853067285
 40
0.6641955853067285
 40
0.6641955853067285
 40
0.744346937948592
 40
0.744346937948592
 40
0.8669313596361509
 40
0.8669313596361509
 40
0.8669313596361509
 40
1.0
 40
1.0
 40
1.0
 40
1.0
 10
62.3571268153871
 20
67.9341038848773
 30
0.0
 10
62.56866527692556
 20
68.026411577185
 30
0.0
 10
62.7571268153871
 20
68.08410388487731
 30
0.0
 10
62.91866527692557
 20
68.10718080795422
 30
0.0
 10
63.08397296923327
 20
68.1307961925696
 30
0.0
 10
63.1994345076948
 20
68.1417961925696
 30
0.0
 10
63.26097296923325
 20
68.14564234641577
 30
0.0
 10
63.50209838078668
 20
68.16071268463786
 30
0.0
 10
63.73404989231018
 20
68.09948850026191
 30
0.0
 10
64.1571268153871
 20
67.91487311564653
 30
0.0
 10
64.34558835384864
 20
67.7841038848773
 30
0.0
 10
64.50328066154096
 20
67.61871926949269
 30
0.0
 10
64.66289386703234
 20
67.45132005397733
 30
0.0
 10
64.78789604615633
 20
67.25333465410807
 30
0.0
 10
64.88404989231017
 20
67.02256542333885
 30
0.0
 10
64.9788382400571
 20
66.79507338874622
 30
0.0
 10
65.02635758461786
 20
66.54179619256962
 30
0.0
 10
65.02635758461786
 20
65.97641157718499
 30
0.0
 10
64.98020373846403
 20
65.71487311564653
 30
0.0
 10
64.78789604615633
 20
65.24564234641576
 30
0.0
 10
64.66097296923326
 20
65.04948850026192
 30
0.0
 10
64.32251143077173
 20
64.72641157718499
 30
0.0
 10
64.13020373846402
 20
64.59948850026193
 30
0.0
 10
63.9071268153871
 20
64.51487311564654
 30
0.0
 10
63.68741227836486
 20
64.431533118845
 30
0.0
 10
63.4494345076948
 20
64.38795003872346
 30
0.0
 10
62.78789604615634
 20
64.38795003872346
 30
0.0
 10
62.44174220000249
 20
64.49564234641576
 30
0.0
 10
62.1571268153871
 20
64.72256542333885
 30
0.0
 10
61.87438619996814
 20
64.94799375184857
 30
0.0
 10
61.66481912307941
 20
65.28025773103114
 30
0.0
 10
61.53404989231018
 20
65.7341038848773
 30
0.0
  0
LINE
  5
84
330
40
100
AcDbEntity
  8
0015022
  6
Continuous
 62
     7
100
AcDbLine
 10
61.5340498923
 20
65.7341038849
 30
0.0
 11
62.0455883538
 21
65.8956423464
 31
0.0
  0
SPLINE
  5
85
330
40
100
AcDbEntity
  8
0015022
  6
Continuous
 62
     7
100
AcDbSpline
210
0.0
220
0.0
230
1.0
 70
     8
 71
     3
 72
    41
 73
    37
 74
     0
 42
0.0000000013187096
 43
0.0000000001
 12
1.0
 22
0.0
 32
0.0
 13
1.0
 23
0.0
 33
0.0
 40
0.0
 40
0.0
 40
0.0
 40
0.0
 40
0.0423610064135534
 40
0.0423610064135534
 40
0.0423610064135534
 40
0.0979715145524469
 40
0.0979715145524469
 40
0.0979715145524469
 40
0.1711085726089183
 40
0.1711085726089183
 40
0.2442456306653896
 40
0.2442456306653896
 40
0.2902948894416855
 40
0.2902948894416855
 40
0.2902948894416855
 40
0.3535685524119964
 40
0.3535685524119964
 40
0.3535685524119964
 40
0.4418469275375871
 40
0.4418469275375871
 40
0.5301253026631777
 40
0.5301253026631777
 40
0.6135665065490105
 40
0.6135665065490105
 40
0.6135665065490105
 40
0.6845068695621535
 40
0.6845068695621535
 40
0.755447232575296
 40
0.755447232575296
 40
0.755447232575296
 40
0.8219867860853078
 40
0.8219867860853078
 40
0.8987631939814792
 40
0.8987631939814792
 40
0.8987631939814792
 40
1.0
 40
1.0
 40
1.0
 40
1.0
 10
62.04558835384864
 20
65.89564234641576
 30
0.0
 10
62.06097296923326
 20
65.81487311564653
 30
0.0
 10
62.09174220000249
 20
65.71487311564653
 30
0.0
 10
62.14174220000249
 20
65.5917961925696
 30
0.0
 10
62.18985619832605
 20
65.47336173515778
 30
0.0
 10
62.26097296923325
 20
65.35333465410807
 30
0.0
 10
62.3571268153871
 20
65.2341038848773
 30
0.0
 10
62.45479632746393
 20
65.11299368990203
 30
0.0
 10
62.57635758461788
 20
65.01487311564654
 30
0.0
 10
62.86866527692555
 20
64.84564234641577
 30
0.0
 10
63.04558835384863
 20
64.80718080795423
 30
0.0
 10
63.38404989231018
 20
64.80718080795423
 30
0.0
 10
63.52251143077173
 20
64.83025773103115
 30
0.0
 10
63.66481912307942
 20
64.88025773103115
 30
0.0
 10
63.80934748158695
 20
64.93103796510137
 30
0.0
 10
63.94558835384864
 20
65.00718080795423
 30
0.0
 10
64.06866527692556
 20
65.126411577185
 30
0.0
 10
64.1898200918839
 20
65.2437803041759
 30
0.0
 10
64.29558835384863
 20
65.3917961925696
 30
0.0
 10
64.4571268153871
 20
65.76871926949268
 30
0.0
 10
64.4994345076948
 20
66.00333465410807
 30
0.0
 10
64.4994345076948
 20
66.54948850026192
 30
0.0
 10
64.4571268153871
 20
66.77256542333885
 30
0.0
 10
64.36866527692555
 20
66.95333465410808
 30
0.0
 10
64.2794283268778
 20
67.13568842159698
 30
0.0
 10
64.1725114307717
 20
67.28795003872345
 30
0.0
 10
63.90328066154094
 20
67.51102696180038
 30
0.0
 10
63.7571268153871
 20
67.59564234641577
 30
0.0
 10
63.59558835384864
 20
67.64564234641577
 30
0.0
 10
63.43755978128307
 20
67.69455595220985
 30
0.0
 10
63.28404989231018
 20
67.72256542333885
 30
0.0
 10
62.96097296923325
 20
67.72256542333885
 30
0.0
 10
62.76097296923325
 20
67.68795003872346
 30
0.0
 10
62.53404989231018
 20
67.62256542333883
 30
0.0
 10
62.30965487088598
 20
67.55790923072507
 30
0.0
 10
62.08789604615633
 20
67.43025773103115
 30
0.0
 10
61.87251143077172
 20
67.25333465410807
 30
0.0
  0
LINE
  5
86
330
40
100
AcDbEntity
  8
0015022
  6
Continuous
 62
     7
100
AcDbLine
 10
61.8725114308
 20
67.2533346541
 30
0.0
 11
61.9532806615
 21
70.2341038849
 31
0.0
  0
LINE
  5
87
330
40
100
AcDbEntity
  8
0015022
  6
Continuous
 62
     7
100
AcDbLine
 10
57.6609729692
 20
68.980257731
 30
0.0
 11
59.3225114308
 21
70.2341038849
 31
0.0
  0
LINE
  5
88
330
40
100
AcDbEntity
  8
0015022
  6
Continuous
 62
     7
100
AcDbLine
 10
59.3225114308
 20
70.2341038849
 30
0.0
 11
59.8455883538
 21
70.2341038849
 31
0.0
  0
LINE
  5
89
330
40
100
AcDbEntity
  8
0015022
  6
Continuous
 62
     7
100
AcDbLine
 10
59.8455883538
 20
70.2341038849
 30
0.0
 11
59.8455883538
 21
64.480257731
 31
0.0
  0
LINE
  5
8A
330
40
100
AcDbEntity
  8
0015022
  6
Continuous
 62
     7
100
AcDbLine
 10
59.8455883538
 20
64.480257731
 30
0.0
 11
59.3148191231
 21
64.480257731
 31
0.0
  0
LINE
  5
8B
330
40
100
AcDbEntity
  8
0015022
  6
Continuous
 62
     7
100
AcDbLine
 10
59.3148191231
 20
64.480257731
 30
0.0
 11
59.3148191231
 21
69.6187192695
 31
0.0
  0
LINE
  5
8C
330
40
100
AcDbEntity
  8
0015022
  6
Continuous
 62
     7
100
AcDbLine
 10
59.3148191231
 20
69.6187192695
 30
0.0
 11
57.9917422
 21
68.5879500387
 31
0.0
  0
LINE
  5
8D
330
40
100
AcDbEntity
  8
0015022
  6
Continuous
 62
     7
100
AcDbLine
 10
57.9917422
 20
68.5879500387
 30
0.0
 11
57.6609729692
 21
68.980257731
 31
0.0
  0
SPLINE
  5
8E
330
40
100
AcDbEntity
  8
0015022
  6
Continuous
 62
     7
100
AcDbSpline
210
0.0
220
0.0
230
1.0
 70
     8
 71
     3
 72
    50
 73
    46
 74
     0
 42
0.0000000007505791
 43
0.0000000001
 12
1.0
 22
0.0
 32
0.0
 13
1.0
 23
0.0
 33
0.0
 40
0.0
 40
0.0
 40
0.0
 40
0.0
 40
0.0318114685352491
 40
0.0318114685352491
 40
0.0318114685352491
 40
0.0663170141632774
 40
0.0663170141632774
 40
0.0663170141632774
 40
0.1049371204506329
 40
0.1049371204506329
 40
0.1049371204506329
 40
0.1476132551081601
 40
0.1476132551081601
 40
0.2383970324705363
 40
0.2383970324705363
 40
0.2383970324705363
 40
0.314318323746588
 40
0.314318323746588
 40
0.314318323746588
 40
0.3913712161169607
 40
0.3913712161169607
 40
0.3913712161169607
 40
0.4690204242010005
 40
0.4690204242010005
 40
0.5650382621543842
 40
0.5650382621543842
 40
0.5650382621543842
 40
0.6467046739969637
 40
0.6467046739969637
 40
0.6467046739969637
 40
0.7228109612984618
 40
0.7228109612984618
 40
0.7228109612984618
 40
0.8081420388711235
 40
0.8081420388711235
 40
0.8081420388711235
 40
0.8545066482333106
 40
0.8545066482333106
 40
0.8545066482333106
 40
0.8987538171175214
 40
0.8987538171175214
 40
0.8987538171175214
 40
0.9493769085587598
 40
0.9493769085587598
 40
1.0
 40
1.0
 40
1.0
 40
1.0
 10
54.29558835384864
 20
64.8841038848773
 30
0.0
 10
54.17251143077171
 20
64.82256542333883
 30
0.0
 10
54.04558835384864
 20
64.76102696180037
 30
0.0
 10
53.91481912307941
 20
64.70333465410808
 30
0.0
 10
53.7844286590901
 20
64.6458094494069
 30
0.0
 10
53.64558835384864
 20
64.5841038848773
 30
0.0
 10
53.49174220000249
 20
64.53025773103114
 30
0.0
 10
53.33909529234445
 20
64.47683131335083
 30
0.0
 10
53.17251143077171
 20
64.43795003872346
 30
0.0
 10
52.99558835384864
 20
64.40718080795422
 30
0.0
 10
52.81493203768774
 20
64.37576231818711
 30
0.0
 10
52.62251143077172
 20
64.35718080795422
 30
0.0
 10
51.96097296923326
 20
64.35718080795422
 30
0.0
 10
51.58020373846402
 20
64.44564234641575
 30
0.0
 10
51.27251143077171
 20
64.61871926949269
 30
0.0
 10
50.96646258347658
 20
64.7908717460962
 30
0.0
 10
50.71866527692556
 20
65.01102696180037
 30
0.0
 10
50.53404989231018
 20
65.28795003872345
 30
0.0
 10
50.35120965562379
 20
65.56221039375303
 30
0.0
 10
50.21481912307941
 20
65.87256542333883
 30
0.0
 10
50.13789604615634
 20
66.22256542333885
 30
0.0
 10
50.0617793279477
 20
66.56889649118816
 30
0.0
 10
50.02251143077173
 20
66.9187192694927
 30
0.0
 10
50.02251143077173
 20
67.7187192694927
 30
0.0
 10
50.06866527692556
 20
68.126411577185
 30
0.0
 10
50.16866527692557
 20
68.50333465410807
 30
0.0
 10
50.26841235863763
 20
68.87930442363816
 30
0.0
 10
50.4148191230794
 20
69.20718080795423
 30
0.0
 10
50.61866527692557
 20
69.48025773103114
 30
0.0
 10
50.8229788487041
 20
69.75396081775334
 30
0.0
 10
51.07635758461787
 20
69.9687192694927
 30
0.0
 10
51.38404989231018
 20
70.12256542333884
 30
0.0
 10
51.69481912307941
 20
70.27795003872345
 30
0.0
 10
52.06097296923326
 20
70.35333465410807
 30
0.0
 10
52.48020373846403
 20
70.35718080795422
 30
0.0
 10
52.69553494403677
 20
70.35915632360168
 30
0.0
 10
52.8994345076948
 20
70.33025773103114
 30
0.0
 10
53.08789604615633
 20
70.28025773103116
 30
0.0
 10
53.27899751278309
 20
70.2295573419261
 30
0.0
 10
53.45712681538711
 20
70.15333465410806
 30
0.0
 10
53.62251143077172
 20
70.04564234641576
 30
0.0
 10
53.78965478874303
 20
69.93680481099258
 30
0.0
 10
53.93020373846403
 20
69.78795003872345
 30
0.0
 10
54.18404989231018
 20
69.4341038848773
 30
0.0
 10
54.29174220000249
 20
69.2187192694927
 30
0.0
 10
54.37635758461788
 20
68.96487311564653
 30
0.0
  0
LINE
  5
8F
330
40
100
AcDbEntity
  8
0015022
  6
Continuous
 62
     7
100
AcDbLine
 10
54.3763575846
 20
68.9648731156
 30
0.0
 11
53.8686652769
 21
68.8533346541
 31
0.0
  0
SPLINE
  5
90
330
40
100
AcDbEntity
  8
0015022
  6
Continuous
 62
     7
100
AcDbSpline
210
0.0
220
0.0
230
1.0
 70
     8
 71
     3
 72
    43
 73
    39
 74
     0
 42
0.0000000009332033
 43
0.0000000001
 12
1.0
 22
0.0
 32
0.0
 13
1.0
 23
0.0
 33
0.0
 40
0.0
 40
0.0
 40
0.0
 40
0.0
 40
0.1615325525873964
 40
0.1615325525873964
 40
0.2300899731622795
 40
0.2300899731622795
 40
0.2986473937371631
 40
0.2986473937371631
 40
0.3672048143120457
 40
0.3672048143120457
 40
0.3672048143120457
 40
0.4220980646458317
 40
0.4220980646458317
 40
0.4769913149796175
 40
0.4769913149796175
 40
0.4769913149796175
 40
0.516287703672346
 40
0.516287703672346
 40
0.6139672984228411
 40
0.6139672984228411
 40
0.6139672984228411
 40
0.6985324509077749
 40
0.6985324509077749
 40
0.6985324509077749
 40
0.7875889418236753
 40
0.7875889418236753
 40
0.8766454327395755
 40
0.8766454327395755
 40
0.9033623800143465
 40
0.9033623800143465
 40
0.9033623800143465
 40
0.9325682909425121
 40
0.9325682909425121
 40
0.9325682909425121
 40
0.9640856721434174
 40
0.9640856721434174
 40
0.9640856721434174
 40
1.0
 40
1.0
 40
1.0
 40
1.0
 10
53.86866527692556
 20
68.85333465410807
 30
0.0
 10
53.61481912307941
 20
69.57256542333884
 30
0.0
 10
53.1571268153871
 20
69.9341038848773
 30
0.0
 10
52.21481912307941
 20
69.9341038848773
 30
0.0
 10
51.97251143077172
 20
69.88795003872345
 30
0.0
 10
51.5571268153871
 20
69.71102696180037
 30
0.0
 10
51.38404989231018
 20
69.59564234641577
 30
0.0
 10
51.09174220000249
 20
69.3110269618004
 30
0.0
 10
50.97635758461787
 20
69.14564234641577
 30
0.0
 10
50.88404989231018
 20
68.96102696180037
 30
0.0
 10
50.79097296923325
 20
68.77487311564653
 30
0.0
 10
50.73020373846403
 20
68.58795003872345
 30
0.0
 10
50.63020373846403
 20
68.21102696180037
 30
0.0
 10
50.59558835384864
 20
68.026411577185
 30
0.0
 10
50.58020373846402
 20
67.84948850026191
 30
0.0
 10
50.56479025888544
 20
67.67223348510822
 30
0.0
 10
50.54943450769479
 20
67.51487311564652
 30
0.0
 10
50.54943450769479
 20
67.04564234641576
 30
0.0
 10
50.58020373846402
 20
66.72256542333885
 30
0.0
 10
50.63789604615633
 20
66.41102696180037
 30
0.0
 10
50.69571587884354
 20
66.09879986528946
 30
0.0
 10
50.80328066154095
 20
65.82256542333883
 30
0.0
 10
50.9494345076948
 20
65.58025773103115
 30
0.0
 10
51.09728938697403
 20
65.3351299048577
 30
0.0
 10
51.29558835384864
 20
65.1417961925696
 30
0.0
 10
51.79558835384864
 20
64.84948850026193
 30
0.0
 10
52.11097296923325
 20
64.78025773103114
 30
0.0
 10
52.61097296923325
 20
64.78025773103114
 30
0.0
 10
52.72251143077172
 20
64.7841038848773
 30
0.0
 10
52.82635758461787
 20
64.79564234641578
 30
0.0
 10
52.9259823500963
 20
64.80671176480226
 30
0.0
 10
53.03020373846402
 20
64.82256542333883
 30
0.0
 10
53.13020373846403
 20
64.84564234641577
 30
0.0
 10
53.2346981204865
 20
64.8697564345748
 30
0.0
 10
53.33789604615633
 20
64.90333465410808
 30
0.0
 10
53.44558835384864
 20
64.94948850026192
 30
0.0
 10
53.55188808859665
 20
64.99504552943964
 30
0.0
 10
53.66866527692557
 20
65.0417961925696
 30
0.0
 10
53.79174220000249
 20
65.10333465410807
 30
0.0
  0
LINE
  5
91
330
40
100
AcDbEntity
  8
0015022
  6
Continuous
 62
     7
100
AcDbLine
 10
53.7917422
 20
65.1033346541
 30
0.0
 11
53.7917422
 21
67.057180808
 31
0.0
  0
LINE
  5
92
330
40
100
AcDbEntity
  8
0015022
  6
Continuous
 62
     7
100
AcDbLine
 10
53.7917422
 20
67.057180808
 30
0.0
 11
52.5263575846
 21
67.057180808
 31
0.0
  0
LINE
  5
93
330
40
100
AcDbEntity
  8
0015022
  6
Continuous
 62
     7
100
AcDbLine
 10
52.5263575846
 20
67.057180808
 30
0.0
 11
52.5263575846
 21
67.480257731
 31
0.0
  0
LINE
  5
94
330
40
100
AcDbEntity
  8
0015022
  6
Continuous
 62
     7
100
AcDbLine
 10
52.5263575846
 20
67.480257731
 30
0.0
 11
54.2955883538
 21
67.480257731
 31
0.0
  0
LINE
  5
95
330
40
100
AcDbEntity
  8
0015022
  6
Continuous
 62
     7
100
AcDbLine
 10
54.2955883538
 20
67.480257731
 30
0.0
 11
54.2955883538
 21
64.8841038849
 31
0.0
  0
LINE
  5
96
330
40
100
AcDbEntity
  8
0015022
  6
Continuous
 62
     7
100
AcDbLine
 10
46.1686652769
 20
64.480257731
 30
0.0
 11
45.6648191231
 21
64.480257731
 31
0.0
  0
LINE
  5
97
330
40
100
AcDbEntity
  8
0015022
  6
Continuous
 62
     7
100
AcDbLine
 10
45.6648191231
 20
64.480257731
 30
0.0
 11
45.6648191231
 21
70.2341038849
 31
0.0
  0
SPLINE
  5
98
330
40
100
AcDbEntity
  8
0015022
  6
Continuous
 62
     7
100
AcDbSpline
210
0.0
220
0.0
230
1.0
 70
     8
 71
     3
 72
    21
 73
    17
 74
     0
 42
0.0000000011323204
 43
0.0000000001
 12
1.0
 22
0.0
 32
0.0
 13
1.0
 23
0.0
 33
0.0
 40
0.0
 40
0.0
 40
0.0
 40
0.0
 40
0.2080968393708693
 40
0.2080968393708693
 40
0.2080968393708693
 40
0.3784185797009657
 40
0.3784185797009657
 40
0.3784185797009657
 40
0.5348983508508443
 40
0.5348983508508443
 40
0.6913781220007226
 40
0.6913781220007226
 40
0.8498900979707286
 40
0.8498900979707286
 40
0.8498900979707286
 40
1.0
 40
1.0
 40
1.0
 40
1.0
 10
45.66481912307942
 20
70.2341038848773
 30
0.0
 10
46.26738322564351
 20
70.2341038848773
 30
0.0
 10
46.86994732820762
 20
70.2341038848773
 30
0.0
 10
47.47251143077172
 20
70.2341038848773
 30
0.0
 10
48.08789604615633
 20
70.2341038848773
 30
0.0
 10
48.5417422000025
 20
70.0841038848773
 30
0.0
 10
48.84174220000249
 20
69.7841038848773
 30
0.0
 10
49.13981912307942
 20
69.48602696180036
 30
0.0
 10
49.28789604615634
 20
69.08795003872345
 30
0.0
 10
49.28789604615634
 20
68.09564234641577
 30
0.0
 10
49.13789604615634
 20
67.69564234641575
 30
0.0
 10
48.5417422000025
 20
67.09948850026191
 30
0.0
 10
48.08789604615633
 20
66.94948850026192
 30
0.0
 10
47.47251143077172
 20
66.94948850026192
 30
0.0
 10
47.03789604615634
 20
66.94948850026192
 30
0.0
 10
46.60328066154096
 20
66.94948850026192
 30
0.0
 10
46.16866527692558
 20
66.94948850026192
 30
0.0
  0
SPLINE
  5
99
330
40
100
AcDbEntity
  8
0015022
  6
Continuous
 62
     7
100
AcDbSpline
210
0.0
220
0.0
230
1.0
 70
     8
 71
     3
 72
    31
 73
    27
 74
     0
 42
0.0000000018456314
 43
0.0000000001
 12
1.0
 22
0.0
 32
0.0
 13
1.0
 23
0.0
 33
0.0
 40
0.0
 40
0.0
 40
0.0
 40
0.0
 40
0.1009288093765435
 40
0.1009288093765435
 40
0.1009288093765435
 40
0.1902996344612322
 40
0.1902996344612322
 40
0.1902996344612322
 40
0.2778951528860762
 40
0.2778951528860762
 40
0.2778951528860762
 40
0.3860831626481461
 40
0.3860831626481461
 40
0.4905405513839377
 40
0.4905405513839377
 40
0.4905405513839377
 40
0.5786664005983861
 40
0.5786664005983861
 40
0.5786664005983861
 40
0.6678164918377038
 40
0.6678164918377038
 40
0.6678164918377038
 40
0.7688315071295604
 40
0.7688315071295604
 40
0.7688315071295604
 40
1.0
 40
1.0
 40
1.0
 40
1.0
 10
47.41481912307942
 20
67.37256542333883
 30
0.0
 10
47.6071268153871
 20
67.37256542333883
 30
0.0
 10
47.78789604615634
 20
67.3917961925696
 30
0.0
 10
47.95328066154096
 20
67.43795003872346
 30
0.0
 10
48.12223353505981
 20
67.485099677845
 30
0.0
 10
48.26481912307942
 20
67.55718080795423
 30
0.0
 10
48.38020373846404
 20
67.65333465410806
 30
0.0
 10
48.4978582151349
 20
67.7513800513338
 30
0.0
 10
48.59174220000249
 20
67.876411577185
 30
0.0
 10
48.65712681538712
 20
68.03025773103114
 30
0.0
 10
48.72309985769684
 20
68.18548841881875
 30
0.0
 10
48.76097296923326
 20
68.36871926949269
 30
0.0
 10
48.76097296923326
 20
68.80718080795423
 30
0.0
 10
48.72635758461788
 20
68.99179619256961
 30
0.0
 10
48.65712681538712
 20
69.14948850026192
 30
0.0
 10
48.58993326081201
 20
69.30254048568298
 30
0.0
 10
48.49943450769479
 20
69.43025773103115
 30
0.0
 10
48.38020373846404
 20
69.53025773103116
 30
0.0
 10
48.265124559854
 20
69.62677575180085
 30
0.0
 10
48.12251143077173
 20
69.69948850026192
 30
0.0
 10
47.95328066154096
 20
69.74179619256961
 30
0.0
 10
47.78676482443689
 20
69.78342515184563
 30
0.0
 10
47.6071268153871
 20
69.8110269618004
 30
0.0
 10
47.41481912307942
 20
69.81487311564653
 30
0.0
 10
46.999600595106
 20
69.823177486206
 30
0.0
 10
46.58404989231018
 20
69.81487311564653
 30
0.0
 10
46.16866527692558
 20
69.81487311564653
 30
0.0
  0
LINE
  5
9A
330
40
100
AcDbEntity
  8
0015022
  6
Continuous
 62
     7
100
AcDbLine
 10
46.1686652769
 20
69.8148731156
 30
0.0
 11
46.1686652769
 21
67.3725654233
 31
0.0
  0
LINE
  5
9B
330
40
100
AcDbEntity
  8
0015022
  6
Continuous
 62
     7
100
AcDbLine
 10
46.1686652769
 20
67.3725654233
 30
0.0
 11
47.4148191231
 21
67.3725654233
 31
0.0
  0
LINE
  5
9C
330
40
100
AcDbEntity
  8
0015022
  6
Continuous
 62
     7
100
AcDbLine
 10
46.1686652769
 20
66.9494885003
 30
0.0
 11
46.1686652769
 21
64.480257731
 31
0.0
  0
SPLINE
  5
9D
330
40
100
AcDbEntity
  8
0015022
  6
Continuous
 62
     7
100
AcDbSpline
210
0.0
220
0.0
230
1.0
 70
     8
 71
     3
 72
    13
 73
     9
 74
     0
 42
0.000000001088999
 43
0.0000000001
 12
1.0
 22
0.0
 32
0.0
 13
1.0
 23
0.0
 33
0.0
 40
0.0
 40
0.0
 40
0.0
 40
0.0
 40
0.8861723950927788
 40
0.8861723950927788
 40
0.8861723950927788
 40
0.9457963786156067
 40
0.9457963786156067
 40
1.0
 40
1.0
 40
1.0
 40
1.0
 10
169.3501524564127
 20
65.26918080795424
 30
0.0
 10
170.9057080119682
 20
67.47718080795424
 30
0.0
 10
172.4612635675238
 20
69.68518080795424
 30
0.0
 10
174.0168191230793
 20
71.89318080795425
 30
0.0
 10
174.1318123060466
 20
72.05640541737749
 30
0.0
 10
174.2781524564127
 20
72.14918080795424
 30
0.0
 10
174.6141524564127
 20
72.14918080795424
 30
0.0
 10
174.763485789746
 20
72.06918080795424
 30
0.0
 10
174.8861524564127
 20
71.90918080795424
 30
0.0
  0
SPLINE
  5
9E
330
40
100
AcDbEntity
  8
0015022
  6
Continuous
 62
     7
100
AcDbSpline
210
0.0
220
0.0
230
1.0
 70
     8
 71
     3
 72
    16
 73
    12
 74
     0
 42
0.0000000005358967
 43
0.0000000001
 12
1.0
 22
0.0
 32
0.0
 13
1.0
 23
0.0
 33
0.0
 40
0.0
 40
0.0
 40
0.0
 40
0.0
 40
0.4362498099801776
 40
0.4362498099801776
 40
0.4362498099801776
 40
0.4506802174752832
 40
0.4506802174752832
 40
0.4880295074626163
 40
0.4880295074626163
 40
0.4880295074626163
 40
1.0
 40
1.0
 40
1.0
 40
1.0
 10
174.8861524564127
 20
71.90918080795424
 30
0.0
 10
176.4417080119682
 20
69.69940303017647
 30
0.0
 10
177.9972635675238
 20
67.48962525239868
 30
0.0
 10
179.5528191230794
 20
65.27984747462091
 30
0.0
 10
179.6252565735087
 20
65.17694490218246
 30
0.0
 10
179.6648191230794
 20
65.07718080795425
 30
0.0
 10
179.6648191230794
 20
64.75184747462092
 30
0.0
 10
179.515485789746
 20
64.63984747462091
 30
0.0
 10
179.2221524564127
 20
64.63984747462091
 30
0.0
 10
176.0505969008571
 20
64.63984747462091
 30
0.0
 10
172.8790413453016
 20
64.63984747462091
 30
0.0
 10
169.707485789746
 20
64.63984747462091
 30
0.0
  0
SPLINE
  5
9F
330
40
100
AcDbEntity
  8
0015022
  6
Continuous
 62
     7
100
AcDbSpline
210
0.0
220
0.0
230
1.0
 70
     8
 71
     3
 72
    10
 73
     6
 74
     0
 42
0.0000000097239176
 43
0.0000000001
 12
1.0
 22
0.0
 32
0.0
 13
1.0
 23
0.0
 33
0.0
 40
0.0
 40
0.0
 40
0.0
 40
0.0
 40
0.775862068965516
 40
0.775862068965516
 40
1.0
 40
1.0
 40
1.0
 40
1.0
 10
169.707485789746
 20
64.63984747462091
 30
0.0
 10
169.403485789746
 20
64.63984747462091
 30
0.0
 10
169.2541524564127
 20
64.75718080795424
 30
0.0
 10
169.2541524564127
 20
65.06651414128758
 30
0.0
 10
169.2861524564127
 20
65.15718080795423
 30
0.0
 10
169.3501524564127
 20
65.26918080795424
 30
0.0
  0
LINE
  5
A0
330
40
100
AcDbEntity
  8
0015022
  6
Continuous
 62
     7
100
AcDbLine
 10
163.0088191231
 20
64.6398474746
 30
0.0
 11
160.9021524564
 21
64.6398474746
 31
0.0
  0
LINE
  5
A1
330
40
100
AcDbEntity
  8
0015022
  6
Continuous
 62
     7
100
AcDbLine
 10
160.9021524564
 20
64.6398474746
 30
0.0
 11
160.9021524564
 21
71.733180808
 31
0.0
  0
SPLINE
  5
A2
330
40
100
AcDbEntity
  8
0015022
  6
Continuous
 62
     7
100
AcDbSpline
210
0.0
220
0.0
230
1.0
 70
     8
 71
     3
 72
    14
 73
    10
 74
     0
 42
0.0000000042402539
 43
0.0000000001
 12
1.0
 22
0.0
 32
0.0
 13
1.0
 23
0.0
 33
0.0
 40
0.0
 40
0.0
 40
0.0
 40
0.0
 40
0.1374370758398343
 40
0.1374370758398343
 40
0.1374370758398343
 40
0.2825800858972481
 40
0.2825800858972481
 40
0.2825800858972481
 40
1.0
 40
1.0
 40
1.0
 40
1.0
 10
160.9021524564127
 20
71.73318080795424
 30
0.0
 10
160.9021524564127
 20
71.84518080795424
 30
0.0
 10
160.9448191230794
 20
71.94118080795425
 30
0.0
 10
161.0248191230793
 20
72.02118080795425
 30
0.0
 10
161.107485789746
 20
72.1038474746209
 30
0.0
 10
161.2061524564127
 20
72.14918080795424
 30
0.0
 10
161.3288191230793
 20
72.14918080795424
 30
0.0
 10
161.8888191230793
 20
72.14918080795424
 30
0.0
 10
162.4488191230793
 20
72.14918080795424
 30
0.0
 10
163.0088191230793
 20
72.14918080795424
 30
0.0
  0
LINE
  5
A3
330
40
100
AcDbEntity
  8
0015022
  6
Continuous
 62
     7
100
AcDbLine
 10
163.0088191231
 20
72.149180808
 30
0.0
 11
163.0088191231
 21
64.6398474746
 31
0.0
  0
LINE
  5
A4
330
40
100
AcDbEntity
  8
0015022
  6
Continuous
 62
     7
100
AcDbLine
 10
160.0221524564
 20
72.149180808
 30
0.0
 11
160.0221524564
 21
70.341180808
 31
0.0
  0
LINE
  5
A5
330
40
100
AcDbEntity
  8
0015022
  6
Continuous
 62
     7
100
AcDbLine
 10
160.0221524564
 20
70.341180808
 30
0.0
 11
157.7608191231
 21
70.341180808
 31
0.0
  0
LINE
  5
A6
330
40
100
AcDbEntity
  8
0015022
  6
Continuous
 62
     7
100
AcDbLine
 10
157.7608191231
 20
70.341180808
 30
0.0
 11
157.7608191231
 21
69.3278474746
 31
0.0
  0
LINE
  5
A7
330
40
100
AcDbEntity
  8
0015022
  6
Continuous
 62
     7
100
AcDbLine
 10
157.7608191231
 20
69.3278474746
 30
0.0
 11
159.9101524564
 21
69.3278474746
 31
0.0
  0
LINE
  5
A8
330
40
100
AcDbEntity
  8
0015022
  6
Continuous
 62
     7
100
AcDbLine
 10
159.9101524564
 20
69.3278474746
 30
0.0
 11
159.9101524564
 21
67.4985141413
 31
0.0
  0
LINE
  5
A9
330
40
100
AcDbEntity
  8
0015022
  6
Continuous
 62
     7
100
AcDbLine
 10
159.9101524564
 20
67.4985141413
 30
0.0
 11
157.7608191231
 21
67.4985141413
 31
0.0
  0
LINE
  5
AA
330
40
100
AcDbEntity
  8
0015022
  6
Continuous
 62
     7
100
AcDbLine
 10
157.7608191231
 20
67.4985141413
 30
0.0
 11
157.7608191231
 21
64.6398474746
 31
0.0
  0
LINE
  5
AB
330
40
100
AcDbEntity
  8
0015022
  6
Continuous
 62
     7
100
AcDbLine
 10
157.7608191231
 20
64.6398474746
 30
0.0
 11
155.6328191231
 21
64.6398474746
 31
0.0
  0
SPLINE
  5
AC
330
40
100
AcDbEntity
  8
0015022
  6
Continuous
 62
     7
100
AcDbSpline
210
0.0
220
0.0
230
1.0
 70
     8
 71
     3
 72
    16
 73
    12
 74
     0
 42
0.0000000008522131
 43
0.0000000001
 12
1.0
 22
0.0
 32
0.0
 13
1.0
 23
0.0
 33
0.0
 40
0.0
 40
0.0
 40
0.0
 40
0.0
 40
0.6054083058996914
 40
0.6054083058996914
 40
0.6054083058996914
 40
0.6329103639311628
 40
0.6329103639311628
 40
0.6622458924980676
 40
0.6622458924980676
 40
0.6622458924980676
 40
1.0
 40
1.0
 40
1.0
 40
1.0
 10
155.6328191230793
 20
64.63984747462091
 30
0.0
 10
155.6328191230793
 20
67.00429191906535
 30
0.0
 10
155.6328191230793
 20
69.3687363635098
 30
0.0
 10
155.6328191230793
 20
71.73318080795424
 30
0.0
 10
155.6328191230793
 20
71.84518080795424
 30
0.0
 10
155.675485789746
 20
71.94118080795425
 30
0.0
 10
155.8408191230793
 20
72.10651414128758
 30
0.0
 10
155.9421524564127
 20
72.14918080795424
 30
0.0
 10
156.0648191230794
 20
72.14918080795424
 30
0.0
 10
157.3839302341904
 20
72.14918080795424
 30
0.0
 10
158.7030413453016
 20
72.14918080795424
 30
0.0
 10
160.0221524564127
 20
72.14918080795424
 30
0.0
  0
LINE
  5
AD
330
40
100
AcDbEntity
  8
0015022
  6
Continuous
 62
     7
100
AcDbLine
 10
154.9768191231
 20
67.4985141413
 30
0.0
 11
152.3794857897
 21
67.4985141413
 31
0.0
  0
LINE
  5
AE
330
40
100
AcDbEntity
  8
0015022
  6
Continuous
 62
     7
100
AcDbLine
 10
152.3794857897
 20
67.4985141413
 30
0.0
 11
152.3794857897
 21
69.3278474746
 31
0.0
  0
LINE
  5
AF
330
40
100
AcDbEntity
  8
0015022
  6
Continuous
 62
     7
100
AcDbLine
 10
152.3794857897
 20
69.3278474746
 30
0.0
 11
154.9768191231
 21
69.3278474746
 31
0.0
  0
LINE
  5
B0
330
40
100
AcDbEntity
  8
0015022
  6
Continuous
 62
     7
100
AcDbLine
 10
154.9768191231
 20
69.3278474746
 30
0.0
 11
154.9768191231
 21
67.4985141413
 31
0.0
  0
LINE
  5
B1
330
40
100
AcDbEntity
  8
0015022
  6
Continuous
 62
     7
100
AcDbLine
 10
138.6461524564
 20
67.1998474746
 30
0.0
 11
138.6461524564
 21
68.8905141413
 31
0.0
  0
LINE
  5
B2
330
40
100
AcDbEntity
  8
0015022
  6
Continuous
 62
     7
100
AcDbLine
 10
138.6461524564
 20
68.8905141413
 30
0.0
 11
142.5288191231
 21
68.8905141413
 31
0.0
  0
SPLINE
  5
B3
330
40
100
AcDbEntity
  8
0015022
  6
Continuous
 62
     7
100
AcDbSpline
210
0.0
220
0.0
230
1.0
 70
     8
 71
     3
 72
    51
 73
    47
 74
     0
 42
0.0000000004159093
 43
0.0000000001
 12
1.0
 22
0.0
 32
0.0
 13
1.0
 23
0.0
 33
0.0
 40
0.0
 40
0.0
 40
0.0
 40
0.0
 40
0.0107290007186243
 40
0.0107290007186243
 40
0.0107290007186243
 40
0.0413610090152915
 40
0.0413610090152915
 40
0.0719930173119589
 40
0.0719930173119589
 40
0.0719930173119589
 40
0.1012528093223965
 40
0.1012528093223965
 40
0.1012528093223965
 40
0.130977904969232
 40
0.130977904969232
 40
0.130977904969232
 40
0.2079391941313246
 40
0.2079391941313246
 40
0.2079391941313246
 40
0.2827342651719228
 40
0.2827342651719228
 40
0.3524584839385829
 40
0.3524584839385829
 40
0.3524584839385829
 40
0.4158509696523796
 40
0.4158509696523796
 40
0.4158509696523796
 40
0.4829327459730264
 40
0.4829327459730264
 40
0.5500145222936742
 40
0.5500145222936742
 40
0.6189258016048845
 40
0.6189258016048845
 40
0.6189258016048845
 40
0.6831832164295405
 40
0.6831832164295405
 40
0.7474406312541964
 40
0.7474406312541964
 40
0.7474406312541964
 40
0.818201894187372
 40
0.818201894187372
 40
0.818201894187372
 40
0.9077483563435556
 40
0.9077483563435556
 40
0.9077483563435556
 40
1.0
 40
1.0
 40
1.0
 40
1.0
 10
142.5288191230794
 20
68.89051414128758
 30
0.0
 10
142.5288191230794
 20
68.80518080795426
 30
0.0
 10
142.5288191230794
 20
68.7198474746209
 30
0.0
 10
142.5288191230794
 20
68.63451414128757
 30
0.0
 10
142.5288191230794
 20
68.34651414128757
 30
0.0
 10
142.5128191230793
 20
68.09051414128758
 30
0.0
 10
142.491485789746
 20
67.63184747462093
 30
0.0
 10
142.4648191230793
 20
67.40251414128758
 30
0.0
 10
142.4221524564127
 20
67.1785141412876
 30
0.0
 10
142.3785054834003
 20
66.94936753297249
 30
0.0
 10
142.315485789746
 20
66.73051414128759
 30
0.0
 10
142.235485789746
 20
66.50651414128758
 30
0.0
 10
142.1565717625967
 20
66.28555486526948
 30
0.0
 10
142.0381524564127
 20
66.0798474746209
 30
0.0
 10
141.8941524564127
 20
65.88784747462091
 30
0.0
 10
141.4903124564127
 20
65.34939414128758
 30
0.0
 10
141.0461524564127
 20
64.94384747462091
 30
0.0
 10
140.5128191230793
 20
64.70918080795424
 30
0.0
 10
139.9839540649918
 20
64.47648018239572
 30
0.0
 10
139.3981524564127
 20
64.35718080795425
 30
0.0
 10
138.1821524564127
 20
64.35718080795425
 30
0.0
 10
137.643485789746
 20
64.45318080795424
 30
0.0
 10
137.147485789746
 20
64.64518080795425
 30
0.0
 10
136.6561241004549
 20
64.83538533284111
 30
0.0
 10
136.2301524564127
 20
65.10918080795425
 30
0.0
 10
135.883485789746
 20
65.45584747462091
 30
0.0
 10
135.5341524564127
 20
65.80518080795424
 30
0.0
 10
135.259485789746
 20
66.21851414128757
 30
0.0
 10
134.8648191230793
 20
67.19984747462091
 30
0.0
 10
134.7688191230793
 20
67.73851414128758
 30
0.0
 10
134.7688191230793
 20
68.92784747462092
 30
0.0
 10
134.8648191230793
 20
69.47718080795424
 30
0.0
 10
135.0621524564127
 20
69.97318080795424
 30
0.0
 10
135.2569250657159
 20
70.46274439350026
 30
0.0
 10
135.531485789746
 20
70.89051414128758
 30
0.0
 10
136.2461524564127
 20
71.59451414128758
 30
0.0
 10
136.6728191230794
 20
71.86651414128758
 30
0.0
 10
137.179485789746
 20
72.06384747462091
 30
0.0
 10
137.6797179749811
 20
72.2586747467651
 30
0.0
 10
138.235485789746
 20
72.35184747462091
 30
0.0
 10
138.8328191230794
 20
72.35718080795425
 30
0.0
 10
139.6113761046125
 20
72.36413220957508
 30
0.0
 10
140.2888191230793
 20
72.17584747462091
 30
0.0
 10
140.875485789746
 20
71.82918080795424
 30
0.0
 10
141.4605353048047
 20
71.4834697308741
 30
0.0
 10
141.915485789746
 20
70.92251414128758
 30
0.0
 10
142.2461524564127
 20
70.15451414128758
 30
0.0
  0
LINE
  5
B4
330
40
100
AcDbEntity
  8
0015022
  6
Continuous
 62
     7
100
AcDbLine
 10
142.2461524564
 20
70.1545141413
 30
0.0
 11
140.2621524564
 21
69.3438474746
 31
0.0
  0
SPLINE
  5
B5
330
40
100
AcDbEntity
  8
0015022
  6
Continuous
 62
     7
100
AcDbSpline
210
0.0
220
0.0
230
1.0
 70
     8
 71
     3
 72
    39
 73
    35
 74
     0
 42
0.0000000009543585
 43
0.0000000001
 12
1.0
 22
0.0
 32
0.0
 13
1.0
 23
0.0
 33
0.0
 40
0.0
 40
0.0
 40
0.0
 40
0.0
 40
0.1025737827615676
 40
0.1025737827615676
 40
0.1025737827615676
 40
0.1980711168589109
 40
0.1980711168589109
 40
0.2739072351126853
 40
0.2739072351126853
 40
0.2739072351126853
 40
0.3483728938041905
 40
0.3483728938041905
 40
0.4228385524956949
 40
0.4228385524956949
 40
0.4228385524956949
 40
0.4996585425559548
 40
0.4996585425559548
 40
0.5795513322186246
 40
0.5795513322186246
 40
0.5795513322186246
 40
0.6560454085937688
 40
0.6560454085937688
 40
0.7325394849689134
 40
0.7325394849689134
 40
0.8090335613440577
 40
0.8090335613440577
 40
0.8591024113350628
 40
0.8591024113350628
 40
0.8591024113350628
 40
0.9060682742233753
 40
0.9060682742233753
 40
0.9530341371116875
 40
0.9530341371116875
 40
1.0
 40
1.0
 40
1.0
 40
1.0
 10
140.2621524564127
 20
69.34384747462092
 30
0.0
 10
140.1128191230794
 20
69.72251414128758
 30
0.0
 10
139.9101524564127
 20
70.01051414128757
 30
0.0
 10
139.6648191230794
 20
70.21318080795425
 30
0.0
 10
139.4189344788846
 20
70.41630290533251
 30
0.0
 10
139.1101524564127
 20
70.51184747462091
 30
0.0
 10
138.459485789746
 20
70.51184747462091
 30
0.0
 10
138.203485789746
 20
70.4478474746209
 30
0.0
 10
137.9848191230793
 20
70.31984747462091
 30
0.0
 10
137.7621802218831
 20
70.18952226416455
 30
0.0
 10
137.5741524564127
 20
70.02651414128758
 30
0.0
 10
137.275485789746
 20
69.61051414128758
 30
0.0
 10
137.163485789746
 20
69.37051414128759
 30
0.0
 10
137.083485789746
 20
69.10918080795425
 30
0.0
 10
137.0039427585198
 20
68.84934023928199
 30
0.0
 10
136.971485789746
 20
68.58118080795425
 30
0.0
 10
136.971485789746
 20
68.03718080795424
 30
0.0
 10
137.0088191230793
 20
67.76518080795424
 30
0.0
 10
137.0941524564127
 20
67.5038474746209
 30
0.0
 10
137.1789719269935
 20
67.24408784596704
 30
0.0
 10
137.291485789746
 20
67.0078474746209
 30
0.0
 10
137.6008191230793
 20
66.5918474746209
 30
0.0
 10
137.787485789746
 20
66.43184747462091
 30
0.0
 10
138.2248191230794
 20
66.18651414128757
 30
0.0
 10
138.4861524564127
 20
66.12784747462092
 30
0.0
 10
138.971485789746
 20
66.12784747462092
 30
0.0
 10
139.1581524564127
 20
66.14918080795425
 30
0.0
 10
139.3341524564127
 20
66.20251414128758
 30
0.0
 10
139.5150372335363
 20
66.25732771011292
 30
0.0
 10
139.6701524564127
 20
66.33051414128757
 30
0.0
 10
139.9368191230793
 20
66.52251414128757
 30
0.0
 10
140.0488191230793
 20
66.64518080795425
 30
0.0
 10
140.2301524564127
 20
66.94384747462091
 30
0.0
 10
140.283485789746
 20
67.07718080795425
 30
0.0
 10
140.3048191230793
 20
67.19984747462091
 30
0.0
  0
LINE
  5
B6
330
40
100
AcDbEntity
  8
0015022
  6
Continuous
 62
     7
100
AcDbLine
 10
140.3048191231
 20
67.1998474746
 30
0.0
 11
138.6461524564
 21
67.1998474746
 31
0.0
  0
LINE
  5
B7
330
40
100
AcDbEntity
  8
0015022
  6
Continuous
 62
     7
100
AcDbLine
 10
134.2674857897
 20
72.149180808
 30
0.0
 11
134.2674857897
 21
70.341180808
 31
0.0
  0
LINE
  5
B8
330
40
100
AcDbEntity
  8
0015022
  6
Continuous
 62
     7
100
AcDbLine
 10
134.2674857897
 20
70.341180808
 30
0.0
 11
132.0008191231
 21
70.341180808
 31
0.0
  0
LINE
  5
B9
330
40
100
AcDbEntity
  8
0015022
  6
Continuous
 62
     7
100
AcDbLine
 10
132.0008191231
 20
70.341180808
 30
0.0
 11
132.0008191231
 21
69.3278474746
 31
0.0
  0
LINE
  5
BA
330
40
100
AcDbEntity
  8
0015022
  6
Continuous
 62
     7
100
AcDbLine
 10
132.0008191231
 20
69.3278474746
 30
0.0
 11
134.1554857897
 21
69.3278474746
 31
0.0
  0
LINE
  5
BB
330
40
100
AcDbEntity
  8
0015022
  6
Continuous
 62
     7
100
AcDbLine
 10
134.1554857897
 20
69.3278474746
 30
0.0
 11
134.1554857897
 21
67.4985141413
 31
0.0
  0
LINE
  5
BC
330
40
100
AcDbEntity
  8
0015022
  6
Continuous
 62
     7
100
AcDbLine
 10
134.1554857897
 20
67.4985141413
 30
0.0
 11
132.0008191231
 21
67.4985141413
 31
0.0
  0
LINE
  5
BD
330
40
100
AcDbEntity
  8
0015022
  6
Continuous
 62
     7
100
AcDbLine
 10
132.0008191231
 20
67.4985141413
 30
0.0
 11
132.0008191231
 21
66.4478474746
 31
0.0
  0
LINE
  5
BE
330
40
100
AcDbEntity
  8
0015022
  6
Continuous
 62
     7
100
AcDbLine
 10
132.0008191231
 20
66.4478474746
 30
0.0
 11
134.2674857897
 21
66.4478474746
 31
0.0
  0
LINE
  5
BF
330
40
100
AcDbEntity
  8
0015022
  6
Continuous
 62
     7
100
AcDbLine
 10
134.2674857897
 20
66.4478474746
 30
0.0
 11
134.2674857897
 21
64.6398474746
 31
0.0
  0
LINE
  5
C0
330
40
100
AcDbEntity
  8
0015022
  6
Continuous
 62
     7
100
AcDbLine
 10
134.2674857897
 20
64.6398474746
 30
0.0
 11
129.8941524564
 21
64.6398474746
 31
0.0
  0
SPLINE
  5
C1
330
40
100
AcDbEntity
  8
0015022
  6
Continuous
 62
     7
100
AcDbSpline
210
0.0
220
0.0
230
1.0
 70
     8
 71
     3
 72
    16
 73
    12
 74
     0
 42
0.0000000008533767
 43
0.0000000001
 12
1.0
 22
0.0
 32
0.0
 13
1.0
 23
0.0
 33
0.0
 40
0.0
 40
0.0
 40
0.0
 40
0.0
 40
0.6062361714941855
 40
0.6062361714941855
 40
0.6062361714941855
 40
0.6337758372152125
 40
0.6337758372152125
 40
0.6631514806509748
 40
0.6631514806509748
 40
0.6631514806509748
 40
1.0
 40
1.0
 40
1.0
 40
1.0
 10
129.8941524564127
 20
64.63984747462091
 30
0.0
 10
129.8941524564127
 20
67.00429191906535
 30
0.0
 10
129.8941524564127
 20
69.3687363635098
 30
0.0
 10
129.8941524564127
 20
71.73318080795424
 30
0.0
 10
129.8941524564127
 20
71.84518080795424
 30
0.0
 10
129.9368191230794
 20
71.94118080795425
 30
0.0
 10
130.1021524564127
 20
72.10651414128758
 30
0.0
 10
130.203485789746
 20
72.14918080795424
 30
0.0
 10
130.3261524564127
 20
72.14918080795424
 30
0.0
 10
131.6399302341905
 20
72.14918080795424
 30
0.0
 10
132.9537080119682
 20
72.14918080795424
 30
0.0
 10
134.267485789746
 20
72.14918080795424
 30
0.0
  0
SPLINE
  5
C2
330
40
100
AcDbEntity
  8
0015022
  6
Continuous
 62
     7
100
AcDbSpline
210
0.0
220
0.0
230
1.0
 70
     8
 71
     3
 72
    34
 73
    30
 74
     0
 42
0.0000000005795691
 43
0.0000000001
 12
1.0
 22
0.0
 32
0.0
 13
1.0
 23
0.0
 33
0.0
 40
0.0
 40
0.0
 40
0.0
 40
0.0
 40
0.4127165462323928
 40
0.4127165462323928
 40
0.4127165462323928
 40
0.4311740897399158
 40
0.4311740897399158
 40
0.4508621361479394
 40
0.4508621361479394
 40
0.4508621361479394
 40
0.5976402762741961
 40
0.5976402762741961
 40
0.5976402762741961
 40
0.6588761857643864
 40
0.6588761857643864
 40
0.6588761857643864
 40
0.7178883097730867
 40
0.7178883097730867
 40
0.7769004337817882
 40
0.7769004337817882
 40
0.8359125577904897
 40
0.8359125577904897
 40
0.8752539737962901
 40
0.8752539737962901
 40
0.8752539737962901
 40
0.9168359825308603
 40
0.9584179912654306
 40
0.9584179912654306
 40
1.0
 40
1.0
 40
1.0
 40
1.0
 10
123.083485789746
 20
64.63984747462091
 30
0.0
 10
123.083485789746
 20
67.00429191906535
 30
0.0
 10
123.083485789746
 20
69.3687363635098
 30
0.0
 10
123.083485789746
 20
71.73318080795424
 30
0.0
 10
123.083485789746
 20
71.84518080795424
 30
0.0
 10
123.1261524564127
 20
71.94118080795425
 30
0.0
 10
123.291485789746
 20
72.10651414128758
 30
0.0
 10
123.3928191230793
 20
72.14918080795424
 30
0.0
 10
123.5048191230794
 20
72.14918080795424
 30
0.0
 10
124.3457080119682
 20
72.14918080795424
 30
0.0
 10
125.1865969008571
 20
72.14918080795424
 30
0.0
 10
126.027485789746
 20
72.14918080795424
 30
0.0
 10
126.395485789746
 20
72.14918080795424
 30
0.0
 10
126.7421524564127
 20
72.10118080795425
 30
0.0
 10
127.067485789746
 20
72.01051414128757
 30
0.0
 10
127.3892493807685
 20
71.9208423208387
 30
0.0
 10
127.6701524564127
 20
71.77051414128758
 30
0.0
 10
128.1501524564127
 20
71.38651414128758
 30
0.0
 10
128.3368191230794
 20
71.14118080795424
 30
0.0
 10
128.603485789746
 20
70.55451414128758
 30
0.0
 10
128.6728191230793
 20
70.20784747462092
 30
0.0
 10
128.6728191230793
 20
69.54118080795423
 30
0.0
 10
128.635485789746
 20
69.29051414128757
 30
0.0
 10
128.5608191230793
 20
69.05051414128758
 30
0.0
 10
128.4866231152751
 20
68.81202697334521
 30
0.0
 10
128.267485789746
 20
68.37318080795424
 30
0.0
 10
127.915485789746
 20
68.04251414128758
 30
0.0
 10
127.4888191230794
 20
67.76518080795424
 30
0.0
 10
127.2808191230793
 20
67.68518080795424
 30
0.0
 10
127.0728191230794
 20
67.65851414128758
 30
0.0
  0
LINE
  5
C3
330
40
100
AcDbEntity
  8
0015022
  6
Continuous
 62
     7
100
AcDbLine
 10
127.0728191231
 20
67.6585141413
 30
0.0
 11
129.3714857897
 21
64.6398474746
 31
0.0
  0
LINE
  5
C4
330
40
100
AcDbEntity
  8
0015022
  6
Continuous
 62
     7
100
AcDbLine
 10
129.3714857897
 20
64.6398474746
 30
0.0
 11
126.8328191231
 21
64.6398474746
 31
0.0
  0
LINE
  5
C5
330
40
100
AcDbEntity
  8
0015022
  6
Continuous
 62
     7
100
AcDbLine
 10
126.8328191231
 20
64.6398474746
 30
0.0
 11
125.1901524564
 21
67.4398474746
 31
0.0
  0
LINE
  5
C6
330
40
100
AcDbEntity
  8
0015022
  6
Continuous
 62
     7
100
AcDbLine
 10
125.1901524564
 20
67.4398474746
 30
0.0
 11
125.1901524564
 21
64.6398474746
 31
0.0
  0
SPLINE
  5
C7
330
40
100
AcDbEntity
  8
0015022
  6
Continuous
 62
     7
100
AcDbSpline
210
0.0
220
0.0
230
1.0
 70
     8
 71
     3
 72
    29
 73
    25
 74
     0
 42
0.0000000029248714
 43
0.0000000001
 12
1.0
 22
0.0
 32
0.0
 13
1.0
 23
0.0
 33
0.0
 40
0.0
 40
0.0
 40
0.0
 40
0.0
 40
0.1308964236226227
 40
0.1308964236226227
 40
0.1308964236226227
 40
0.2493217166254654
 40
0.2493217166254654
 40
0.2493217166254654
 40
0.3732390540949203
 40
0.3732390540949203
 40
0.4971563915643744
 40
0.4971563915643744
 40
0.6174291014611967
 40
0.6174291014611967
 40
0.6174291014611967
 40
0.7257090160055032
 40
0.7257090160055032
 40
0.7257090160055032
 40
0.8510653940362908
 40
0.8510653940362908
 40
0.976421772067078
 40
0.976421772067078
 40
0.976421772067078
 40
1.0
 40
1.0
 40
1.0
 40
1.0
 10
125.2701524564127
 20
68.87451414128758
 30
0.0
 10
125.419485789746
 20
68.87451414128758
 30
0.0
 10
125.5688191230794
 20
68.88518080795424
 30
0.0
 10
125.7128191230794
 20
68.90651414128759
 30
0.0
 10
125.8560459687169
 20
68.92773293323388
 30
0.0
 10
125.9848191230793
 20
68.95984747462091
 30
0.0
 10
126.0968191230794
 20
69.01851414128758
 30
0.0
 10
126.2066269522608
 20
69.07603252800169
 30
0.0
 10
126.299485789746
 20
69.15184747462091
 30
0.0
 10
126.4381524564127
 20
69.36518080795425
 30
0.0
 10
126.4701524564127
 20
69.50918080795425
 30
0.0
 10
126.4701524564127
 20
69.86651414128758
 30
0.0
 10
126.4381524564127
 20
70.00518080795425
 30
0.0
 10
126.3741524564127
 20
70.10651414128758
 30
0.0
 10
126.3086316643335
 20
70.210255395413
 30
0.0
 10
126.219485789746
 20
70.28784747462092
 30
0.0
 10
126.1021524564127
 20
70.34651414128757
 30
0.0
 10
125.9912191230793
 20
70.40198080795425
 30
0.0
 10
125.8568191230794
 20
70.43718080795425
 30
0.0
 10
125.5581524564127
 20
70.47984747462091
 30
0.0
 10
125.4088191230794
 20
70.49051414128756
 30
0.0
 10
125.2701524564127
 20
70.49051414128756
 30
0.0
 10
125.243485789746
 20
70.49051414128756
 30
0.0
 10
125.2168191230794
 20
70.49051414128756
 30
0.0
 10
125.1901524564127
 20
70.49051414128756
 30
0.0
  0
LINE
  5
C8
330
40
100
AcDbEntity
  8
0015022
  6
Continuous
 62
     7
100
AcDbLine
 10
125.1901524564
 20
70.4905141413
 30
0.0
 11
125.1901524564
 21
68.8745141413
 31
0.0
  0
LINE
  5
C9
330
40
100
AcDbEntity
  8
0015022
  6
Continuous
 62
     7
100
AcDbLine
 10
125.1901524564
 20
68.8745141413
 30
0.0
 11
125.2701524564
 21
68.8745141413
 31
0.0
  0
LINE
  5
CA
330
40
100
AcDbEntity
  8
0015022
  6
Continuous
 62
     7
100
AcDbLine
 10
125.1901524564
 20
64.6398474746
 30
0.0
 11
123.0834857897
 21
64.6398474746
 31
0.0
  0
SPLINE
  5
CB
330
40
100
AcDbEntity
  8
0015022
  6
Continuous
 62
     7
100
AcDbSpline
210
0.0
220
0.0
230
1.0
 70
    11
 71
     3
 72
    48
 73
    44
 74
     0
 42
0.0000000008122955
 43
0.0000000001
 12
1.0
 22
0.0
 32
0.0
 13
1.0
 23
0.0
 33
0.0
 40
0.0
 40
0.0
 40
0.0
 40
0.0
 40
0.0632788595816797
 40
0.0632788595816797
 40
0.0632788595816797
 40
0.1250789860121007
 40
0.1250789860121007
 40
0.1250789860121007
 40
0.1891908261276199
 40
0.1891908261276199
 40
0.1891908261276199
 40
0.2616760554832847
 40
0.2616760554832847
 40
0.3163578951726458
 40
0.3163578951726458
 40
0.3163578951726458
 40
0.3755097855289364
 40
0.3755097855289364
 40
0.3755097855289364
 40
0.4363134546957769
 40
0.4363134546957769
 40
0.4363134546957769
 40
0.5004773328136454
 40
0.5004773328136454
 40
0.5633830956742987
 40
0.5633830956742987
 40
0.5633830956742987
 40
0.6244677781113531
 40
0.6244677781113531
 40
0.6244677781113531
 40
0.6791034896171407
 40
0.6791034896171407
 40
0.7337392011229283
 40
0.7337392011229283
 40
0.8045172819372445
 40
0.8045172819372445
 40
0.8752953627515608
 40
0.8752953627515608
 40
0.8752953627515608
 40
0.9367643121370143
 40
0.9367643121370143
 40
0.9367643121370143
 40
1.0
 40
1.0
 40
1.0
 40
1.0
 10
147.3501524564127
 20
66.4478474746209
 30
0.0
 10
147.6221524564127
 20
66.4478474746209
 30
0.0
 10
147.8728191230794
 20
66.4958474746209
 30
0.0
 10
148.1021524564127
 20
66.60251414128759
 30
0.0
 10
148.3338311284151
 20
66.71027166314914
 30
0.0
 10
148.539485789746
 20
66.84251414128758
 30
0.0
 10
148.7208191230794
 20
67.02918080795425
 30
0.0
 10
148.8995630682005
 20
67.21318192793184
 30
0.0
 10
149.035485789746
 20
67.43451414128758
 30
0.0
 10
149.1421524564127
 20
67.68518080795424
 30
0.0
 10
149.2499229942944
 20
67.93844157197621
 30
0.0
 10
149.291485789746
 20
68.21851414128757
 30
0.0
 10
149.291485789746
 20
68.7518474746209
 30
0.0
 10
149.243485789746
 20
68.9758474746209
 30
0.0
 10
149.1421524564127
 20
69.19984747462091
 30
0.0
 10
149.0428219466088
 20
69.41942018050327
 30
0.0
 10
148.9021524564127
 20
69.6158474746209
 30
0.0
 10
148.7261524564127
 20
69.78651414128758
 30
0.0
 10
148.5528178610506
 20
69.9545961731538
 30
0.0
 10
148.3421524564127
 20
70.09051414128758
 30
0.0
 10
148.107485789746
 20
70.19184747462091
 30
0.0
 10
147.8747602056508
 20
70.29234261320747
 30
0.0
 10
147.6221524564127
 20
70.34118080795425
 30
0.0
 10
147.083485789746
 20
70.34118080795425
 30
0.0
 10
146.827485789746
 20
70.28784747462092
 30
0.0
 10
146.5928191230794
 20
70.19184747462091
 30
0.0
 10
146.356283429864
 20
70.09508287285101
 30
0.0
 10
146.1501524564127
 20
69.9518474746209
 30
0.0
 10
145.9741524564127
 20
69.78118080795424
 30
0.0
 10
145.7954037578798
 20
69.60784873664963
 30
0.0
 10
145.6541524564127
 20
69.41851414128757
 30
0.0
 10
145.451485789746
 20
68.98118080795425
 30
0.0
 10
145.3981524564127
 20
68.75718080795424
 30
0.0
 10
145.3981524564127
 20
68.21851414128757
 30
0.0
 10
145.451485789746
 20
67.93584747462091
 30
0.0
 10
145.6648191230794
 20
67.43451414128758
 30
0.0
 10
145.803485789746
 20
67.21584747462092
 30
0.0
 10
145.9848191230793
 20
67.02918080795425
 30
0.0
 10
146.1635630682004
 20
66.84517968797665
 30
0.0
 10
146.3688191230793
 20
66.70384747462091
 30
0.0
 10
146.5981524564127
 20
66.60251414128759
 30
0.0
 10
146.833919575568
 20
66.49833797235846
 30
0.0
 10
147.083485789746
 20
66.4478474746209
 30
0.0
 10
147.3501524564127
 20
66.4478474746209
 30
0.0
  0
SPLINE
  5
CC
330
40
100
AcDbEntity
  8
0015022
  6
Continuous
 62
     7
100
AcDbSpline
210
0.0
220
0.0
230
1.0
 70
     8
 71
     3
 72
    26
 73
    22
 74
     0
 42
0.0000000007719862
 43
0.0000000001
 12
1.0
 22
0.0
 32
0.0
 13
1.0
 23
0.0
 33
0.0
 40
0.0
 40
0.0
 40
0.0
 40
0.0
 40
0.1241042764671998
 40
0.1241042764671998
 40
0.1241042764671998
 40
0.2444649733050971
 40
0.2444649733050971
 40
0.3648256701429933
 40
0.3648256701429933
 40
0.3648256701429933
 40
0.4876410301322777
 40
0.4876410301322777
 40
0.6221530910729228
 40
0.6221530910729228
 40
0.6221530910729228
 40
0.7448779302950169
 40
0.7448779302950169
 40
0.7448779302950169
 40
0.8724389651475078
 40
0.8724389651475078
 40
1.0
 40
1.0
 40
1.0
 40
1.0
 10
147.3501524564127
 20
72.39451414128759
 30
0.0
 10
146.811485789746
 20
72.38918080795425
 30
0.0
 10
146.2905631511746
 20
72.29383018011738
 30
0.0
 10
145.787485789746
 20
72.10651414128758
 30
0.0
 10
145.2861524564127
 20
71.91984747462091
 30
0.0
 10
144.843485789746
 20
71.65318080795424
 30
0.0
 10
144.075485789746
 20
70.97051414128758
 30
0.0
 10
143.7597320812621
 20
70.56287731457961
 30
0.0
 10
143.5368191230793
 20
70.09051414128758
 30
0.0
 10
143.3128191230793
 20
69.6158474746209
 30
0.0
 10
143.195485789746
 20
69.09851414128758
 30
0.0
 10
143.195485789746
 20
67.92518080795425
 30
0.0
 10
143.3085892380219
 20
67.37308885393125
 30
0.0
 10
143.5101524564127
 20
66.86918080795425
 30
0.0
 10
143.7128191230794
 20
66.36251414128758
 30
0.0
 10
143.9981908237314
 20
65.92251441731145
 30
0.0
 10
144.3688191230793
 20
65.55718080795425
 30
0.0
 10
144.7421524564127
 20
65.18918080795424
 30
0.0
 10
145.179485789746
 20
64.90118080795425
 30
0.0
 10
146.1928191230793
 20
64.49584747462092
 30
0.0
 10
146.747485789746
 20
64.39451414128757
 30
0.0
 10
147.3501524564127
 20
64.39451414128757
 30
0.0
  0
SPLINE
  5
CD
330
40
100
AcDbEntity
  8
0015022
  6
Continuous
 62
     7
100
AcDbSpline
210
0.0
220
0.0
230
1.0
 70
     8
 71
     3
 72
    25
 73
    21
 74
     0
 42
0.0000000007729578
 43
0.0000000001
 12
1.0
 22
0.0
 32
0.0
 13
1.0
 23
0.0
 33
0.0
 40
0.0
 40
0.0
 40
0.0
 40
0.0
 40
0.127685019915057
 40
0.127685019915057
 40
0.2553700398301132
 40
0.2553700398301132
 40
0.2553700398301132
 40
0.3854318872146879
 40
0.3854318872146879
 40
0.515493734599263
 40
0.515493734599263
 40
0.6352875414008451
 40
0.6352875414008451
 40
0.6352875414008451
 40
0.7557134277178664
 40
0.7557134277178664
 40
0.8761393140348891
 40
0.8761393140348891
 40
0.8761393140348891
 40
1.0
 40
1.0
 40
1.0
 40
1.0
 10
147.3501524564127
 20
64.39451414128757
 30
0.0
 10
147.9528191230793
 20
64.39451414128757
 30
0.0
 10
148.507485789746
 20
64.49584747462092
 30
0.0
 10
149.5208191230793
 20
64.90118080795425
 30
0.0
 10
149.9608580504457
 20
65.18651442542894
 30
0.0
 10
150.3261524564127
 20
65.55718080795425
 30
0.0
 10
150.6888191230794
 20
65.92518080795425
 30
0.0
 10
150.9768191230793
 20
66.36251414128758
 30
0.0
 10
151.3928191230793
 20
67.37584747462091
 30
0.0
 10
151.4941524564127
 20
67.93051414128757
 30
0.0
 10
151.4941524564127
 20
69.09851414128758
 30
0.0
 10
151.3800633400701
 20
69.61483812627564
 30
0.0
 10
151.1528191230794
 20
70.08518080795425
 30
0.0
 10
150.923485789746
 20
70.55984747462091
 30
0.0
 10
150.6141524564127
 20
70.97051414128758
 30
0.0
 10
149.8461524564127
 20
71.65318080795424
 30
0.0
 10
149.4063286253418
 20
71.91341368879888
 30
0.0
 10
148.907485789746
 20
72.10651414128758
 30
0.0
 10
148.411485789746
 20
72.29851414128757
 30
0.0
 10
147.8888191230793
 20
72.38918080795425
 30
0.0
 10
147.3501524564127
 20
72.39451414128759
 30
0.0
  0
ENDBLK
  5
CF
330
40
100
AcDbEntity
  8
0
100
AcDbBlockEnd
  0
BLOCK
  5
DE
330
D0
100
AcDbEntity
  8
0
100
AcDbBlockBegin
  2
SE1
 70
     0
 10
0.0
 20
0.0
 30
0.0
  3
SE1
  1

  0
LINE
  5
D2
330
D0
100
AcDbEntity
  8
0015022
  6
Continuous
 62
     7
100
AcDbLine
 10
213.1173492825
 20
159.357180808
 30
0.0
 11
213.1173492825
 21
59.357180808
 31
0.0
  0
LINE
  5
D3
330
D0
100
AcDbEntity
  8
0015022
  6
Continuous
 62
     7
100
AcDbLine
 10
265.1173492825
 20
159.357180808
 30
0.0
 11
265.1173492825
 21
59.357180808
 31
0.0
  0
LINE
  5
D4
330
D0
100
AcDbEntity
  8
0015022
  6
Continuous
 62
     7
100
AcDbLine
 10
213.1173492825
 20
159.357180808
 30
0.0
 11
265.1173492825
 21
159.357180808
 31
0.0
  0
LINE
  5
D5
330
D0
100
AcDbEntity
  8
0015022
  6
Continuous
 62
     7
100
AcDbLine
 10
213.1173492825
 20
59.357180808
 30
0.0
 11
265.1173492825
 21
59.357180808
 31
0.0
  0
LINE
  5
D6
330
D0
100
AcDbEntity
  8
0015022
  6
Continuous
 62
     7
100
AcDbLine
 10
265.1298492825
 20
67.7225654233
 30
0.0
 11
265.1173492825
 21
67.7225654233
 31
0.0
  0
LINE
  5
D7
330
D0
100
AcDbEntity
  8
0015022
  6
Continuous
 62
     7
100
AcDbLine
 10
265.1173492825
 20
64.807180808
 30
0.0
 11
265.1298492825
 21
64.807180808
 31
0.0
  0
LINE
  5
D8
330
D0
100
AcDbEntity
  8
0015022
  6
Continuous
 62
     7
100
AcDbLine
 10
265.1173492825
 20
64.780257731
 30
0.0
 11
265.1298492825
 21
64.780257731
 31
0.0
  0
LINE
  5
D9
330
D0
100
AcDbEntity
  8
0015022
  6
Continuous
 62
     7
100
AcDbLine
 10
265.1298492825
 20
69.9341038849
 30
0.0
 11
265.1173492825
 21
69.9341038849
 31
0.0
  0
LINE
  5
DA
330
D0
100
AcDbEntity
  8
0015022
  6
Continuous
 62
     7
100
AcDbLine
 10
265.1173492825
 20
66.1278474746
 30
0.0
 11
265.1298492825
 21
66.1278474746
 31
0.0
  0
LINE
  5
DB
330
D0
100
AcDbEntity
  8
0015022
  6
Continuous
 62
     7
100
AcDbLine
 10
265.1298492825
 20
70.5118474746
 30
0.0
 11
265.1173492825
 21
70.5118474746
 31
0.0
  0
LINE
  5
DC
330
D0
100
AcDbEntity
  8
0015022
  6
Continuous
 62
     7
100
AcDbLine
 10
265.1173492825
 20
66.4478474746
 30
0.0
 11
265.1298492825
 21
66.4478474746
 31
0.0
  0
LINE
  5
DD
330
D0
100
AcDbEntity
  8
0015022
  6
Continuous
 62
     7
100
AcDbLine
 10
265.1298492825
 20
70.341180808
 30
0.0
 11
265.1173492825
 21
70.341180808
 31
0.0
  0
ENDBLK
  5
DF
330
D0
100
AcDbEntity
  8
0
100
AcDbBlockEnd
  0
BLOCK
  5
E2
330
E1
100
AcDbEntity
  8
0
100
AcDbBlockBegin
  2
_OBLIQUE
 70
     0
 10
0.0
 20
0.0
 30
0.0
  3
_OBLIQUE
  1

  0
LINE
  5
E4
330
E1
100
AcDbEntity
  8
0
  6
ByBlock
 62
     0
370
    -2
100
AcDbLine
 10
-0.5
 20
-0.5
 30
0.0
 11
0.5
 21
0.5
 31
0.0
  0
ENDBLK
  5
E3
330
E1
100
AcDbEntity
  8
0
100
AcDbBlockEnd
  0
BLOCK
  5
E6
330
E5
100
AcDbEntity
  8
0
100
AcDbBlockBegin
  2
_DOT
 70
     0
 10
0.0
 20
0.0
 30
0.0
  3
_DOT
  1

  0
POLYLINE
  5
E8
330
E5
100
AcDbEntity
  8
0
  6
ByBlock
 62
     0
100
AcDb2dPolyline
 66
     1
 10
0.0
 20
0.0
 30
0.0
 70
     1
 40
0.5
 41
0.5
  0
VERTEX
  5
EA
330
E8
100
AcDbEntity
  8
0
  6
ByBlock
 62
     0
100
AcDbVertex
100
AcDb2dVertex
 10
-0.25
 20
0.0
 30
0.0
 42
1.0
  0
VERTEX
  5
EB
330
E8
100
AcDbEntity
  8
0
  6
ByBlock
 62
     0
100
AcDbVertex
100
AcDb2dVertex
 10
0.25
 20
0.0
 30
0.0
 42
1.0
  0
SEQEND
  5
EC
330
E8
100
AcDbEntity
  8
0
  6
ByBlock
 62
     0
  0
LINE
  5
E9
330
E5
100
AcDbEntity
  8
0
  6
ByBlock
 62
     0
370
    -2
100
AcDbLine
 10
-0.5
 20
0.0
 30
0.0
 11
-1.0
 21
0.0
 31
0.0
  0
ENDBLK
  5
E7
330
E5
100
AcDbEntity
  8
0
100
AcDbBlockEnd
  0
BLOCK
  5
F0
330
ED
100
AcDbEntity
  8
0
100
AcDbBlockBegin
  2
_SE_FILLED
 70
     0
 10
0.0
 20
0.0
 30
0.0
  3
_SE_FILLED
  1

  0
SOLID
  5
EE
330
ED
100
AcDbEntity
  8
0
 62
     0
100
AcDbTrace
 10
0.0
 20
0.0
 30
0.0
 11
-1.0
 21
-0.1665
 31
0.0
 12
-1.0
 22
0.1665
 32
0.0
 13
0.0
 23
0.0
 33
0.0
  0
LINE
  5
EF
330
ED
100
AcDbEntity
  8
0
 62
     0
100
AcDbLine
 10
0.0
 20
0.0
 30
0.0
 11
-1.0
 21
0.0
 31
0.0
  0
ENDBLK
  5
F1
330
ED
100
AcDbEntity
  8
0
100
AcDbBlockEnd
  0
BLOCK
  5
FC
330
F5
100
AcDbEntity
  8
0
100
AcDbBlockBegin
  2
DMBLK84
 70
     0
 10
0.0
 20
0.0
 30
0.0
  3
DMBLK84
  1

  0
HATCH
  5
F6
330
F5
100
AcDbEntity
  8
Default
  6
Continuous
 62
     7
100
AcDbHatch
 10
0.0
 20
0.0
 30
0.0
210
0.0
220
0.0
230
1.0
  2
SOLID
 70
     1
 71
     0
 91
        1
 92
        1
 93
        3
 72
     1
 10
184.1648190150459
 20
170.583333265872
 11
184.1648190150459
 21
169.4166665631942
 72
     1
 10
184.1648190150459
 20
169.4166665631942
 11
187.6648191230794
 21
169.9999999145331
 72
     1
 10
187.6648191230794
 20
169.9999999145331
 11
184.1648190150459
 21
170.583333265872
 97
        0
 75
     0
 76
     1
 98
        0
  0
HATCH
  5
F7
330
F5
100
AcDbEntity
  8
Default
  6
Continuous
 62
     7
100
AcDbHatch
 10
0.0
 20
0.0
 30
0.0
210
0.0
220
0.0
230
1.0
  2
SOLID
 70
     1
 71
     0
 91
        1
 92
        1
 93
        3
 72
     1
 10
41.1648132706483
 20
170.583333265872
 11
37.66481316261488
 21
169.9999999145331
 72
     1
 10
37.66481316261488
 20
169.9999999145331
 11
41.1648132706483
 21
169.4166665631942
 72
     1
 10
41.1648132706483
 20
169.4166665631942
 11
41.1648132706483
 21
170.583333265872
 97
        0
 75
     0
 76
     1
 98
        0
  0
LINE
  5
F8
330
F5
100
AcDbEntity
  8
Default
  6
Continuous
 62
     7
100
AcDbLine
 10
187.6648191231
 20
159.357180808
 30
0.0
 11
187.6648191231
 21
171.7499999685
 31
0.0
  0
LINE
  5
F9
330
F5
100
AcDbEntity
  8
Default
  6
Continuous
 62
     7
100
AcDbLine
 10
37.6648191231
 20
159.357180808
 30
0.0
 11
37.6648191231
 21
171.7499999685
 31
0.0
  0
LINE
  5
FA
330
F5
100
AcDbEntity
  8
Default
  6
Continuous
 62
     7
100
AcDbLine
 10
187.6648191231
 20
169.9999999145
 30
0.0
 11
37.6648131626
 21
169.9999999145
 31
0.0
  0
TEXT
  5
FB
330
F5
100
AcDbEntity
  8
Default
  6
Continuous
 62
     7
100
AcDbText
 10
109.920497961
 20
170.8749999145
 30
0.0
 40
3.5
  1
150
  7
SEACAD_Solid_Edge_ISO
 11
109.920497961
 21
174.3749999145
 31
0.0
100
AcDbText
 73
     3
  0
ENDBLK
  5
FD
330
F5
100
AcDbEntity
  8
0
100
AcDbBlockEnd
  0
BLOCK
  5
106
330
FF
100
AcDbEntity
  8
0
100
AcDbBlockBegin
  2
DMBLK85
 70
     0
 10
0.0
 20
0.0
 30
0.0
  3
DMBLK85
  1

  0
HATCH
  5
100
330
FF
100
AcDbEntity
  8
Default
  6
Continuous
 62
     7
100
AcDbHatch
 10
0.0
 20
0.0
 30
0.0
210
0.0
220
0.0
230
1.0
  2
SOLID
 70
     1
 71
     0
 91
        1
 92
        1
 93
        3
 72
     1
 10
216.6173493905415
 20
49.41666701022901
 11
216.6173493905415
 21
50.58333371290681
 72
     1
 10
216.6173493905415
 20
50.58333371290681
 11
213.1173492825081
 21
50.00000036156791
 72
     1
 10
213.1173492825081
 20
50.00000036156791
 11
216.6173493905415
 21
49.41666701022901
 97
        0
 75
     0
 76
     1
 98
        0
  0
HATCH
  5
101
330
FF
100
AcDbEntity
  8
Default
  6
Continuous
 62
     7
100
AcDbHatch
 10
0.0
 20
0.0
 30
0.0
210
0.0
220
0.0
230
1.0
  2
SOLID
 70
     1
 71
     0
 91
        1
 92
        1
 93
        3
 72
     1
 10
261.6173502473583
 20
49.41666701022901
 11
265.1173503553917
 21
50.00000036156791
 72
     1
 10
265.1173503553917
 20
50.00000036156791
 11
261.6173502473583
 21
50.58333371290681
 72
     1
 10
261.6173502473583
 20
50.58333371290681
 11
261.6173502473583
 21
49.41666701022901
 97
        0
 75
     0
 76
     1
 98
        0
  0
LINE
  5
102
330
FF
100
AcDbEntity
  8
Default
  6
Continuous
 62
     7
100
AcDbLine
 10
213.1173492825
 20
59.357180808
 30
0.0
 11
213.1173492825
 21
48.2500003076
 31
0.0
  0
LINE
  5
103
330
FF
100
AcDbEntity
  8
Default
  6
Continuous
 62
     7
100
AcDbLine
 10
265.1173492825
 20
59.357180808
 30
0.0
 11
265.1173492825
 21
48.2500003076
 31
0.0
  0
LINE
  5
104
330
FF
100
AcDbEntity
  8
Default
  6
Continuous
 62
     7
100
AcDbLine
 10
213.1173492825
 20
50.0000003616
 30
0.0
 11
265.1173503554
 21
50.0000003616
 31
0.0
  0
TEXT
  5
105
330
FF
100
AcDbEntity
  8
Default
  6
Continuous
 62
     7
100
AcDbText
 10
237.0491680008
 20
50.8750003616
 30
0.0
 40
3.5
  1
52
  7
SEACAD_Solid_Edge_ISO
 11
237.0491680008
 21
54.3750003616
 31
0.0
100
AcDbText
 73
     3
  0
ENDBLK
  5
107
330
FF
100
AcDbEntity
  8
0
100
AcDbBlockEnd
  0
BLOCK
  5
110
330
109
100
AcDbEntity
  8
0
100
AcDbBlockBegin
  2
DMBLK86
 70
     0
 10
0.0
 20
0.0
 30
0.0
  3
DMBLK86
  1

  0
HATCH
  5
10A
330
109
100
AcDbEntity
  8
Default
  6
Continuous
 62
     7
100
AcDbHatch
 10
0.0
 20
0.0
 30
0.0
210
0.0
220
0.0
230
1.0
  2
SOLID
 70
     1
 71
     0
 91
        1
 92
        1
 93
        3
 72
     1
 10
202.4329564794699
 20
155.8571806999209
 11
203.5996231821477
 21
155.8571806999209
 72
     1
 10
203.5996231821477
 20
155.8571806999209
 11
203.0162898308088
 21
159.3571808079543
 72
     1
 10
203.0162898308088
 20
159.3571808079543
 11
202.4329564794699
 21
155.8571806999209
 97
        0
 75
     0
 76
     1
 98
        0
  0
HATCH
  5
10B
330
109
100
AcDbEntity
  8
Default
  6
Continuous
 62
     7
100
AcDbHatch
 10
0.0
 20
0.0
 30
0.0
210
0.0
220
0.0
230
1.0
  2
SOLID
 70
     1
 71
     0
 91
        1
 92
        1
 93
        3
 72
     1
 10
202.4329564794699
 20
62.85717942587157
 11
203.0162898308088
 21
59.35717931783815
 72
     1
 10
203.0162898308088
 20
59.35717931783815
 11
203.5996231821477
 21
62.85717942587157
 72
     1
 10
203.5996231821477
 20
62.85717942587157
 11
202.4329564794699
 21
62.85717942587157
 97
        0
 75
     0
 76
     1
 98
        0
  0
LINE
  5
10C
330
109
100
AcDbEntity
  8
Default
  6
Continuous
 62
     7
100
AcDbLine
 10
213.1173492825
 20
159.357180808
 30
0.0
 11
201.2662897768
 21
159.357180808
 31
0.0
  0
LINE
  5
10D
330
109
100
AcDbEntity
  8
Default
  6
Continuous
 62
     7
100
AcDbLine
 10
213.1173492825
 20
59.357180808
 30
0.0
 11
201.2662897768
 21
59.357180808
 31
0.0
  0
LINE
  5
10E
330
109
100
AcDbEntity
  8
Default
  6
Continuous
 62
     7
100
AcDbLine
 10
203.0162898308
 20
159.357180808
 30
0.0
 11
203.0162898308
 21
59.3571793178
 31
0.0
  0
TEXT
  5
10F
330
109
100
AcDbEntity
  8
Default
  6
Continuous
 62
     7
100
AcDbText
 10
202.1412898308
 20
106.5730891538
 30
0.0
 40
3.5
  1
100
 50
90.0
  7
SEACAD_Solid_Edge_ISO
 11
198.6412898308
 21
106.5730891538
 31
0.0
100
AcDbText
 73
     3
  0
ENDBLK
  5
111
330
109
100
AcDbEntity
  8
0
100
AcDbBlockEnd
  0
BLOCK
  5
115
330
112
100
AcDbEntity
  8
0
100
AcDbBlockBegin
  2
SEANNOT_GROUP
 70
     0
 10
0.0
 20
0.0
 30
0.0
  3
SEANNOT_GROUP
  1

  0
TEXT
  5
114
330
112
100
AcDbEntity
  8
Default
  6
Continuous
 62
     7
100
AcDbText
 10
243.1483969886
 20
25.7525109624
 30
0.0
 40
3.5
  1
769815000
  7
SEACAD_Solid_Edge_ANSIB
 11
243.1483969886
 21
29.2525109624
 31
0.0
100
AcDbText
 73
     3
  0
ENDBLK
  5
116
330
112
100
AcDbEntity
  8
0
100
AcDbBlockEnd
  0
BLOCK
  5
11A
330
117
100
AcDbEntity
  8
0
100
AcDbBlockBegin
  2
SEANNOT_GROUP1
 70
     0
 10
0.0
 20
0.0
 30
0.0
  3
SEANNOT_GROUP1
  1

  0
TEXT
  5
119
330
117
100
AcDbEntity
  8
Default
  6
Continuous
 62
     7
100
AcDbText
 10
243.1477357349
 20
20.0537100543
 30
0.0
 40
3.5
  1
03.05.2016
  7
SEACAD_Solid_Edge_ANSI
 11
243.1477357349
 21
23.5537100543
 31
0.0
100
AcDbText
 73
     3
  0
ENDBLK
  5
11B
330
117
100
AcDbEntity
  8
0
100
AcDbBlockEnd
  0
BLOCK
  5
11E
330
11C
100
AcDbEntity
  8
0
100
AcDbBlockBegin
  2
SEANNOT_GROUP2
 70
     0
 10
0.0
 20
0.0
 30
0.0
  3
SEANNOT_GROUP2
  1

  0
TEXT
  5
11D
330
11C
100
AcDbEntity
  8
Default
  6
Continuous
 62
     7
100
AcDbText
 10
243.1795282745
 20
31.5598894014
 30
0.0
 40
3.5
  1
CTPG 15
  7
SEACAD_Solid_Edge_ANSIB
 11
243.1795282745
 21
35.0598894014
 31
0.0
100
AcDbText
 73
     3
  0
ENDBLK
  5
11F
330
11C
100
AcDbEntity
  8
0
100
AcDbBlockEnd
  0
BLOCK
  5
122
330
120
100
AcDbEntity
  8
0
100
AcDbBlockBegin
  2
SEANNOT_GROUP3
 70
     0
 10
0.0
 20
0.0
 30
0.0
  3
SEANNOT_GROUP3
  1

  0
TEXT
  5
121
330
120
100
AcDbEntity
  8
Default
  6
Continuous
 62
     7
100
AcDbText
 10
243.2357917511
 20
14.1955389783
 30
0.0
 40
3.5
  1
1:1
  7
SEACAD_Solid_Edge_ANSI
 11
243.2357917511
 21
17.6955389783
 31
0.0
100
AcDbText
 73
     3
  0
ENDBLK
  5
123
330
120
100
AcDbEntity
  8
0
100
AcDbBlockEnd
  0
BLOCK
  5
171
330
124
100
AcDbEntity
  8
0
100
AcDbBlockBegin
  2
RF-Massblatt_2016
 70
     0
 10
0.0
 20
0.0
 30
0.0
  3
RF-Massblatt_2016
  1

  0
MTEXT
  5
125
102
{ACAD_XDICTIONARY
360
17B
102
}
330
124
100
AcDbEntity
  8
Default
100
AcDbMText
 10
15.2206856049
 20
34.8070876502
 30
0.0
 40
2.5
 41
48.9706096033
 71
     1
 72
     1
  3
{\fVectora Com 45 Light|b1||i0||c0|p34;\C7;\H2.5;\W1.;REGO-FIX AG\P}{\fVectora Com 45 Light|b0||i0||c0|p34;\C7;\H2.5;\W1.;Obermattweg 60\P}{\fVectora Com 45 Light|b0||i0||c0|p34;\C7;\H2.5;\W1.;4456 Tenniken / Switzerland\P}{\fVectora Com 45 Light|b0
  3
||i0||c0|p34;\C7;\H2.5;\W1.;\P}{\fVectora Com 45 Light|b0||i0||c0|p34;\C7;\H2.5;\W1.;P +41 61 976 14 66\P}{\fVectora Com 45 Light|b0||i0||c0|p34;\C7;\H2.5;\W1.;F +41 61 976 14 14\P}{\fVectora Com 45 Light|b1||i0||c0|p34;\C7;\H2.5;\W1.;www.rego-fix.c
  1
om}
 73
     1
 44
1.0
1001
ACAD
1000
ACAD_MTEXT_DEFINED_HEIGHT_BEGIN
1070
    46
1040
31.3191355437
1000
ACAD_MTEXT_DEFINED_HEIGHT_END
  0
MTEXT
  5
126
102
{ACAD_XDICTIONARY
360
17D
102
}
330
124
100
AcDbEntity
  8
Default
100
AcDbMText
 10
90.3836341545
 20
34.4892285804
 30
0.0
 40
2.5
 41
104.0282149141
 71
     1
 72
     1
  3
{\fSolid Edge ISO|b0||i0||c0|p34;\C7;\H2.;\W1.;This is a non-controlled copy. All information given herein is subject to change without notice\P}{\fSolid Edge ISO|b0||i0||c0|p34;\C7;\H2.;\W1.;\P}{\fSolid Edge ISO|b0||i0||c0|p34;\C7;\H2.;\W1.;The inf
  3
ormation given herein has been carefully checked and is believed to be correct. REGO-FIX,\P}{\fSolid Edge ISO|b0||i0||c0|p34;\C7;\H2.;\W1.;however, assumes no responsibility or liability for any errors, inaccuracies or omissions that may appear\P}{\
  3
fSolid Edge ISO|b0||i0||c0|p34;\C7;\H2.;\W1.;in this drawing\P}{\fSolid Edge ISO|b0||i0||c0|p34;\C7;\H2.;\W1.;\P}{\fSolid Edge ISO|b0||i0||c0|p34;\C7;\H2.;\W1.;This document is subject to copyright laws. No part of this document may be reproduced or
  3
 transmitted\P}{\fSolid Edge ISO|b0||i0||c0|p34;\C7;\H2.;\W1.;in any form or any means, electronic or mechanic, for any purpose, without the express written permission\P}{\fSolid Edge ISO|b0||i0||c0|p34;\C7;\H2.;\W1.;of REGO-FIX\P}{\fSolid Edge ISO|
  1
b0||i0||c0|p34;\C7;\H1.5;\W1.;\P}
 73
     1
 44
1.0
1001
ACAD
1000
ACAD_MTEXT_DEFINED_HEIGHT_BEGIN
1070
    46
1040
38.4545554545
1000
ACAD_MTEXT_DEFINED_HEIGHT_END
  0
INSERT
  5
127
330
124
100
AcDbEntity
  8
Default
100
AcDbBlockReference
  2
SEANNOT_GROUP
 10
0.0
 20
0.0
 30
0.0
  0
INSERT
  5
128
330
124
100
AcDbEntity
  8
Default
100
AcDbBlockReference
  2
SEANNOT_GROUP1
 10
0.0
 20
0.0
 30
0.0
  0
MTEXT
  5
129
102
{ACAD_XDICTIONARY
360
17F
102
}
330
124
100
AcDbEntity
  8
Default
100
AcDbMText
 10
219.0323311835
 20
34.8066733186
 30
0.0
 40
2.5
 41
20.1335141444
 71
     1
 72
     1
  3
{\fVectora Com 45 Light|b0||i0||c0|p34;\C7;\H3.5;\W1.;Type :\P}{\fVectora Com 45 Light|b0||i0||c0|p34;\C7;\H3.5;\W1.;Part No. :\P}{\fVectora Com 45 Light|b0||i0||c0|p34;\C7;\H3.5;\W1.;Date : \P}{\fVectora Com 45 Light|b0||i0||c0|p34;\C7;\H3.5;\W1.;S
  1
cale :}
 73
     1
 44
1.0
1001
ACAD
1000
ACAD_MTEXT_DEFINED_HEIGHT_BEGIN
1070
    46
1040
23.6666666667
1000
ACAD_MTEXT_DEFINED_HEIGHT_END
  0
INSERT
  5
12A
330
124
100
AcDbEntity
  8
Default
100
AcDbBlockReference
  2
SEANNOT_GROUP2
 10
0.0
 20
0.0
 30
0.0
  0
INSERT
  5
12B
330
124
100
AcDbEntity
  8
Default
100
AcDbBlockReference
  2
SEANNOT_GROUP3
 10
0.0
 20
0.0
 30
0.0
  0
LINE
  5
12C
330
124
100
AcDbEntity
  8
Default
  6
Continuous
 62
     7
100
AcDbLine
 10
269.3420202893
 20
189.711288453
 30
0.0
 11
267.226096305
 21
186.6436606679
 31
0.0
  0
LINE
  5
12D
330
124
100
AcDbEntity
  8
Default
  6
Continuous
 62
     7
100
AcDbLine
 10
267.226096305
 20
186.6436606679
 30
0.0
 11
268.2886782185
 21
185.1144666968
 31
0.0
  0
LINE
  5
12E
330
124
100
AcDbEntity
  8
Default
  6
Continuous
 62
     7
100
AcDbLine
 10
268.2886782185
 20
185.1144666968
 30
0.0
 11
267.2561257939
 21
183.6453317033
 31
0.0
  0
LINE
  5
12F
330
124
100
AcDbEntity
  8
Default
  6
Continuous
 62
     7
100
AcDbLine
 10
267.2561257939
 20
183.6453317033
 30
0.0
 11
266.2235733692
 21
185.2646141411
 31
0.0
  0
LINE
  5
130
330
124
100
AcDbEntity
  8
Default
  6
Continuous
 62
     7
100
AcDbLine
 10
266.2235733692
 20
185.2646141411
 30
0.0
 11
264.7036192408
 21
183.1186606679
 31
0.0
  0
LINE
  5
131
330
124
100
AcDbEntity
  8
Default
  6
Continuous
 62
     7
100
AcDbLine
 10
264.7036192408
 20
183.1186606679
 30
0.0
 11
262.6269645881
 21
183.1186606679
 31
0.0
  0
LINE
  5
132
330
124
100
AcDbEntity
  8
Default
  6
Continuous
 62
     7
100
AcDbLine
 10
262.6269645881
 20
183.1186606679
 30
0.0
 11
265.20950063
 21
186.6436606679
 31
0.0
  0
LINE
  5
133
330
124
100
AcDbEntity
  8
Default
  6
Continuous
 62
     7
100
AcDbLine
 10
265.20950063
 20
186.6436606679
 30
0.0
 11
263.1051264492
 21
189.711288453
 31
0.0
  0
LINE
  5
134
330
124
100
AcDbEntity
  8
Default
  6
Continuous
 62
     7
100
AcDbLine
 10
263.1051264492
 20
189.711288453
 30
0.0
 11
265.20950063
 21
189.711288453
 31
0.0
  0
LINE
  5
135
330
124
100
AcDbEntity
  8
Default
  6
Continuous
 62
     7
100
AcDbLine
 10
265.20950063
 20
189.711288453
 30
0.0
 11
266.2235733692
 21
188.0042275094
 31
0.0
  0
LINE
  5
136
330
124
100
AcDbEntity
  8
Default
  6
Continuous
 62
     7
100
AcDbLine
 10
266.2235733692
 20
188.0042275094
 30
0.0
 11
267.226096305
 21
189.711288453
 31
0.0
  0
LINE
  5
137
330
124
100
AcDbEntity
  8
Default
  6
Continuous
 62
     7
100
AcDbLine
 10
267.226096305
 20
189.711288453
 30
0.0
 11
269.3420202893
 21
189.711288453
 31
0.0
  0
SPLINE
  5
138
330
124
100
AcDbEntity
  8
Default
  6
Continuous
 62
     7
100
AcDbSpline
210
0.0
220
0.0
230
1.0
 70
     8
 71
     3
 72
    13
 73
     9
 74
     0
 42
0.0000000012369638
 43
0.0000000001
 12
1.0
 22
0.0
 32
0.0
 13
1.0
 23
0.0
 33
0.0
 40
0.0
 40
0.0
 40
0.0
 40
0.0
 40
0.9091644120227717
 40
0.9091644120227717
 40
0.9091644120227717
 40
0.9554905618911577
 40
0.9554905618911577
 40
1.0
 40
1.0
 40
1.0
 40
1.0
 10
267.8844350992403
 20
183.5460033940301
 30
0.0
 10
269.2912011542862
 20
185.5418094228636
 30
0.0
 10
270.697967209332
 20
187.5376154516972
 30
0.0
 10
272.1047332643779
 20
189.5334214805307
 30
0.0
 10
272.1870447473536
 20
189.6501983627819
 30
0.0
 10
272.2849101975365
 20
189.7112884530078
 30
0.0
 10
272.5159062656886
 20
189.7112884530078
 30
0.0
 10
272.6198544963569
 20
189.6512294752883
 30
0.0
 10
272.7122529236178
 20
189.5334214805307
 30
0.0
  0
SPLINE
  5
139
330
124
100
AcDbEntity
  8
Default
  6
Continuous
 62
     7
100
AcDbSpline
210
0.0
220
0.0
230
1.0
 70
     8
 71
     3
 72
    16
 73
    12
 74
     0
 42
0.0000000006014133
 43
0.0000000001
 12
1.0
 22
0.0
 32
0.0
 13
1.0
 23
0.0
 33
0.0
 40
0.0
 40
0.0
 40
0.0
 40
0.0
 40
0.4418652593848311
 40
0.4418652593848311
 40
0.4418652593848311
 40
0.455090010411123
 40
0.455090010411123
 40
0.4811129075918901
 40
0.4811129075918901
 40
0.4811129075918901
 40
1.0
 40
1.0
 40
1.0
 40
1.0
 10
272.7122529236178
 20
189.5334214805307
 30
0.0
 10
274.1190189786636
 20
187.5376154516972
 30
0.0
 10
275.5257850337095
 20
185.5418094228636
 30
0.0
 10
276.9325510887554
 20
183.5460033940301
 30
0.0
 10
276.9849943017649
 20
183.4716012002038
 30
0.0
 10
277.0133997126086
 20
183.4004758710943
 30
0.0
 10
277.0133997126086
 20
183.1879594883945
 30
0.0
 10
276.9140714033032
 20
183.1186606679488
 30
0.0
 10
276.7154147846925
 20
183.1186606679488
 30
0.0
 10
273.8479835920319
 20
183.1186606679488
 30
0.0
 10
270.9805523993713
 20
183.1186606679488
 30
0.0
 10
268.1131212067108
 20
183.1186606679488
 30
0.0
  0
SPLINE
  5
13A
330
124
100
AcDbEntity
  8
Default
  6
Continuous
 62
     7
100
AcDbSpline
210
0.0
220
0.0
230
1.0
 70
     8
 71
     3
 72
    11
 73
     7
 74
     0
 42
0.0000000141737466
 43
0.0000000001
 12
1.0
 22
0.0
 32
0.0
 13
1.0
 23
0.0
 33
0.0
 40
0.0
 40
0.0
 40
0.0
 40
0.0
 40
0.6560933575639865
 40
0.6560933575639865
 40
0.6560933575639865
 40
1.0
 40
1.0
 40
1.0
 40
1.0
 10
268.1131212067108
 20
183.1186606679488
 30
0.0
 10
267.9075347060556
 20
183.1186606679488
 30
0.0
 10
267.8058964360686
 20
183.1925794097575
 30
0.0
 10
267.8035864753871
 20
183.3381069326933
 30
0.0
 10
267.8027439506852
 20
183.3911859889177
 30
0.0
 10
267.8313060035653
 20
183.4605348488138
 30
0.0
 10
267.8844350992403
 20
183.5460033940301
 30
0.0
  0
LINE
  5
13B
330
124
100
AcDbEntity
  8
Default
  6
Continuous
 62
     7
100
AcDbLine
 10
262.1857620979
 20
189.7274581778
 30
0.0
 11
262.1857620979
 21
183.1186606679
 31
0.0
  0
SPLINE
  5
13C
330
124
100
AcDbEntity
  8
Default
  6
Continuous
 62
     7
100
AcDbSpline
210
0.0
220
0.0
230
1.0
 70
     8
 71
     3
 72
    14
 73
    10
 74
     0
 42
0.0000000052950889
 43
0.0000000001
 12
1.0
 22
0.0
 32
0.0
 13
1.0
 23
0.0
 33
0.0
 40
0.0
 40
0.0
 40
0.0
 40
0.0
 40
0.1210177131110554
 40
0.1210177131110554
 40
0.1210177131110554
 40
0.2419901306838391
 40
0.2419901306838391
 40
0.2419901306838391
 40
1.0
 40
1.0
 40
1.0
 40
1.0
 10
260.4740812329231
 20
189.4387130925884
 30
0.0
 10
260.4740812329231
 20
189.5195617164416
 30
0.0
 10
260.5018007611014
 20
189.5865505762057
 30
0.0
 10
260.5595497781394
 20
189.6419896325622
 30
0.0
 10
260.6172507110666
 20
189.6973825281723
 30
0.0
 10
260.68197769426
 20
189.7274581777785
 30
0.0
 10
260.7628263181132
 20
189.7274581777785
 30
0.0
 10
261.2371382447187
 20
189.7274581777785
 30
0.0
 10
261.7114501713242
 20
189.7274581777785
 30
0.0
 10
262.1857620979297
 20
189.7274581777785
 30
0.0
  0
LINE
  5
13D
330
124
100
AcDbEntity
  8
Default
  6
Continuous
 62
     7
100
AcDbLine
 10
260.4740812329
 20
183.1186606679
 30
0.0
 11
260.4740812329
 21
189.4387130926
 31
0.0
  0
LINE
  5
13E
330
124
100
AcDbEntity
  8
Default
  6
Continuous
 62
     7
100
AcDbLine
 10
262.1857620979
 20
183.1186606679
 30
0.0
 11
260.4740812329
 21
183.1186606679
 31
0.0
  0
SPLINE
  5
13F
330
124
100
AcDbEntity
  8
Default
  6
Continuous
 62
     7
100
AcDbSpline
210
0.0
220
0.0
230
1.0
 70
     8
 71
     3
 72
    16
 73
    12
 74
     0
 42
0.0000000009758823
 43
0.0000000001
 12
1.0
 22
0.0
 32
0.0
 13
1.0
 23
0.0
 33
0.0
 40
0.0
 40
0.0
 40
0.0
 40
0.0
 40
0.6159054655977501
 40
0.6159054655977501
 40
0.6159054655977501
 40
0.6376683166669079
 40
0.6376683166669079
 40
0.6603379531972834
 40
0.6603379531972834
 40
0.6603379531972834
 40
1.0
 40
1.0
 40
1.0
 40
1.0
 10
255.8218204203412
 20
183.1186606679488
 30
0.0
 10
255.8218204203412
 20
185.2199549012385
 30
0.0
 10
255.8218204203412
 20
187.3212491345281
 30
0.0
 10
255.8218204203412
 20
189.4225433678178
 30
0.0
 10
255.8218204203412
 20
189.503391991671
 30
0.0
 10
255.8495399485194
 20
189.5703808514351
 30
0.0
 10
255.962728021914
 20
189.6835689248296
 30
0.0
 10
256.0297168816781
 20
189.7112884530078
 30
0.0
 10
256.1105655055312
 20
189.7112884530078
 30
0.0
 10
257.2693957807606
 20
189.7112884530078
 30
0.0
 10
258.42822605599
 20
189.7112884530078
 30
0.0
 10
259.5870563312193
 20
189.7112884530078
 30
0.0
  0
LINE
  5
140
330
124
100
AcDbEntity
  8
Default
  6
Continuous
 62
     7
100
AcDbLine
 10
257.5404311674
 20
183.1186606679
 30
0.0
 11
255.8218204203
 21
183.1186606679
 31
0.0
  0
LINE
  5
141
330
124
100
AcDbEntity
  8
Default
  6
Continuous
 62
     7
100
AcDbLine
 10
257.5404311674
 20
185.7035066706
 30
0.0
 11
257.5404311674
 21
183.1186606679
 31
0.0
  0
LINE
  5
142
330
124
100
AcDbEntity
  8
Default
  6
Continuous
 62
     7
100
AcDbLine
 10
259.4877280219
 20
185.7035066706
 30
0.0
 11
257.5404311674
 21
185.7035066706
 31
0.0
  0
LINE
  5
143
330
124
100
AcDbEntity
  8
Default
  6
Continuous
 62
     7
100
AcDbLine
 10
259.4877280219
 20
187.1610918606
 30
0.0
 11
259.4877280219
 21
185.7035066706
 31
0.0
  0
LINE
  5
144
330
124
100
AcDbEntity
  8
Default
  6
Continuous
 62
     7
100
AcDbLine
 10
257.5404311674
 20
187.1610918606
 30
0.0
 11
259.4877280219
 21
187.1610918606
 31
0.0
  0
LINE
  5
145
330
124
100
AcDbEntity
  8
Default
  6
Continuous
 62
     7
100
AcDbLine
 10
257.5404311674
 20
188.260633145
 30
0.0
 11
257.5404311674
 21
187.1610918606
 31
0.0
  0
LINE
  5
146
330
124
100
AcDbEntity
  8
Default
  6
Continuous
 62
     7
100
AcDbLine
 10
259.5870563312
 20
188.260633145
 30
0.0
 11
257.5404311674
 21
188.260633145
 31
0.0
  0
LINE
  5
147
330
124
100
AcDbEntity
  8
Default
  6
Continuous
 62
     7
100
AcDbLine
 10
259.5870563312
 20
189.711288453
 30
0.0
 11
259.5870563312
 21
188.260633145
 31
0.0
  0
LINE
  5
148
330
124
100
AcDbEntity
  8
Default
  6
Continuous
 62
     7
100
AcDbLine
 10
255.0710831988
 20
187.1610918606
 30
0.0
 11
255.0710831988
 21
185.7035066706
 31
0.0
  0
LINE
  5
149
330
124
100
AcDbEntity
  8
Default
  6
Continuous
 62
     7
100
AcDbLine
 10
252.9366795291
 20
187.1610918606
 30
0.0
 11
255.0710831988
 21
187.1610918606
 31
0.0
  0
LINE
  5
14A
330
124
100
AcDbEntity
  8
Default
  6
Continuous
 62
     7
100
AcDbLine
 10
252.9366795291
 20
185.7035066706
 30
0.0
 11
252.9366795291
 21
187.1610918606
 31
0.0
  0
LINE
  5
14B
330
124
100
AcDbEntity
  8
Default
  6
Continuous
 62
     7
100
AcDbLine
 10
255.0710831988
 20
185.7035066706
 30
0.0
 11
252.9366795291
 21
185.7035066706
 31
0.0
  0
SPLINE
  5
14C
330
124
100
AcDbEntity
  8
Default
  6
Continuous
 62
     7
100
AcDbSpline
210
0.0
220
0.0
230
1.0
 70
    11
 71
     3
 72
    47
 73
    43
 74
     0
 42
0.0000000008494054
 43
0.0000000001
 12
1.0
 22
0.0
 32
0.0
 13
1.0
 23
0.0
 33
0.0
 40
0.0
 40
0.0
 40
0.0
 40
0.0
 40
0.0637917384076936
 40
0.0637917384076936
 40
0.0637917384076936
 40
0.1265834997779105
 40
0.1265834997779105
 40
0.1893752611481286
 40
0.1893752611481286
 40
0.1893752611481286
 40
0.2604081010642026
 40
0.2604081010642026
 40
0.3159741129340349
 40
0.3159741129340349
 40
0.3159741129340349
 40
0.3751091105868484
 40
0.3751091105868484
 40
0.3751091105868484
 40
0.435995169879425
 40
0.435995169879425
 40
0.435995169879425
 40
0.4997689343159713
 40
0.4997689343159713
 40
0.5635426987525196
 40
0.5635426987525196
 40
0.5635426987525196
 40
0.624232315369434
 40
0.624232315369434
 40
0.624232315369434
 40
0.6835869381889372
 40
0.6835869381889372
 40
0.6835869381889372
 40
0.7357943705008892
 40
0.7357943705008892
 40
0.8025337685079206
 40
0.8025337685079206
 40
0.8692731665149518
 40
0.8692731665149518
 40
0.9360125645219831
 40
0.9360125645219831
 40
0.9360125645219831
 40
1.0
 40
1.0
 40
1.0
 40
1.0
 10
248.4438060035654
 20
184.5693159759436
 30
0.0
 10
248.7025215998956
 20
184.5693159759436
 30
0.0
 10
248.9450674714552
 20
184.620135110937
 30
0.0
 10
249.1691336575627
 20
184.7194634202424
 30
0.0
 10
249.3951304192655
 20
184.8196475517189
 30
0.0
 10
249.5941664229625
 20
184.9550794097575
 30
0.0
 10
249.9314206824644
 20
185.3061934333486
 30
0.0
 10
250.0653984019926
 20
185.5140898946854
 30
0.0
 10
250.160106789935
 20
185.752015844882
 30
0.0
 10
250.2551311293749
 20
185.9907355268896
 30
0.0
 10
250.3056343128707
 20
186.2509673520904
 30
0.0
 10
250.3056343128707
 20
186.7614686627064
 30
0.0
 10
250.2571251385588
 20
186.9809149274508
 30
0.0
 10
250.160106789935
 20
187.1934313101507
 30
0.0
 10
250.0643595068875
 20
187.4031634539689
 30
0.0
 10
249.9314206824644
 20
187.5907445473721
 30
0.0
 10
249.7627935527134
 20
187.7547517557601
 30
0.0
 10
249.5953209577949
 20
187.9176360604069
 30
0.0
 10
249.3955098043517
 20
188.0458068016317
 30
0.0
 10
249.1691336575627
 20
188.140515189574
 30
0.0
 10
248.9439009259591
 20
188.2347452099388
 30
0.0
 10
248.7025215998956
 20
188.2860427125098
 30
0.0
 10
248.1850904072351
 20
188.2860427125098
 30
0.0
 10
247.9425445356754
 20
188.2375335381978
 30
0.0
 10
247.7161683888864
 20
188.140515189574
 30
0.0
 10
247.4925801256786
 20
188.0446916481992
 30
0.0
 10
247.2934455841682
 20
187.9164490034665
 30
0.0
 10
247.1248184544172
 20
187.7547517557601
 30
0.0
 10
246.9550373605366
 20
187.5919479671074
 30
0.0
 10
246.8222136051381
 20
187.403637732169
 30
0.0
 10
246.7228852958327
 20
187.1934313101507
 30
0.0
 10
246.622664698655
 20
186.9813365579839
 30
0.0
 10
246.5727378515339
 20
186.7614686627064
 30
0.0
 10
246.5727378515339
 20
186.2509673520904
 30
0.0
 10
246.6235569865273
 20
185.9899417950786
 30
0.0
 10
246.8222136051381
 20
185.5140898946854
 30
0.0
 10
246.9561913246663
 20
185.3061934333486
 30
0.0
 10
247.2934455841682
 20
184.9550794097575
 30
0.0
 10
247.492102202779
 20
184.8187917295478
 30
0.0
 10
247.7161683888864
 20
184.7194634202424
 30
0.0
 10
247.9421651505893
 20
184.6192792887659
 30
0.0
 10
248.1850904072351
 20
184.5693159759436
 30
0.0
 10
248.4438060035654
 20
184.5693159759436
 30
0.0
  0
SPLINE
  5
14D
330
124
100
AcDbEntity
  8
Default
  6
Continuous
 62
     7
100
AcDbSpline
210
0.0
220
0.0
230
1.0
 70
    11
 71
     3
 72
    49
 73
    45
 74
     0
 42
0.0000000004385322
 43
0.0000000001
 12
1.0
 22
0.0
 32
0.0
 13
1.0
 23
0.0
 33
0.0
 40
0.0
 40
0.0
 40
0.0
 40
0.0
 40
0.0617996483207596
 40
0.0617996483207596
 40
0.0617996483207596
 40
0.1220737652654132
 40
0.1220737652654132
 40
0.1220737652654132
 40
0.1820249318660078
 40
0.1820249318660078
 40
0.1820249318660078
 40
0.2438982680995642
 40
0.2438982680995642
 40
0.3109516975991858
 40
0.3109516975991858
 40
0.3109516975991858
 40
0.3722543214771952
 40
0.3722543214771952
 40
0.3722543214771952
 40
0.4335172266527087
 40
0.4335172266527087
 40
0.4335172266527087
 40
0.4994898970728853
 40
0.4994898970728853
 40
0.5657506577569065
 40
0.5657506577569065
 40
0.5657506577569065
 40
0.626961718898901
 40
0.626961718898901
 40
0.6886100019061948
 40
0.6886100019061948
 40
0.6886100019061948
 40
0.7556907268882871
 40
0.7556907268882871
 40
0.8175892499404324
 40
0.8175892499404324
 40
0.8175892499404324
 40
0.8774725210786118
 40
0.8774725210786118
 40
0.8774725210786118
 40
0.9379094648157675
 40
0.9379094648157675
 40
0.9379094648157675
 40
1.0
 40
1.0
 40
1.0
 40
1.0
 10
248.4438060035654
 20
189.9492144032044
 30
0.0
 10
248.9196356399268
 20
189.9515130970999
 30
0.0
 10
249.3770301188996
 20
189.8637458579882
 30
0.0
 10
249.8136126877069
 20
189.6997386496002
 30
0.0
 10
250.2509557040483
 20
189.5354457704455
 30
0.0
 10
250.6382686510096
 20
189.3001154516972
 30
0.0
 10
250.9755229105116
 20
188.997510602418
 30
0.0
 10
251.3129086463213
 20
188.694787784671
 30
0.0
 10
251.585352530433
 20
188.3368618475032
 30
0.0
 10
251.7863191097253
 20
187.918758964148
 30
0.0
 10
251.9868172819147
 20
187.5016305829262
 30
0.0
 10
252.0889239590044
 20
187.0455938265333
 30
0.0
 10
252.0889239590044
 20
186.0107314412123
 30
0.0
 10
251.9988354924251
 20
185.52101977673
 30
0.0
 10
251.816348598585
 20
185.0775073258781
 30
0.0
 10
251.6330488643873
 20
184.6320193642835
 30
0.0
 10
251.3820759904592
 20
184.2482314412123
 30
0.0
 10
251.0609914557278
 20
183.9225269851179
 30
0.0
 10
250.7410617834882
 20
183.5979940082417
 30
0.0
 10
250.3564534478642
 20
183.3473467754193
 30
0.0
 10
249.9083210756492
 20
183.1671698422608
 30
0.0
 10
249.4629767181928
 20
182.9881138634896
 30
0.0
 10
248.9727869996335
 20
182.8992144032044
 30
0.0
 10
247.9125150468157
 20
182.8992144032044
 30
0.0
 10
247.4251133430149
 20
182.9893028697837
 30
0.0
 10
246.9792909314815
 20
183.1671698422608
 30
0.0
 10
246.530680710158
 20
183.3461490497318
 30
0.0
 10
246.1453951254526
 20
183.5991324897051
 30
0.0
 10
245.4962961739454
 20
184.2482314412123
 30
0.0
 10
245.2445104596597
 20
184.6316849143446
 30
0.0
 10
245.0620235658196
 20
185.0775073258781
 30
0.0
 10
244.8803465126443
 20
185.521351265914
 30
0.0
 10
244.7871382447187
 20
186.0107314412123
 30
0.0
 10
244.7871382447187
 20
187.0455938265333
 30
0.0
 10
244.8887765147056
 20
187.5029660414744
 30
0.0
 10
245.0920530546794
 20
187.918758964148
 30
0.0
 10
245.2957954536029
 20
188.335504780128
 30
0.0
 10
245.5632850337095
 20
188.6972157138204
 30
0.0
 10
245.9005392932115
 20
188.997510602418
 30
0.0
 10
246.2389407961124
 20
189.2988270091107
 30
0.0
 10
246.6281769078904
 20
189.5334214805307
 30
0.0
 10
247.0670694373792
 20
189.6997386496002
 30
0.0
 10
247.5072164315149
 20
189.8665311947464
 30
0.0
 10
247.9656441424906
 20
189.9469044425229
 30
0.0
 10
248.4438060035654
 20
189.9492144032044
 30
0.0
  0
LINE
  5
14E
330
124
100
AcDbEntity
  8
Default
  6
Continuous
 62
     7
100
AcDbLine
 10
242.3339600009
 20
185.4332412708
 30
0.0
 11
240.8347955186
 21
185.4332412708
 31
0.0
  0
SPLINE
  5
14F
330
124
100
AcDbEntity
  8
Default
  6
Continuous
 62
     7
100
AcDbSpline
210
0.0
220
0.0
230
1.0
 70
     8
 71
     3
 72
    43
 73
    39
 74
     0
 42
0.0000000009932047
 43
0.0000000001
 12
1.0
 22
0.0
 32
0.0
 13
1.0
 23
0.0
 33
0.0
 40
0.0
 40
0.0
 40
0.0
 40
0.0
 40
0.0949373847537602
 40
0.0949373847537602
 40
0.0949373847537602
 40
0.1911787086491429
 40
0.1911787086491429
 40
0.2677918678027036
 40
0.2677918678027036
 40
0.2677918678027036
 40
0.3406026976746725
 40
0.3406026976746725
 40
0.3406026976746725
 40
0.4151543081273698
 40
0.4151543081273698
 40
0.4151543081273698
 40
0.4895478942304584
 40
0.4895478942304584
 40
0.5659890102262922
 40
0.5659890102262922
 40
0.6424301262221261
 40
0.6424301262221261
 40
0.6424301262221261
 40
0.714798401889747
 40
0.714798401889747
 40
0.714798401889747
 40
0.7953127750919691
 40
0.7953127750919691
 40
0.8472575319966263
 40
0.8472575319966263
 40
0.8472575319966263
 40
0.898191982468852
 40
0.898191982468852
 40
0.898191982468852
 40
0.9471592991231073
 40
0.9471592991231073
 40
0.9471592991231073
 40
1.0
 40
1.0
 40
1.0
 40
1.0
 10
242.2554213377724
 20
187.3782281646723
 30
0.0
 10
242.1353033823333
 20
187.6970027387221
 30
0.0
 10
241.9551264491748
 20
187.9510984136893
 30
0.0
 10
241.7148905382967
 20
188.1428251502555
 30
0.0
 10
241.4721172585773
 20
188.3365769023392
 30
0.0
 10
241.1766696995024
 20
188.4315702354455
 30
0.0
 10
240.5460504334474
 20
188.4315702354455
 30
0.0
 10
240.3011946012062
 20
188.371511257726
 30
0.0
 10
240.0840582971433
 20
188.2490833416055
 30
0.0
 10
239.8686747464151
 20
188.1276436800246
 30
0.0
 10
239.6913649812849
 20
187.9649581777784
 30
0.0
 10
239.5481474190306
 20
187.7663015591677
 30
0.0
 10
239.4057198468884
 20
187.5687407332931
 30
0.0
 10
239.2986716654264
 20
187.345888715131
 30
0.0
 10
239.2270628842993
 20
187.0987229222083
 30
0.0
 10
239.1546578089098
 20
186.848808629735
 30
0.0
 10
239.1161847715863
 20
186.5997714149999
 30
0.0
 10
239.1161847715863
 20
186.089270104384
 30
0.0
 10
239.1554541031722
 20
185.8397943507798
 30
0.0
 10
239.3079115081525
 20
185.3500826862975
 30
0.0
 10
239.4187896208655
 20
185.1283264608715
 30
0.0
 10
239.5643171438012
 20
184.9342897636238
 30
0.0
 10
239.7109534478642
 20
184.7387746915399
 30
0.0
 10
239.8900215998956
 20
184.5808657793512
 30
0.0
 10
240.104847943277
 20
184.4630577845936
 30
0.0
 10
240.3206481660817
 20
184.3447157269266
 30
0.0
 10
240.5691500402626
 20
184.2851908121166
 30
0.0
 10
241.0403820192927
 20
184.2851908121166
 30
0.0
 10
241.2182489917698
 20
184.3082904189318
 30
0.0
 10
241.3914960428838
 20
184.3591095539252
 30
0.0
 10
241.5619922405099
 20
184.4091217718955
 30
0.0
 10
241.7148905382967
 20
184.4815374700458
 30
0.0
 10
241.8488682578248
 20
184.5762458579881
 30
0.0
 10
241.9813056983178
 20
184.6698654279918
 30
0.0
 10
242.089104168703
 20
184.7910722013695
 30
0.0
 10
242.1768826746007
 20
184.9342897636238
 30
0.0
 10
242.2630012238817
 20
185.0747989756085
 30
0.0
 10
242.315480315492
 20
185.241514534266
 30
0.0
 10
242.3339600009441
 20
185.4332412708322
 30
0.0
  0
LINE
  5
150
330
124
100
AcDbEntity
  8
Default
  6
Continuous
 62
     7
100
AcDbLine
 10
243.8839436182
 20
188.0642864871
 30
0.0
 11
242.2554213378
 21
187.3782281647
 31
0.0
  0
SPLINE
  5
151
330
124
100
AcDbEntity
  8
Default
  6
Continuous
 62
     7
100
AcDbSpline
210
0.0
220
0.0
230
1.0
 70
     8
 71
     3
 72
    51
 73
    47
 74
     0
 42
0.0000000004766382
 43
0.0000000001
 12
1.0
 22
0.0
 32
0.0
 13
1.0
 23
0.0
 33
0.0
 40
0.0
 40
0.0
 40
0.0
 40
0.0
 40
0.0095402040290222
 40
0.0095402040290222
 40
0.0095402040290222
 40
0.0400756007423482
 40
0.0400756007423482
 40
0.0400756007423482
 40
0.0693620114069116
 40
0.0693620114069116
 40
0.0986484220714753
 40
0.0986484220714753
 40
0.0986484220714753
 40
0.1302632519246672
 40
0.1302632519246672
 40
0.1302632519246672
 40
0.2055179711079718
 40
0.2055179711079718
 40
0.2055179711079718
 40
0.281182745691462
 40
0.281182745691462
 40
0.3511962093102096
 40
0.3511962093102096
 40
0.3511962093102096
 40
0.4149417185613706
 40
0.4149417185613706
 40
0.4149417185613706
 40
0.4786592191897758
 40
0.4786592191897758
 40
0.4786592191897758
 40
0.5478830793697405
 40
0.5478830793697405
 40
0.6199007276287178
 40
0.6199007276287178
 40
0.6199007276287178
 40
0.6846819262147057
 40
0.6846819262147057
 40
0.6846819262147057
 40
0.7494892886116509
 40
0.7494892886116509
 40
0.7494892886116509
 40
0.8193637744922013
 40
0.8193637744922013
 40
0.9096818872461009
 40
0.9096818872461009
 40
1.0
 40
1.0
 40
1.0
 40
1.0
 10
244.1426592145745
 20
186.777638387477
 30
0.0
 10
244.1426592145745
 20
186.7114195146068
 30
0.0
 10
244.1426592145745
 20
186.6452006417365
 30
0.0
 10
244.1426592145745
 20
186.5789817688662
 30
0.0
 10
244.1426592145745
 20
186.3618454648034
 30
0.0
 10
244.1287994504854
 20
186.1493290821035
 30
0.0
 10
244.1172496470778
 20
185.9437425814482
 30
0.0
 10
244.1057071113542
 20
185.738285445568
 30
0.0
 10
244.0849101975365
 20
185.5371895015006
 30
0.0
 10
244.0109914557279
 20
185.1398762642791
 30
0.0
 10
243.9578623600529
 20
184.9435296063499
 30
0.0
 10
243.8839436182442
 20
184.7518028697837
 30
0.0
 10
243.8103238022207
 20
184.5608514719727
 30
0.0
 10
243.7060766457672
 20
184.3683493966513
 30
0.0
 10
243.567479004876
 20
184.1766226600851
 30
0.0
 10
243.2385391943749
 20
183.7215892555586
 30
0.0
 10
242.8467712722416
 20
183.3866161070052
 30
0.0
 10
242.3801592145745
 20
183.1833395670314
 30
0.0
 10
241.9127013576763
 20
182.9796945600658
 30
0.0
 10
241.4007358856099
 20
182.8761147963892
 30
0.0
 10
240.3289141293845
 20
182.8761147963892
 30
0.0
 10
239.8530622289913
 20
182.9592733809239
 30
0.0
 10
239.4187896208655
 20
183.1279005106749
 30
0.0
 10
238.9865243210358
 20
183.2957482068854
 30
0.0
 10
238.6149233036964
 20
183.5344535906225
 30
0.0
 10
238.3076985330542
 20
183.8370584399017
 30
0.0
 10
237.9993189146371
 20
184.1408007708237
 30
0.0
 10
237.7625478122154
 20
184.5092569982241
 30
0.0
 10
237.5893007611014
 20
184.9412196456684
 30
0.0
 10
237.4171718734448
 20
185.3703943388921
 30
0.0
 10
237.3328951254526
 20
185.8444142721428
 30
0.0
 10
237.3328951254526
 20
186.8954463822346
 30
0.0
 10
237.4183636706689
 20
187.3828480860353
 30
0.0
 10
237.5893007611014
 20
187.8194306548426
 30
0.0
 10
237.760544896821
 20
188.2567974339103
 30
0.0
 10
238.005093683775
 20
188.6302268540563
 30
0.0
 10
238.3192483364618
 20
188.9420715460616
 30
0.0
 10
238.6322480402607
 20
189.2527697814501
 30
0.0
 10
239.0099265802364
 20
189.4918421882634
 30
0.0
 10
239.4488191097252
 20
189.6627792786959
 30
0.0
 10
239.8889361806183
 20
189.8341932957806
 30
0.0
 10
240.3751133430149
 20
189.9145649929816
 30
0.0
 10
241.587842700813
 20
189.9145649929816
 30
0.0
 10
242.1815025959638
 20
189.7621075880012
 30
0.0
 10
243.2025052171957
 20
189.1522779680799
 30
0.0
 10
243.5998184544173
 20
188.6879758710943
 30
0.0
 10
243.8839436182442
 20
188.0642864870838
 30
0.0
  0
LINE
  5
152
330
124
100
AcDbEntity
  8
Default
  6
Continuous
 62
     7
100
AcDbLine
 10
240.8347955186
 20
186.7776383875
 30
0.0
 11
244.1426592146
 21
186.7776383875
 31
0.0
  0
LINE
  5
153
330
124
100
AcDbEntity
  8
Default
  6
Continuous
 62
     7
100
AcDbLine
 10
240.8347955186
 20
185.4332412708
 30
0.0
 11
240.8347955186
 21
186.7776383875
 31
0.0
  0
SPLINE
  5
154
330
124
100
AcDbEntity
  8
Default
  6
Continuous
 62
     7
100
AcDbSpline
210
0.0
220
0.0
230
1.0
 70
     8
 71
     3
 72
    16
 73
    12
 74
     0
 42
0.000000000976763
 43
0.0000000001
 12
1.0
 22
0.0
 32
0.0
 13
1.0
 23
0.0
 33
0.0
 40
0.0
 40
0.0
 40
0.0
 40
0.0
 40
0.6164577788718584
 40
0.6164577788718584
 40
0.6164577788718584
 40
0.6381328433885463
 40
0.6381328433885463
 40
0.6607110355934293
 40
0.6607110355934293
 40
0.6607110355934293
 40
1.0
 40
1.0
 40
1.0
 40
1.0
 10
233.0225084937357
 20
183.1186606679488
 30
0.0
 10
233.0225084937357
 20
185.2199549012385
 30
0.0
 10
233.0225084937357
 20
187.3212491345281
 30
0.0
 10
233.0225084937357
 20
189.4225433678178
 30
0.0
 10
233.0225084937357
 20
189.503391991671
 30
0.0
 10
233.050228021914
 20
189.5703808514351
 30
0.0
 10
233.1634160953085
 20
189.6835689248296
 30
0.0
 10
233.2304049550725
 20
189.7112884530078
 30
0.0
 10
233.3089436182443
 20
189.7112884530078
 30
0.0
 10
234.4654639327921
 20
189.7112884530078
 30
0.0
 10
235.6219842473399
 20
189.7112884530078
 30
0.0
 10
236.7785045618878
 20
189.7112884530078
 30
0.0
  0
LINE
  5
155
330
124
100
AcDbEntity
  8
Default
  6
Continuous
 62
     7
100
AcDbLine
 10
236.7785045619
 20
183.1186606679
 30
0.0
 11
233.0225084937
 21
183.1186606679
 31
0.0
  0
LINE
  5
156
330
124
100
AcDbEntity
  8
Default
  6
Continuous
 62
     7
100
AcDbLine
 10
236.7785045619
 20
184.5693159759
 30
0.0
 11
236.7785045619
 21
183.1186606679
 31
0.0
  0
LINE
  5
157
330
124
100
AcDbEntity
  8
Default
  6
Continuous
 62
     7
100
AcDbLine
 10
234.7318793981
 20
184.5693159759
 30
0.0
 11
236.7785045619
 21
184.5693159759
 31
0.0
  0
LINE
  5
158
330
124
100
AcDbEntity
  8
Default
  6
Continuous
 62
     7
100
AcDbLine
 10
234.7318793981
 20
185.7035066706
 30
0.0
 11
234.7318793981
 21
184.5693159759
 31
0.0
  0
LINE
  5
159
330
124
100
AcDbEntity
  8
Default
  6
Continuous
 62
     7
100
AcDbLine
 10
236.6791762526
 20
185.7035066706
 30
0.0
 11
234.7318793981
 21
185.7035066706
 31
0.0
  0
LINE
  5
15A
330
124
100
AcDbEntity
  8
Default
  6
Continuous
 62
     7
100
AcDbLine
 10
236.6791762526
 20
187.1610918606
 30
0.0
 11
236.6791762526
 21
185.7035066706
 31
0.0
  0
LINE
  5
15B
330
124
100
AcDbEntity
  8
Default
  6
Continuous
 62
     7
100
AcDbLine
 10
234.7318793981
 20
187.1610918606
 30
0.0
 11
236.6791762526
 21
187.1610918606
 31
0.0
  0
LINE
  5
15C
330
124
100
AcDbEntity
  8
Default
  6
Continuous
 62
     7
100
AcDbLine
 10
234.7318793981
 20
188.260633145
 30
0.0
 11
234.7318793981
 21
187.1610918606
 31
0.0
  0
LINE
  5
15D
330
124
100
AcDbEntity
  8
Default
  6
Continuous
 62
     7
100
AcDbLine
 10
236.7785045619
 20
188.260633145
 30
0.0
 11
234.7318793981
 21
188.260633145
 31
0.0
  0
LINE
  5
15E
330
124
100
AcDbEntity
  8
Default
  6
Continuous
 62
     7
100
AcDbLine
 10
236.7785045619
 20
189.711288453
 30
0.0
 11
236.7785045619
 21
188.260633145
 31
0.0
  0
LINE
  5
15F
330
124
100
AcDbEntity
  8
Default
  6
Continuous
 62
     7
100
AcDbLine
 10
228.7098119013
 20
188.3992307859
 30
0.0
 11
228.7098119013
 21
186.7499188593
 31
0.0
  0
LINE
  5
160
330
124
100
AcDbEntity
  8
Default
  6
Continuous
 62
     7
100
AcDbLine
 10
228.7098119013
 20
186.7499188593
 30
0.0
 11
228.8807489918
 21
186.7499188593
 31
0.0
  0
SPLINE
  5
161
330
124
100
AcDbEntity
  8
Default
  6
Continuous
 62
     7
100
AcDbSpline
210
0.0
220
0.0
230
1.0
 70
     8
 71
     3
 72
    29
 73
    25
 74
     0
 42
0.0000000028633018
 43
0.0000000001
 12
1.0
 22
0.0
 32
0.0
 13
1.0
 23
0.0
 33
0.0
 40
0.0
 40
0.0
 40
0.0
 40
0.0
 40
0.1203556671631279
 40
0.1203556671631279
 40
0.1203556671631279
 40
0.2363519504887718
 40
0.2363519504887718
 40
0.2363519504887718
 40
0.3551316836966588
 40
0.3551316836966588
 40
0.4739114169045465
 40
0.4739114169045465
 40
0.5942337440501996
 40
0.5942337440501996
 40
0.7145560711958533
 40
0.7145560711958533
 40
0.7145560711958533
 40
0.8303426976884648
 40
0.8303426976884648
 40
0.8303426976884648
 40
0.9506957818555967
 40
0.9506957818555967
 40
0.9506957818555967
 40
1.0
 40
1.0
 40
1.0
 40
1.0
 10
228.8807489917698
 20
186.7499188592988
 30
0.0
 10
229.019346632661
 20
186.7499188592988
 30
0.0
 10
229.1579442735522
 20
186.7591587020248
 30
0.0
 10
229.2965419144435
 20
186.7799483481585
 30
0.0
 10
229.4373986855855
 20
186.8010768638298
 30
0.0
 10
229.5644973534998
 20
186.8376973651965
 30
0.0
 10
229.6799953875758
 20
186.8954463822346
 30
0.0
 10
229.7964174059245
 20
186.9536573914089
 30
0.0
 10
229.8902018095942
 20
187.0340440231258
 30
0.0
 10
230.0287994504854
 20
187.2511803271887
 30
0.0
 10
230.0634488607082
 20
187.3967078501244
 30
0.0
 10
230.0634488607082
 20
187.7547517557601
 30
0.0
 10
230.0287994504854
 20
187.8979693180144
 30
0.0
 10
229.8902018095942
 20
188.1151056220773
 30
0.0
 10
229.7978033823333
 20
188.198264206612
 30
0.0
 10
229.6799953875758
 20
188.25601322365
 30
0.0
 10
229.5649627826514
 20
188.3124017554757
 30
0.0
 10
229.4374495160162
 20
188.3484116509108
 30
0.0
 10
229.2965419144435
 20
188.3692012970445
 30
0.0
 10
229.1578950608181
 20
188.3896573902023
 30
0.0
 10
229.019346632661
 20
188.3992307859043
 30
0.0
 10
228.8807489917698
 20
188.3992307859043
 30
0.0
 10
228.8237699616256
 20
188.3992307859043
 30
0.0
 10
228.7667909314815
 20
188.3992307859043
 30
0.0
 10
228.7098119013373
 20
188.3992307859043
 30
0.0
  0
LINE
  5
162
330
124
100
AcDbEntity
  8
Default
  6
Continuous
 62
     7
100
AcDbLine
 10
228.7098119013
 20
183.1186606679
 30
0.0
 11
227.000440997
 21
183.1186606679
 31
0.0
  0
LINE
  5
163
330
124
100
AcDbEntity
  8
Default
  6
Continuous
 62
     7
100
AcDbLine
 10
228.7098119013
 20
185.6526875356
 30
0.0
 11
228.7098119013
 21
183.1186606679
 31
0.0
  0
LINE
  5
164
330
124
100
AcDbEntity
  8
Default
  6
Continuous
 62
     7
100
AcDbLine
 10
230.3406441425
 20
183.1186606679
 30
0.0
 11
228.7098119013
 21
185.6526875356
 31
0.0
  0
LINE
  5
165
330
124
100
AcDbEntity
  8
Default
  6
Continuous
 62
     7
100
AcDbLine
 10
232.4773577729
 20
183.1186606679
 30
0.0
 11
230.3406441425
 21
183.1186606679
 31
0.0
  0
LINE
  5
166
330
124
100
AcDbEntity
  8
Default
  6
Continuous
 62
     7
100
AcDbLine
 10
230.4007031202
 20
185.8190047046
 30
0.0
 11
232.4773577729
 21
183.1186606679
 31
0.0
  0
SPLINE
  5
167
330
124
100
AcDbEntity
  8
Default
  6
Continuous
 62
     7
100
AcDbSpline
210
0.0
220
0.0
230
1.0
 70
     8
 71
     3
 72
    39
 73
    35
 74
     0
 42
0.0000000006617465
 43
0.0000000001
 12
1.0
 22
0.0
 32
0.0
 13
1.0
 23
0.0
 33
0.0
 40
0.0
 40
0.0
 40
0.0
 40
0.0
 40
0.4184837171182216
 40
0.4184837171182216
 40
0.4184837171182216
 40
0.4329116956232541
 40
0.4329116956232541
 40
0.447940839899329
 40
0.447940839899329
 40
0.447940839899329
 40
0.5989875461512338
 40
0.5989875461512338
 40
0.5989875461512338
 40
0.65983019696195
 40
0.65983019696195
 40
0.65983019696195
 40
0.7141636694202442
 40
0.7141636694202442
 40
0.7141636694202442
 40
0.7672492360561214
 40
0.7672492360561214
 40
0.7672492360561214
 40
0.8311842098663922
 40
0.8311842098663922
 40
0.8732466926363075
 40
0.8732466926363075
 40
0.8732466926363075
 40
0.9147241024096695
 40
0.9147241024096695
 40
0.9147241024096695
 40
0.9560702513872078
 40
0.9560702513872078
 40
0.9560702513872078
 40
1.0
 40
1.0
 40
1.0
 40
1.0
 10
227.0004409970123
 20
183.1186606679488
 30
0.0
 10
227.0004409970123
 20
185.2199549012385
 30
0.0
 10
227.0004409970123
 20
187.3212491345281
 30
0.0
 10
227.0004409970123
 20
189.4225433678178
 30
0.0
 10
227.0004409970123
 20
189.503391991671
 30
0.0
 10
227.0281605251905
 20
189.5703808514351
 30
0.0
 10
227.141348598585
 20
189.6835689248296
 30
0.0
 10
227.2060274976676
 20
189.7112884530078
 30
0.0
 10
227.2776362787947
 20
189.7112884530078
 30
0.0
 10
228.0360733692272
 20
189.7112884530078
 30
0.0
 10
228.7945104596597
 20
189.7112884530078
 30
0.0
 10
229.5529475500922
 20
189.7112884530078
 30
0.0
 10
229.8786520061866
 20
189.7112884530078
 30
0.0
 10
230.1812568554658
 20
189.672019121422
 30
0.0
 10
230.4584521372482
 20
189.5911704975687
 30
0.0
 10
230.7371553613635
 20
189.5098820572018
 30
0.0
 10
230.9781932905902
 20
189.3902039182765
 30
0.0
 10
231.1837797912455
 20
189.223886749207
 30
0.0
 10
231.3882367819392
 20
189.0584833410054
 30
0.0
 10
231.5510635396073
 20
188.8496731188007
 30
0.0
 10
231.6665615736833
 20
188.5955774438335
 30
0.0
 10
231.782929798427
 20
188.3395673493973
 30
0.0
 10
231.8398086247973
 20
188.0365669589056
 30
0.0
 10
231.8398086247973
 20
187.4544568671624
 30
0.0
 10
231.8097791359376
 20
187.235010602418
 30
0.0
 10
231.745100236855
 20
187.0317340624443
 30
0.0
 10
231.679966279852
 20
186.827027340435
 30
0.0
 10
231.5903328711931
 20
186.6390407465858
 30
0.0
 10
231.4679049550726
 20
186.4750335381978
 30
0.0
 10
231.3443697291374
 20
186.3095429525111
 30
0.0
 10
231.1953295946532
 20
186.1678087675556
 30
0.0
 10
231.0151526614946
 20
186.0523107334796
 30
0.0
 10
230.8366129371881
 20
185.9378621922575
 30
0.0
 10
230.6316991883622
 20
185.8582740362319
 30
0.0
 10
230.4007031202102
 20
185.8190047046461
 30
0.0
  0
HATCH
  5
168
330
124
100
AcDbEntity
  8
Default
  6
Continuous
 62
     7
100
AcDbHatch
 10
0.0
 20
0.0
 30
0.0
210
0.0
220
0.0
230
1.0
  2
SOLID
 70
     1
 71
     0
 91
        2
 92
        1
 93
        6
 72
     4
 94
        3
 73
     0
 74
     0
 95
       39
 96
       35
 40
0.0
 40
0.0
 40
0.0
 40
0.0
 40
0.0439297486127922
 40
0.0439297486127922
 40
0.0439297486127922
 40
0.0852758975903305
 40
0.0852758975903305
 40
0.0852758975903305
 40
0.1267533073636925
 40
0.1267533073636925
 40
0.1267533073636925
 40
0.1688157901336078
 40
0.1688157901336078
 40
0.2327507639438786
 40
0.2327507639438786
 40
0.2327507639438786
 40
0.2858363305797558
 40
0.2858363305797558
 40
0.2858363305797558
 40
0.34016980303805
 40
0.34016980303805
 40
0.34016980303805
 40
0.4010124538487662
 40
0.4010124538487662
 40
0.4010124538487662
 40
0.552059160100671
 40
0.552059160100671
 40
0.552059160100671
 40
0.5670883043767458
 40
0.5670883043767458
 40
0.5815162828817784
 40
0.5815162828817784
 40
0.5815162828817784
 40
1.0
 40
1.0
 40
1.0
 40
1.0
 10
230.4007031202102
 20
185.8190047046461
 10
230.6316991883622
 20
185.8582740362319
 10
230.8366129371881
 20
185.9378621922575
 10
231.0151526614946
 20
186.0523107334796
 10
231.1953295946532
 20
186.1678087675556
 10
231.3443697291374
 20
186.3095429525111
 10
231.4679049550726
 20
186.4750335381978
 10
231.5903328711931
 20
186.6390407465858
 10
231.679966279852
 20
186.827027340435
 10
231.745100236855
 20
187.0317340624443
 10
231.8097791359376
 20
187.235010602418
 10
231.8398086247973
 20
187.4544568671624
 10
231.8398086247973
 20
188.0365669589056
 10
231.782929798427
 20
188.3395673493973
 10
231.6665615736833
 20
188.5955774438335
 10
231.5510635396073
 20
188.8496731188007
 10
231.3882367819392
 20
189.0584833410054
 10
231.1837797912455
 20
189.223886749207
 10
230.9781932905902
 20
189.3902039182765
 10
230.7371553613635
 20
189.5098820572018
 10
230.4584521372482
 20
189.5911704975687
 10
230.1812568554658
 20
189.672019121422
 10
229.8786520061866
 20
189.7112884530078
 10
229.5529475500922
 20
189.7112884530078
 10
228.7945104596597
 20
189.7112884530078
 10
228.0360733692272
 20
189.7112884530078
 10
227.2776362787947
 20
189.7112884530078
 10
227.2060274976676
 20
189.7112884530078
 10
227.141348598585
 20
189.6835689248296
 10
227.0281605251905
 20
189.5703808514351
 10
227.0004409970123
 20
189.503391991671
 10
227.0004409970123
 20
189.4225433678178
 10
227.0004409970123
 20
187.3212491345281
 10
227.0004409970123
 20
185.2199549012385
 10
227.0004409970123
 20
183.1186606679488
 72
     1
 10
227.0004409970123
 20
183.1186606679488
 11
228.7098119013373
 21
183.1186606679488
 72
     1
 10
228.7098119013373
 20
183.1186606679488
 11
228.7098119013373
 21
185.6526875355766
 72
     1
 10
228.7098119013373
 20
185.6526875355766
 11
230.3406441424906
 21
183.1186606679488
 72
     1
 10
230.3406441424906
 20
183.1186606679488
 11
232.4773577728969
 21
183.1186606679488
 72
     1
 10
232.4773577728969
 20
183.1186606679488
 11
230.4007031202102
 21
185.8190047046461
 97
        0
 92
        1
 93
        3
 72
     1
 10
228.7098119013373
 20
188.3992307859043
 11
228.7098119013373
 21
186.7499188592988
 72
     1
 10
228.7098119013373
 20
186.7499188592988
 11
228.8807489917698
 21
186.7499188592988
 72
     4
 94
        3
 73
     0
 74
     0
 95
       29
 96
       25
 40
0.0
 40
0.0
 40
0.0
 40
0.0
 40
0.120355667163128
 40
0.120355667163128
 40
0.120355667163128
 40
0.2363519504887718
 40
0.2363519504887718
 40
0.2363519504887718
 40
0.3551316836966587
 40
0.3551316836966587
 40
0.4739114169045465
 40
0.4739114169045465
 40
0.5942337440501996
 40
0.5942337440501996
 40
0.7145560711958533
 40
0.7145560711958533
 40
0.7145560711958533
 40
0.8303426976884648
 40
0.8303426976884648
 40
0.8303426976884648
 40
0.9506957818555967
 40
0.9506957818555967
 40
0.9506957818555967
 40
1.0
 40
1.0
 40
1.0
 40
1.0
 10
228.8807489917698
 20
186.7499188592988
 10
229.019346632661
 20
186.7499188592988
 10
229.1579442735522
 20
186.7591587020248
 10
229.2965419144435
 20
186.7799483481585
 10
229.4373986855855
 20
186.8010768638298
 10
229.5644973534998
 20
186.8376973651965
 10
229.6799953875758
 20
186.8954463822346
 10
229.7964174059245
 20
186.9536573914089
 10
229.8902018095942
 20
187.0340440231258
 10
230.0287994504854
 20
187.2511803271887
 10
230.0634488607082
 20
187.3967078501244
 10
230.0634488607082
 20
187.7547517557601
 10
230.0287994504854
 20
187.8979693180144
 10
229.8902018095942
 20
188.1151056220773
 10
229.7978033823333
 20
188.198264206612
 10
229.6799953875758
 20
188.25601322365
 10
229.5649627826514
 20
188.3124017554757
 10
229.4374495160162
 20
188.3484116509108
 10
229.2965419144435
 20
188.3692012970445
 10
229.1578950608181
 20
188.3896573902023
 10
229.019346632661
 20
188.3992307859043
 10
228.8807489917698
 20
188.3992307859043
 10
228.8237699616256
 20
188.3992307859043
 10
228.7667909314815
 20
188.3992307859043
 10
228.7098119013373
 20
188.3992307859043
 97
        0
 75
     0
 76
     1
 98
        0
  0
HATCH
  5
169
330
124
100
AcDbEntity
  8
Default
  6
Continuous
 62
     7
100
AcDbHatch
 10
0.0
 20
0.0
 30
0.0
210
0.0
220
0.0
230
1.0
  2
SOLID
 70
     1
 71
     0
 91
        1
 92
        1
 93
       11
 72
     4
 94
        3
 73
     0
 74
     0
 95
       16
 96
       12
 40
0.0
 40
0.0
 40
0.0
 40
0.0
 40
0.3392889644065707
 40
0.3392889644065707
 40
0.3392889644065707
 40
0.3618671566114537
 40
0.3618671566114537
 40
0.3835422211281416
 40
0.3835422211281416
 40
0.3835422211281416
 40
1.0
 40
1.0
 40
1.0
 40
1.0
 10
236.7785045618878
 20
189.7112884530078
 10
235.6219842473399
 20
189.7112884530078
 10
234.4654639327921
 20
189.7112884530078
 10
233.3089436182443
 20
189.7112884530078
 10
233.2304049550725
 20
189.7112884530078
 10
233.1634160953085
 20
189.6835689248296
 10
233.050228021914
 20
189.5703808514351
 10
233.0225084937357
 20
189.503391991671
 10
233.0225084937357
 20
189.4225433678178
 10
233.0225084937357
 20
187.3212491345281
 10
233.0225084937357
 20
185.2199549012385
 10
233.0225084937357
 20
183.1186606679488
 72
     1
 10
233.0225084937357
 20
183.1186606679488
 11
236.7785045618878
 21
183.1186606679488
 72
     1
 10
236.7785045618878
 20
183.1186606679488
 11
236.7785045618878
 21
184.5693159759436
 72
     1
 10
236.7785045618878
 20
184.5693159759436
 11
234.7318793980608
 21
184.5693159759436
 72
     1
 10
234.7318793980608
 20
184.5693159759436
 11
234.7318793980608
 21
185.7035066705701
 72
     1
 10
234.7318793980608
 20
185.7035066705701
 11
236.6791762525824
 21
185.7035066705701
 72
     1
 10
236.6791762525824
 20
185.7035066705701
 11
236.6791762525824
 21
187.1610918606094
 72
     1
 10
236.6791762525824
 20
187.1610918606094
 11
234.7318793980608
 21
187.1610918606094
 72
     1
 10
234.7318793980608
 20
187.1610918606094
 11
234.7318793980608
 21
188.260633145013
 72
     1
 10
234.7318793980608
 20
188.260633145013
 11
236.7785045618878
 21
188.260633145013
 72
     1
 10
236.7785045618878
 20
188.260633145013
 11
236.7785045618878
 21
189.7112884530078
 97
        0
 75
     0
 76
     1
 98
        0
  0
HATCH
  5
16A
330
124
100
AcDbEntity
  8
Default
  6
Continuous
 62
     7
100
AcDbHatch
 10
0.0
 20
0.0
 30
0.0
210
0.0
220
0.0
230
1.0
  2
SOLID
 70
     1
 71
     0
 91
        1
 92
        1
 93
        6
 72
     4
 94
        3
 73
     0
 74
     0
 95
       51
 96
       47
 40
0.0
 40
0.0
 40
0.0
 40
0.0
 40
0.0903181127538991
 40
0.0903181127538991
 40
0.1806362255077987
 40
0.1806362255077987
 40
0.2505107113883491
 40
0.2505107113883491
 40
0.2505107113883491
 40
0.3153180737852943
 40
0.3153180737852943
 40
0.3153180737852943
 40
0.3800992723712822
 40
0.3800992723712822
 40
0.3800992723712822
 40
0.4521169206302595
 40
0.4521169206302595
 40
0.5213407808102242
 40
0.5213407808102242
 40
0.5213407808102242
 40
0.5850582814386294
 40
0.5850582814386294
 40
0.5850582814386294
 40
0.6488037906897904
 40
0.6488037906897904
 40
0.6488037906897904
 40
0.718817254308538
 40
0.718817254308538
 40
0.7944820288920282
 40
0.7944820288920282
 40
0.7944820288920282
 40
0.8697367480753329
 40
0.8697367480753329
 40
0.8697367480753329
 40
0.9013515779285247
 40
0.9013515779285247
 40
0.9013515779285247
 40
0.9306379885930884
 40
0.9306379885930884
 40
0.9599243992576518
 40
0.9599243992576518
 40
0.9599243992576518
 40
0.9904597959709778
 40
0.9904597959709778
 40
0.9904597959709778
 40
1.0
 40
1.0
 40
1.0
 40
1.0
 10
243.8839436182442
 20
188.0642864870838
 10
243.5998184544173
 20
188.6879758710943
 10
243.2025052171957
 20
189.1522779680799
 10
242.1815025959638
 20
189.7621075880012
 10
241.587842700813
 20
189.9145649929816
 10
240.3751133430149
 20
189.9145649929816
 10
239.8889361806183
 20
189.8341932957806
 10
239.4488191097252
 20
189.6627792786959
 10
239.0099265802364
 20
189.4918421882634
 10
238.6322480402607
 20
189.2527697814501
 10
238.3192483364618
 20
188.9420715460616
 10
238.005093683775
 20
188.6302268540563
 10
237.760544896821
 20
188.2567974339103
 10
237.5893007611014
 20
187.8194306548426
 10
237.4183636706689
 20
187.3828480860353
 10
237.3328951254526
 20
186.8954463822346
 10
237.3328951254526
 20
185.8444142721428
 10
237.4171718734448
 20
185.3703943388921
 10
237.5893007611014
 20
184.9412196456684
 10
237.7625478122154
 20
184.5092569982241
 10
237.9993189146371
 20
184.1408007708237
 10
238.3076985330542
 20
183.8370584399017
 10
238.6149233036964
 20
183.5344535906225
 10
238.9865243210358
 20
183.2957482068854
 10
239.4187896208655
 20
183.1279005106749
 10
239.8530622289913
 20
182.9592733809239
 10
240.3289141293845
 20
182.8761147963892
 10
241.4007358856099
 20
182.8761147963892
 10
241.9127013576763
 20
182.9796945600658
 10
242.3801592145745
 20
183.1833395670314
 10
242.8467712722416
 20
183.3866161070052
 10
243.2385391943749
 20
183.7215892555586
 10
243.567479004876
 20
184.1766226600851
 10
243.7060766457672
 20
184.3683493966513
 10
243.8103238022207
 20
184.5608514719727
 10
243.8839436182442
 20
184.7518028697837
 10
243.9578623600529
 20
184.9435296063499
 10
244.0109914557279
 20
185.1398762642791
 10
244.0849101975365
 20
185.5371895015006
 10
244.1057071113542
 20
185.738285445568
 10
244.1172496470778
 20
185.9437425814482
 10
244.1287994504854
 20
186.1493290821035
 10
244.1426592145745
 20
186.3618454648034
 10
244.1426592145745
 20
186.5789817688662
 10
244.1426592145745
 20
186.6452006417365
 10
244.1426592145745
 20
186.7114195146068
 10
244.1426592145745
 20
186.777638387477
 72
     1
 10
244.1426592145745
 20
186.777638387477
 11
240.8347955186374
 21
186.777638387477
 72
     1
 10
240.8347955186374
 20
186.777638387477
 11
240.8347955186374
 21
185.4332412708322
 72
     1
 10
240.8347955186374
 20
185.4332412708322
 11
242.3339600009441
 21
185.4332412708322
 72
     4
 94
        3
 73
     0
 74
     0
 95
       43
 96
       39
 40
0.0
 40
0.0
 40
0.0
 40
0.0
 40
0.0528407008768927
 40
0.0528407008768927
 40
0.0528407008768927
 40
0.101808017531148
 40
0.101808017531148
 40
0.101808017531148
 40
0.1527424680033737
 40
0.1527424680033737
 40
0.1527424680033737
 40
0.2046872249080309
 40
0.2046872249080309
 40
0.285201598110253
 40
0.285201598110253
 40
0.285201598110253
 40
0.3575698737778739
 40
0.3575698737778739
 40
0.3575698737778739
 40
0.4340109897737078
 40
0.4340109897737078
 40
0.5104521057695417
 40
0.5104521057695417
 40
0.5848456918726302
 40
0.5848456918726302
 40
0.5848456918726302
 40
0.6593973023253275
 40
0.6593973023253275
 40
0.6593973023253275
 40
0.7322081321972964
 40
0.7322081321972964
 40
0.7322081321972964
 40
0.808821291350857
 40
0.808821291350857
 40
0.9050626152462398
 40
0.9050626152462398
 40
0.9050626152462398
 40
1.0
 40
1.0
 40
1.0
 40
1.0
 10
242.3339600009441
 20
185.4332412708322
 10
242.315480315492
 20
185.241514534266
 10
242.2630012238817
 20
185.0747989756085
 10
242.1768826746007
 20
184.9342897636238
 10
242.089104168703
 20
184.7910722013695
 10
241.9813056983178
 20
184.6698654279918
 10
241.8488682578248
 20
184.5762458579881
 10
241.7148905382967
 20
184.4815374700458
 10
241.5619922405099
 20
184.4091217718955
 10
241.3914960428838
 20
184.3591095539252
 10
241.2182489917698
 20
184.3082904189318
 10
241.0403820192927
 20
184.2851908121166
 10
240.5691500402626
 20
184.2851908121166
 10
240.3206481660817
 20
184.3447157269266
 10
240.104847943277
 20
184.4630577845936
 10
239.8900215998956
 20
184.5808657793512
 10
239.7109534478642
 20
184.7387746915399
 10
239.5643171438012
 20
184.9342897636238
 10
239.4187896208655
 20
185.1283264608715
 10
239.3079115081525
 20
185.3500826862975
 10
239.1554541031722
 20
185.8397943507798
 10
239.1161847715863
 20
186.089270104384
 10
239.1161847715863
 20
186.5997714149999
 10
239.1546578089098
 20
186.848808629735
 10
239.2270628842993
 20
187.0987229222083
 10
239.2986716654264
 20
187.345888715131
 10
239.4057198468884
 20
187.5687407332931
 10
239.5481474190306
 20
187.7663015591677
 10
239.6913649812849
 20
187.9649581777784
 10
239.8686747464151
 20
188.1276436800246
 10
240.0840582971433
 20
188.2490833416055
 10
240.3011946012062
 20
188.371511257726
 10
240.5460504334474
 20
188.4315702354455
 10
241.1766696995024
 20
188.4315702354455
 10
241.4721172585773
 20
188.3365769023392
 10
241.7148905382967
 20
188.1428251502555
 10
241.9551264491748
 20
187.9510984136893
 10
242.1353033823333
 20
187.6970027387221
 10
242.2554213377724
 20
187.3782281646723
 72
     1
 10
242.2554213377724
 20
187.3782281646723
 11
243.8839436182442
 21
188.0642864870838
 97
        0
 75
     0
 76
     1
 98
        0
  0
HATCH
  5
16B
330
124
100
AcDbEntity
  8
Default
  6
Continuous
 62
     7
100
AcDbHatch
 10
0.0
 20
0.0
 30
0.0
210
0.0
220
0.0
230
1.0
  2
SOLID
 70
     1
 71
     0
 91
        2
 92
        1
 93
        1
 72
     4
 94
        3
 73
     0
 74
     0
 95
       49
 96
       45
 40
0.0
 40
0.0
 40
0.0
 40
0.0
 40
0.0620905351842325
 40
0.0620905351842325
 40
0.0620905351842325
 40
0.1225274789213882
 40
0.1225274789213882
 40
0.1225274789213882
 40
0.1824107500595676
 40
0.1824107500595676
 40
0.1824107500595676
 40
0.2443092731117129
 40
0.2443092731117129
 40
0.3113899980938052
 40
0.3113899980938052
 40
0.3113899980938052
 40
0.373038281101099
 40
0.373038281101099
 40
0.4342493422430935
 40
0.4342493422430935
 40
0.4342493422430935
 40
0.5005101029271146
 40
0.5005101029271146
 40
0.5664827733472912
 40
0.5664827733472912
 40
0.5664827733472912
 40
0.6277456785228048
 40
0.6277456785228048
 40
0.6277456785228048
 40
0.6890483024008142
 40
0.6890483024008142
 40
0.6890483024008142
 40
0.7561017319004357
 40
0.7561017319004357
 40
0.8179750681339922
 40
0.8179750681339922
 40
0.8179750681339922
 40
0.8779262347345869
 40
0.8779262347345869
 40
0.8779262347345869
 40
0.9382003516792404
 40
0.9382003516792404
 40
0.9382003516792404
 40
1.0
 40
1.0
 40
1.0
 40
1.0
 10
248.4438060035654
 20
189.9492144032044
 10
247.9656441424906
 20
189.9469044425229
 10
247.5072164315149
 20
189.8665311947464
 10
247.0670694373792
 20
189.6997386496002
 10
246.6281769078904
 20
189.5334214805307
 10
246.2389407961124
 20
189.2988270091107
 10
245.9005392932115
 20
188.997510602418
 10
245.5632850337095
 20
188.6972157138204
 10
245.2957954536029
 20
188.335504780128
 10
245.0920530546794
 20
187.918758964148
 10
244.8887765147056
 20
187.5029660414744
 10
244.7871382447187
 20
187.0455938265333
 10
244.7871382447187
 20
186.0107314412123
 10
244.8803465126443
 20
185.521351265914
 10
245.0620235658196
 20
185.0775073258781
 10
245.2445104596597
 20
184.6316849143446
 10
245.4962961739454
 20
184.2482314412123
 10
246.1453951254526
 20
183.5991324897051
 10
246.530680710158
 20
183.3461490497318
 10
246.9792909314815
 20
183.1671698422608
 10
247.4251133430149
 20
182.9893028697837
 10
247.9125150468157
 20
182.8992144032044
 10
248.9727869996335
 20
182.8992144032044
 10
249.4629767181928
 20
182.9881138634896
 10
249.9083210756492
 20
183.1671698422608
 10
250.3564534478642
 20
183.3473467754193
 10
250.7410617834882
 20
183.5979940082417
 10
251.0609914557278
 20
183.9225269851179
 10
251.3820759904592
 20
184.2482314412123
 10
251.6330488643873
 20
184.6320193642835
 10
251.816348598585
 20
185.0775073258781
 10
251.9988354924251
 20
185.52101977673
 10
252.0889239590044
 20
186.0107314412123
 10
252.0889239590044
 20
187.0455938265333
 10
251.9868172819147
 20
187.5016305829262
 10
251.7863191097253
 20
187.918758964148
 10
251.585352530433
 20
188.3368618475032
 10
251.3129086463213
 20
188.694787784671
 10
250.9755229105116
 20
188.997510602418
 10
250.6382686510096
 20
189.3001154516972
 10
250.2509557040483
 20
189.5354457704455
 10
249.8136126877069
 20
189.6997386496002
 10
249.3770301188996
 20
189.8637458579882
 10
248.9196356399268
 20
189.9515130970999
 10
248.4438060035654
 20
189.9492144032044
 97
        0
 92
        1
 93
        1
 72
     4
 94
        3
 73
     0
 74
     0
 95
       47
 96
       43
 40
0.0
 40
0.0
 40
0.0
 40
0.0
 40
0.0637917384076936
 40
0.0637917384076936
 40
0.0637917384076936
 40
0.1265834997779105
 40
0.1265834997779105
 40
0.1893752611481285
 40
0.1893752611481285
 40
0.1893752611481285
 40
0.2604081010642026
 40
0.2604081010642026
 40
0.3159741129340349
 40
0.3159741129340349
 40
0.3159741129340349
 40
0.3751091105868485
 40
0.3751091105868485
 40
0.3751091105868485
 40
0.435995169879425
 40
0.435995169879425
 40
0.435995169879425
 40
0.4997689343159712
 40
0.4997689343159712
 40
0.5635426987525196
 40
0.5635426987525196
 40
0.5635426987525196
 40
0.624232315369434
 40
0.624232315369434
 40
0.624232315369434
 40
0.6835869381889372
 40
0.6835869381889372
 40
0.6835869381889372
 40
0.7357943705008892
 40
0.7357943705008892
 40
0.8025337685079206
 40
0.8025337685079206
 40
0.8692731665149518
 40
0.8692731665149518
 40
0.9360125645219831
 40
0.9360125645219831
 40
0.9360125645219831
 40
1.0
 40
1.0
 40
1.0
 40
1.0
 10
248.4438060035654
 20
184.5693159759436
 10
248.7025215998956
 20
184.5693159759436
 10
248.9450674714552
 20
184.620135110937
 10
249.1691336575627
 20
184.7194634202424
 10
249.3951304192655
 20
184.8196475517189
 10
249.5941664229625
 20
184.9550794097575
 10
249.9314206824644
 20
185.3061934333486
 10
250.0653984019926
 20
185.5140898946854
 10
250.160106789935
 20
185.752015844882
 10
250.2551311293749
 20
185.9907355268896
 10
250.3056343128707
 20
186.2509673520904
 10
250.3056343128707
 20
186.7614686627064
 10
250.2571251385588
 20
186.9809149274508
 10
250.160106789935
 20
187.1934313101507
 10
250.0643595068875
 20
187.4031634539689
 10
249.9314206824644
 20
187.5907445473721
 10
249.7627935527134
 20
187.7547517557601
 10
249.5953209577949
 20
187.9176360604069
 10
249.3955098043517
 20
188.0458068016317
 10
249.1691336575627
 20
188.140515189574
 10
248.9439009259591
 20
188.2347452099388
 10
248.7025215998956
 20
188.2860427125098
 10
248.1850904072351
 20
188.2860427125098
 10
247.9425445356754
 20
188.2375335381978
 10
247.7161683888864
 20
188.140515189574
 10
247.4925801256786
 20
188.0446916481992
 10
247.2934455841682
 20
187.9164490034665
 10
247.1248184544172
 20
187.7547517557601
 10
246.9550373605366
 20
187.5919479671074
 10
246.8222136051381
 20
187.403637732169
 10
246.7228852958327
 20
187.1934313101507
 10
246.622664698655
 20
186.9813365579839
 10
246.5727378515339
 20
186.7614686627064
 10
246.5727378515339
 20
186.2509673520904
 10
246.6235569865273
 20
185.9899417950786
 10
246.8222136051381
 20
185.5140898946854
 10
246.9561913246663
 20
185.3061934333486
 10
247.2934455841682
 20
184.9550794097575
 10
247.492102202779
 20
184.8187917295478
 10
247.7161683888864
 20
184.7194634202424
 10
247.9421651505893
 20
184.6192792887659
 10
248.1850904072351
 20
184.5693159759436
 10
248.4438060035654
 20
184.5693159759436
 97
        0
 75
     0
 76
     1
 98
        0
  0
HATCH
  5
16C
330
124
100
AcDbEntity
  8
Default
  6
Continuous
 62
     7
100
AcDbHatch
 10
0.0
 20
0.0
 30
0.0
210
0.0
220
0.0
230
1.0
  2
SOLID
 70
     1
 71
     0
 91
        1
 92
        1
 93
        4
 72
     1
 10
255.0710831988471
 20
185.7035066705701
 11
255.0710831988471
 21
187.1610918606094
 72
     1
 10
255.0710831988471
 20
187.1610918606094
 11
252.9366795291224
 21
187.1610918606094
 72
     1
 10
252.9366795291224
 20
187.1610918606094
 11
252.9366795291224
 21
185.70350667057
 72
     1
 10
252.9366795291224
 20
185.70350667057
 11
255.0710831988471
 21
185.7035066705701
 97
        0
 75
     0
 76
     1
 98
        0
  0
HATCH
  5
16D
330
124
100
AcDbEntity
  8
Default
  6
Continuous
 62
     7
100
AcDbHatch
 10
0.0
 20
0.0
 30
0.0
210
0.0
220
0.0
230
1.0
  2
SOLID
 70
     1
 71
     0
 91
        1
 92
        1
 93
        9
 72
     4
 94
        3
 73
     0
 74
     0
 95
       16
 96
       12
 40
0.0
 40
0.0
 40
0.0
 40
0.0
 40
0.3396620468027166
 40
0.3396620468027166
 40
0.3396620468027166
 40
0.3623316833330921
 40
0.3623316833330921
 40
0.3840945344022499
 40
0.3840945344022499
 40
0.3840945344022499
 40
1.0
 40
1.0
 40
1.0
 40
1.0
 10
259.5870563312193
 20
189.7112884530078
 10
258.42822605599
 20
189.7112884530078
 10
257.2693957807606
 20
189.7112884530078
 10
256.1105655055312
 20
189.7112884530078
 10
256.0297168816781
 20
189.7112884530078
 10
255.962728021914
 20
189.6835689248296
 10
255.8495399485194
 20
189.5703808514351
 10
255.8218204203412
 20
189.503391991671
 10
255.8218204203412
 20
189.4225433678178
 10
255.8218204203412
 20
187.3212491345281
 10
255.8218204203412
 20
185.2199549012385
 10
255.8218204203412
 20
183.1186606679488
 72
     1
 10
255.8218204203412
 20
183.1186606679488
 11
257.5404311673923
 21
183.1186606679488
 72
     1
 10
257.5404311673923
 20
183.1186606679488
 11
257.5404311673923
 21
185.7035066705701
 72
     1
 10
257.5404311673923
 20
185.7035066705701
 11
259.4877280219139
 21
185.7035066705701
 72
     1
 10
259.4877280219139
 20
185.7035066705701
 11
259.4877280219139
 21
187.1610918606094
 72
     1
 10
259.4877280219139
 20
187.1610918606094
 11
257.5404311673923
 21
187.1610918606094
 72
     1
 10
257.5404311673923
 20
187.1610918606094
 11
257.5404311673923
 21
188.260633145013
 72
     1
 10
257.5404311673923
 20
188.260633145013
 11
259.5870563312194
 21
188.260633145013
 72
     1
 10
259.5870563312193
 20
188.260633145013
 11
259.5870563312193
 21
189.7112884530078
 97
        0
 75
     0
 76
     1
 98
        0
  0
HATCH
  5
16E
330
124
100
AcDbEntity
  8
Default
  6
Continuous
 62
     7
100
AcDbHatch
 10
0.0
 20
0.0
 30
0.0
210
0.0
220
0.0
230
1.0
  2
SOLID
 70
     1
 71
     0
 91
        1
 92
        1
 93
        4
 72
     4
 94
        3
 73
     0
 74
     0
 95
       14
 96
       10
 40
0.0
 40
0.0
 40
0.0
 40
0.0
 40
0.7580098693161609
 40
0.7580098693161609
 40
0.7580098693161609
 40
0.8789822868889446
 40
0.8789822868889446
 40
0.8789822868889446
 40
1.0
 40
1.0
 40
1.0
 40
1.0
 10
262.1857620979297
 20
189.7274581777785
 10
261.7114501713242
 20
189.7274581777785
 10
261.2371382447187
 20
189.7274581777785
 10
260.7628263181132
 20
189.7274581777785
 10
260.68197769426
 20
189.7274581777785
 10
260.6172507110666
 20
189.6973825281723
 10
260.5595497781394
 20
189.6419896325622
 10
260.5018007611014
 20
189.5865505762057
 10
260.4740812329231
 20
189.5195617164416
 10
260.4740812329231
 20
189.4387130925884
 72
     1
 10
260.4740812329231
 20
189.4387130925884
 11
260.4740812329231
 21
183.1186606679488
 72
     1
 10
260.4740812329231
 20
183.1186606679488
 11
262.1857620979297
 21
183.1186606679488
 72
     1
 10
262.1857620979297
 20
183.1186606679488
 11
262.1857620979297
 21
189.7274581777785
 97
        0
 75
     0
 76
     1
 98
        0
  0
HATCH
  5
16F
330
124
100
AcDbEntity
  8
Default
  6
Continuous
 62
     7
100
AcDbHatch
 10
0.0
 20
0.0
 30
0.0
210
0.0
220
0.0
230
1.0
  2
SOLID
 70
     1
 71
     0
 91
        1
 92
        1
 93
       12
 72
     1
 10
266.2235733692272
 20
188.0042275093643
 11
265.2095006300398
 21
189.7112884530078
 72
     1
 10
265.2095006300398
 20
189.7112884530078
 11
263.1051264491747
 21
189.7112884530078
 72
     1
 10
263.1051264491747
 20
189.7112884530078
 11
265.2095006300398
 21
186.6436606679488
 72
     1
 10
265.2095006300398
 20
186.6436606679488
 11
262.6269645881001
 21
183.1186606679488
 72
     1
 10
262.6269645881001
 20
183.1186606679488
 11
264.7036192407868
 21
183.1186606679488
 72
     1
 10
264.7036192407868
 20
183.1186606679488
 11
266.2235733692272
 21
185.2646141410812
 72
     1
 10
266.2235733692272
 20
185.2646141410812
 11
267.2561257938668
 21
183.6453317033355
 72
     1
 10
267.2561257938668
 20
183.6453317033355
 11
268.2886782185064
 21
185.1144666967824
 72
     1
 10
268.2886782185064
 20
185.1144666967824
 11
267.226096305007
 21
186.6436606679488
 72
     1
 10
267.226096305007
 20
186.6436606679488
 11
269.3420202892797
 21
189.7112884530078
 72
     1
 10
269.3420202892797
 20
189.7112884530078
 11
267.226096305007
 21
189.7112884530078
 72
     1
 10
267.226096305007
 20
189.7112884530078
 11
266.2235733692272
 21
188.0042275093643
 97
        0
 75
     0
 76
     1
 98
        0
  0
HATCH
  5
170
330
124
100
AcDbEntity
  8
Default
  6
Continuous
 62
     7
100
AcDbHatch
 10
0.0
 20
0.0
 30
0.0
210
0.0
220
0.0
230
1.0
  2
SOLID
 70
     1
 71
     0
 91
        1
 92
        1
 93
        3
 72
     4
 94
        3
 73
     0
 74
     0
 95
       13
 96
        9
 40
0.0
 40
0.0
 40
0.0
 40
0.0
 40
0.0445094381088423
 40
0.0445094381088423
 40
0.0908355879772283
 40
0.0908355879772283
 40
0.0908355879772283
 40
1.0
 40
1.0
 40
1.0
 40
1.0
 10
272.7122529236178
 20
189.5334214805307
 10
272.6198544963569
 20
189.6512294752883
 10
272.5159062656886
 20
189.7112884530078
 10
272.2849101975365
 20
189.7112884530078
 10
272.1870447473536
 20
189.6501983627819
 10
272.1047332643779
 20
189.5334214805307
 10
270.697967209332
 20
187.5376154516972
 10
269.2912011542862
 20
185.5418094228636
 10
267.8844350992403
 20
183.5460033940301
 72
     4
 94
        3
 73
     0
 74
     0
 95
       11
 96
        7
 40
0.0
 40
0.0
 40
0.0
 40
0.0
 40
0.3439066424360135
 40
0.3439066424360135
 40
0.3439066424360135
 40
1.0
 40
1.0
 40
1.0
 40
1.0
 10
267.8844350992403
 20
183.5460033940301
 10
267.8313060035653
 20
183.4605348488138
 10
267.8027439506852
 20
183.3911859889177
 10
267.8035864753871
 20
183.3381069326933
 10
267.8058964360686
 20
183.1925794097575
 10
267.9075347060556
 20
183.1186606679488
 10
268.1131212067108
 20
183.1186606679488
 72
     4
 94
        3
 73
     0
 74
     0
 95
       16
 96
       12
 40
0.0
 40
0.0
 40
0.0
 40
0.0
 40
0.5188870924081099
 40
0.5188870924081099
 40
0.5188870924081099
 40
0.544909989588877
 40
0.544909989588877
 40
0.5581347406151689
 40
0.5581347406151689
 40
0.5581347406151689
 40
1.0
 40
1.0
 40
1.0
 40
1.0
 10
268.1131212067108
 20
183.1186606679488
 10
270.9805523993713
 20
183.1186606679488
 10
273.8479835920319
 20
183.1186606679488
 10
276.7154147846925
 20
183.1186606679488
 10
276.9140714033032
 20
183.1186606679488
 10
277.0133997126086
 20
183.1879594883945
 10
277.0133997126086
 20
183.4004758710943
 10
276.9849943017649
 20
183.4716012002038
 10
276.9325510887554
 20
183.5460033940301
 10
275.5257850337095
 20
185.5418094228636
 10
274.1190189786636
 20
187.5376154516972
 10
272.7122529236178
 20
189.5334214805307
 97
        0
 75
     0
 76
     1
 98
        0
  0
ENDBLK
  5
172
330
124
100
AcDbEntity
  8
0
100
AcDbBlockEnd
  0
ENDSEC
  0
SECTION
  2
ENTITIES
  0
INSERT
  5
41
330
1F
100
AcDbEntity
  8
Default
100
AcDbBlockReference
  2
SE
 10
0.0
 20
0.0
 30
0.0
  0
INSERT
  5
D1
330
1F
100
AcDbEntity
  8
Default
100
AcDbBlockReference
  2
SE1
 10
0.0
 20
0.0
 30
0.0
  0
DIMENSION
  5
F4
330
1F
100
AcDbEntity
  8
Default
  6
Continuous
 62
     7
100
AcDbDimension
  2
DMBLK84
 10
37.6648191231
 20
169.9999999145
 30
0.0
 11
112.6648161428
 21
169.9999999145
 31
0.0
 70
   160
  1
\A1;<>
 71
     5
 42
-1.0
  3
DIN
100
AcDbAlignedDimension
 13
187.6648191231
 23
159.357180808
 33
0.0
 14
37.6648191231
 24
159.357180808
 34
0.0
100
AcDbRotatedDimension
  0
DIMENSION
  5
FE
330
1F
100
AcDbEntity
  8
Default
  6
Continuous
 62
     7
100
AcDbDimension
  2
DMBLK85
 10
213.1173492825
 20
50.0000003616
 30
0.0
 11
239.1173498189
 21
50.0000003616
 31
0.0
 70
   161
  1
\A1;<>
 71
     5
 42
-1.0
  3
DIN
100
AcDbAlignedDimension
 13
213.1173492825
 23
59.357180808
 33
0.0
 14
265.1173492825
 24
59.357180808
 34
0.0
  0
DIMENSION
  5
108
330
1F
100
AcDbEntity
  8
Default
  6
Continuous
 62
     7
100
AcDbDimension
  2
DMBLK86
 10
203.0162898308
 20
159.357180808
 30
0.0
 11
203.0162898308
 21
109.3571800629
 31
0.0
 70
   161
  1
\A1;<>
 71
     5
 42
-1.0
  3
DIN
100
AcDbAlignedDimension
 13
213.1173492825
 23
159.357180808
 33
0.0
 14
213.1173492825
 24
59.357180808
 34
0.0
  0
INSERT
  5
173
330
1F
100
AcDbEntity
  8
Default
 62
     7
100
AcDbBlockReference
  2
RF-Massblatt_2016
 10
0.0
 20
0.0
 30
0.0
  0
ENDSEC
  0
SECTION
  2
OBJECTS
  0
DICTIONARY
  5
C
330
0
100
AcDbDictionary
281
     1
  3
ACAD_GROUP
350
D
  3
ACAD_LAYOUT
350
1A
  3
ACAD_MATERIAL
350
3B
  3
ACAD_MLEADERSTYLE
350
176
  3
ACAD_MLINESTYLE
350
17
  3
ACAD_PLOTSETTINGS
350
19
  3
ACAD_PLOTSTYLENAME
350
E
  3
ACAD_VISUALSTYLE
350
2A
  3
AcDbVariableDictionary
350
174
  0
DICTIONARY
  5
17B
330
125
100
AcDbDictionary
280
     1
281
     1
  3
ACAD_MTEXT_RT
360
17C
  0
DICTIONARY
  5
17D
330
126
100
AcDbDictionary
280
     1
281
     1
  3
ACAD_MTEXT_RT
360
17E
  0
DICTIONARY
  5
17F
330
129
100
AcDbDictionary
280
     1
281
     1
  3
ACAD_MTEXT_RT
360
180
  0
DICTIONARY
  5
D
102
{ACAD_REACTORS
330
C
102
}
330
C
100
AcDbDictionary
281
     1
  0
DICTIONARY
  5
1A
102
{ACAD_REACTORS
330
C
102
}
330
C
100
AcDbDictionary
281
     1
  3
Layout1
350
1E
  3
Model
350
22
  0
DICTIONARY
  5
3B
102
{ACAD_REACTORS
330
C
102
}
330
C
100
AcDbDictionary
281
     1
  3
ByBlock
350
3D
  3
ByLayer
350
3C
  3
Global
350
3E
  0
DICTIONARY
  5
176
102
{ACAD_REACTORS
330
C
102
}
330
C
100
AcDbDictionary
281
     1
  0
DICTIONARY
  5
17
102
{ACAD_REACTORS
330
C
102
}
330
C
100
AcDbDictionary
281
     1
  3
Standard
350
18
  0
DICTIONARY
  5
19
102
{ACAD_REACTORS
330
C
102
}
330
C
100
AcDbDictionary
281
     1
  0
ACDBDICTIONARYWDFLT
  5
E
102
{ACAD_REACTORS
330
C
102
}
330
C
100
AcDbDictionary
281
     1
  3
Normal
350
F
100
AcDbDictionaryWithDefault
340
F
  0
DICTIONARY
  5
2A
102
{ACAD_REACTORS
330
C
102
}
330
C
100
AcDbDictionary
281
     1
  3
2dWireframe
350
2F
  3
3D Hidden
350
31
  3
3dWireframe
350
30
  3
Basic
350
32
  3
Brighten
350
36
  3
ColorChange
350
3A
  3
Conceptual
350
34
  3
Dim
350
35
  3
Facepattern
350
39
  3
Flat
350
2B
  3
FlatWithEdges
350
2C
  3
Gouraud
350
2D
  3
GouraudWithEdges
350
2E
  3
Linepattern
350
38
  3
Realistic
350
33
  3
Thicken
350
37
  0
DICTIONARY
  5
174
102
{ACAD_REACTORS
330
C
102
}
330
C
100
AcDbDictionary
281
     1
  3
DIMASSOC
350
179
  3
HIDETEXT
350
17A
  3
PSOLHEIGHT
350
178
  3
PSOLWIDTH
350
177
  0
XRECORD
  5
17C
102
{ACAD_REACTORS
330
17B
102
}
330
17B
100
AcDbXrecord
280
     1
 40
10118767.0
  1
\pxsm1.;{\fVectora Com 45 Light|b1||i0||c0|p34;\C7;\H2.5;\W1.;REGO-FIX AG\P}{\fVectora Com 45 Light|b0||i0||c0|p34;\C7;\H2.5;\W1.;Obermattweg 60\P}{\fVectora Com 45 Light|b0||i0||c0|p34;\C7;\H2.5;\W1.;4456 Tenniken / Switzerland\P}{\fVectora Com 45 L
  1
ight|b0||i0||c0|p34;\C7;\H2.5;\W1.;\P}{\fVectora Com 45 Light|b0||i0||c0|p34;\C7;\H2.5;\W1.;P +41 61 976 14 66\P}{\fVectora Com 45 Light|b0||i0||c0|p34;\C7;\H2.5;\W1.;F +41 61 976 14 14\P}{\fVectora Com 45 Light|b1||i0||c0|p34;\C7;\H2.5;\W1.;www.rego
  1
-fix.com}
  0
XRECORD
  5
17E
102
{ACAD_REACTORS
330
17D
102
}
330
17D
100
AcDbXrecord
280
     1
 40
47111022.0
  1
\pxsm1.;{\fSolid Edge ISO|b0||i0||c0|p34;\C7;\H2.;\W1.;This is a non-controlled copy. All information given herein is subject to change without notice\P}{\fSolid Edge ISO|b0||i0||c0|p34;\C7;\H2.;\W1.;\P}{\fSolid Edge ISO|b0||i0||c0|p34;\C7;\H2.;\W1.;
  1
The information given herein has been carefully checked and is believed to be correct. REGO-FIX,\P}{\fSolid Edge ISO|b0||i0||c0|p34;\C7;\H2.;\W1.;however, assumes no responsibility or liability for any errors, inaccuracies or omissions that may appea
  1
r\P}{\fSolid Edge ISO|b0||i0||c0|p34;\C7;\H2.;\W1.;in this drawing\P}{\fSolid Edge ISO|b0||i0||c0|p34;\C7;\H2.;\W1.;\P}{\fSolid Edge ISO|b0||i0||c0|p34;\C7;\H2.;\W1.;This document is subject to copyright laws. No part of this document may be reproduc
  1
ed or transmitted\P}{\fSolid Edge ISO|b0||i0||c0|p34;\C7;\H2.;\W1.;in any form or any means, electronic or mechanic, for any purpose, without the express written permission\P}{\fSolid Edge ISO|b0||i0||c0|p34;\C7;\H2.;\W1.;of REGO-FIX\P}{\fSolid Edge 
  1
ISO|b0||i0||c0|p34;\C7;\H1.5;\W1.;\P}
  0
XRECORD
  5
180
102
{ACAD_REACTORS
330
17F
102
}
330
17F
100
AcDbXrecord
280
     1
 40
2697483.0
  1
\pxsm1.;{\fVectora Com 45 Light|b0||i0||c0|p34;\C7;\H3.5;\W1.;Type :\P}{\fVectora Com 45 Light|b0||i0||c0|p34;\C7;\H3.5;\W1.;Part No. :\P}{\fVectora Com 45 Light|b0||i0||c0|p34;\C7;\H3.5;\W1.;Date : \P}{\fVectora Com 45 Light|b0||i0||c0|p34;\C7;\H3.5
  1
;\W1.;Scale :}
  0
LAYOUT
  5
1E
102
{ACAD_REACTORS
330
1A
102
}
330
1A
100
AcDbPlotSettings
  1

  2
none_device
  4

  6

 40
0.0
 41
0.0
 42
0.0
 43
0.0
 44
0.0
 45
0.0
 46
0.0
 47
0.0
 48
0.0
 49
0.0
140
0.0
141
0.0
142
1.0
143
1.0
 70
   688
 72
     0
 73
     0
 74
     5
  7

 75
    16
147
1.0
148
0.0
149
0.0
100
AcDbLayout
  1
Layout1
 70
     1
 71
     1
 10
0.0
 20
0.0
 11
297.0
 21
210.0
 12
0.0
 22
0.0
 32
0.0
 14
0.0
 24
0.0
 34
0.0
 15
297.0
 25
210.0
 35
0.0
146
0.0
 13
0.0
 23
0.0
 33
0.0
 16
1.0
 26
0.0
 36
0.0
 17
0.0
 27
1.0
 37
0.0
 76
     0
330
1B
  0
LAYOUT
  5
22
102
{ACAD_REACTORS
330
1A
102
}
330
1A
100
AcDbPlotSettings
  1

  2
none_device
  4

  6

 40
0.0
 41
0.0
 42
0.0
 43
0.0
 44
0.0
 45
0.0
 46
0.0
 47
0.0
 48
0.0
 49
0.0
140
0.0
141
0.0
142
1.0
143
1.0
 70
  1712
 72
     0
 73
     0
 74
     0
  7

 75
     0
147
1.0
148
0.0
149
0.0
100
AcDbLayout
  1
Model
 70
     1
 71
     0
 10
0.0
 20
0.0
 11
297.0
 21
210.0
 12
0.0
 22
0.0
 32
0.0
 14
0.0
 24
0.0
 34
0.0
 15
297.0
 25
210.0
 35
0.0
146
0.0
 13
0.0
 23
0.0
 33
0.0
 16
1.0
 26
0.0
 36
0.0
 17
0.0
 27
1.0
 37
0.0
 76
     0
330
1F
331
29
  0
MATERIAL
  5
3D
102
{ACAD_REACTORS
330
3B
102
}
102
{ACAD_XDICTIONARY
360
1A3
102
}
330
3B
100
AcDbMaterial
  1
ByBlock
  0
MATERIAL
  5
3C
102
{ACAD_REACTORS
330
3B
102
}
102
{ACAD_XDICTIONARY
360
1A1
102
}
330
3B
100
AcDbMaterial
  1
ByLayer
  0
MATERIAL
  5
3E
102
{ACAD_REACTORS
330
3B
102
}
102
{ACAD_XDICTIONARY
360
1A5
102
}
330
3B
100
AcDbMaterial
  1
Global
  0
MLINESTYLE
  5
18
102
{ACAD_REACTORS
330
17
102
}
330
17
100
AcDbMlineStyle
  2
Standard
 70
     0
  3

 62
   256
 51
90.0
 52
90.0
 71
     2
 49
0.5
 62
   256
  6
BYLAYER
 49
-0.5
 62
   256
  6
BYLAYER
  0
ACDBPLACEHOLDER
  5
F
102
{ACAD_REACTORS
330
E
102
}
330
E
  0
VISUALSTYLE
  5
2F
102
{ACAD_REACTORS
330
2A
102
}
102
{ACAD_XDICTIONARY
360
189
102
}
330
2A
100
AcDbVisualStyle
  2
2dWireframe
 70
     4
 71
     0
 72
     2
 73
     0
 90
        0
 40
-0.6
 41
-30.0
 62
     5
 63
     7
 74
     1
 91
        4
 64
     7
 65
   257
 75
     1
175
     1
 42
1.0
 92
        0
 66
   257
 43
1.0
 76
     1
 77
     6
 78
     2
 67
     7
 79
     5
170
     0
171
     0
290
     0
174
     0
 93
        1
 44
0.0
173
     0
291
     0
 45
0.0
1001
ACAD
1000
AcDbSavedByObjectVersion
1070
     0
  0
VISUALSTYLE
  5
31
102
{ACAD_REACTORS
330
2A
102
}
102
{ACAD_XDICTIONARY
360
18D
102
}
330
2A
100
AcDbVisualStyle
  2
3D Hidden
 70
     6
 71
     1
 72
     2
 73
     2
 90
        0
 40
-0.6
 41
-30.0
 62
     5
 63
     7
 74
     2
 91
        2
 64
     7
 65
   257
 75
     2
175
     1
 42
40.0
 92
        0
 66
   257
 43
1.0
 76
     1
 77
     6
 78
     2
 67
     7
 79
     3
170
     0
171
     0
290
     0
174
     0
 93
        1
 44
0.0
173
     0
291
     0
 45
0.0
1001
ACAD
1000
AcDbSavedByObjectVersion
1070
     0
  0
VISUALSTYLE
  5
30
102
{ACAD_REACTORS
330
2A
102
}
102
{ACAD_XDICTIONARY
360
18B
102
}
330
2A
100
AcDbVisualStyle
  2
3dWireframe
 70
     5
 71
     0
 72
     2
 73
     0
 90
        0
 40
-0.6
 41
-30.0
 62
     5
 63
     7
 74
     1
 91
        4
 64
     7
 65
   257
 75
     1
175
     1
 42
1.0
 92
        0
 66
   257
 43
1.0
 76
     1
 77
     6
 78
     2
 67
     7
 79
     5
170
     0
171
     0
290
     0
174
     0
 93
        1
 44
0.0
173
     0
291
     0
 45
0.0
1001
ACAD
1000
AcDbSavedByObjectVersion
1070
     0
  0
VISUALSTYLE
  5
32
102
{ACAD_REACTORS
330
2A
102
}
102
{ACAD_XDICTIONARY
360
18F
102
}
330
2A
100
AcDbVisualStyle
  2
Basic
 70
     7
 71
     1
 72
     0
 73
     1
 90
        0
 40
-0.6
 41
-30.0
 62
     5
 63
     7
 74
     0
 91
        4
 64
     7
 65
   257
 75
     1
175
     1
 42
1.0
 92
        8
 66
     7
 43
1.0
 76
     1
 77
     6
 78
     2
 67
     7
 79
     5
170
     0
171
     0
290
     0
174
     0
 93
        1
 44
0.0
173
     0
291
     1
 45
0.0
1001
ACAD
1000
AcDbSavedByObjectVersion
1070
     0
  0
VISUALSTYLE
  5
36
102
{ACAD_REACTORS
330
2A
102
}
102
{ACAD_XDICTIONARY
360
197
102
}
330
2A
100
AcDbVisualStyle
  2
Brighten
 70
    12
 71
     2
 72
     2
 73
     0
 90
        0
 40
-0.6
 41
-30.0
 62
     5
 63
     7
 74
     1
 91
        4
 64
     7
 65
   257
 75
     1
175
     1
 42
1.0
 92
        8
 66
     7
 43
1.0
 76
     1
 77
     6
 78
     2
 67
     7
 79
     5
170
     0
171
     0
290
     0
174
     0
 93
        1
 44
50.0
173
     0
291
     1
 45
0.0
1001
ACAD
1000
AcDbSavedByObjectVersion
1070
     0
  0
VISUALSTYLE
  5
3A
102
{ACAD_REACTORS
330
2A
102
}
102
{ACAD_XDICTIONARY
360
19F
102
}
330
2A
100
AcDbVisualStyle
  2
ColorChange
 70
    16
 71
     2
 72
     2
 73
     3
 90
        0
 40
-0.6
 41
-30.0
 62
     5
 63
     8
 74
     1
 91
        4
 64
     7
 65
   257
 75
     1
175
     1
 42
1.0
 92
        8
 66
     8
 43
1.0
 76
     1
 77
     6
 78
     2
 67
     7
 79
     5
170
     0
171
     0
290
     0
174
     0
 93
        1
 44
0.0
173
     0
291
     1
 45
0.0
1001
ACAD
1000
AcDbSavedByObjectVersion
1070
     0
  0
VISUALSTYLE
  5
34
102
{ACAD_REACTORS
330
2A
102
}
102
{ACAD_XDICTIONARY
360
193
102
}
330
2A
100
AcDbVisualStyle
  2
Conceptual
 70
     9
 71
     3
 72
     2
 73
     0
 90
        0
 40
-0.6
 41
-30.0
 62
     5
 63
     7
 74
     2
 91
        2
 64
     7
 65
   257
 75
     1
175
     1
 42
40.0
 92
        8
 66
     7
 43
1.0
 76
     1
 77
     6
 78
     2
 67
     7
 79
     3
170
     0
171
     0
290
     0
174
     0
 93
        1
 44
0.0
173
     0
291
     0
 45
0.0
1001
ACAD
1000
AcDbSavedByObjectVersion
1070
     0
  0
VISUALSTYLE
  5
35
102
{ACAD_REACTORS
330
2A
102
}
102
{ACAD_XDICTIONARY
360
195
102
}
330
2A
100
AcDbVisualStyle
  2
Dim
 70
    11
 71
     2
 72
     2
 73
     0
 90
        0
 40
-0.6
 41
-30.0
 62
     5
 63
     7
 74
     1
 91
        4
 64
     7
 65
   257
 75
     1
175
     1
 42
1.0
 92
        8
 66
     7
 43
1.0
 76
     1
 77
     6
 78
     2
 67
     7
 79
     5
170
     0
171
     0
290
     0
174
     0
 93
        1
 44
-50.0
173
     0
291
     1
 45
0.0
1001
ACAD
1000
AcDbSavedByObjectVersion
1070
     0
  0
VISUALSTYLE
  5
39
102
{ACAD_REACTORS
330
2A
102
}
102
{ACAD_XDICTIONARY
360
19D
102
}
330
2A
100
AcDbVisualStyle
  2
Facepattern
 70
    15
 71
     2
 72
     2
 73
     0
 90
        0
 40
-0.6
 41
-30.0
 62
     5
 63
     7
 74
     1
 91
        4
 64
     7
 65
   257
 75
     1
175
     1
 42
1.0
 92
        8
 66
     7
 43
1.0
 76
     1
 77
     6
 78
     2
 67
     7
 79
     5
170
     0
171
     0
290
     0
174
     0
 93
        1
 44
0.0
173
     0
291
     1
 45
0.0
1001
ACAD
1000
AcDbSavedByObjectVersion
1070
     0
  0
VISUALSTYLE
  5
2B
102
{ACAD_REACTORS
330
2A
102
}
102
{ACAD_XDICTIONARY
360
181
102
}
330
2A
100
AcDbVisualStyle
  2
Flat
 70
     0
 71
     2
 72
     1
 73
     1
 90
        2
 40
-0.6
 41
30.0
 62
     5
 63
     7
 74
     0
 91
        4
 64
     7
 65
   257
 75
     1
175
     1
 42
1.0
 92
        8
 66
     7
 43
1.0
 76
     1
 77
     6
 78
     2
 67
     7
 79
     5
170
     0
171
     0
290
     0
174
     0
 93
       13
 44
0.0
173
     0
291
     1
 45
0.0
1001
ACAD
1000
AcDbSavedByObjectVersion
1070
     0
  0
VISUALSTYLE
  5
2C
102
{ACAD_REACTORS
330
2A
102
}
102
{ACAD_XDICTIONARY
360
183
102
}
330
2A
100
AcDbVisualStyle
  2
FlatWithEdges
 70
     1
 71
     2
 72
     1
 73
     1
 90
        2
 40
-0.6
 41
30.0
 62
     5
 63
     7
 74
     1
 91
        4
 64
     7
 65
   257
 75
     1
175
     1
 42
1.0
 92
        0
 66
   257
 43
1.0
 76
     1
 77
     6
 78
     2
 67
     7
 79
     5
170
     0
171
     0
290
     0
174
     0
 93
       13
 44
0.0
173
     0
291
     1
 45
0.0
1001
ACAD
1000
AcDbSavedByObjectVersion
1070
     0
  0
VISUALSTYLE
  5
2D
102
{ACAD_REACTORS
330
2A
102
}
102
{ACAD_XDICTIONARY
360
185
102
}
330
2A
100
AcDbVisualStyle
  2
Gouraud
 70
     2
 71
     2
 72
     2
 73
     1
 90
        2
 40
-0.6
 41
30.0
 62
     5
 63
     7
 74
     0
 91
        4
 64
     7
 65
   257
 75
     1
175
     1
 42
1.0
 92
        0
 66
     7
 43
1.0
 76
     1
 77
     6
 78
     2
 67
     7
 79
     5
170
     0
171
     0
290
     0
174
     0
 93
       13
 44
0.0
173
     0
291
     1
 45
0.0
1001
ACAD
1000
AcDbSavedByObjectVersion
1070
     0
  0
VISUALSTYLE
  5
2E
102
{ACAD_REACTORS
330
2A
102
}
102
{ACAD_XDICTIONARY
360
187
102
}
330
2A
100
AcDbVisualStyle
  2
GouraudWithEdges
 70
     3
 71
     2
 72
     2
 73
     1
 90
        2
 40
-0.6
 41
30.0
 62
     5
 63
     7
 74
     1
 91
        4
 64
     7
 65
   257
 75
     1
175
     1
 42
1.0
 92
        0
 66
   257
 43
1.0
 76
     1
 77
     6
 78
     2
 67
     7
 79
     5
170
     0
171
     0
290
     0
174
     0
 93
       13
 44
0.0
173
     0
291
     1
 45
0.0
1001
ACAD
1000
AcDbSavedByObjectVersion
1070
     0
  0
VISUALSTYLE
  5
38
102
{ACAD_REACTORS
330
2A
102
}
102
{ACAD_XDICTIONARY
360
19B
102
}
330
2A
100
AcDbVisualStyle
  2
Linepattern
 70
    14
 71
     2
 72
     2
 73
     0
 90
        0
 40
-0.6
 41
-30.0
 62
     5
 63
     7
 74
     1
 91
        4
 64
     7
 65
   257
 75
     7
175
     7
 42
1.0
 92
        8
 66
     7
 43
1.0
 76
     1
 77
     6
 78
     2
 67
     7
 79
     5
170
     0
171
     0
290
     0
174
     0
 93
        1
 44
0.0
173
     0
291
     1
 45
0.0
1001
ACAD
1000
AcDbSavedByObjectVersion
1070
     0
  0
VISUALSTYLE
  5
33
102
{ACAD_REACTORS
330
2A
102
}
102
{ACAD_XDICTIONARY
360
191
102
}
330
2A
100
AcDbVisualStyle
  2
Realistic
 70
     8
 71
     2
 72
     2
 73
     0
 90
        0
 40
-0.6
 41
-30.0
 62
     5
 63
     7
 74
     1
 91
        0
 64
     7
 65
   257
 75
     1
175
     1
 42
1.0
 92
        8
 66
     8
 43
1.0
 76
     1
 77
     6
 78
     2
 67
     7
 79
     5
170
     0
171
     0
290
     0
174
     0
 93
       13
 44
0.0
173
     0
291
     0
 45
0.0
1001
ACAD
1000
AcDbSavedByObjectVersion
1070
     0
  0
VISUALSTYLE
  5
37
102
{ACAD_REACTORS
330
2A
102
}
102
{ACAD_XDICTIONARY
360
199
102
}
330
2A
100
AcDbVisualStyle
  2
Thicken
 70
    13
 71
     2
 72
     2
 73
     0
 90
        0
 40
-0.6
 41
-30.0
 62
     5
 63
     7
 74
     1
 91
        4
 64
     7
 65
   257
 75
     1
175
     1
 42
1.0
 92
       12
 66
     7
 43
1.0
 76
     1
 77
     6
 78
     2
 67
     7
 79
     5
170
     0
171
     0
290
     0
174
     0
 93
        1
 44
0.0
173
     0
291
     1
 45
0.0
1001
ACAD
1000
AcDbSavedByObjectVersion
1070
     0
  0
DICTIONARYVAR
  5
179
102
{ACAD_REACTORS
330
174
102
}
330
174
100
DictionaryVariables
280
     0
  1
2
  0
DICTIONARYVAR
  5
17A
102
{ACAD_REACTORS
330
174
102
}
330
174
100
DictionaryVariables
280
     0
  1
1
  0
DICTIONARYVAR
  5
178
102
{ACAD_REACTORS
330
174
102
}
330
174
100
DictionaryVariables
280
     0
  1
80.000000
  0
DICTIONARYVAR
  5
177
102
{ACAD_REACTORS
330
174
102
}
330
174
100
DictionaryVariables
280
     0
  1
5.000000
  0
DICTIONARY
  5
1A3
330
3D
100
AcDbDictionary
280
     1
281
     1
  3
ACAD_XREC_ROUNDTRIP
360
1A4
  0
DICTIONARY
  5
1A1
330
3C
100
AcDbDictionary
280
     1
281
     1
  3
ACAD_XREC_ROUNDTRIP
360
1A2
  0
DICTIONARY
  5
1A5
330
3E
100
AcDbDictionary
280
     1
281
     1
  3
ACAD_XREC_ROUNDTRIP
360
1A6
  0
DICTIONARY
  5
189
330
2F
100
AcDbDictionary
280
     1
281
     1
  3
ACAD_XREC_ROUNDTRIP
360
18A
  0
DICTIONARY
  5
18D
330
31
100
AcDbDictionary
280
     1
281
     1
  3
ACAD_XREC_ROUNDTRIP
360
18E
  0
DICTIONARY
  5
18B
330
30
100
AcDbDictionary
280
     1
281
     1
  3
ACAD_XREC_ROUNDTRIP
360
18C
  0
DICTIONARY
  5
18F
330
32
100
AcDbDictionary
280
     1
281
     1
  3
ACAD_XREC_ROUNDTRIP
360
190
  0
DICTIONARY
  5
197
330
36
100
AcDbDictionary
280
     1
281
     1
  3
ACAD_XREC_ROUNDTRIP
360
198
  0
DICTIONARY
  5
19F
330
3A
100
AcDbDictionary
280
     1
281
     1
  3
ACAD_XREC_ROUNDTRIP
360
1A0
  0
DICTIONARY
  5
193
330
34
100
AcDbDictionary
280
     1
281
     1
  3
ACAD_XREC_ROUNDTRIP
360
194
  0
DICTIONARY
  5
195
330
35
100
AcDbDictionary
280
     1
281
     1
  3
ACAD_XREC_ROUNDTRIP
360
196
  0
DICTIONARY
  5
19D
330
39
100
AcDbDictionary
280
     1
281
     1
  3
ACAD_XREC_ROUNDTRIP
360
19E
  0
DICTIONARY
  5
181
330
2B
100
AcDbDictionary
280
     1
281
     1
  3
ACAD_XREC_ROUNDTRIP
360
182
  0
DICTIONARY
  5
183
330
2C
100
AcDbDictionary
280
     1
281
     1
  3
ACAD_XREC_ROUNDTRIP
360
184
  0
DICTIONARY
  5
185
330
2D
100
AcDbDictionary
280
     1
281
     1
  3
ACAD_XREC_ROUNDTRIP
360
186
  0
DICTIONARY
  5
187
330
2E
100
AcDbDictionary
280
     1
281
     1
  3
ACAD_XREC_ROUNDTRIP
360
188
  0
DICTIONARY
  5
19B
330
38
100
AcDbDictionary
280
     1
281
     1
  3
ACAD_XREC_ROUNDTRIP
360
19C
  0
DICTIONARY
  5
191
330
33
100
AcDbDictionary
280
     1
281
     1
  3
ACAD_XREC_ROUNDTRIP
360
192
  0
DICTIONARY
  5
199
330
37
100
AcDbDictionary
280
     1
281
     1
  3
ACAD_XREC_ROUNDTRIP
360
19A
  0
XRECORD
  5
1A4
102
{ACAD_REACTORS
330
1A3
102
}
330
1A3
100
AcDbXrecord
280
     1
102
MATERIAL
148
0.0
149
0.0
149
0.0
 93
        0
 94
      127
282
     0
 72
     1
 77
     1
171
     1
175
     1
179
     1
273
     0
  0
XRECORD
  5
1A2
102
{ACAD_REACTORS
330
1A1
102
}
330
1A1
100
AcDbXrecord
280
     1
102
MATERIAL
148
0.0
149
0.0
149
0.0
 93
        0
 94
      127
282
     0
 72
     1
 77
     1
171
     1
175
     1
179
     1
273
     0
  0
XRECORD
  5
1A6
102
{ACAD_REACTORS
330
1A5
102
}
330
1A5
100
AcDbXrecord
280
     1
102
MATERIAL
148
0.0
149
0.0
149
0.0
 93
        0
 94
      127
282
     0
 72
     1
 77
     1
171
     1
175
     1
179
     1
273
     0
  0
XRECORD
  5
18A
102
{ACAD_REACTORS
330
189
102
}
330
189
100
AcDbXrecord
280
     1
102
RTVSPropertyOp0
 70
     1
102
RTVSPropertyOp1
 70
     1
102
RTVSPropertyOp2
 70
     1
102
RTVSPropertyOp3
 70
     1
102
RTVSPropertyOp4
 70
     1
102
RTVSPropertyOp5
 70
     1
102
RTVSPropertyOp6
 70
     1
102
RTVSPropertyOp7
 70
     1
102
RTVSPropertyOp8
 70
     1
102
RTVSPropertyOp9
 70
     1
102
RTVSPropertyOp10
 70
     1
102
RTVSPropertyOp11
 70
     1
102
RTVSPropertyOp12
 70
     1
102
RTVSPropertyOp13
 70
     1
102
RTVSPropertyOp14
 70
     1
102
RTVSPropertyOp15
 70
     1
102
RTVSPropertyOp16
 70
     1
102
RTVSPropertyOp17
 70
     1
102
RTVSPropertyOp18
 70
     1
102
RTVSPropertyOp19
 70
     1
102
RTVSPropertyOp20
 70
     1
102
RTVSPropertyOp21
 70
     1
102
RTVSPropertyOp22
 70
     1
102
RTVSPropertyOp23
 70
     1
102
RTVSPropertyOp24
 70
     1
102
RTVSPropertyOp25
 70
     1
102
RTVSPropertyOp26
 70
     1
102
RTVSPropertyOp27
 70
     1
102
RTVSPropertyOp28
 70
     1
102
RTVSPropertyOp29
 70
     1
102
RTVSPropertyOp30
 70
     1
102
RTVSPropertyOp31
 70
     1
102
RTVSPropertyOp32
 70
     1
  0
XRECORD
  5
18E
102
{ACAD_REACTORS
330
18D
102
}
330
18D
100
AcDbXrecord
280
     1
102
RTVSPropertyOp0
 70
     1
102
RTVSPropertyOp1
 70
     1
102
RTVSPropertyOp2
 70
     1
102
RTVSPropertyOp3
 70
     1
102
RTVSPropertyOp4
 70
     1
102
RTVSPropertyOp5
 70
     1
102
RTVSPropertyOp6
 70
     1
102
RTVSPropertyOp7
 70
     1
102
RTVSPropertyOp8
 70
     1
102
RTVSPropertyOp9
 70
     1
102
RTVSPropertyOp10
 70
     1
102
RTVSPropertyOp11
 70
     1
102
RTVSPropertyOp12
 70
     1
102
RTVSPropertyOp13
 70
     1
102
RTVSPropertyOp14
 70
     1
102
RTVSPropertyOp15
 70
     1
102
RTVSPropertyOp16
 70
     1
102
RTVSPropertyOp17
 70
     1
102
RTVSPropertyOp18
 70
     1
102
RTVSPropertyOp19
 70
     1
102
RTVSPropertyOp20
 70
     1
102
RTVSPropertyOp21
 70
     1
102
RTVSPropertyOp22
 70
     1
102
RTVSPropertyOp23
 70
     1
102
RTVSPropertyOp24
 70
     1
102
RTVSPropertyOp25
 70
     1
102
RTVSPropertyOp26
 70
     1
102
RTVSPropertyOp27
 70
     1
102
RTVSPropertyOp28
 70
     1
102
RTVSPropertyOp29
 70
     1
102
RTVSPropertyOp30
 70
     1
102
RTVSPropertyOp31
 70
     1
102
RTVSPropertyOp32
 70
     1
  0
XRECORD
  5
18C
102
{ACAD_REACTORS
330
18B
102
}
330
18B
100
AcDbXrecord
280
     1
102
RTVSPropertyOp0
 70
     1
102
RTVSPropertyOp1
 70
     1
102
RTVSPropertyOp2
 70
     1
102
RTVSPropertyOp3
 70
     1
102
RTVSPropertyOp4
 70
     1
102
RTVSPropertyOp5
 70
     1
102
RTVSPropertyOp6
 70
     1
102
RTVSPropertyOp7
 70
     1
102
RTVSPropertyOp8
 70
     1
102
RTVSPropertyOp9
 70
     1
102
RTVSPropertyOp10
 70
     1
102
RTVSPropertyOp11
 70
     1
102
RTVSPropertyOp12
 70
     1
102
RTVSPropertyOp13
 70
     1
102
RTVSPropertyOp14
 70
     1
102
RTVSPropertyOp15
 70
     1
102
RTVSPropertyOp16
 70
     1
102
RTVSPropertyOp17
 70
     1
102
RTVSPropertyOp18
 70
     1
102
RTVSPropertyOp19
 70
     1
102
RTVSPropertyOp20
 70
     1
102
RTVSPropertyOp21
 70
     1
102
RTVSPropertyOp22
 70
     1
102
RTVSPropertyOp23
 70
     1
102
RTVSPropertyOp24
 70
     1
102
RTVSPropertyOp25
 70
     1
102
RTVSPropertyOp26
 70
     1
102
RTVSPropertyOp27
 70
     1
102
RTVSPropertyOp28
 70
     1
102
RTVSPropertyOp29
 70
     1
102
RTVSPropertyOp30
 70
     1
102
RTVSPropertyOp31
 70
     1
102
RTVSPropertyOp32
 70
     1
  0
XRECORD
  5
190
102
{ACAD_REACTORS
330
18F
102
}
330
18F
100
AcDbXrecord
280
     1
102
RTVSPropertyOp0
 70
     1
102
RTVSPropertyOp1
 70
     1
102
RTVSPropertyOp2
 70
     1
102
RTVSPropertyOp3
 70
     1
102
RTVSPropertyOp4
 70
     1
102
RTVSPropertyOp5
 70
     1
102
RTVSPropertyOp6
 70
     1
102
RTVSPropertyOp7
 70
     1
102
RTVSPropertyOp8
 70
     1
102
RTVSPropertyOp9
 70
     1
102
RTVSPropertyOp10
 70
     1
102
RTVSPropertyOp11
 70
     1
102
RTVSPropertyOp12
 70
     1
102
RTVSPropertyOp13
 70
     1
102
RTVSPropertyOp14
 70
     1
102
RTVSPropertyOp15
 70
     1
102
RTVSPropertyOp16
 70
     1
102
RTVSPropertyOp17
 70
     1
102
RTVSPropertyOp18
 70
     1
102
RTVSPropertyOp19
 70
     1
102
RTVSPropertyOp20
 70
     1
102
RTVSPropertyOp21
 70
     1
102
RTVSPropertyOp22
 70
     1
102
RTVSPropertyOp23
 70
     1
102
RTVSPropertyOp24
 70
     1
102
RTVSPropertyOp25
 70
     1
102
RTVSPropertyOp26
 70
     1
102
RTVSPropertyOp27
 70
     1
102
RTVSPropertyOp28
 70
     1
102
RTVSPropertyOp29
 70
     1
102
RTVSPropertyOp30
 70
     1
102
RTVSPropertyOp31
 70
     1
102
RTVSPropertyOp32
 70
     1
  0
XRECORD
  5
198
102
{ACAD_REACTORS
330
197
102
}
330
197
100
AcDbXrecord
280
     1
102
RTVSPropertyOp0
 70
     1
102
RTVSPropertyOp1
 70
     1
102
RTVSPropertyOp2
 70
     1
102
RTVSPropertyOp3
 70
     1
102
RTVSPropertyOp4
 70
     1
102
RTVSPropertyOp5
 70
     1
102
RTVSPropertyOp6
 70
     1
102
RTVSPropertyOp7
 70
     1
102
RTVSPropertyOp8
 70
     1
102
RTVSPropertyOp9
 70
     1
102
RTVSPropertyOp10
 70
     1
102
RTVSPropertyOp11
 70
     1
102
RTVSPropertyOp12
 70
     1
102
RTVSPropertyOp13
 70
     1
102
RTVSPropertyOp14
 70
     1
102
RTVSPropertyOp15
 70
     1
102
RTVSPropertyOp16
 70
     1
102
RTVSPropertyOp17
 70
     1
102
RTVSPropertyOp18
 70
     1
102
RTVSPropertyOp19
 70
     1
102
RTVSPropertyOp20
 70
     1
102
RTVSPropertyOp21
 70
     1
102
RTVSPropertyOp22
 70
     1
102
RTVSPropertyOp23
 70
     1
102
RTVSPropertyOp24
 70
     1
102
RTVSPropertyOp25
 70
     1
102
RTVSPropertyOp26
 70
     1
102
RTVSPropertyOp27
 70
     1
102
RTVSPropertyOp28
 70
     1
102
RTVSPropertyOp29
 70
     1
102
RTVSPropertyOp30
 70
     1
102
RTVSPropertyOp31
 70
     1
102
RTVSPropertyOp32
 70
     1
  0
XRECORD
  5
1A0
102
{ACAD_REACTORS
330
19F
102
}
330
19F
100
AcDbXrecord
280
     1
102
RTVSPropertyOp0
 70
     1
102
RTVSPropertyOp1
 70
     1
102
RTVSPropertyOp2
 70
     1
102
RTVSPropertyOp3
 70
     1
102
RTVSPropertyOp4
 70
     1
102
RTVSPropertyOp5
 70
     1
102
RTVSPropertyOp6
 70
     1
102
RTVSPropertyOp7
 70
     1
102
RTVSPropertyOp8
 70
     1
102
RTVSPropertyOp9
 70
     1
102
RTVSPropertyOp10
 70
     1
102
RTVSPropertyOp11
 70
     1
102
RTVSPropertyOp12
 70
     1
102
RTVSPropertyOp13
 70
     1
102
RTVSPropertyOp14
 70
     1
102
RTVSPropertyOp15
 70
     1
102
RTVSPropertyOp16
 70
     1
102
RTVSPropertyOp17
 70
     1
102
RTVSPropertyOp18
 70
     1
102
RTVSPropertyOp19
 70
     1
102
RTVSPropertyOp20
 70
     1
102
RTVSPropertyOp21
 70
     1
102
RTVSPropertyOp22
 70
     1
102
RTVSPropertyOp23
 70
     1
102
RTVSPropertyOp24
 70
     1
102
RTVSPropertyOp25
 70
     1
102
RTVSPropertyOp26
 70
     1
102
RTVSPropertyOp27
 70
     1
102
RTVSPropertyOp28
 70
     1
102
RTVSPropertyOp29
 70
     1
102
RTVSPropertyOp30
 70
     1
102
RTVSPropertyOp31
 70
     1
102
RTVSPropertyOp32
 70
     1
  0
XRECORD
  5
194
102
{ACAD_REACTORS
330
193
102
}
330
193
100
AcDbXrecord
280
     1
102
RTVSPropertyOp0
 70
     1
102
RTVSPropertyOp1
 70
     1
102
RTVSPropertyOp2
 70
     1
102
RTVSPropertyOp3
 70
     1
102
RTVSPropertyOp4
 70
     1
102
RTVSPropertyOp5
 70
     1
102
RTVSPropertyOp6
 70
     1
102
RTVSPropertyOp7
 70
     1
102
RTVSPropertyOp8
 70
     1
102
RTVSPropertyOp9
 70
     1
102
RTVSPropertyOp10
 70
     1
102
RTVSPropertyOp11
 70
     1
102
RTVSPropertyOp12
 70
     1
102
RTVSPropertyOp13
 70
     1
102
RTVSPropertyOp14
 70
     1
102
RTVSPropertyOp15
 70
     1
102
RTVSPropertyOp16
 70
     1
102
RTVSPropertyOp17
 70
     1
102
RTVSPropertyOp18
 70
     1
102
RTVSPropertyOp19
 70
     1
102
RTVSPropertyOp20
 70
     1
102
RTVSPropertyOp21
 70
     1
102
RTVSPropertyOp22
 70
     1
102
RTVSPropertyOp23
 70
     1
102
RTVSPropertyOp24
 70
     1
102
RTVSPropertyOp25
 70
     1
102
RTVSPropertyOp26
 70
     1
102
RTVSPropertyOp27
 70
     1
102
RTVSPropertyOp28
 70
     1
102
RTVSPropertyOp29
 70
     1
102
RTVSPropertyOp30
 70
     1
102
RTVSPropertyOp31
 70
     1
102
RTVSPropertyOp32
 70
     1
  0
XRECORD
  5
196
102
{ACAD_REACTORS
330
195
102
}
330
195
100
AcDbXrecord
280
     1
102
RTVSPropertyOp0
 70
     1
102
RTVSPropertyOp1
 70
     1
102
RTVSPropertyOp2
 70
     1
102
RTVSPropertyOp3
 70
     1
102
RTVSPropertyOp4
 70
     1
102
RTVSPropertyOp5
 70
     1
102
RTVSPropertyOp6
 70
     1
102
RTVSPropertyOp7
 70
     1
102
RTVSPropertyOp8
 70
     1
102
RTVSPropertyOp9
 70
     1
102
RTVSPropertyOp10
 70
     1
102
RTVSPropertyOp11
 70
     1
102
RTVSPropertyOp12
 70
     1
102
RTVSPropertyOp13
 70
     1
102
RTVSPropertyOp14
 70
     1
102
RTVSPropertyOp15
 70
     1
102
RTVSPropertyOp16
 70
     1
102
RTVSPropertyOp17
 70
     1
102
RTVSPropertyOp18
 70
     1
102
RTVSPropertyOp19
 70
     1
102
RTVSPropertyOp20
 70
     1
102
RTVSPropertyOp21
 70
     1
102
RTVSPropertyOp22
 70
     1
102
RTVSPropertyOp23
 70
     1
102
RTVSPropertyOp24
 70
     1
102
RTVSPropertyOp25
 70
     1
102
RTVSPropertyOp26
 70
     1
102
RTVSPropertyOp27
 70
     1
102
RTVSPropertyOp28
 70
     1
102
RTVSPropertyOp29
 70
     1
102
RTVSPropertyOp30
 70
     1
102
RTVSPropertyOp31
 70
     1
102
RTVSPropertyOp32
 70
     1
  0
XRECORD
  5
19E
102
{ACAD_REACTORS
330
19D
102
}
330
19D
100
AcDbXrecord
280
     1
102
RTVSPropertyOp0
 70
     1
102
RTVSPropertyOp1
 70
     1
102
RTVSPropertyOp2
 70
     1
102
RTVSPropertyOp3
 70
     1
102
RTVSPropertyOp4
 70
     1
102
RTVSPropertyOp5
 70
     1
102
RTVSPropertyOp6
 70
     1
102
RTVSPropertyOp7
 70
     1
102
RTVSPropertyOp8
 70
     1
102
RTVSPropertyOp9
 70
     1
102
RTVSPropertyOp10
 70
     1
102
RTVSPropertyOp11
 70
     1
102
RTVSPropertyOp12
 70
     1
102
RTVSPropertyOp13
 70
     1
102
RTVSPropertyOp14
 70
     1
102
RTVSPropertyOp15
 70
     1
102
RTVSPropertyOp16
 70
     1
102
RTVSPropertyOp17
 70
     1
102
RTVSPropertyOp18
 70
     1
102
RTVSPropertyOp19
 70
     1
102
RTVSPropertyOp20
 70
     1
102
RTVSPropertyOp21
 70
     1
102
RTVSPropertyOp22
 70
     1
102
RTVSPropertyOp23
 70
     1
102
RTVSPropertyOp24
 70
     1
102
RTVSPropertyOp25
 70
     1
102
RTVSPropertyOp26
 70
     1
102
RTVSPropertyOp27
 70
     1
102
RTVSPropertyOp28
 70
     1
102
RTVSPropertyOp29
 70
     1
102
RTVSPropertyOp30
 70
     1
102
RTVSPropertyOp31
 70
     1
102
RTVSPropertyOp32
 70
     1
  0
XRECORD
  5
182
102
{ACAD_REACTORS
330
181
102
}
330
181
100
AcDbXrecord
280
     1
102
RTVSPropertyOp0
 70
     1
102
RTVSPropertyOp1
 70
     1
102
RTVSPropertyOp2
 70
     1
102
RTVSPropertyOp3
 70
     1
102
RTVSPropertyOp4
 70
     1
102
RTVSPropertyOp5
 70
     1
102
RTVSPropertyOp6
 70
     1
102
RTVSPropertyOp7
 70
     1
102
RTVSPropertyOp8
 70
     1
102
RTVSPropertyOp9
 70
     1
102
RTVSPropertyOp10
 70
     1
102
RTVSPropertyOp11
 70
     1
102
RTVSPropertyOp12
 70
     1
102
RTVSPropertyOp13
 70
     1
102
RTVSPropertyOp14
 70
     1
102
RTVSPropertyOp15
 70
     1
102
RTVSPropertyOp16
 70
     1
102
RTVSPropertyOp17
 70
     1
102
RTVSPropertyOp18
 70
     1
102
RTVSPropertyOp19
 70
     1
102
RTVSPropertyOp20
 70
     1
102
RTVSPropertyOp21
 70
     1
102
RTVSPropertyOp22
 70
     1
102
RTVSPropertyOp23
 70
     1
102
RTVSPropertyOp24
 70
     1
102
RTVSPropertyOp25
 70
     1
102
RTVSPropertyOp26
 70
     1
102
RTVSPropertyOp27
 70
     1
102
RTVSPropertyOp28
 70
     1
102
RTVSPropertyOp29
 70
     1
102
RTVSPropertyOp30
 70
     1
102
RTVSPropertyOp31
 70
     1
102
RTVSPropertyOp32
 70
     1
  0
XRECORD
  5
184
102
{ACAD_REACTORS
330
183
102
}
330
183
100
AcDbXrecord
280
     1
102
RTVSPropertyOp0
 70
     1
102
RTVSPropertyOp1
 70
     1
102
RTVSPropertyOp2
 70
     1
102
RTVSPropertyOp3
 70
     1
102
RTVSPropertyOp4
 70
     1
102
RTVSPropertyOp5
 70
     1
102
RTVSPropertyOp6
 70
     1
102
RTVSPropertyOp7
 70
     1
102
RTVSPropertyOp8
 70
     1
102
RTVSPropertyOp9
 70
     1
102
RTVSPropertyOp10
 70
     1
102
RTVSPropertyOp11
 70
     1
102
RTVSPropertyOp12
 70
     1
102
RTVSPropertyOp13
 70
     1
102
RTVSPropertyOp14
 70
     1
102
RTVSPropertyOp15
 70
     1
102
RTVSPropertyOp16
 70
     1
102
RTVSPropertyOp17
 70
     1
102
RTVSPropertyOp18
 70
     1
102
RTVSPropertyOp19
 70
     1
102
RTVSPropertyOp20
 70
     1
102
RTVSPropertyOp21
 70
     1
102
RTVSPropertyOp22
 70
     1
102
RTVSPropertyOp23
 70
     1
102
RTVSPropertyOp24
 70
     1
102
RTVSPropertyOp25
 70
     1
102
RTVSPropertyOp26
 70
     1
102
RTVSPropertyOp27
 70
     1
102
RTVSPropertyOp28
 70
     1
102
RTVSPropertyOp29
 70
     1
102
RTVSPropertyOp30
 70
     1
102
RTVSPropertyOp31
 70
     1
102
RTVSPropertyOp32
 70
     1
  0
XRECORD
  5
186
102
{ACAD_REACTORS
330
185
102
}
330
185
100
AcDbXrecord
280
     1
102
RTVSPropertyOp0
 70
     1
102
RTVSPropertyOp1
 70
     1
102
RTVSPropertyOp2
 70
     1
102
RTVSPropertyOp3
 70
     1
102
RTVSPropertyOp4
 70
     1
102
RTVSPropertyOp5
 70
     1
102
RTVSPropertyOp6
 70
     1
102
RTVSPropertyOp7
 70
     1
102
RTVSPropertyOp8
 70
     1
102
RTVSPropertyOp9
 70
     1
102
RTVSPropertyOp10
 70
     1
102
RTVSPropertyOp11
 70
     1
102
RTVSPropertyOp12
 70
     1
102
RTVSPropertyOp13
 70
     1
102
RTVSPropertyOp14
 70
     1
102
RTVSPropertyOp15
 70
     1
102
RTVSPropertyOp16
 70
     1
102
RTVSPropertyOp17
 70
     1
102
RTVSPropertyOp18
 70
     1
102
RTVSPropertyOp19
 70
     1
102
RTVSPropertyOp20
 70
     1
102
RTVSPropertyOp21
 70
     1
102
RTVSPropertyOp22
 70
     1
102
RTVSPropertyOp23
 70
     1
102
RTVSPropertyOp24
 70
     1
102
RTVSPropertyOp25
 70
     1
102
RTVSPropertyOp26
 70
     1
102
RTVSPropertyOp27
 70
     1
102
RTVSPropertyOp28
 70
     1
102
RTVSPropertyOp29
 70
     1
102
RTVSPropertyOp30
 70
     1
102
RTVSPropertyOp31
 70
     1
102
RTVSPropertyOp32
 70
     1
  0
XRECORD
  5
188
102
{ACAD_REACTORS
330
187
102
}
330
187
100
AcDbXrecord
280
     1
102
RTVSPropertyOp0
 70
     1
102
RTVSPropertyOp1
 70
     1
102
RTVSPropertyOp2
 70
     1
102
RTVSPropertyOp3
 70
     1
102
RTVSPropertyOp4
 70
     1
102
RTVSPropertyOp5
 70
     1
102
RTVSPropertyOp6
 70
     1
102
RTVSPropertyOp7
 70
     1
102
RTVSPropertyOp8
 70
     1
102
RTVSPropertyOp9
 70
     1
102
RTVSPropertyOp10
 70
     1
102
RTVSPropertyOp11
 70
     1
102
RTVSPropertyOp12
 70
     1
102
RTVSPropertyOp13
 70
     1
102
RTVSPropertyOp14
 70
     1
102
RTVSPropertyOp15
 70
     1
102
RTVSPropertyOp16
 70
     1
102
RTVSPropertyOp17
 70
     1
102
RTVSPropertyOp18
 70
     1
102
RTVSPropertyOp19
 70
     1
102
RTVSPropertyOp20
 70
     1
102
RTVSPropertyOp21
 70
     1
102
RTVSPropertyOp22
 70
     1
102
RTVSPropertyOp23
 70
     1
102
RTVSPropertyOp24
 70
     1
102
RTVSPropertyOp25
 70
     1
102
RTVSPropertyOp26
 70
     1
102
RTVSPropertyOp27
 70
     1
102
RTVSPropertyOp28
 70
     1
102
RTVSPropertyOp29
 70
     1
102
RTVSPropertyOp30
 70
     1
102
RTVSPropertyOp31
 70
     1
102
RTVSPropertyOp32
 70
     1
  0
XRECORD
  5
19C
102
{ACAD_REACTORS
330
19B
102
}
330
19B
100
AcDbXrecord
280
     1
102
RTVSPropertyOp0
 70
     1
102
RTVSPropertyOp1
 70
     1
102
RTVSPropertyOp2
 70
     1
102
RTVSPropertyOp3
 70
     1
102
RTVSPropertyOp4
 70
     1
102
RTVSPropertyOp5
 70
     1
102
RTVSPropertyOp6
 70
     1
102
RTVSPropertyOp7
 70
     1
102
RTVSPropertyOp8
 70
     1
102
RTVSPropertyOp9
 70
     1
102
RTVSPropertyOp10
 70
     1
102
RTVSPropertyOp11
 70
     1
102
RTVSPropertyOp12
 70
     1
102
RTVSPropertyOp13
 70
     1
102
RTVSPropertyOp14
 70
     1
102
RTVSPropertyOp15
 70
     1
102
RTVSPropertyOp16
 70
     1
102
RTVSPropertyOp17
 70
     1
102
RTVSPropertyOp18
 70
     1
102
RTVSPropertyOp19
 70
     1
102
RTVSPropertyOp20
 70
     1
102
RTVSPropertyOp21
 70
     1
102
RTVSPropertyOp22
 70
     1
102
RTVSPropertyOp23
 70
     1
102
RTVSPropertyOp24
 70
     1
102
RTVSPropertyOp25
 70
     1
102
RTVSPropertyOp26
 70
     1
102
RTVSPropertyOp27
 70
     1
102
RTVSPropertyOp28
 70
     1
102
RTVSPropertyOp29
 70
     1
102
RTVSPropertyOp30
 70
     1
102
RTVSPropertyOp31
 70
     1
102
RTVSPropertyOp32
 70
     1
  0
XRECORD
  5
192
102
{ACAD_REACTORS
330
191
102
}
330
191
100
AcDbXrecord
280
     1
102
RTVSPropertyOp0
 70
     1
102
RTVSPropertyOp1
 70
     1
102
RTVSPropertyOp2
 70
     1
102
RTVSPropertyOp3
 70
     1
102
RTVSPropertyOp4
 70
     1
102
RTVSPropertyOp5
 70
     1
102
RTVSPropertyOp6
 70
     1
102
RTVSPropertyOp7
 70
     1
102
RTVSPropertyOp8
 70
     1
102
RTVSPropertyOp9
 70
     1
102
RTVSPropertyOp10
 70
     1
102
RTVSPropertyOp11
 70
     1
102
RTVSPropertyOp12
 70
     1
102
RTVSPropertyOp13
 70
     1
102
RTVSPropertyOp14
 70
     1
102
RTVSPropertyOp15
 70
     1
102
RTVSPropertyOp16
 70
     1
102
RTVSPropertyOp17
 70
     1
102
RTVSPropertyOp18
 70
     1
102
RTVSPropertyOp19
 70
     1
102
RTVSPropertyOp20
 70
     1
102
RTVSPropertyOp21
 70
     1
102
RTVSPropertyOp22
 70
     1
102
RTVSPropertyOp23
 70
     1
102
RTVSPropertyOp24
 70
     1
102
RTVSPropertyOp25
 70
     1
102
RTVSPropertyOp26
 70
     1
102
RTVSPropertyOp27
 70
     1
102
RTVSPropertyOp28
 70
     1
102
RTVSPropertyOp29
 70
     1
102
RTVSPropertyOp30
 70
     1
102
RTVSPropertyOp31
 70
     1
102
RTVSPropertyOp32
 70
     1
  0
XRECORD
  5
19A
102
{ACAD_REACTORS
330
199
102
}
330
199
100
AcDbXrecord
280
     1
102
RTVSPropertyOp0
 70
     1
102
RTVSPropertyOp1
 70
     1
102
RTVSPropertyOp2
 70
     1
102
RTVSPropertyOp3
 70
     1
102
RTVSPropertyOp4
 70
     1
102
RTVSPropertyOp5
 70
     1
102
RTVSPropertyOp6
 70
     1
102
RTVSPropertyOp7
 70
     1
102
RTVSPropertyOp8
 70
     1
102
RTVSPropertyOp9
 70
     1
102
RTVSPropertyOp10
 70
     1
102
RTVSPropertyOp11
 70
     1
102
RTVSPropertyOp12
 70
     1
102
RTVSPropertyOp13
 70
     1
102
RTVSPropertyOp14
 70
     1
102
RTVSPropertyOp15
 70
     1
102
RTVSPropertyOp16
 70
     1
102
RTVSPropertyOp17
 70
     1
102
RTVSPropertyOp18
 70
     1
102
RTVSPropertyOp19
 70
     1
102
RTVSPropertyOp20
 70
     1
102
RTVSPropertyOp21
 70
     1
102
RTVSPropertyOp22
 70
     1
102
RTVSPropertyOp23
 70
     1
102
RTVSPropertyOp24
 70
     1
102
RTVSPropertyOp25
 70
     1
102
RTVSPropertyOp26
 70
     1
102
RTVSPropertyOp27
 70
     1
102
RTVSPropertyOp28
 70
     1
102
RTVSPropertyOp29
 70
     1
102
RTVSPropertyOp30
 70
     1
102
RTVSPropertyOp31
 70
     1
102
RTVSPropertyOp32
 70
     1
  0
ENDSEC
  0
EOF
